<?xml version="1.0" standalone="no"?>
<!DOCTYPE svg PUBLIC "-//W3C//DTD SVG 1.1//EN" "http://www.w3.org/Graphics/SVG/1.1/DTD/svg11.dtd" >
<svg>
<metadata>
Created by FontForge 20090914 at Wed Oct 19 00:45:12 2011
 By www-data
(c) by Abolfazl Seilsepour - +98 912 591 3420  -  seilsepor@yahoo.com
</metadata>
<defs>
<font id="FarAfsoon" horiz-adv-x="583" >
  <font-face 
    font-family="Far.Afsoon"
    font-weight="400"
    font-stretch="normal"
    units-per-em="2048"
    panose-1="0 0 4 0 0 0 0 0 0 0"
    ascent="1638"
    descent="-410"
    bbox="-136 -842 1745 2290"
    underline-thickness="100"
    underline-position="-950"
    unicode-range="U+0020-U+FEFC"
  />
<missing-glyph horiz-adv-x="1200" 
d="M98 0v1450h768v-1450h-768zM226 128h512v1194h-512v-1194z" />
    <glyph glyph-name=".notdef" unicode="&#x652;&#x64d;" horiz-adv-x="1200" 
d="M98 0v1450h768v-1450h-768zM226 128h512v1194h-512v-1194z" />
    <glyph glyph-name="copyright" unicode="&#x652;&#x64e;" horiz-adv-x="1881" 
d="M862 1495c125.333 0 247.5 -32 366.5 -96s211.833 -155.5 278.5 -274.5s100 -243.167 100 -372.5s-32.833 -253.333 -98.5 -372s-157.667 -210.5 -276 -275.5s-241.833 -97.5 -370.5 -97.5c-129.333 0 -252.833 32.5 -370.5 97.5s-209.5 156.833 -275.5 275.5
s-99 242.667 -99 372s33.5 253.5 100.5 372.5s160 210.5 279 274.5s240.833 96 365.5 96zM862 1431c-114 0 -225.169 -29.333 -333.502 -88s-193.166 -142.334 -254.499 -251.001s-92 -222 -92 -340s30 -230.833 90 -338.5s144 -191.667 252 -252s220.667 -90.5 338 -90.5
s230 30.167 338 90.5s192.167 144.333 252.5 252s90.5 220.5 90.5 338.5s-30.667 231.333 -92 340s-146.166 192.334 -254.499 251.001s-219.833 88 -334.5 88zM1230 1230l22 -293.999h-41c-26 83.333 -66.167 145.5 -120.5 186.5s-120.166 61.5 -197.499 61.5
c-58 0 -109.333 -12 -154 -36s-81.334 -55.667 -110.001 -95c-21.333 -30.667 -39 -71 -53 -121s-21 -102 -21 -156c0 -148.667 32 -258.167 96 -328.5s148 -105.5 252 -105.5c136 0 245 56.667 327 170l39 -20c-97.333 -142 -231 -213 -401 -213
c-140.667 0 -257 45.333 -349 136s-138 200.667 -138 330c0 134 49 248.333 147 343s223 142 375 142c33.333 0 60.333 -2 81 -6s59 -15 115 -33c16.667 -6 29 -9 37 -9c11.333 0 21 3.16699 29 9.5s16 19.166 24 38.499h41z" />
    <glyph glyph-name="uniE818" unicode="&#x651;&#x64b;" horiz-adv-x="621" 
d="M613 2032c-61.333 -19.333 -151.666 -56.667 -270.999 -112c-106 -50 -175.667 -75 -209 -75h-148l252 115c103.333 48 172.666 72 207.999 72h168zM651 1921c-61.333 -19.333 -151.666 -56.667 -270.999 -112c-106 -50 -175.667 -75 -209 -75h-148l252 115
c103.333 48 172.666 72 207.999 72h168zM648 1661c-45.333 -10 -112.333 -37.999 -201 -83.999c-86.667 -44.667 -138.667 -67 -156 -67c-34.667 0 -70.667 27.667 -108 83c-12.667 19.333 -35.334 48 -68.001 86h85c24 0 46.667 -10.667 68 -32s34 -32 38 -32
c22 0 33 9.66699 33 29c0 17.333 -7.33301 37 -22 59c-13.333 18.667 -35.333 37.334 -66 56.001h100c25.333 0 46 -12.333 62 -37c21.333 -32 33 -48 35 -48c20 0 30 12.667 30 38c0 31.333 -24.667 60.333 -74 87l86 7c41.333 3.33301 70.333 -14.334 87 -53.001
s40.334 -69.334 71.001 -92.001z" />
    <glyph glyph-name="uniFC5E" unicode="&#x651;&#x64c;" horiz-adv-x="621" arabic-form="isolated" 
d="M648 1811c-45.333 -10 -112.331 -38.002 -200.998 -84.002c-86.667 -44.667 -139 -67 -157 -67c-34 0 -69.667 27.667 -107 83c-12.667 19.333 -35.334 48 -68.001 86h84c24.667 0 47.667 -10.667 69 -32s33.666 -32 36.999 -32c22 0 33 9.66699 33 29
c0 17.333 -7 37 -21 59c-13.333 18.667 -35.333 37.334 -66 56.001h99c26 0 47 -12.333 63 -37c21.333 -32 32.666 -48 33.999 -48c20 0 30 12.667 30 38c0 30 -15 53.333 -45 70c-8.66699 3.33301 -21 11.333 -37 24c-94 -52 -169.667 -78 -227 -78v75
c-18 -8 -45.667 -12 -83 -12h-116c62 26.667 136 61.334 222 104.001l77 42v-100c6.66699 2.66699 25 11 55 25l-19 17c-26.667 23.333 -40 47.333 -40 72c0 26.667 14 51 42 73l146 116c0 -34.667 14.667 -74.334 44 -119c29.333 -44.667 44 -76.667 44 -96
c0 -33.333 -22.667 -60 -68 -80l45 -40c26 -2 47 -21.667 63 -59c14.667 -34 37.334 -62.333 68.001 -85zM441.002 2085c0 30.667 -13.667 46 -41 46c-24 0 -36 -10.333 -36 -31c0 -8 13.667 -23 41 -45c24 14 36 24 36 30z" />
    <glyph glyph-name="uniFC5F" unicode="&#x651;&#x64d;" horiz-adv-x="678" arabic-form="isolated" 
d="M577 2021c-45.333 -10 -112.333 -37.998 -201 -83.998c-86.667 -44.667 -138.667 -67 -156 -67c-34.667 0 -70.667 27.667 -108 83c-12.667 19.333 -35.334 48 -68.001 86h85c24 0 46.667 -10.667 68 -32s34 -32 38 -32c22 0 33 9.66699 33 29
c0 17.333 -7.33301 37 -22 59c-13.333 18.667 -35.333 37.334 -66 56h100c25.333 0 46 -12.333 62 -37c21.333 -32 33 -48 35 -48c20 0 30 12.667 30 38c0 31.333 -24.667 60.333 -74 87l86 7c41.333 3.33301 70.333 -14.334 87 -53.001s40.334 -69.334 71.001 -92.001z
M707 1958c-61.333 -19.333 -151.666 -56.667 -270.999 -112c-106 -50 -175.667 -75 -209 -75h-148l252 115c103.333 48 172.666 72 207.999 72h168zM745 1847c-61.333 -19.333 -151.666 -56.667 -270.999 -112c-106 -50 -175.667 -75 -209 -75h-148l252 115
c103.333 48 172.666 72 207.999 72h168z" />
    <glyph glyph-name="uniFC60" unicode="&#x651;&#x64e;" horiz-adv-x="621" arabic-form="isolated" 
d="M650 2071c-61.333 -19.333 -151.666 -56.667 -270.999 -112c-106 -50 -175.667 -75 -209 -75h-148l252 115c103.333 48 172.666 72 207.999 72h168zM647 1811c-45.333 -10 -112.333 -37.999 -201 -83.999c-86.667 -44.667 -138.667 -67 -156 -67
c-34.667 0 -70.667 27.667 -108 83c-12.667 19.333 -35.334 48 -68.001 86h85c24 0 46.667 -10.667 68 -32s34 -32 38 -32c22 0 33 9.66699 33 29c0 17.333 -7.33301 37 -22 59c-13.333 18.667 -35.333 37.334 -66 56.001h100c25.333 0 46 -12.333 62 -37
c21.333 -32 33 -48 35 -48c20 0 30 12.667 30 38c0 31.333 -24.667 60.333 -74 87l86 7c41.333 3.33301 70.333 -14.334 87 -53.001s40.334 -69.334 71.001 -92.001z" />
    <glyph glyph-name="uniFC61" unicode="&#x651;&#x64f;" horiz-adv-x="621" arabic-form="isolated" 
d="M647 1811c-44.667 -10 -111.331 -38.001 -199.998 -84.001c-86.667 -44.667 -139 -67 -157 -67c-34 0 -69.667 27.667 -107 83c-12.667 19.333 -35.334 48 -68.001 86h84c24.667 0 47.667 -10.667 69 -32s33.666 -32 36.999 -32c22 0 33 9.66699 33 29
c0 17.333 -7 37 -21 59c-13.333 18.667 -35.333 37.334 -66 56.001h99c26 0 47 -12.333 63 -37c21.333 -32 32.666 -48 33.999 -48c20 0 30 12.667 30 38c0 30 -15 53.333 -45 70c-9.33301 3.33301 -22.666 12 -39.999 26c4 2 -25 -12.667 -87 -44
c-46.667 -24 -89.667 -36 -129 -36h-148c104 39.333 201.667 84.333 293 135l-18 16c-26 24 -39 48 -39 72c0 26.667 14 51 42 73l146 116c0 -34.667 14.667 -74.334 44 -119c29.333 -44.667 44 -76.667 44 -96c0 -33.333 -22.667 -60 -68 -80l45 -40
c26 -2 47 -21.667 63 -59c14.667 -34 37 -62.333 67 -85zM441.003 2085c0 30.667 -13.667 46 -41 46c-24 0 -36 -10.333 -36 -31c0 -8 13.667 -23 41 -45c24 14 36 24 36 30z" />
    <glyph glyph-name="uniFC62" unicode="&#x651;&#x650;" horiz-adv-x="640" arabic-form="isolated" 
d="M577 1910c-45.333 -10 -112.333 -37.999 -201 -83.999c-86.667 -44.667 -138.667 -67 -156 -67c-34.667 0 -70.667 27.667 -108 83c-12.667 19.333 -35.334 48 -68.001 86h85c24 0 46.667 -10.667 68 -32s34 -32 38 -32c22 0 33 9.66699 33 29
c0 17.333 -7.33301 37 -22 59c-13.333 18.667 -35.333 37.334 -66 56.001h100c25.333 0 46 -12.333 62 -37c21.333 -32 33 -48 35 -48c20 0 30 12.667 30 38c0 31.333 -24.667 60.333 -74 87l86 7c41.333 3.33301 70.333 -14.334 87 -53.001s40.334 -69.334 71.001 -92.001z
M707 1847c-61.333 -19.333 -151.666 -56.667 -270.999 -112c-106 -50 -175.667 -75 -209 -75h-148l252 115c103.333 48 172.666 72 207.999 72h168z" />
    <glyph glyph-name="uniFD3F" unicode="&#x652;&#x64b;" horiz-adv-x="937" 
d="M450 452c21.333 0 39.833 7.83301 55.5 23.5s23.5 35.167 23.5 58.5c0 20.667 -7.83301 38.5 -23.5 53.5s-34.167 22.5 -55.5 22.5c-23.333 0 -43.166 -7.5 -59.499 -22.5s-24.5 -32.833 -24.5 -53.5c0 -23.333 8.16699 -42.833 24.5 -58.5s36.166 -23.5 59.499 -23.5z
M165 610l-0.00585938 96.002c0 14 4.66699 21 14 21c8.66699 0 19.667 -5 33 -15l125 -92c6.66699 -5.33301 13.334 -8 20.001 -8c8.66699 0 14.334 3.33301 17.001 10s0.666992 14.334 -6 23.001l-107 119c-10.667 13.333 -16 24 -16 32c0 11.333 7.33301 15.666 22 12.999
l78 -4c6.66699 28.667 -11.666 86 -54.999 172c-40 76 -76.333 133.333 -109 172l-61 71c-23.333 26 -35 41.667 -35 47c0 11.333 6.66699 17 20 17c7.33301 0 34.666 -20 81.999 -60c60.667 -50 115.334 -105.333 164.001 -166c67.333 -81.333 116 -165.666 146 -252.999
l108 16c23.333 4 35 -0.666992 35 -14c0 -8.66699 -4 -18.334 -12 -29.001l-94 -135c-7.33301 -8.66699 -10.333 -17 -9 -25c1.33301 -6.66699 6.33301 -10 15 -10c9.33301 0 18.666 4 27.999 12l123 105c10 8 19 12 27 12c12 0 18 -9 18 -27v-100
c67.333 -28.667 101 -56 101 -82c0 -14.667 -12.667 -31.334 -38 -50.001s-46.333 -30 -63 -34v-86c0 -26 -6 -39 -18 -39c-8 0 -18.333 5.66699 -31 17l-110 96c-15.333 13.333 -27.666 20 -36.999 20c-11.333 0 -17 -5.33301 -17 -16
c-1.33301 -11.333 3 -21.666 13 -30.999l98 -135c5.33301 -8 8 -14.667 8 -20c0 -12.667 -9 -18.334 -27 -17.001l-112 21c-35.333 -109.333 -107.666 -220.666 -216.999 -333.999c-94.667 -96 -155 -144 -181 -144c-10.667 0 -16 5 -16 15c0 12 32.667 50.667 98 116
c33.333 44 67 97.333 101 160c48.667 90 70.334 152.333 65.001 187l-75 -11c-20.667 -2.66699 -31 1.66602 -31 12.999c0 5.33301 2 12 6 20l106 119c12.667 13.333 19 24.333 19 33c0 9.33301 -5.66699 14.666 -17 15.999c-9.33301 0 -18.666 -3.33301 -27.999 -10
l-129 -98c-10 -7.33301 -18.333 -11 -25 -11c-9.33301 0 -14 9.66699 -14 29v90c-64 30 -96 58 -96 84c0 18 12 35.667 36 53c20.667 15.333 40.667 25 60 29z" />
    <glyph glyph-name="uniFDF2" unicode="&#xfedf;&#xfee0;&#xfeea;" horiz-adv-x="1580" arabic-form="isolated" 
d="M871 1516c51.333 24.667 86.667 62.333 106 113v-247h-75v134h-31zM995.001 1184c-22 0 -41 5.66699 -57 17c-17.333 -11.333 -38.666 -17 -63.999 -17c-28.667 0 -52.334 9 -71.001 27s-28 38.333 -28 61v57h83v-57c6 -10.667 11.333 -16 16 -16
c11.333 0 17 5.33301 17 16v47h86v-47c0 -10.667 5 -16 15 -16c12 0 18 5.33301 18 16v57h85v-59c0 -57.333 -33.333 -86 -100 -86zM432.001 537.999c-37.333 -12.667 -70 -35.333 -98 -68c-28.667 -35.333 -43 -72.333 -43 -111v-164h141v343zM1479 9l-1378 -0.00195312
v355c0 100.667 43 190.667 129 270c59.333 60.667 132 95.667 218 105c68 10.667 123 34.667 165 72v-616h252v708h-86c116 44.667 204.333 121.334 265 230.001v-938h256v993h-86c116 44.667 204.333 121.334 265 230.001v-1409z" />
    <glyph glyph-name="uniFEF5" unicode="&#xfedf;&#xfe82;" horiz-adv-x="706" arabic-form="isolated" 
d="M599 -107h-259c-71.333 0 -132 25.833 -182 77.5s-75 126.5 -75 224.5h180c0 -42.667 7.5 -71.834 22.5 -87.501s32.5 -23.5 52.5 -23.5h82v1104h-86c116 44.667 204.333 121.334 265 230.001v-1525zM83 271l0.000976562 696h-88c119.333 40 208.666 116.667 267.999 230
v-926h-180zM332.001 1408l-4.99902 -66c-34 -41.333 -67.333 -62 -100 -62c-12.667 0 -31.334 6 -56.001 18s-43.667 18 -57 18c-22.667 0 -48.667 -9 -78 -27l12 72c30 25.333 55.667 38 77 38c14 0 34 -5.66699 60 -17s45.667 -17 59 -17c26.667 0 56 14.333 88 43z" />
    <glyph glyph-name="uniFEF6" unicode="&#xfee0;&#xfe82;" horiz-adv-x="636" arabic-form="final" 
d="M599 9v-116h-259c-71.333 0 -132 25.833 -182 77.5s-75 126.5 -75 224.5h180c0 -42.667 7.5 -71.834 22.5 -87.501s32.5 -23.5 52.5 -23.5h82v1104h-86c116 44.667 204.333 121.334 265 230.001v-1223h58v-186h-58zM83 271l0.000976562 696h-88
c119.333 40 208.666 116.667 267.999 230v-926h-180zM332.001 1408l-4.99902 -66c-34 -41.333 -67.333 -62 -100 -62c-12.667 0 -31.334 6 -56.001 18s-43.667 18 -57 18c-22.667 0 -48.667 -9 -78 -27l12 72c30 25.333 55.667 38 77 38c14 0 34 -5.66699 60 -17
s45.667 -17 59 -17c26.667 0 56 14.333 88 43z" />
    <glyph glyph-name="uniFEF7" unicode="&#xfedf;&#xfe84;" horiz-adv-x="705" arabic-form="isolated" 
d="M598 -107h-259c-71.333 0 -132 25.833 -182 77.5s-75 126.5 -75 224.5h180c0 -42.667 7.5 -71.834 22.5 -87.501s32.5 -23.5 52.5 -23.5h82v1104h-86c116 44.667 204.333 121.334 265 230.001v-1525zM82 271l0.000976562 696h-88c119.333 40 208.666 116.667 267.999 230
v-926h-180zM6.00098 1283v90h51v35c0 76.667 45.667 115 137 115c78.667 0 124.667 -39.667 138 -119h-104c-10.667 18.667 -22 28 -34 28c-18.667 0 -28 -8 -28 -24v-35h165v-90h-325z" />
    <glyph glyph-name="uniFEF8" unicode="&#xfee0;&#xfe84;" horiz-adv-x="639" arabic-form="final" 
d="M594 9v-116h-259c-71.333 0 -132 25.833 -182 77.5s-75 126.5 -75 224.5h180c0 -42.667 7.5 -71.834 22.5 -87.501s32.5 -23.5 52.5 -23.5h82v1104h-86c116 44.667 204.333 121.334 265 230.001v-1223h58v-186h-58zM78 271l0.000976562 696h-88
c119.333 40 208.666 116.667 267.999 230v-926h-180zM2.00098 1283v90h51v35c0 76.667 45.667 115 137 115c78.667 0 124.667 -39.667 138 -119h-104c-10.667 18.667 -22 28 -34 28c-18.667 0 -28 -8 -28 -24v-35h165v-90h-325z" />
    <glyph glyph-name="uniFEF9" unicode="&#xfedf;&#xfe88;" horiz-adv-x="706" arabic-form="isolated" 
d="M599 -107h-259c-71.333 0 -132 25.833 -182 77.5s-75 126.5 -75 224.5h180c0 -42.667 7.5 -71.834 22.5 -87.501s32.5 -23.5 52.5 -23.5h82v1104h-86c116 44.667 204.333 121.334 265 230.001v-1525zM83 271l0.000976562 696h-88c119.333 40 208.666 116.667 267.999 230
v-926h-180zM23.001 -388v90h51v35c0 76.667 45.667 115 137 115c78.667 0 124.667 -39.667 138 -119h-104c-10.667 18.667 -22 28 -34 28c-18.667 0 -28 -8 -28 -24v-35h165v-90h-325z" />
    <glyph glyph-name="uniFEFA" unicode="&#xfee0;&#xfe88;" horiz-adv-x="637" arabic-form="final" 
d="M599 9v-116h-259c-71.333 0 -132 25.833 -182 77.5s-75 126.5 -75 224.5h180c0 -42.667 7.5 -71.834 22.5 -87.501s32.5 -23.5 52.5 -23.5h82v1104h-86c116 44.667 204.333 121.334 265 230.001v-1223h58v-186h-58zM83 271l0.000976562 696h-88
c119.333 40 208.666 116.667 267.999 230v-926h-180zM23.001 -388v90h51v35c0 76.667 45.667 115 137 115c78.667 0 124.667 -39.667 138 -119h-104c-10.667 18.667 -22 28 -34 28c-18.667 0 -28 -8 -28 -24v-35h165v-90h-325z" />
    <glyph glyph-name="uniFEFB" unicode="&#xfedf;&#xfe8e;" horiz-adv-x="710" arabic-form="isolated" 
d="M599 -107h-259c-71.333 0 -132 25.833 -182 77.5s-75 126.5 -75 224.5h180c0 -42.667 7.5 -71.834 22.5 -87.501s32.5 -23.5 52.5 -23.5h82v1104h-86c116 44.667 204.333 121.334 265 230.001v-1525zM83 271l0.000976562 696h-88c119.333 40 208.666 116.667 267.999 230
v-926h-180z" />
    <glyph glyph-name="uniFEFC" unicode="&#xfee0;&#xfe8e;" horiz-adv-x="638" arabic-form="final" 
d="M599 9v-116h-259c-71.333 0 -132 25.833 -182 77.5s-75 126.5 -75 224.5h180c0 -42.667 7.5 -71.834 22.5 -87.501s32.5 -23.5 52.5 -23.5h82v1104h-86c116 44.667 204.333 121.334 265 230.001v-1223h58v-186h-58zM83 271l0.000976562 696h-88
c119.333 40 208.666 116.667 267.999 230v-926h-180z" />
    <glyph glyph-name="afii57410" unicode="&#x622;" horiz-adv-x="385" arabic-form="isolated" 
d="M334 1581l-4.99902 -66c-34 -41.333 -67.333 -62 -100 -62c-12.667 0 -31.334 6 -56.001 18s-43.667 18 -57 18c-22.667 0 -48.667 -9 -78 -27l12 72c30 25.333 55.667 38 77 38c14 0 34 -5.66699 60 -17s45.667 -17 59 -17c26.667 0 56 14.333 88 43zM105.001 9
l0.000976562 1176h-88c119.333 40 208.666 116.667 267.999 230v-1406h-180z" />
    <glyph glyph-name="afii57411" unicode="&#x623;" horiz-adv-x="382" arabic-form="isolated" 
d="M23 1470v90h51v35c0 76.667 45.667 115 137 115c78.667 0 124.667 -39.667 138 -119h-104c-10.667 18.667 -22 28 -34 28c-18.667 0 -28 -8 -28 -24v-35h165v-90h-325zM105 9l0.000976562 1176h-88c119.333 40 208.666 116.667 267.999 230v-1406h-180z" />
    <glyph glyph-name="afii57412" unicode="&#x624;" horiz-adv-x="712" arabic-form="isolated" 
d="M611 9c-8.66699 -64 -37.167 -116.668 -85.5 -158.001s-104.5 -62 -168.5 -62h-247v190h247c30 0 51.333 10 64 30h-64c-73.333 0 -134.333 24.833 -183 74.5s-73 111.834 -73 186.501v196c0 73.333 25 135.5 75 186.5s111 76.5 183 76.5
c124.667 -7.33301 208.667 19 252 79v-799zM434 537.999l-69 -0.000976562c-19.333 0 -38 -7.16699 -56 -21.5s-27 -31.166 -27 -50.499v-196c0 -18 8.33301 -35 25 -51s34 -24 52 -24h75v343zM223 878.998v90h51v35c0 76.667 45.667 115 137 115c78 0 124 -39.667 138 -119
h-105c-10.667 18.667 -21.667 28 -33 28c-19.333 0 -29 -8 -29 -24v-35h165v-90h-324z" />
    <glyph glyph-name="afii57413" unicode="&#x625;" horiz-adv-x="385" arabic-form="isolated" 
d="M23 -280v90h51v35c0 76.667 45.667 115 137 115c78.667 0 124.667 -39.667 138 -119h-104c-10.667 18.667 -22 28 -34 28c-18.667 0 -28 -8 -28 -24v-35h165v-90h-325zM105 9l0.000976562 1176h-88c119.333 40 208.666 116.667 267.999 230v-1406h-180z" />
    <glyph glyph-name="afii57414" unicode="&#x626;" horiz-adv-x="1144" arabic-form="isolated" 
d="M368 9c-77.333 0 -140.665 24.835 -189.998 74.502s-74 113.5 -74 191.5c0 74 25.667 137.667 77 191s113.666 80 186.999 80h97v-188h-97c-50 0 -75 -26.333 -75 -79c0 -20.667 7.5 -39.834 22.5 -57.501s32.5 -26.5 52.5 -26.5h489v31h-238v238
c0 75.333 25.667 138.666 77 189.999s114.666 77 189.999 77c65.333 -3.33301 118.333 22.667 159 78v-271h-186c-35.333 -8 -53 -32 -53 -72v-50h239v-407h-677zM139.001 639.002v90h51v35c0 76.667 45.667 115 137 115c78.667 0 124.667 -39.667 138 -119h-104
c-10.667 18.667 -22 28 -34 28c-18.667 0 -28 -8 -28 -24v-35h165v-90h-325z" />
    <glyph glyph-name="afii57415" unicode="&#x627;" horiz-adv-x="383" arabic-form="isolated" 
d="M105 9l0.000976562 1176h-88c119.333 40 208.666 116.667 267.999 230v-1406h-180z" />
    <glyph glyph-name="afii57416" unicode="&#x628;" horiz-adv-x="1334" arabic-form="isolated" 
d="M374 9c-79.333 0 -143.999 25 -193.999 75s-75 114.333 -75 193c0 75.333 26.5 139.833 79.5 193.5s117.167 80.5 192.5 80.5h98v-190h-98c-50.667 0 -76 -27 -76 -81c0 -20.667 7 -40 21 -58s31.333 -27 52 -27h679v385h-88c119.333 40 208.666 116.667 267.999 230
v-801h-859zM764.001 -57c28 -4 50.001 -24 66.001 -60c12.667 -30 18 -62.667 16 -98s-11.333 -66 -28 -92c-20 -30 -44.667 -42.667 -74 -38c-28 3.33301 -49.667 23.333 -65 60c-12.667 30 -18.334 62.667 -17.001 98c2 34.667 11.333 65 28 91c20 30 44.667 43 74 39z
" />
    <glyph glyph-name="afii57417" unicode="&#x629;" horiz-adv-x="714" arabic-form="isolated" 
d="M99 9v359c0 100.667 43 190.667 129 270c59.333 60.667 132 95.667 218 105c65.333 4 120.333 27 165 69v-803h-512zM430 542c-37.333 -12.667 -70 -35.333 -98 -68c-28.667 -35.333 -43 -72.333 -43 -111v-168h141v347zM115 877.001v90h52v35
c0 76.667 45.333 115 136 115c78.667 0 124.667 -39.667 138 -119h-104c-10.667 18.667 -22 28 -34 28c-18.667 0 -28 -8 -28 -24v-35h165v-90h-325z" />
    <glyph glyph-name="afii57418" unicode="&#x62a;" horiz-adv-x="1326" arabic-form="isolated" 
d="M372 9c-79.333 0 -143.999 25 -193.999 75s-75 114.333 -75 193c0 75.333 26.5 139.833 79.5 193.5s117.167 80.5 192.5 80.5h98v-190h-98c-50.667 0 -76 -27 -76 -81c0 -20.667 7 -40 21 -58s31.333 -27 52 -27h679v385h-88c119.333 40 208.666 116.667 267.999 230
v-801h-859zM842.001 873c28 -4 50.001 -24 66.001 -60c12.667 -30.667 18 -63.667 16 -99c-2 -34.667 -11.333 -65 -28 -91c-20 -30.667 -44.667 -43.667 -74 -39c-28 4 -49.667 24 -65 60c-12.667 30 -18.334 62.667 -17.001 98c2 35.333 11.333 66 28 92
c20 29.333 44.667 42.333 74 39zM622.002 873c28 -4 50.001 -24 66.001 -60c12.667 -30.667 18 -63.667 16 -99c-2 -34.667 -11.333 -65 -28 -91c-20 -30.667 -44.667 -43.667 -74 -39c-28 4 -49.667 24 -65 60c-12.667 30 -18.334 62.667 -17.001 98
c2 35.333 11.333 66 28 92c20 29.333 44.667 42.333 74 39z" />
    <glyph glyph-name="afii57419" unicode="&#x62b;" horiz-adv-x="1333" arabic-form="isolated" 
d="M372 9c-79.333 0 -143.999 25 -193.999 75s-75 114.333 -75 193c0 75.333 26.5 139.833 79.5 193.5s117.167 80.5 192.5 80.5h98v-190h-98c-50.667 0 -76 -27 -76 -81c0 -20.667 7 -40 21 -58s31.333 -27 52 -27h679v385h-88c119.333 40 208.666 116.667 267.999 230
v-801h-859zM842.001 873c28 -4 50.001 -24 66.001 -60c12.667 -30.667 18 -63.667 16 -99c-2 -34.667 -11.333 -65 -28 -91c-20 -30.667 -44.667 -43.667 -74 -39c-28 4 -49.667 24 -65 60c-12.667 30 -18.334 62.667 -17.001 98c2 35.333 11.333 66 28 92
c20 29.333 44.667 42.333 74 39zM622.002 873c28 -4 50.001 -24 66.001 -60c12.667 -30.667 18 -63.667 16 -99c-2 -34.667 -11.333 -65 -28 -91c-20 -30.667 -44.667 -43.667 -74 -39c-28 4 -49.667 24 -65 60c-12.667 30 -18.334 62.667 -17.001 98
c2 35.333 11.333 66 28 92c20 29.333 44.667 42.333 74 39zM732.003 1163c28 -4 50.001 -24 66.001 -60c12.667 -30.667 18 -63.667 16 -99c-2 -34.667 -11.333 -65 -28 -91c-20 -30.667 -44.667 -43.667 -74 -39c-28 4 -49.667 24 -65 60
c-12.667 30 -18.334 62.667 -17.001 98c2 35.333 11.333 66 28 92c20 29.333 44.667 42.333 74 39z" />
    <glyph glyph-name="afii57420" unicode="&#x62c;" horiz-adv-x="1060" arabic-form="isolated" 
d="M370 9c-20.667 -2.66699 -39.667 -12.499 -57 -29.499s-26 -35.833 -26 -56.5v-108c0 -21.333 8.33301 -39.5 25 -54.5s35.667 -22.5 57 -22.5h113v-197h-117c-77.333 0 -140.833 26 -190.5 78s-74.5 117.333 -74.5 196v107c0 81.333 24.167 147.166 72.5 197.499
s112.5 75.5 192.5 75.5h287v358c0 50 -26.667 75 -80 75h-457c113.333 60 190 149.333 230 268v-88h227c132 0 214.333 -54.667 247 -164c13.333 -40 20 -74.333 20 -103v-346c4.66699 -70 48 -132 130 -186h-599zM632 -56.999c28 -4 50.001 -24 66.001 -60
c12.667 -30 18 -62.667 16 -98s-11.333 -66 -28 -92c-20 -30 -44.667 -42.667 -74 -38c-28 3.33301 -49.667 23.333 -65 60c-12.667 30 -18.334 62.667 -17.001 98c2 34.667 11.333 65 28 91c20 30 44.667 43 74 39z" />
    <glyph glyph-name="afii57421" unicode="&#x62d;" horiz-adv-x="1064" arabic-form="isolated" 
d="M370 9c-20.667 -2.66699 -39.667 -12.499 -57 -29.499s-26 -35.833 -26 -56.5v-108c0 -21.333 8.33301 -39.5 25 -54.5s35.667 -22.5 57 -22.5h283v-197h-287c-77.333 0 -140.833 26 -190.5 78s-74.5 117.333 -74.5 196v107c0 81.333 24.167 147.166 72.5 197.499
s112.5 75.5 192.5 75.5h287v358c0 50 -26.667 75 -80 75h-457c113.333 60 190 149.333 230 268v-88h227c132 0 214.333 -54.667 247 -164c13.333 -40 20 -74.333 20 -103v-346c4.66699 -70 48 -132 130 -186h-599z" />
    <glyph glyph-name="afii57422" unicode="&#x62e;" horiz-adv-x="1062" arabic-form="isolated" 
d="M504 1183c28 -4 50.001 -24 66.001 -60c12.667 -30.667 18 -63.667 16 -99c-2 -34.667 -11.333 -65 -28 -91c-20 -30.667 -44.667 -43.667 -74 -39c-28 4 -49.667 24 -65 60c-12.667 30 -18.334 62.667 -17.001 98c2 35.333 11.333 66 28 92
c20 29.333 44.667 42.333 74 39zM370.001 9c-20.667 -2.66699 -39.667 -12.499 -57 -29.499s-26 -35.833 -26 -56.5v-108c0 -21.333 8.33301 -39.5 25 -54.5s35.667 -22.5 57 -22.5h283v-197h-287c-77.333 0 -140.833 26 -190.5 78s-74.5 117.333 -74.5 196v107
c0 81.333 24.167 147.166 72.5 197.499s112.5 75.5 192.5 75.5h287v358c0 50 -26.667 75 -80 75h-457c113.333 60 190 149.333 230 268v-88h227c132 0 214.333 -54.667 247 -164c13.333 -40 20 -74.333 20 -103v-346c4.66699 -70 48 -132 130 -186h-599z" />
    <glyph glyph-name="afii57423" unicode="&#x62f;" horiz-adv-x="815" arabic-form="isolated" 
d="M95 9v185.999h362c22 0 40.833 7.33301 56.5 22s23.5 33.334 23.5 56.001v282c0 50 -26.667 75 -80 75h-357c113.333 60 190 149.333 230 268v-88h127c132 0 214.333 -54.667 247 -164c13.333 -40 20 -74.333 20 -103v-266c0 -178.667 -87.333 -268 -262 -268h-367z" />
    <glyph glyph-name="afii57424" unicode="&#x630;" horiz-adv-x="817" arabic-form="isolated" 
d="M95 9v185.999h362c22 0 40.833 7.33301 56.5 22s23.5 33.334 23.5 56.001v282c0 50 -26.667 75 -80 75h-357c113.333 60 190 149.333 230 268v-88h127c132 0 214.333 -54.667 247 -164c13.333 -40 20 -74.333 20 -103v-266c0 -178.667 -87.333 -268 -262 -268h-367z
M474 1183c28 -4 50.001 -24 66.001 -60c12.667 -30.667 18 -63.667 16 -99c-2 -34.667 -11.333 -65 -28 -91c-20 -30.667 -44.667 -43.667 -74 -39c-28 4 -49.667 24 -65 60c-12.667 30 -18.334 62.667 -17.001 98c2 35.333 11.333 66 28 92c20 29.333 44.667 42.333 74 39z
" />
    <glyph glyph-name="afii57425" unicode="&#x631;" horiz-adv-x="546" arabic-form="isolated" 
d="M456 9c-8.66699 -64.667 -35.8311 -116.501 -81.498 -155.501s-99.834 -58.5 -162.501 -58.5h-161v185h148c19.333 0 37 7.33301 53 22s24 32.334 24 53.001v525h-88c119.333 40 208.666 116.667 267.999 230v-801z" />
    <glyph glyph-name="afii57426" unicode="&#x632;" horiz-adv-x="548" arabic-form="isolated" 
d="M456 9c-8.66699 -64.667 -35.8311 -116.501 -81.498 -155.501s-99.834 -58.5 -162.501 -58.5h-161v185h148c19.333 0 37 7.33301 53 22s24 32.334 24 53.001v525h-88c119.333 40 208.666 116.667 267.999 230v-801zM355.003 1179
c28.667 -4 50.666 -24.001 65.999 -60.001c12.667 -30 18 -62.667 16 -98s-11.333 -65.666 -28 -90.999c-19.333 -30.667 -43.666 -43.667 -72.999 -39c-28.667 4 -50.667 24 -66 60c-12.667 30 -18 62.667 -16 98c1.33301 35.333 10.333 66 27 92
c20 29.333 44.667 42 74 38z" />
    <glyph glyph-name="afii57427" unicode="&#x633;" horiz-adv-x="1756" arabic-form="isolated" 
d="M969 195h163.999v304h-88c118.667 40 208 116.667 268 230v-534h165v384h-88c118.667 40 208 116.667 268 230v-800h-682v-222h-607c-78.667 0 -143.5 25.5 -194.5 76.5s-76.5 116.167 -76.5 195.5c0 74 27 137.667 81 191s118 80 192 80h100v-189h-100
c-51.333 0 -77 -26.667 -77 -80c0 -21.333 7.33301 -41 22 -59s32.334 -27 53.001 -27h420v444h-88c118.667 40 208 116.667 268 230v-454z" />
    <glyph glyph-name="afii57428" unicode="&#x634;" horiz-adv-x="1761" arabic-form="isolated" 
d="M969 195h163.999v304h-88c118.667 40 208 116.667 268 230v-534h165v384h-88c118.667 40 208 116.667 268 230v-800h-682v-222h-607c-78.667 0 -143.5 25.5 -194.5 76.5s-76.5 116.167 -76.5 195.5c0 74 27 137.667 81 191s118 80 192 80h100v-189h-100
c-51.333 0 -77 -26.667 -77 -80c0 -21.333 7.33301 -41 22 -59s32.334 -27 53.001 -27h420v444h-88c118.667 40 208 116.667 268 230v-454zM1322 1122c28 -4 50.001 -24 66.001 -60c12.667 -30.667 18 -63.667 16 -99c-2 -34.667 -11.333 -65 -28 -91
c-20 -30.667 -44.667 -43.667 -74 -39c-28 4 -49.667 24 -65 60c-12.667 30 -18.334 62.667 -17.001 98c2 35.333 11.333 66 28 92c20 29.333 44.667 42.333 74 39zM1102 1122c28 -4 50.001 -24 66.001 -60c12.667 -30.667 18 -63.667 16 -99
c-2 -34.667 -11.333 -65 -28 -91c-20 -30.667 -44.667 -43.667 -74 -39c-28 4 -49.667 24 -65 60c-12.667 30 -18.334 62.667 -17.001 98c2 35.333 11.333 66 28 92c20 29.333 44.667 42.333 74 39zM1212 1412c28 -4 50.001 -24 66.001 -60
c12.667 -30.667 18 -63.667 16 -99c-2 -34.667 -11.333 -65 -28 -91c-20 -30.667 -44.667 -43.667 -74 -39c-28 4 -49.667 24 -65 60c-12.667 30 -18.334 62.667 -17.001 98c2 35.333 11.333 66 28 92c20 29.333 44.667 42.333 74 39z" />
    <glyph glyph-name="afii57429" unicode="&#x635;" horiz-adv-x="1524" arabic-form="isolated" 
d="M1100 583l-34 -18.001c-39.333 -28 -65.5 -51.5 -78.5 -70.5s-19.5 -43.5 -19.5 -73.5v-226h278v425l-24 -3c-59.333 -11.333 -100 -22.666 -122 -33.999zM968 8.99902l0.000976562 -222h-589c-80 0 -146 24.5 -198 73.5s-78 112.833 -78 191.5
c0 74.667 27.167 139 81.5 193s119.166 81 194.499 81h101v-191h-101c-52 0 -78 -27 -78 -81c0 -22 7.5 -41.5 22.5 -58.5s33.5 -25.5 55.5 -25.5h409v676h-88c118.667 40 208 116.667 268 230v-155c90 62.667 209.667 94 359 94h92v-806h-451z" />
    <glyph glyph-name="afii57430" unicode="&#x636;" horiz-adv-x="1522" arabic-form="isolated" 
d="M1100 583l-34 -18.001c-39.333 -28 -65.5 -51.5 -78.5 -70.5s-19.5 -43.5 -19.5 -73.5v-226h278v425l-24 -3c-59.333 -11.333 -100 -22.666 -122 -33.999zM1143 1183c28 -4 50.001 -24 66.001 -60c12.667 -30.667 18 -63.667 16 -99c-2 -34.667 -11.333 -65 -28 -91
c-20 -30.667 -44.667 -43.667 -74 -39c-28 4 -49.667 24 -65 60c-12.667 30 -18.334 62.667 -17.001 98c2 35.333 11.333 66 28 92c20 29.333 44.667 42.333 74 39zM968.001 8.99902l0.000976562 -222h-589c-80 0 -146 24.5 -198 73.5s-78 112.833 -78 191.5
c0 74.667 27.167 139 81.5 193s119.166 81 194.499 81h101v-191h-101c-52 0 -78 -27 -78 -81c0 -22 7.5 -41.5 22.5 -58.5s33.5 -25.5 55.5 -25.5h409v676h-88c118.667 40 208 116.667 268 230v-155c90 62.667 209.667 94 359 94h92v-806h-451z" />
    <glyph glyph-name="afii57431" unicode="&#x637;" horiz-adv-x="949" arabic-form="isolated" 
d="M529 583l-34 -18.001c-39.333 -28 -65.5 -51.5 -78.5 -70.5s-19.5 -43.5 -19.5 -73.5v-226h278v425l-24 -3c-59.333 -11.333 -100 -22.666 -122 -33.999zM103 8.99902v186h114v993h-88c118.667 40 208 116.667 268 230v-697c90 62.667 209.667 94 359 94h92v-806h-745z
" />
    <glyph glyph-name="afii57432" unicode="&#x638;" horiz-adv-x="947" arabic-form="isolated" 
d="M527 583l-34 -18.001c-39.333 -28 -65.5 -51.5 -78.5 -70.5s-19.5 -43.5 -19.5 -73.5v-226h278v425l-24 -3c-59.333 -11.333 -100 -22.666 -122 -33.999zM101 8.99902v186h114v993h-88c118.667 40 208 116.667 268 230v-697c90 62.667 209.667 94 359 94h92v-806h-745z
M570 1183c28 -4 50.001 -24 66.001 -60c12.667 -30.667 18 -63.667 16 -99c-2 -34.667 -11.333 -65 -28 -91c-20 -30.667 -44.667 -43.667 -74 -39c-28 4 -49.667 24 -65 60c-12.667 30 -18.334 62.667 -17.001 98c2 35.333 11.333 66 28 92c20 29.333 44.667 42.333 74 39z
" />
    <glyph glyph-name="afii57433" unicode="&#x639;" horiz-adv-x="1012" arabic-form="isolated" 
d="M372 9c-20 0 -38.666 -8.83105 -55.999 -26.498s-26 -36.167 -26 -55.5v-108c0 -21.333 8.33301 -39.5 25 -54.5s35.667 -22.5 57 -22.5c50 0 75 36.333 75 109h185c0 -94.667 -25.833 -169 -77.5 -223s-113.834 -81 -186.501 -81c-77.333 0 -140.5 25.667 -189.5 77
s-73.5 116.333 -73.5 195v106c0 82 24 147.5 72 196.5s112.333 73.5 193 73.5h29c-8 25.333 -12 52 -12 80v270c0 79.333 24.667 144.166 74 194.499s112.666 75.5 189.999 75.5c72 0 133.333 -27 184 -81s76 -118 76 -192v-152c-51.333 58 -131.666 89.667 -240.999 95
l58 20v40c0 51.333 -25 77 -75 77c-20 0 -38.333 -7.83301 -55 -23.5s-25 -33.5 -25 -53.5v-272c0 -22.667 7.83301 -41.334 23.5 -56.001s34.5 -22 56.5 -22h258v-186h-539z" />
    <glyph glyph-name="afii57434" unicode="&#x63a;" horiz-adv-x="1013" arabic-form="isolated" 
d="M372 9c-20 0 -38.666 -8.83105 -55.999 -26.498s-26 -36.167 -26 -55.5v-108c0 -21.333 8.33301 -39.5 25 -54.5s35.667 -22.5 57 -22.5c50 0 75 36.333 75 109h185c0 -94.667 -25.833 -169 -77.5 -223s-113.834 -81 -186.501 -81c-77.333 0 -140.5 25.667 -189.5 77
s-73.5 116.333 -73.5 195v106c0 82 24 147.5 72 196.5s112.333 73.5 193 73.5h29c-8 25.333 -12 52 -12 80v270c0 79.333 24.667 144.166 74 194.499s112.666 75.5 189.999 75.5c72 0 133.333 -27 184 -81s76 -118 76 -192v-152c-51.333 58 -131.666 89.667 -240.999 95
l58 20v40c0 51.333 -25 77 -75 77c-20 0 -38.333 -7.83301 -55 -23.5s-25 -33.5 -25 -53.5v-272c0 -22.667 7.83301 -41.334 23.5 -56.001s34.5 -22 56.5 -22h258v-186h-539zM632.001 1182c28 -4 50.001 -24 66.001 -60c12.667 -30.667 18 -63.667 16 -99
c-2 -34.667 -11.333 -65 -28 -91c-20 -30.667 -44.667 -43.667 -74 -39c-28 4 -49.667 24 -65 60c-12.667 30 -18.334 62.667 -17.001 98c2 35.333 11.333 66 28 92c20 29.333 44.667 42.333 74 39z" />
    <glyph glyph-name="afii57441" unicode="&#x641;" horiz-adv-x="1433" arabic-form="isolated" 
d="M373 9c-78 0 -142.834 24.833 -194.501 74.5s-77.5 112.834 -77.5 189.501c0 75.333 26.833 139.5 80.5 192.5s118.167 79.5 193.5 79.5h99v-189h-99c-52.667 0 -79 -26.333 -79 -79c0 -21.333 7.5 -40.333 22.5 -57s33.167 -25 54.5 -25h559
c-74.667 25.333 -119.667 83.666 -135 174.999v171c0 78 25.833 142.167 77.5 192.5s116.834 75.5 195.501 75.5c72 0 134.833 -26 188.5 -78s80.5 -113.667 80.5 -185v-537h-966zM1149 543c0 47.333 -26.001 71 -78.001 71c-19.333 0 -38 -7.5 -56 -22.5
s-27 -31.833 -27 -50.5v-134c0 -15.333 11.333 -30.333 34 -45c20.667 -13.333 39.334 -20 56.001 -20h71v201zM1072 1183c28 -4 50.001 -24 66.001 -60c12.667 -30.667 18 -63.667 16 -99c-2 -34.667 -11.333 -65 -28 -91c-20 -30.667 -44.667 -43.667 -74 -39
c-28 4 -49.667 24 -65 60c-12.667 30 -18.334 62.667 -17.001 98c2 35.333 11.333 66 28 92c20 29.333 44.667 42.333 74 39z" />
    <glyph glyph-name="afii57442" unicode="&#x642;" horiz-adv-x="1254" arabic-form="isolated" 
d="M998 544c0 20.667 -7.83301 37.833 -23.5 51.5s-34.167 20.5 -55.5 20.5c-18.667 0 -37 -7.66699 -55 -23s-27 -32.333 -27 -51v-128c0 -16.667 11 -32 33 -46c20 -13.333 38.667 -20 56 -20h72v196zM998 -26.001l-0.000976562 178h-79c-69.333 0 -129.833 23 -181.5 69
s-81.5 103.333 -89.5 172v149c0 77.333 25.5 141.5 76.5 192.5s115.167 76.5 192.5 76.5c72 0 134.667 -26.333 188 -79s80 -114.667 80 -186v-759h-846c-77.333 0 -141 25 -191 75s-75 113 -75 189c0 73.333 26.167 136.5 78.5 189.5s114.833 79.5 187.5 79.5h97v-188h-97
c-50 0 -75 -26 -75 -78c0 -20.667 7.33301 -39.167 22 -55.5s32.334 -24.5 53.001 -24.5h659zM1015 1183c28 -4 50.001 -24 66.001 -60c12.667 -30.667 18 -63.667 16 -99c-2 -34.667 -11.333 -65 -28 -91c-20 -30.667 -44.667 -43.667 -74 -39c-28 4 -49.667 24 -65 60
c-12.667 30 -18.334 62.667 -17.001 98c2 35.333 11.333 66 28 92c20 29.333 44.667 42.333 74 39zM795 1183c28 -4 50.001 -24 66.001 -60c12.667 -30.667 18 -63.667 16 -99c-2 -34.667 -11.333 -65 -28 -91c-20 -30.667 -44.667 -43.667 -74 -39c-28 4 -49.667 24 -65 60
c-12.667 30 -18.334 62.667 -17.001 98c2 35.333 11.333 66 28 92c20 29.333 44.667 42.333 74 39z" />
    <glyph glyph-name="afii57443" unicode="&#x643;" horiz-adv-x="1616" arabic-form="isolated" 
d="M806 552l432 540.001l-49 49c112.667 -26 217.334 -26 314.001 0l-426 -571h46c112 0 203 -34.333 273 -103c88.667 -86.667 136.334 -177.334 143.001 -272.001v-186h-1173c-78.667 0 -143.167 24.667 -193.5 74s-75.5 113.666 -75.5 192.999
c0 74.667 26.333 139.334 79 194.001s116 82 190 82h97v-192h-97c-50 0 -75 -26.667 -75 -80c0 -22 7.16699 -41.667 21.5 -59s32.166 -26 53.499 -26h964c1.33301 39.333 -12.667 80 -42 122c-42.667 44.667 -98.334 67 -167.001 67h-315v168z" />
    <glyph glyph-name="afii57444" unicode="&#x644;" horiz-adv-x="993" arabic-form="isolated" 
d="M896 -211h-529.999c-78.667 0 -143.167 24.667 -193.5 74s-75.5 113.666 -75.5 192.999c0 74.667 26.333 139.334 79 194.001s116 82 190 82h97v-192h-97c-50 0 -75 -26.667 -75 -80c0 -22 7.16699 -41.667 21.5 -59s32.166 -26 53.499 -26h350v1213h-88
c118.667 40 208 116.667 268 230v-1629z" />
    <glyph glyph-name="afii57445" unicode="&#x645;" horiz-adv-x="720" arabic-form="isolated" 
d="M352 -102h-62.001v-43c0 -75.333 -23.167 -138.666 -69.5 -189.999s-117.166 -77 -212.499 -77v192c62 0 93 25 93 75v688c0 72 24.833 134.833 74.5 188.5s109.167 80.5 178.5 80.5c74.667 0 136.167 -25.333 184.5 -76s72.5 -114.334 72.5 -191.001v-378
c0 -74.667 -24.5 -138.167 -73.5 -190.5s-110.833 -78.5 -185.5 -78.5zM429.999 545c0 18.667 -8.33203 35.667 -24.999 51s-34.334 23 -53.001 23c-47.333 0 -71 -25.333 -71 -76v-452h71c52 0 78 24.667 78 74v380z" />
    <glyph glyph-name="afii57446" unicode="&#x646;" horiz-adv-x="1068" arabic-form="isolated" 
d="M966 -211h-599.001c-77.333 0 -141 25 -191 75s-75 113.667 -75 191c0 73.333 26.167 136.5 78.5 189.5s114.833 79.5 187.5 79.5h97v-188h-97c-50 0 -75 -26 -75 -78c0 -20.667 7.33301 -39.5 22 -56.5s32.334 -25.5 53.001 -25.5h419v604h-88
c118.667 40 208 116.667 268 230v-1021zM551.999 869c28 -4 50.001 -24 66.001 -60c12.667 -30.667 18 -63.667 16 -99c-2 -34.667 -11.333 -65 -28 -91c-20 -30.667 -44.667 -43.667 -74 -39c-28 4 -49.667 24 -65 60c-12.667 30 -18.334 62.667 -17.001 98
c2 35.333 11.333 66 28 92c20 29.333 44.667 42.333 74 39z" />
    <glyph glyph-name="afii57470" unicode="&#x647;" horiz-adv-x="713" arabic-form="isolated" 
d="M99 9v359c0 100.667 43 190.667 129 270c59.333 60.667 132 95.667 218 105c65.333 4 120.333 27 165 69v-803h-512zM430 542c-37.333 -12.667 -70 -35.333 -98 -68c-28.667 -35.333 -43 -72.333 -43 -111v-168h141v347z" />
    <glyph glyph-name="afii57448" unicode="&#x648;" horiz-adv-x="715" arabic-form="isolated" 
d="M611 9c-8.66699 -64 -37.167 -116.668 -85.5 -158.001s-104.5 -62 -168.5 -62h-247v190h247c30 0 51.333 10 64 30h-64c-73.333 0 -134.333 24.833 -183 74.5s-73 111.834 -73 186.501v196c0 73.333 25 135.5 75 186.5s111 76.5 183 76.5
c124.667 -7.33301 208.667 19 252 79v-799zM434 537.999l-69 -0.000976562c-19.333 0 -38 -7.16699 -56 -21.5s-27 -31.166 -27 -50.499v-196c0 -18 8.33301 -35 25 -51s34 -24 52 -24h75v343z" />
    <glyph glyph-name="afii57449" unicode="&#x649;" horiz-adv-x="1144" arabic-form="isolated" 
d="M368 9c-77.333 0 -140.665 24.835 -189.998 74.502s-74 113.5 -74 191.5c0 74 25.667 137.667 77 191s113.666 80 186.999 80h97v-188h-97c-50 0 -75 -26.333 -75 -79c0 -20.667 7.5 -39.834 22.5 -57.501s32.5 -26.5 52.5 -26.5h489v31h-238v238
c0 75.333 25.667 138.666 77 189.999s114.666 77 189.999 77c65.333 -3.33301 118.333 22.667 159 78v-271h-186c-35.333 -8 -53 -32 -53 -72v-50h239v-407h-677z" />
    <glyph glyph-name="afii57450" unicode="&#x64a;" horiz-adv-x="1147" arabic-form="isolated" 
d="M368 9c-77.333 0 -140.665 24.835 -189.998 74.502s-74 113.5 -74 191.5c0 74 25.667 137.667 77 191s113.666 80 186.999 80h97v-188h-97c-50 0 -75 -26.333 -75 -79c0 -20.667 7.5 -39.834 22.5 -57.501s32.5 -26.5 52.5 -26.5h489v31h-238v238
c0 75.333 25.667 138.666 77 189.999s114.666 77 189.999 77c65.333 -3.33301 118.333 22.667 159 78v-271h-186c-35.333 -8 -53 -32 -53 -72v-50h239v-407h-677z" />
    <glyph glyph-name="afii57506" unicode="&#x67e;" horiz-adv-x="1334" arabic-form="isolated" 
d="M374 9c-79.333 0 -143.999 25 -193.999 75s-75 114.333 -75 193c0 75.333 26.5 139.833 79.5 193.5s117.167 80.5 192.5 80.5h98v-190h-98c-50.667 0 -76 -27 -76 -81c0 -20.667 7 -40 21 -58s31.333 -27 52 -27h679v385h-88c119.333 40 208.666 116.667 267.999 230
v-801h-859zM787.001 -312c-16.667 26 -26.001 56.667 -28.001 92c-1.33301 35.333 4.33398 68 17.001 98c15.333 36 37 56 65 60c29.333 4.66699 54 -8.33301 74 -39c16.667 -26 26 -56.333 28 -91c2 -35.333 -3.33301 -68.333 -16 -99c-16 -36 -38 -56 -66 -60
c-29.333 -3.33301 -54 9.66699 -74 39zM567 -312c-16.667 26 -26.001 56.667 -28.001 92c-1.33301 35.333 4.33398 68 17.001 98c15.333 36 37 56 65 60c29.333 4.66699 54 -8.33301 74 -39c16.667 -26 26 -56.333 28 -91c2 -35.333 -3.33301 -68.333 -16 -99
c-16 -36 -38 -56 -66 -60c-29.333 -3.33301 -54 9.66699 -74 39zM676.999 -602c-16.667 26 -26.001 56.667 -28.001 92c-1.33301 35.333 4.33398 68 17.001 98c15.333 36 37 56 65 60c29.333 4.66699 54 -8.33301 74 -39c16.667 -26 26 -56.333 28 -91
c2 -35.333 -3.33301 -68.333 -16 -99c-16 -36 -38 -56 -66 -60c-29.333 -3.33301 -54 9.66699 -74 39z" />
    <glyph glyph-name="afii57507" unicode="&#x686;" horiz-adv-x="1064" arabic-form="isolated" 
d="M370 9c-20.667 -2.66699 -39.667 -12.499 -57 -29.499s-26 -35.833 -26 -56.5v-108c0 -21.333 8.33301 -39.5 25 -54.5s35.667 -22.5 57 -22.5l2 -197c-81.333 0 -146.833 26 -196.5 78s-74.5 117.333 -74.5 196v107c0 81.333 24.167 147.166 72.5 197.499
s112.5 75.5 192.5 75.5h287v358c0 50 -26.667 75 -80 75h-457c113.333 60 190 149.333 230 268v-88h227c132 0 214.333 -54.667 247 -164c13.333 -40 20 -74.333 20 -103v-346c4.66699 -70 48 -132 130 -186h-599zM662 -311.999c-16.667 26 -26.001 56.667 -28.001 92
c-1.33301 35.333 4.33398 68 17.001 98c15.333 36 37 56 65 60c29.333 4.66699 54 -8.33301 74 -39c16.667 -26 26 -56.333 28 -91c2 -35.333 -3.33301 -68.333 -16 -99c-16 -36 -38 -56 -66 -60c-29.333 -3.33301 -54 9.66699 -74 39zM441.999 -311.999
c-16.667 26 -26.001 56.667 -28.001 92c-1.33301 35.333 4.33398 68 17.001 98c15.333 36 37 56 65 60c29.333 4.66699 54 -8.33301 74 -39c16.667 -26 26 -56.333 28 -91c2 -35.333 -3.33301 -68.333 -16 -99c-16 -36 -38 -56 -66 -60c-29.333 -3.33301 -54 9.66699 -74 39
zM551.998 -601.999c-16.667 26 -26.001 56.667 -28.001 92c-1.33301 35.333 4.33398 68 17.001 98c15.333 36 37 56 65 60c29.333 4.66699 54 -8.33301 74 -39c16.667 -26 26 -56.333 28 -91c2 -35.333 -3.33301 -68.333 -16 -99c-16 -36 -38 -56 -66 -60
c-29.333 -3.33301 -54 9.66699 -74 39z" />
    <glyph glyph-name="afii57508" unicode="&#x698;" horiz-adv-x="546" arabic-form="isolated" 
d="M456 9c-8.66699 -64.667 -35.8311 -116.501 -81.498 -155.501s-99.834 -58.5 -162.501 -58.5h-161v185h148c19.333 0 37 7.33301 53 22s24 32.334 24 53.001v525h-88c119.333 40 208.666 116.667 267.999 230v-801zM412.003 1170c28 -4 50.001 -24 66.001 -60
c12.667 -30.667 18 -63.667 16 -99c-2 -34.667 -11.333 -65 -28 -91c-20 -30.667 -44.667 -43.667 -74 -39c-28 4 -49.667 24 -65 60c-12.667 30 -18.334 62.667 -17.001 98c2 35.333 11.333 66 28 92c20 29.333 44.667 42.333 74 39zM192.004 1170
c28 -4 50.001 -24 66.001 -60c12.667 -30.667 18 -63.667 16 -99c-2 -34.667 -11.333 -65 -28 -91c-20 -30.667 -44.667 -43.667 -74 -39c-28 4 -49.667 24 -65 60c-12.667 30 -18.334 62.667 -17.001 98c2 35.333 11.333 66 28 92c20 29.333 44.667 42.333 74 39z
M302.005 1460c28 -4 50.001 -24 66.001 -60c12.667 -30.667 18 -63.667 16 -99c-2 -34.667 -11.333 -65 -28 -91c-20 -30.667 -44.667 -43.667 -74 -39c-28 4 -49.667 24 -65 60c-12.667 30 -18.334 62.667 -17.001 98c2 35.333 11.333 66 28 92
c20 29.333 44.667 42.333 74 39z" />
    <glyph glyph-name="afii57509" unicode="&#x6af;" horiz-adv-x="1616" arabic-form="isolated" 
d="M806 864l158 197l-69 69c90 -20.667 172.333 -29.667 247 -27l-336 -427v188zM806 552l432 540.001l-49 49c112.667 -26 217.334 -26 314.001 0l-426 -571h46c112 0 203 -34.333 273 -103c88.667 -86.667 136.334 -177.334 143.001 -272.001v-186h-1173
c-78.667 0 -143.167 24.667 -193.5 74s-75.5 113.666 -75.5 192.999c0 74.667 26.333 139.334 79 194.001s116 82 190 82h97v-192h-97c-50 0 -75 -26.667 -75 -80c0 -22 7.16699 -41.667 21.5 -59s32.166 -26 53.499 -26h964c1.33301 39.333 -12.667 80 -42 122
c-42.667 44.667 -98.334 67 -167.001 67h-315v168z" />
    <glyph glyph-name="uniFB57" unicode="&#x67e;" horiz-adv-x="1304" arabic-form="final" 
d="M372 9c-79.333 0 -143.999 25 -193.999 75s-75 114.333 -75 193c0 75.333 26.5 139.833 79.5 193.5s117.167 80.5 192.5 80.5h98v-190h-98c-50.667 0 -76 -27 -76 -81c0 -20.667 7 -40 21 -58s31.333 -27 52 -27h679v385h-88c119.333 40 208.666 116.667 267.999 230
v-615h93v-186h-952zM787.001 -312c-16.667 26 -26.001 56.667 -28.001 92c-1.33301 35.333 4.33398 68 17.001 98c15.333 36 37 56 65 60c29.333 4.66699 54 -8.33301 74 -39c16.667 -26 26 -56.333 28 -91c2 -35.333 -3.33301 -68.333 -16 -99c-16 -36 -38 -56 -66 -60
c-29.333 -3.33301 -54 9.66699 -74 39zM567 -312c-16.667 26 -26.001 56.667 -28.001 92c-1.33301 35.333 4.33398 68 17.001 98c15.333 36 37 56 65 60c29.333 4.66699 54 -8.33301 74 -39c16.667 -26 26 -56.333 28 -91c2 -35.333 -3.33301 -68.333 -16 -99
c-16 -36 -38 -56 -66 -60c-29.333 -3.33301 -54 9.66699 -74 39zM676.999 -602c-16.667 26 -26.001 56.667 -28.001 92c-1.33301 35.333 4.33398 68 17.001 98c15.333 36 37 56 65 60c29.333 4.66699 54 -8.33301 74 -39c16.667 -26 26 -56.333 28 -91
c2 -35.333 -3.33301 -68.333 -16 -99c-16 -36 -38 -56 -66 -60c-29.333 -3.33301 -54 9.66699 -74 39z" />
    <glyph glyph-name="uniFB58" unicode="&#x67e;" horiz-adv-x="553" arabic-form="initial" 
d="M-35 9l0.000976562 186h308v382h-88c119.333 40 208.666 116.667 267.999 230v-798h-488zM271.001 -313c-16.667 26 -26.001 56.667 -28.001 92c-1.33301 35.333 4.33398 68 17.001 98c15.333 36 37 56 65 60c29.333 4.66699 54 -8.33301 74 -39
c16.667 -26 26 -56.333 28 -91c2 -35.333 -3.33301 -68.333 -16 -99c-16 -36 -38 -56 -66 -60c-29.333 -3.33301 -54 9.66699 -74 39zM51 -313c-16.667 26 -26.001 56.667 -28.001 92c-1.33301 35.333 4.33398 68 17.001 98c15.333 36 37 56 65 60
c29.333 4.66699 54 -8.33301 74 -39c16.667 -26 26 -56.333 28 -91c2 -35.333 -3.33301 -68.333 -16 -99c-16 -36 -38 -56 -66 -60c-29.333 -3.33301 -54 9.66699 -74 39zM160.999 -603c-16.667 26 -26.001 56.667 -28.001 92c-1.33301 35.333 4.33398 68 17.001 98
c15.333 36 37 56 65 60c29.333 4.66699 54 -8.33301 74 -39c16.667 -26 26 -56.333 28 -91c2 -35.333 -3.33301 -68.333 -16 -99c-16 -36 -38 -56 -66 -60c-29.333 -3.33301 -54 9.66699 -74 39z" />
    <glyph glyph-name="uniFB59" unicode="&#x67e;" horiz-adv-x="507" arabic-form="medial" 
d="M-17 9l0.000976562 186h308v382h-88c119.333 40 208.666 116.667 267.999 230v-612h55v-186h-543zM289.001 -313c-16.667 26 -26.001 56.667 -28.001 92c-1.33301 35.333 4.33398 68 17.001 98c15.333 36 37 56 65 60c29.333 4.66699 54 -8.33301 74 -39
c16.667 -26 26 -56.333 28 -91c2 -35.333 -3.33301 -68.333 -16 -99c-16 -36 -38 -56 -66 -60c-29.333 -3.33301 -54 9.66699 -74 39zM69 -313c-16.667 26 -26.001 56.667 -28.001 92c-1.33301 35.333 4.33398 68 17.001 98c15.333 36 37 56 65 60
c29.333 4.66699 54 -8.33301 74 -39c16.667 -26 26 -56.333 28 -91c2 -35.333 -3.33301 -68.333 -16 -99c-16 -36 -38 -56 -66 -60c-29.333 -3.33301 -54 9.66699 -74 39zM178.999 -603c-16.667 26 -26.001 56.667 -28.001 92c-1.33301 35.333 4.33398 68 17.001 98
c15.333 36 37 56 65 60c29.333 4.66699 54 -8.33301 74 -39c16.667 -26 26 -56.333 28 -91c2 -35.333 -3.33301 -68.333 -16 -99c-16 -36 -38 -56 -66 -60c-29.333 -3.33301 -54 9.66699 -74 39z" />
    <glyph glyph-name="uniFB7B" unicode="&#x686;" horiz-adv-x="890" arabic-form="final" 
d="M370 9c-20.667 -2.66699 -39.667 -12.499 -57 -29.499s-26 -35.833 -26 -56.5v-108c0 -21.333 8.33301 -39.5 25 -54.5s35.667 -22.5 57 -22.5l2 -197c-81.333 0 -146.833 26 -196.5 78s-74.5 117.333 -74.5 196v107c0 81.333 24.167 147.166 72.5 197.499
s112.5 75.5 192.5 75.5h287v358c0 50 -26.667 75 -80 75h-457c113.333 60 190 149.333 230 268v-88h227c132 0 214.333 -54.667 247 -164c13.333 -40 20 -74.333 20 -103v-346h73v-186h-542zM662 -311.999c-16.667 26 -26.001 56.667 -28.001 92
c-1.33301 35.333 4.33398 68 17.001 98c15.333 36 37 56 65 60c29.333 4.66699 54 -8.33301 74 -39c16.667 -26 26 -56.333 28 -91c2 -35.333 -3.33301 -68.333 -16 -99c-16 -36 -38 -56 -66 -60c-29.333 -3.33301 -54 9.66699 -74 39zM441.999 -311.999
c-16.667 26 -26.001 56.667 -28.001 92c-1.33301 35.333 4.33398 68 17.001 98c15.333 36 37 56 65 60c29.333 4.66699 54 -8.33301 74 -39c16.667 -26 26 -56.333 28 -91c2 -35.333 -3.33301 -68.333 -16 -99c-16 -36 -38 -56 -66 -60c-29.333 -3.33301 -54 9.66699 -74 39
zM551.998 -601.999c-16.667 26 -26.001 56.667 -28.001 92c-1.33301 35.333 4.33398 68 17.001 98c15.333 36 37 56 65 60c29.333 4.66699 54 -8.33301 74 -39c16.667 -26 26 -56.333 28 -91c2 -35.333 -3.33301 -68.333 -16 -99c-16 -36 -38 -56 -66 -60
c-29.333 -3.33301 -54 9.66699 -74 39z" />
    <glyph glyph-name="uniFB7C" unicode="&#x686;" horiz-adv-x="1068" arabic-form="initial" 
d="M-25 9v186h677v358c0 50 -26.667 75 -80 75h-457c113.333 60 190 149.333 230 268v-88h227c132 0 214.333 -54.667 247 -164c13.333 -40 20 -74.333 20 -103v-346c4.66699 -70 48 -132 130 -186h-994zM533 -312c-16.667 26 -26.001 56.667 -28.001 92
c-1.33301 35.333 4.33398 68 17.001 98c15.333 36 37 56 65 60c29.333 4.66699 54 -8.33301 74 -39c16.667 -26 26 -56.333 28 -91c2 -35.333 -3.33301 -68.333 -16 -99c-16 -36 -38 -56 -66 -60c-29.333 -3.33301 -54 9.66699 -74 39zM312.999 -312
c-16.667 26 -26.001 56.667 -28.001 92c-1.33301 35.333 4.33398 68 17.001 98c15.333 36 37 56 65 60c29.333 4.66699 54 -8.33301 74 -39c16.667 -26 26 -56.333 28 -91c2 -35.333 -3.33301 -68.333 -16 -99c-16 -36 -38 -56 -66 -60c-29.333 -3.33301 -54 9.66699 -74 39
zM422.998 -602c-16.667 26 -26.001 56.667 -28.001 92c-1.33301 35.333 4.33398 68 17.001 98c15.333 36 37 56 65 60c29.333 4.66699 54 -8.33301 74 -39c16.667 -26 26 -56.333 28 -91c2 -35.333 -3.33301 -68.333 -16 -99c-16 -36 -38 -56 -66 -60
c-29.333 -3.33301 -54 9.66699 -74 39z" />
    <glyph glyph-name="uniFB7D" unicode="&#x686;" horiz-adv-x="892" arabic-form="medial" 
d="M-25 9v186h677v358c0 50 -26.667 75 -80 75h-457c113.333 60 190 149.333 230 268v-88h227c132 0 214.333 -54.667 247 -164c13.333 -40 20 -74.333 20 -103v-346h73v-186h-937zM533 -312c-16.667 26 -26.001 56.667 -28.001 92c-1.33301 35.333 4.33398 68 17.001 98
c15.333 36 37 56 65 60c29.333 4.66699 54 -8.33301 74 -39c16.667 -26 26 -56.333 28 -91c2 -35.333 -3.33301 -68.333 -16 -99c-16 -36 -38 -56 -66 -60c-29.333 -3.33301 -54 9.66699 -74 39zM312.999 -312c-16.667 26 -26.001 56.667 -28.001 92
c-1.33301 35.333 4.33398 68 17.001 98c15.333 36 37 56 65 60c29.333 4.66699 54 -8.33301 74 -39c16.667 -26 26 -56.333 28 -91c2 -35.333 -3.33301 -68.333 -16 -99c-16 -36 -38 -56 -66 -60c-29.333 -3.33301 -54 9.66699 -74 39zM422.998 -602
c-16.667 26 -26.001 56.667 -28.001 92c-1.33301 35.333 4.33398 68 17.001 98c15.333 36 37 56 65 60c29.333 4.66699 54 -8.33301 74 -39c16.667 -26 26 -56.333 28 -91c2 -35.333 -3.33301 -68.333 -16 -99c-16 -36 -38 -56 -66 -60c-29.333 -3.33301 -54 9.66699 -74 39
z" />
    <glyph glyph-name="uniFB8B" unicode="&#x698;" horiz-adv-x="531" arabic-form="final" 
d="M456 9c-8.66699 -64.667 -35.8311 -116.501 -81.498 -155.501s-99.834 -58.5 -162.501 -58.5h-161v185h148c19.333 0 37 7.33301 53 22s24 32.334 24 53.001v525h-88c119.333 40 208.666 116.667 267.999 230v-615h100v-186h-100zM412.003 1170
c28 -4 50.001 -24 66.001 -60c12.667 -30.667 18 -63.667 16 -99c-2 -34.667 -11.333 -65 -28 -91c-20 -30.667 -44.667 -43.667 -74 -39c-28 4 -49.667 24 -65 60c-12.667 30 -18.334 62.667 -17.001 98c2 35.333 11.333 66 28 92c20 29.333 44.667 42.333 74 39z
M192.004 1170c28 -4 50.001 -24 66.001 -60c12.667 -30.667 18 -63.667 16 -99c-2 -34.667 -11.333 -65 -28 -91c-20 -30.667 -44.667 -43.667 -74 -39c-28 4 -49.667 24 -65 60c-12.667 30 -18.334 62.667 -17.001 98c2 35.333 11.333 66 28 92
c20 29.333 44.667 42.333 74 39zM302.005 1460c28 -4 50.001 -24 66.001 -60c12.667 -30.667 18 -63.667 16 -99c-2 -34.667 -11.333 -65 -28 -91c-20 -30.667 -44.667 -43.667 -74 -39c-28 4 -49.667 24 -65 60c-12.667 30 -18.334 62.667 -17.001 98
c2 35.333 11.333 66 28 92c20 29.333 44.667 42.333 74 39z" />
    <glyph glyph-name="uniFB8F" unicode="&#x6a9;" horiz-adv-x="1675" arabic-form="final" 
d="M1539 195l152 0.000976562v-186h-1325c-78.667 0 -143.167 24.667 -193.5 74s-75.5 113.666 -75.5 192.999c0 74.667 26.333 139.334 79 194.001s116 82 190 82h97v-192h-97c-50 0 -75 -26.667 -75 -80c0 -22 7.16699 -41.667 21.5 -59s32.166 -26 53.499 -26h964
c1.33301 39.333 -12.667 80 -42 122c-42.667 44.667 -98.334 67 -167.001 67h-315v168l432 540l-49 49c112.667 -26 217.334 -26 314.001 0l-426 -571h46c112 0 203 -34.333 273 -103c88.667 -86.667 136.334 -177.334 143.001 -272.001z" />
    <glyph glyph-name="uniFB90" unicode="&#x6a9;" horiz-adv-x="1001" arabic-form="initial" 
d="M169 523l431.999 540l-49 49c112.667 -26 217.334 -26 314.001 0l-426 -571h46c112 0 203 -34.333 273 -103c88.667 -86.667 136.334 -167.667 143.001 -243v-186h-923v186h714c-6.66699 30 -20.667 61 -42 93c-42.667 44.667 -98.334 67 -167.001 67h-315v168z" />
    <glyph glyph-name="uniFB91" unicode="&#x6a9;" horiz-adv-x="934" arabic-form="medial" 
d="M-19 9v186h684c-6.66699 30 -20.667 61 -42 93c-42.667 44.667 -98.334 67 -167.001 67h-315v168l432 540l-49 49c106 -26 210.667 -26 314 0l-426 -571h46c112 0 203 -34.333 273 -103c88.667 -86.667 136.334 -167.667 143.001 -243h81v-186h-974z" />
    <glyph glyph-name="uniFB93" unicode="&#x6af;" horiz-adv-x="1675" arabic-form="final" 
d="M1539 195l152 0.000976562v-186h-1325c-78.667 0 -143.167 24.667 -193.5 74s-75.5 113.666 -75.5 192.999c0 74.667 26.333 139.334 79 194.001s116 82 190 82h97v-192h-97c-50 0 -75 -26.667 -75 -80c0 -22 7.16699 -41.667 21.5 -59s32.166 -26 53.499 -26h964
c1.33301 39.333 -12.667 80 -42 122c-42.667 44.667 -98.334 67 -167.001 67h-315v168l432 540l-49 49c112.667 -26 217.334 -26 314.001 0l-426 -571h46c112 0 203 -34.333 273 -103c88.667 -86.667 136.334 -177.334 143.001 -272.001zM806 864.001l158 197l-69 69
c90 -20.667 172.333 -29.667 247 -27l-336 -427v188z" />
    <glyph glyph-name="uniFB94" unicode="&#x6af;" horiz-adv-x="1001" arabic-form="initial" 
d="M169 523l431.999 540l-49 49c112.667 -26 217.334 -26 314.001 0l-426 -571h46c112 0 203 -34.333 273 -103c88.667 -86.667 136.334 -167.667 143.001 -243v-186h-923v186h714c-6.66699 30 -20.667 61 -42 93c-42.667 44.667 -98.334 67 -167.001 67h-315v168z
M178.999 864l158 197l-69 69c90 -20.667 172.333 -29.667 247 -27l-336 -427v188z" />
    <glyph glyph-name="uniFB95" unicode="&#x6af;" horiz-adv-x="934" arabic-form="medial" 
d="M-19 9v186h684c-6.66699 30 -20.667 61 -42 93c-42.667 44.667 -98.334 67 -167.001 67h-315v168l432 540l-49 49c106 -26 210.667 -26 314 0l-426 -571h46c112 0 203 -34.333 273 -103c88.667 -86.667 136.334 -167.667 143.001 -243h81v-186h-974zM151 858l158 197
l-69 69c90 -20.667 172.333 -29.667 247 -27l-336 -427v188z" />
    <glyph glyph-name="uniFBA5" unicode="&#x6c0;" horiz-adv-x="700" arabic-form="final" 
d="M101 9v355c0 100.667 43 190.667 129 270c59.333 60.667 132 95.667 218 105c68 10.667 123 34.667 165 72v-616h108v-186h-620zM432 538c-37.333 -12.667 -70 -35.333 -98 -68c-28.667 -35.333 -43 -72.333 -43 -111v-164h141v343zM150 877.001v90h52v35
c0 76.667 45.333 115 136 115c78.667 0 124.667 -39.667 138 -119h-104c-10.667 18.667 -22 28 -34 28c-18.667 0 -28 -8 -28 -24v-35h165v-90h-325z" />
    <glyph glyph-name="uniFBFD" unicode="&#x6cc;" horiz-adv-x="1328" arabic-form="final" 
d="M364 9c-77.333 0 -140.665 24.835 -189.998 74.502s-74 113.5 -74 191.5c0 74 25.667 137.667 77 191s113.666 80 186.999 80h97v-188h-97c-50 0 -75 -26.333 -75 -79c0 -20.667 7.5 -39.834 22.5 -57.501s32.5 -26.5 52.5 -26.5h411v277
c0 75.333 25.667 138.666 77 189.999s114.666 77 189.999 77c102 -10 176.333 14 223 72v-616h79v-186h-266v537h-63c-35.333 -8 -53 -32 -53 -72v-465h-598z" />
    <glyph glyph-name="uniFBFE" unicode="&#x6cc;" arabic-form="initial" 
d="M-25 9l0.000976562 186h328v382h-88c119.333 40 208.666 116.667 267.999 230v-798h-508zM342.001 -57c28 -4 50.001 -24 66.001 -60c12.667 -30 18 -62.667 16 -98s-11.333 -66 -28 -92c-20 -30 -44.667 -42.667 -74 -38c-28 3.33301 -49.667 23.333 -65 60
c-12.667 30 -18.334 62.667 -17.001 98c2 34.667 11.333 65 28 91c20 30 44.667 43 74 39zM122.002 -57c28 -4 50.001 -24 66.001 -60c12.667 -30 18 -62.667 16 -98s-11.333 -66 -28 -92c-20 -30 -44.667 -42.667 -74 -38c-28 3.33301 -49.667 23.333 -65 60
c-12.667 30 -18.334 62.667 -17.001 98c2 34.667 11.333 65 28 91c20 30 44.667 43 74 39z" />
    <glyph glyph-name="uniFBFF" unicode="&#x6cc;" horiz-adv-x="528" arabic-form="medial" 
d="M-17 9l0.000976562 186h328v382h-88c119.333 40 208.666 116.667 267.999 230v-612h55v-186h-563zM352.001 -57c28 -4 50.001 -24 66.001 -60c12.667 -30 18 -62.667 16 -98s-11.333 -66 -28 -92c-20 -30 -44.667 -42.667 -74 -38c-28 3.33301 -49.667 23.333 -65 60
c-12.667 30 -18.334 62.667 -17.001 98c2 34.667 11.333 65 28 91c20 30 44.667 43 74 39zM132.002 -57c28 -4 50.001 -24 66.001 -60c12.667 -30 18 -62.667 16 -98s-11.333 -66 -28 -92c-20 -30 -44.667 -42.667 -74 -38c-28 3.33301 -49.667 23.333 -65 60
c-12.667 30 -18.334 62.667 -17.001 98c2 34.667 11.333 65 28 91c20 30 44.667 43 74 39z" />
    <glyph glyph-name="uniFE82" unicode="&#x622;" horiz-adv-x="480" arabic-form="final" 
d="M100 9l0.000976562 1406c59.333 -113.333 148.666 -190 267.999 -230h-88v-990h224v-186h-404zM394.001 1581l-4.99902 -66c-34 -41.333 -67.333 -62 -100 -62c-12.667 0 -31.334 6 -56.001 18s-43.667 18 -57 18c-22.667 0 -48.667 -9 -78 -27l12 72
c30 25.333 55.667 38 77 38c14 0 34 -5.66699 60 -17s45.667 -17 59 -17c26.667 0 56 14.333 88 43z" />
    <glyph glyph-name="uniFE84" unicode="&#x623;" horiz-adv-x="474" arabic-form="final" 
d="M100 9l0.000976562 1406c59.333 -113.333 148.666 -190 267.999 -230h-88v-990h224v-186h-404zM43.001 1470v90h51v35c0 76.667 45.667 115 137 115c78.667 0 124.667 -39.667 138 -119h-104c-10.667 18.667 -22 28 -34 28c-18.667 0 -28 -8 -28 -24v-35h165v-90h-325z
" />
    <glyph glyph-name="uniFE86" unicode="&#x624;" horiz-adv-x="686" arabic-form="final" 
d="M611 9c-8 -64 -36.167 -116.667 -84.5 -158s-104.5 -62 -168.5 -62h-247v190h247c30 0 51.333 10 64 30h-64c-73.333 0 -134.333 24.833 -183 74.5s-73 111.834 -73 186.501v196c0 73.333 25 135.5 75 186.5s111 76.5 183 76.5c122 -6.66699 206 19.666 252 78.999v-613
h97v-186h-98zM435 538l-69 -0.000976562c-19.333 0 -38 -7.16699 -56 -21.5s-27 -31.166 -27 -50.499v-196c0 -18 8.33301 -35 25 -51s34 -24 52 -24h75v343zM223 878.999v90h51v35c0 76.667 45.667 115 137 115c78 0 124 -39.667 138 -119h-105
c-10.667 18.667 -21.667 28 -33 28c-19.333 0 -29 -8 -29 -24v-35h165v-90h-324z" />
    <glyph glyph-name="uniFE88" unicode="&#x625;" horiz-adv-x="478" arabic-form="final" 
d="M100 9l0.000976562 1406c59.333 -113.333 148.666 -190 267.999 -230h-88v-990h224v-186h-404zM33.001 -280v90h51v35c0 76.667 45.667 115 137 115c78.667 0 124.667 -39.667 138 -119h-104c-10.667 18.667 -22 28 -34 28c-18.667 0 -28 -8 -28 -24v-35h165v-90h-325z
" />
    <glyph glyph-name="uniFE8A" unicode="&#x626;" horiz-adv-x="1327" arabic-form="final" 
d="M366 9c-77.333 0 -140.665 24.835 -189.998 74.502s-74 113.5 -74 191.5c0 74 25.667 137.667 77 191s113.666 80 186.999 80h97v-188h-97c-50 0 -75 -26.333 -75 -79c0 -20.667 7.5 -39.834 22.5 -57.501s32.5 -26.5 52.5 -26.5h411v277
c0 75.333 25.667 138.666 77 189.999s114.666 77 189.999 77c102 -10 176.333 14 223 72v-616h79v-186h-266v537h-63c-35.333 -8 -53 -32 -53 -72v-465h-598zM141.001 639.002v90h51v35c0 76.667 45.667 115 137 115c78.667 0 124.667 -39.667 138 -119h-104
c-10.667 18.667 -22 28 -34 28c-18.667 0 -28 -8 -28 -24v-35h165v-90h-325z" />
    <glyph glyph-name="uniFE8B" unicode="&#x626;" horiz-adv-x="585" arabic-form="initial" 
d="M-23 9l0.000976562 186h328v382h-88c119.333 40 208.666 116.667 267.999 230v-798h-508zM55.001 879v90h51v35c0 76.667 45.667 115 137 115c78 0 124 -39.667 138 -119h-105c-10.667 18.667 -21.667 28 -33 28c-19.333 0 -29 -8 -29 -24v-35h165v-90h-324z" />
    <glyph glyph-name="uniFE8C" unicode="&#x626;" horiz-adv-x="517" arabic-form="medial" 
d="M-25 9l0.000976562 186h328v382h-88c119.333 40 208.666 116.667 267.999 230v-612h55v-186h-563zM53.001 879v90h51v35c0 76.667 45.667 115 137 115c78 0 124 -39.667 138 -119h-105c-10.667 18.667 -21.667 28 -33 28c-19.333 0 -29 -8 -29 -24v-35h165v-90h-324z" />
    <glyph glyph-name="uniFE8E" unicode="&#x627;" horiz-adv-x="482" arabic-form="final" 
d="M100 9l0.000976562 1406c59.333 -113.333 148.666 -190 267.999 -230h-88v-990h224v-186h-404z" />
    <glyph glyph-name="uniFE90" unicode="&#x628;" horiz-adv-x="1304" arabic-form="final" 
d="M372 9c-79.333 0 -143.999 25 -193.999 75s-75 114.333 -75 193c0 75.333 26.5 139.833 79.5 193.5s117.167 80.5 192.5 80.5h98v-190h-98c-50.667 0 -76 -27 -76 -81c0 -20.667 7 -40 21 -58s31.333 -27 52 -27h679v385h-88c119.333 40 208.666 116.667 267.999 230
v-615h93v-186h-952zM762.001 -57c28 -4 50.001 -24 66.001 -60c12.667 -30 18 -62.667 16 -98s-11.333 -66 -28 -92c-20 -30 -44.667 -42.667 -74 -38c-28 3.33301 -49.667 23.333 -65 60c-12.667 30 -18.334 62.667 -17.001 98c2 34.667 11.333 65 28 91
c20 30 44.667 43 74 39z" />
    <glyph glyph-name="uniFE91" unicode="&#x628;" arabic-form="initial" 
d="M-25 9l0.000976562 186h328v382h-88c119.333 40 208.666 116.667 267.999 230v-798h-508zM242.001 -57c28 -4 50.001 -24 66.001 -60c12.667 -30 18 -62.667 16 -98s-11.333 -66 -28 -92c-20 -30 -44.667 -42.667 -74 -38c-28 3.33301 -49.667 23.333 -65 60
c-12.667 30 -18.334 62.667 -17.001 98c2 34.667 11.333 65 28 91c20 30 44.667 43 74 39z" />
    <glyph glyph-name="uniFE92" unicode="&#x628;" horiz-adv-x="519" arabic-form="medial" 
d="M-25 9l0.000976562 186h328v382h-88c119.333 40 208.666 116.667 267.999 230v-612h55v-186h-563zM242.001 -57c28 -4 50.001 -24 66.001 -60c12.667 -30 18 -62.667 16 -98s-11.333 -66 -28 -92c-20 -30 -44.667 -42.667 -74 -38c-28 3.33301 -49.667 23.333 -65 60
c-12.667 30 -18.334 62.667 -17.001 98c2 34.667 11.333 65 28 91c20 30 44.667 43 74 39z" />
    <glyph glyph-name="uniFE96" unicode="&#x62a;" horiz-adv-x="1303" arabic-form="final" 
d="M372 9c-79.333 0 -143.999 25 -193.999 75s-75 114.333 -75 193c0 75.333 26.5 139.833 79.5 193.5s117.167 80.5 192.5 80.5h98v-190h-98c-50.667 0 -76 -27 -76 -81c0 -20.667 7 -40 21 -58s31.333 -27 52 -27h679v385h-88c119.333 40 208.666 116.667 267.999 230
v-615h93v-186h-952zM842.001 873c28 -4 50.001 -24 66.001 -60c12.667 -30.667 18 -63.667 16 -99c-2 -34.667 -11.333 -65 -28 -91c-20 -30.667 -44.667 -43.667 -74 -39c-28 4 -49.667 24 -65 60c-12.667 30 -18.334 62.667 -17.001 98c2 35.333 11.333 66 28 92
c20 29.333 44.667 42.333 74 39zM622.002 873c28 -4 50.001 -24 66.001 -60c12.667 -30.667 18 -63.667 16 -99c-2 -34.667 -11.333 -65 -28 -91c-20 -30.667 -44.667 -43.667 -74 -39c-28 4 -49.667 24 -65 60c-12.667 30 -18.334 62.667 -17.001 98
c2 35.333 11.333 66 28 92c20 29.333 44.667 42.333 74 39z" />
    <glyph glyph-name="uniFE97" unicode="&#x62a;" arabic-form="initial" 
d="M-23 9l0.000976562 186h328v382h-88c119.333 40 208.666 116.667 267.999 230v-798h-508zM354.001 1122c28 -4 50.001 -24 66.001 -60c12.667 -30.667 18 -63.667 16 -99c-2 -34.667 -11.333 -65 -28 -91c-20 -30.667 -44.667 -43.667 -74 -39c-28 4 -49.667 24 -65 60
c-12.667 30 -18.334 62.667 -17.001 98c2 35.333 11.333 66 28 92c20 29.333 44.667 42.333 74 39zM134.002 1122c28 -4 50.001 -24 66.001 -60c12.667 -30.667 18 -63.667 16 -99c-2 -34.667 -11.333 -65 -28 -91c-20 -30.667 -44.667 -43.667 -74 -39
c-28 4 -49.667 24 -65 60c-12.667 30 -18.334 62.667 -17.001 98c2 35.333 11.333 66 28 92c20 29.333 44.667 42.333 74 39z" />
    <glyph glyph-name="uniFE98" unicode="&#x62a;" horiz-adv-x="521" arabic-form="medial" 
d="M-25 9l0.000976562 186h328v382h-88c119.333 40 208.666 116.667 267.999 230v-612h55v-186h-563zM352.001 1122c28 -4 50.001 -24 66.001 -60c12.667 -30.667 18 -63.667 16 -99c-2 -34.667 -11.333 -65 -28 -91c-20 -30.667 -44.667 -43.667 -74 -39
c-28 4 -49.667 24 -65 60c-12.667 30 -18.334 62.667 -17.001 98c2 35.333 11.333 66 28 92c20 29.333 44.667 42.333 74 39zM132.002 1122c28 -4 50.001 -24 66.001 -60c12.667 -30.667 18 -63.667 16 -99c-2 -34.667 -11.333 -65 -28 -91
c-20 -30.667 -44.667 -43.667 -74 -39c-28 4 -49.667 24 -65 60c-12.667 30 -18.334 62.667 -17.001 98c2 35.333 11.333 66 28 92c20 29.333 44.667 42.333 74 39z" />
    <glyph glyph-name="uniFE9A" unicode="&#x62b;" horiz-adv-x="1303" arabic-form="final" 
d="M372 9c-79.333 0 -143.999 25 -193.999 75s-75 114.333 -75 193c0 75.333 26.5 139.833 79.5 193.5s117.167 80.5 192.5 80.5h98v-190h-98c-50.667 0 -76 -27 -76 -81c0 -20.667 7 -40 21 -58s31.333 -27 52 -27h679v385h-88c119.333 40 208.666 116.667 267.999 230
v-615h93v-186h-952zM842.001 873c28 -4 50.001 -24 66.001 -60c12.667 -30.667 18 -63.667 16 -99c-2 -34.667 -11.333 -65 -28 -91c-20 -30.667 -44.667 -43.667 -74 -39c-28 4 -49.667 24 -65 60c-12.667 30 -18.334 62.667 -17.001 98c2 35.333 11.333 66 28 92
c20 29.333 44.667 42.333 74 39zM622.002 873c28 -4 50.001 -24 66.001 -60c12.667 -30.667 18 -63.667 16 -99c-2 -34.667 -11.333 -65 -28 -91c-20 -30.667 -44.667 -43.667 -74 -39c-28 4 -49.667 24 -65 60c-12.667 30 -18.334 62.667 -17.001 98
c2 35.333 11.333 66 28 92c20 29.333 44.667 42.333 74 39zM732.003 1163c28 -4 50.001 -24 66.001 -60c12.667 -30.667 18 -63.667 16 -99c-2 -34.667 -11.333 -65 -28 -91c-20 -30.667 -44.667 -43.667 -74 -39c-28 4 -49.667 24 -65 60
c-12.667 30 -18.334 62.667 -17.001 98c2 35.333 11.333 66 28 92c20 29.333 44.667 42.333 74 39z" />
    <glyph glyph-name="uniFE9B" unicode="&#x62b;" horiz-adv-x="584" arabic-form="initial" 
d="M-25 9l0.000976562 186h328v382h-88c119.333 40 208.666 116.667 267.999 230v-798h-508zM352.001 1122c28 -4 50.001 -24 66.001 -60c12.667 -30.667 18 -63.667 16 -99c-2 -34.667 -11.333 -65 -28 -91c-20 -30.667 -44.667 -43.667 -74 -39c-28 4 -49.667 24 -65 60
c-12.667 30 -18.334 62.667 -17.001 98c2 35.333 11.333 66 28 92c20 29.333 44.667 42.333 74 39zM132.002 1122c28 -4 50.001 -24 66.001 -60c12.667 -30.667 18 -63.667 16 -99c-2 -34.667 -11.333 -65 -28 -91c-20 -30.667 -44.667 -43.667 -74 -39
c-28 4 -49.667 24 -65 60c-12.667 30 -18.334 62.667 -17.001 98c2 35.333 11.333 66 28 92c20 29.333 44.667 42.333 74 39zM242.003 1412c28 -4 50.001 -24 66.001 -60c12.667 -30.667 18 -63.667 16 -99c-2 -34.667 -11.333 -65 -28 -91
c-20 -30.667 -44.667 -43.667 -74 -39c-28 4 -49.667 24 -65 60c-12.667 30 -18.334 62.667 -17.001 98c2 35.333 11.333 66 28 92c20 29.333 44.667 42.333 74 39z" />
    <glyph glyph-name="uniFE9C" unicode="&#x62b;" horiz-adv-x="524" arabic-form="medial" 
d="M-25 9l0.000976562 186h328v382h-88c119.333 40 208.666 116.667 267.999 230v-612h55v-186h-563zM352.001 1122c28 -4 50.001 -24 66.001 -60c12.667 -30.667 18 -63.667 16 -99c-2 -34.667 -11.333 -65 -28 -91c-20 -30.667 -44.667 -43.667 -74 -39
c-28 4 -49.667 24 -65 60c-12.667 30 -18.334 62.667 -17.001 98c2 35.333 11.333 66 28 92c20 29.333 44.667 42.333 74 39zM132.002 1122c28 -4 50.001 -24 66.001 -60c12.667 -30.667 18 -63.667 16 -99c-2 -34.667 -11.333 -65 -28 -91
c-20 -30.667 -44.667 -43.667 -74 -39c-28 4 -49.667 24 -65 60c-12.667 30 -18.334 62.667 -17.001 98c2 35.333 11.333 66 28 92c20 29.333 44.667 42.333 74 39zM242.003 1412c28 -4 50.001 -24 66.001 -60c12.667 -30.667 18 -63.667 16 -99
c-2 -34.667 -11.333 -65 -28 -91c-20 -30.667 -44.667 -43.667 -74 -39c-28 4 -49.667 24 -65 60c-12.667 30 -18.334 62.667 -17.001 98c2 35.333 11.333 66 28 92c20 29.333 44.667 42.333 74 39z" />
    <glyph glyph-name="uniFE9E" unicode="&#x62c;" horiz-adv-x="887" arabic-form="final" 
d="M370 9c-20.667 -2.66699 -39.667 -12.499 -57 -29.499s-26 -35.833 -26 -56.5v-108c0 -21.333 8.33301 -39.5 25 -54.5s35.667 -22.5 57 -22.5h113v-197h-117c-77.333 0 -140.833 26 -190.5 78s-74.5 117.333 -74.5 196v107c0 81.333 24.167 147.166 72.5 197.499
s112.5 75.5 192.5 75.5h287v358c0 50 -26.667 75 -80 75h-457c113.333 60 190 149.333 230 268v-88h227c132 0 214.333 -54.667 247 -164c13.333 -40 20 -74.333 20 -103v-346h73v-186h-542zM632 -56.999c28 -4 50.001 -24 66.001 -60c12.667 -30 18 -62.667 16 -98
s-11.333 -66 -28 -92c-20 -30 -44.667 -42.667 -74 -38c-28 3.33301 -49.667 23.333 -65 60c-12.667 30 -18.334 62.667 -17.001 98c2 34.667 11.333 65 28 91c20 30 44.667 43 74 39z" />
    <glyph glyph-name="uniFE9F" unicode="&#x62c;" horiz-adv-x="1068" arabic-form="initial" 
d="M-25 9v186h677v358c0 50 -26.667 75 -80 75h-457c113.333 60 190 149.333 230 268v-88h227c132 0 214.333 -54.667 247 -164c13.333 -40 20 -74.333 20 -103v-346c4.66699 -70 48 -132 130 -186h-994zM492 -57c28 -4 50.001 -24 66.001 -60c12.667 -30 18 -62.667 16 -98
s-11.333 -66 -28 -92c-20 -30 -44.667 -42.667 -74 -38c-28 3.33301 -49.667 23.333 -65 60c-12.667 30 -18.334 62.667 -17.001 98c2 34.667 11.333 65 28 91c20 30 44.667 43 74 39z" />
    <glyph glyph-name="uniFEA0" unicode="&#x62c;" horiz-adv-x="890" arabic-form="medial" 
d="M-25 9v186h677v358c0 50 -26.667 75 -80 75h-457c113.333 60 190 149.333 230 268v-88h227c132 0 214.333 -54.667 247 -164c13.333 -40 20 -74.333 20 -103v-346h73v-186h-937zM492 -57c28 -4 50.001 -24 66.001 -60c12.667 -30 18 -62.667 16 -98s-11.333 -66 -28 -92
c-20 -30 -44.667 -42.667 -74 -38c-28 3.33301 -49.667 23.333 -65 60c-12.667 30 -18.334 62.667 -17.001 98c2 34.667 11.333 65 28 91c20 30 44.667 43 74 39z" />
    <glyph glyph-name="uniFEA2" unicode="&#x62d;" horiz-adv-x="890" arabic-form="final" 
d="M370 9c-20.667 -2.66699 -39.667 -12.499 -57 -29.499s-26 -35.833 -26 -56.5v-108c0 -21.333 8.33301 -39.5 25 -54.5s35.667 -22.5 57 -22.5h313v-197h-317c-77.333 0 -140.833 26 -190.5 78s-74.5 117.333 -74.5 196v107c0 81.333 24.167 147.166 72.5 197.499
s112.5 75.5 192.5 75.5h287v358c0 50 -26.667 75 -80 75h-457c113.333 60 190 149.333 230 268v-88h227c132 0 214.333 -54.667 247 -164c13.333 -40 20 -74.333 20 -103v-346h73v-186h-542z" />
    <glyph glyph-name="uniFEA3" unicode="&#x62d;" horiz-adv-x="1068" arabic-form="initial" 
d="M-25 9v186h677v358c0 50 -26.667 75 -80 75h-457c113.333 60 190 149.333 230 268v-88h227c132 0 214.333 -54.667 247 -164c13.333 -40 20 -74.333 20 -103v-346c4.66699 -70 48 -132 130 -186h-994z" />
    <glyph glyph-name="uniFEA4" unicode="&#x62d;" horiz-adv-x="892" arabic-form="medial" 
d="M-25 9v186h677v358c0 50 -26.667 75 -80 75h-457c113.333 60 190 149.333 230 268v-88h227c132 0 214.333 -54.667 247 -164c13.333 -40 20 -74.333 20 -103v-346h73v-186h-937z" />
    <glyph glyph-name="uniFEA6" unicode="&#x62e;" horiz-adv-x="891" arabic-form="final" 
d="M504 1183c28 -4 50.001 -24 66.001 -60c12.667 -30.667 18 -63.667 16 -99c-2 -34.667 -11.333 -65 -28 -91c-20 -30.667 -44.667 -43.667 -74 -39c-28 4 -49.667 24 -65 60c-12.667 30 -18.334 62.667 -17.001 98c2 35.333 11.333 66 28 92
c20 29.333 44.667 42.333 74 39zM370.001 9c-20.667 -2.66699 -39.667 -12.499 -57 -29.499s-26 -35.833 -26 -56.5v-108c0 -21.333 8.33301 -39.5 25 -54.5s35.667 -22.5 57 -22.5h313v-197h-317c-77.333 0 -140.833 26 -190.5 78s-74.5 117.333 -74.5 196v107
c0 81.333 24.167 147.166 72.5 197.499s112.5 75.5 192.5 75.5h287v358c0 50 -26.667 75 -80 75h-457c113.333 60 190 149.333 230 268v-88h227c132 0 214.333 -54.667 247 -164c13.333 -40 20 -74.333 20 -103v-346h73v-186h-542z" />
    <glyph glyph-name="uniFEA7" unicode="&#x62e;" horiz-adv-x="1063" arabic-form="initial" 
d="M-25 9v186h677v358c0 50 -26.667 75 -80 75h-457c113.333 60 190 149.333 230 268v-88h227c132 0 214.333 -54.667 247 -164c13.333 -40 20 -74.333 20 -103v-346c4.66699 -70 48 -132 130 -186h-994zM504 1183c28 -4 50.001 -24 66.001 -60
c12.667 -30.667 18 -63.667 16 -99c-2 -34.667 -11.333 -65 -28 -91c-20 -30.667 -44.667 -43.667 -74 -39c-28 4 -49.667 24 -65 60c-12.667 30 -18.334 62.667 -17.001 98c2 35.333 11.333 66 28 92c20 29.333 44.667 42.333 74 39z" />
    <glyph glyph-name="uniFEA8" unicode="&#x62e;" horiz-adv-x="888" arabic-form="medial" 
d="M-25 9v186h677v358c0 50 -26.667 75 -80 75h-457c113.333 60 190 149.333 230 268v-88h227c132 0 214.333 -54.667 247 -164c13.333 -40 20 -74.333 20 -103v-346h73v-186h-937zM504 1183c28 -4 50.001 -24 66.001 -60c12.667 -30.667 18 -63.667 16 -99
c-2 -34.667 -11.333 -65 -28 -91c-20 -30.667 -44.667 -43.667 -74 -39c-28 4 -49.667 24 -65 60c-12.667 30 -18.334 62.667 -17.001 98c2 35.333 11.333 66 28 92c20 29.333 44.667 42.333 74 39z" />
    <glyph glyph-name="uniFEAA" unicode="&#x62f;" horiz-adv-x="792" arabic-form="final" 
d="M95 9v185.999h362c22 0 40.833 7.33301 56.5 22s23.5 33.334 23.5 56.001v282c0 50 -26.667 75 -80 75h-357c113.333 60 190 149.333 230 268v-88h127c132 0 214.333 -54.667 247 -164c13.333 -40 20 -74.333 20 -103v-348h92v-186h-721z" />
    <glyph glyph-name="uniFEAC" unicode="&#x630;" horiz-adv-x="794" arabic-form="final" 
d="M95 9v185.999h362c22 0 40.833 7.33301 56.5 22s23.5 33.334 23.5 56.001v282c0 50 -26.667 75 -80 75h-357c113.333 60 190 149.333 230 268v-88h127c132 0 214.333 -54.667 247 -164c13.333 -40 20 -74.333 20 -103v-348h92v-186h-721zM474 1183
c28 -4 50.001 -24 66.001 -60c12.667 -30.667 18 -63.667 16 -99c-2 -34.667 -11.333 -65 -28 -91c-20 -30.667 -44.667 -43.667 -74 -39c-28 4 -49.667 24 -65 60c-12.667 30 -18.334 62.667 -17.001 98c2 35.333 11.333 66 28 92c20 29.333 44.667 42.333 74 39z" />
    <glyph glyph-name="uniFEAE" unicode="&#x631;" horiz-adv-x="531" arabic-form="final" 
d="M456 9c-8.66699 -64.667 -35.8311 -116.501 -81.498 -155.501s-99.834 -58.5 -162.501 -58.5h-161v185h148c19.333 0 37 7.33301 53 22s24 32.334 24 53.001v525h-88c119.333 40 208.666 116.667 267.999 230v-615h100v-186h-100z" />
    <glyph glyph-name="uniFEB0" unicode="&#x632;" horiz-adv-x="534" arabic-form="final" 
d="M456 9c-8.66699 -64.667 -35.8311 -116.501 -81.498 -155.501s-99.834 -58.5 -162.501 -58.5h-161v185h148c19.333 0 37 7.33301 53 22s24 32.334 24 53.001v525h-88c119.333 40 208.666 116.667 267.999 230v-615h100v-186h-100zM355.003 1179
c28.667 -4 50.666 -24.001 65.999 -60.001c12.667 -30 18 -62.667 16 -98s-11.333 -65.666 -28 -90.999c-19.333 -30.667 -43.666 -43.667 -72.999 -39c-28.667 4 -50.667 24 -66 60c-12.667 30 -18 62.667 -16 98c1.33301 35.333 10.333 66 27 92
c20 29.333 44.667 42 74 38z" />
    <glyph glyph-name="uniFEB2" unicode="&#x633;" horiz-adv-x="1722" arabic-form="final" 
d="M969 195h163.999v304h-88c118.667 40 208 116.667 268 230v-534h165v384h-88c118.667 40 208 116.667 268 230v-614h87v-186h-769v-222h-607c-78.667 0 -143.5 25.5 -194.5 76.5s-76.5 116.167 -76.5 195.5c0 74 27 137.667 81 191s118 80 192 80h100v-189h-100
c-51.333 0 -77 -26.667 -77 -80c0 -21.333 7.33301 -41 22 -59s32.334 -27 53.001 -27h420v444h-88c118.667 40 208 116.667 268 230v-454z" />
    <glyph glyph-name="uniFEB3" unicode="&#x633;" horiz-adv-x="1270" arabic-form="initial" 
d="M479 195h164v304h-88c118.667 40 208 116.667 268 230v-534h165v384h-88c118.667 40 208 116.667 268 230v-800h-1192v186h323v224h-88c118.667 40 208 116.667 268 230v-454z" />
    <glyph glyph-name="uniFEB4" unicode="&#x633;" horiz-adv-x="1232" arabic-form="medial" 
d="M479 195h164v304h-88c118.667 40 208 116.667 268 230v-534h165v384h-88c118.667 40 208 116.667 268 230v-614h87v-186h-1279v186h323v224h-88c118.667 40 208 116.667 268 230v-454z" />
    <glyph glyph-name="uniFEB6" unicode="&#x634;" horiz-adv-x="1720" arabic-form="final" 
d="M969 195h163.999v304h-88c118.667 40 208 116.667 268 230v-534h165v384h-88c118.667 40 208 116.667 268 230v-614h87v-186h-769v-222h-607c-78.667 0 -143.5 25.5 -194.5 76.5s-76.5 116.167 -76.5 195.5c0 74 27 137.667 81 191s118 80 192 80h100v-189h-100
c-51.333 0 -77 -26.667 -77 -80c0 -21.333 7.33301 -41 22 -59s32.334 -27 53.001 -27h420v444h-88c118.667 40 208 116.667 268 230v-454zM1322 1122c28 -4 50.001 -24 66.001 -60c12.667 -30.667 18 -63.667 16 -99c-2 -34.667 -11.333 -65 -28 -91
c-20 -30.667 -44.667 -43.667 -74 -39c-28 4 -49.667 24 -65 60c-12.667 30 -18.334 62.667 -17.001 98c2 35.333 11.333 66 28 92c20 29.333 44.667 42.333 74 39zM1102 1122c28 -4 50.001 -24 66.001 -60c12.667 -30.667 18 -63.667 16 -99
c-2 -34.667 -11.333 -65 -28 -91c-20 -30.667 -44.667 -43.667 -74 -39c-28 4 -49.667 24 -65 60c-12.667 30 -18.334 62.667 -17.001 98c2 35.333 11.333 66 28 92c20 29.333 44.667 42.333 74 39zM1212 1412c28 -4 50.001 -24 66.001 -60
c12.667 -30.667 18 -63.667 16 -99c-2 -34.667 -11.333 -65 -28 -91c-20 -30.667 -44.667 -43.667 -74 -39c-28 4 -49.667 24 -65 60c-12.667 30 -18.334 62.667 -17.001 98c2 35.333 11.333 66 28 92c20 29.333 44.667 42.333 74 39z" />
    <glyph glyph-name="uniFEB7" unicode="&#x634;" horiz-adv-x="1278" arabic-form="initial" 
d="M482 195h164v304h-88c118.667 40 208 116.667 268 230v-534h165v384h-88c118.667 40 208 116.667 268 230v-800h-1192v186h323v224h-88c118.667 40 208 116.667 268 230v-454zM835 1122c28 -4 50.001 -24 66.001 -60c12.667 -30.667 18 -63.667 16 -99
c-2 -34.667 -11.333 -65 -28 -91c-20 -30.667 -44.667 -43.667 -74 -39c-28 4 -49.667 24 -65 60c-12.667 30 -18.334 62.667 -17.001 98c2 35.333 11.333 66 28 92c20 29.333 44.667 42.333 74 39zM615.001 1122c28 -4 50.001 -24 66.001 -60
c12.667 -30.667 18 -63.667 16 -99c-2 -34.667 -11.333 -65 -28 -91c-20 -30.667 -44.667 -43.667 -74 -39c-28 4 -49.667 24 -65 60c-12.667 30 -18.334 62.667 -17.001 98c2 35.333 11.333 66 28 92c20 29.333 44.667 42.333 74 39zM725.002 1412
c28 -4 50.001 -24 66.001 -60c12.667 -30.667 18 -63.667 16 -99c-2 -34.667 -11.333 -65 -28 -91c-20 -30.667 -44.667 -43.667 -74 -39c-28 4 -49.667 24 -65 60c-12.667 30 -18.334 62.667 -17.001 98c2 35.333 11.333 66 28 92c20 29.333 44.667 42.333 74 39z" />
    <glyph glyph-name="uniFEB8" unicode="&#x634;" horiz-adv-x="1223" arabic-form="medial" 
d="M478 195h164v304h-88c118.667 40 208 116.667 268 230v-534h165v384h-88c118.667 40 208 116.667 268 230v-614h87v-186h-1279v186h323v224h-88c118.667 40 208 116.667 268 230v-454zM831 1122c28 -4 50.001 -24 66.001 -60c12.667 -30.667 18 -63.667 16 -99
c-2 -34.667 -11.333 -65 -28 -91c-20 -30.667 -44.667 -43.667 -74 -39c-28 4 -49.667 24 -65 60c-12.667 30 -18.334 62.667 -17.001 98c2 35.333 11.333 66 28 92c20 29.333 44.667 42.333 74 39zM611.001 1122c28 -4 50.001 -24 66.001 -60
c12.667 -30.667 18 -63.667 16 -99c-2 -34.667 -11.333 -65 -28 -91c-20 -30.667 -44.667 -43.667 -74 -39c-28 4 -49.667 24 -65 60c-12.667 30 -18.334 62.667 -17.001 98c2 35.333 11.333 66 28 92c20 29.333 44.667 42.333 74 39zM721.002 1412
c28 -4 50.001 -24 66.001 -60c12.667 -30.667 18 -63.667 16 -99c-2 -34.667 -11.333 -65 -28 -91c-20 -30.667 -44.667 -43.667 -74 -39c-28 4 -49.667 24 -65 60c-12.667 30 -18.334 62.667 -17.001 98c2 35.333 11.333 66 28 92c20 29.333 44.667 42.333 74 39z" />
    <glyph glyph-name="uniFEBA" unicode="&#x635;" horiz-adv-x="1475" arabic-form="final" 
d="M1100 583l-34 -18.001c-39.333 -28 -65.5 -51.5 -78.5 -70.5s-19.5 -43.5 -19.5 -73.5v-226h278v425l-24 -3c-59.333 -11.333 -100 -22.666 -122 -33.999zM968 8.99902l0.000976562 -222h-589c-80 0 -146 24.5 -198 73.5s-78 112.833 -78 191.5
c0 74.667 27.167 139 81.5 193s119.166 81 194.499 81h101v-191h-101c-52 0 -78 -27 -78 -81c0 -22 7.5 -41.5 22.5 -58.5s33.5 -25.5 55.5 -25.5h409v676h-88c118.667 40 208 116.667 268 230v-155c90 62.667 209.667 94 359 94h92v-620h77v-186h-528z" />
    <glyph glyph-name="uniFEBB" unicode="&#x635;" horiz-adv-x="923" arabic-form="initial" 
d="M499 583l-34 -18.001c-39.333 -28 -65.5 -51.5 -78.5 -70.5s-19.5 -43.5 -19.5 -73.5v-226h278v425l-24 -3c-59.333 -11.333 -100 -22.666 -122 -33.999zM-27 8.99902v186h214v451h-88c118.667 40 208 116.667 268 230v-155c90 62.667 209.667 94 359 94h92v-806h-845z
" />
    <glyph glyph-name="uniFEBC" unicode="&#x635;" horiz-adv-x="873" arabic-form="medial" 
d="M499 583l-34 -18.001c-39.333 -28 -65.5 -51.5 -78.5 -70.5s-19.5 -43.5 -19.5 -73.5v-226h278v425l-24 -3c-59.333 -11.333 -100 -22.666 -122 -33.999zM-27 8.99902v186h214v451h-88c118.667 40 208 116.667 268 230v-155c90 62.667 209.667 94 359 94h92v-620h77v-186
h-922z" />
    <glyph glyph-name="uniFEBE" unicode="&#x636;" horiz-adv-x="1472" arabic-form="final" 
d="M1100 583l-34 -18.001c-39.333 -28 -65.5 -51.5 -78.5 -70.5s-19.5 -43.5 -19.5 -73.5v-226h278v425l-24 -3c-59.333 -11.333 -100 -22.666 -122 -33.999zM1143 1183c28 -4 50.001 -24 66.001 -60c12.667 -30.667 18 -63.667 16 -99c-2 -34.667 -11.333 -65 -28 -91
c-20 -30.667 -44.667 -43.667 -74 -39c-28 4 -49.667 24 -65 60c-12.667 30 -18.334 62.667 -17.001 98c2 35.333 11.333 66 28 92c20 29.333 44.667 42.333 74 39zM968.001 8.99902l0.000976562 -222h-589c-80 0 -146 24.5 -198 73.5s-78 112.833 -78 191.5
c0 74.667 27.167 139 81.5 193s119.166 81 194.499 81h101v-191h-101c-52 0 -78 -27 -78 -81c0 -22 7.5 -41.5 22.5 -58.5s33.5 -25.5 55.5 -25.5h409v676h-88c118.667 40 208 116.667 268 230v-155c90 62.667 209.667 94 359 94h92v-620h77v-186h-528z" />
    <glyph glyph-name="uniFEBF" unicode="&#x636;" horiz-adv-x="923" arabic-form="initial" 
d="M499 583l-34 -18.001c-39.333 -28 -65.5 -51.5 -78.5 -70.5s-19.5 -43.5 -19.5 -73.5v-226h278v425l-24 -3c-59.333 -11.333 -100 -22.666 -122 -33.999zM-27 8.99902v186h214v451h-88c118.667 40 208 116.667 268 230v-155c90 62.667 209.667 94 359 94h92v-806h-845z
M542 1183c28 -4 50.001 -24 66.001 -60c12.667 -30.667 18 -63.667 16 -99c-2 -34.667 -11.333 -65 -28 -91c-20 -30.667 -44.667 -43.667 -74 -39c-28 4 -49.667 24 -65 60c-12.667 30 -18.334 62.667 -17.001 98c2 35.333 11.333 66 28 92c20 29.333 44.667 42.333 74 39z
" />
    <glyph glyph-name="uniFEC0" unicode="&#x636;" horiz-adv-x="871" arabic-form="medial" 
d="M499 583l-34 -18.001c-39.333 -28 -65.5 -51.5 -78.5 -70.5s-19.5 -43.5 -19.5 -73.5v-226h278v425l-24 -3c-59.333 -11.333 -100 -22.666 -122 -33.999zM-27 8.99902v186h214v451h-88c118.667 40 208 116.667 268 230v-155c90 62.667 209.667 94 359 94h92v-620h77v-186
h-922zM542 1183c28 -4 50.001 -24 66.001 -60c12.667 -30.667 18 -63.667 16 -99c-2 -34.667 -11.333 -65 -28 -91c-20 -30.667 -44.667 -43.667 -74 -39c-28 4 -49.667 24 -65 60c-12.667 30 -18.334 62.667 -17.001 98c2 35.333 11.333 66 28 92
c20 29.333 44.667 42.333 74 39z" />
    <glyph glyph-name="uniFEC2" unicode="&#x637;" horiz-adv-x="937" arabic-form="final" 
d="M529 583l-34 -18.001c-39.333 -28 -65.5 -51.5 -78.5 -70.5s-19.5 -43.5 -19.5 -73.5v-226h278v425l-24 -3c-59.333 -11.333 -100 -22.666 -122 -33.999zM103 8.99902v186h114v993h-88c118.667 40 208 116.667 268 230v-697c90 62.667 209.667 94 359 94h92v-620h110
v-186h-855z" />
    <glyph glyph-name="uniFEC3" unicode="&#x637;" horiz-adv-x="918" arabic-form="initial" 
d="M499 583l-34 -18.001c-39.333 -28 -65.5 -51.5 -78.5 -70.5s-19.5 -43.5 -19.5 -73.5v-226h278v425l-24 -3c-59.333 -11.333 -100 -22.666 -122 -33.999zM-27 8.99902v186h214v993h-88c118.667 40 208 116.667 268 230v-697c90 62.667 209.667 94 359 94h92v-806h-845z
" />
    <glyph glyph-name="uniFEC4" unicode="&#x637;" horiz-adv-x="869" arabic-form="medial" 
d="M498 583l-34 -18.001c-39.333 -28 -65.5 -51.5 -78.5 -70.5s-19.5 -43.5 -19.5 -73.5v-226h278v425l-24 -3c-59.333 -11.333 -100 -22.666 -122 -33.999zM-28 8.99902v186h214v993h-88c118.667 40 208 116.667 268 230v-697c90 62.667 209.667 94 359 94h92v-620h77v-186
h-922z" />
    <glyph glyph-name="uniFEC6" unicode="&#x638;" horiz-adv-x="932" arabic-form="final" 
d="M529 583l-34 -18.001c-39.333 -28 -65.5 -51.5 -78.5 -70.5s-19.5 -43.5 -19.5 -73.5v-226h278v425l-24 -3c-59.333 -11.333 -100 -22.666 -122 -33.999zM103 8.99902v186h114v993h-88c118.667 40 208 116.667 268 230v-697c90 62.667 209.667 94 359 94h92v-620h110
v-186h-855zM572 1183c28 -4 50.001 -24 66.001 -60c12.667 -30.667 18 -63.667 16 -99c-2 -34.667 -11.333 -65 -28 -91c-20 -30.667 -44.667 -43.667 -74 -39c-28 4 -49.667 24 -65 60c-12.667 30 -18.334 62.667 -17.001 98c2 35.333 11.333 66 28 92
c20 29.333 44.667 42.333 74 39z" />
    <glyph glyph-name="uniFEC7" unicode="&#x638;" horiz-adv-x="924" arabic-form="initial" 
d="M499 583l-34 -18.001c-39.333 -28 -65.5 -51.5 -78.5 -70.5s-19.5 -43.5 -19.5 -73.5v-226h278v425l-24 -3c-59.333 -11.333 -100 -22.666 -122 -33.999zM-27 8.99902v186h214v993h-88c118.667 40 208 116.667 268 230v-697c90 62.667 209.667 94 359 94h92v-806h-845z
M542 1183c28 -4 50.001 -24 66.001 -60c12.667 -30.667 18 -63.667 16 -99c-2 -34.667 -11.333 -65 -28 -91c-20 -30.667 -44.667 -43.667 -74 -39c-28 4 -49.667 24 -65 60c-12.667 30 -18.334 62.667 -17.001 98c2 35.333 11.333 66 28 92c20 29.333 44.667 42.333 74 39z
" />
    <glyph glyph-name="uniFEC8" unicode="&#x638;" horiz-adv-x="873" arabic-form="medial" 
d="M499 583l-34 -18.001c-39.333 -28 -65.5 -51.5 -78.5 -70.5s-19.5 -43.5 -19.5 -73.5v-226h278v425l-24 -3c-59.333 -11.333 -100 -22.666 -122 -33.999zM-27 8.99902v186h214v993h-88c118.667 40 208 116.667 268 230v-697c90 62.667 209.667 94 359 94h92v-620h77v-186
h-922zM542 1183c28 -4 50.001 -24 66.001 -60c12.667 -30.667 18 -63.667 16 -99c-2 -34.667 -11.333 -65 -28 -91c-20 -30.667 -44.667 -43.667 -74 -39c-28 4 -49.667 24 -65 60c-12.667 30 -18.334 62.667 -17.001 98c2 35.333 11.333 66 28 92
c20 29.333 44.667 42.333 74 39z" />
    <glyph glyph-name="uniFECA" unicode="&#x639;" horiz-adv-x="970" arabic-form="final" 
d="M368 9c-20 0 -38.665 -8.83105 -55.998 -26.498s-26 -36.167 -26 -55.5v-108c0 -21.333 8.33301 -39.5 25 -54.5s35.667 -22.5 57 -22.5c50 0 75 36.333 75 109h185c0 -94.667 -25.833 -169 -77.5 -223s-113.834 -81 -186.501 -81c-77.333 0 -140.5 25.667 -189.5 77
s-73.5 116.333 -73.5 195v106c0 82 24 147.5 72 196.5s112.333 73.5 193 73.5h29c-8 25.333 -12 52 -12 80v270c0 79.333 24.667 144.166 74 194.499s112.666 75.5 189.999 75.5c72 0 133.333 -27 184 -81s76 -118 76 -192v-152c-68 56 -148.333 87.667 -241 95l58 20v40
c0 51.333 -25 77 -75 77c-20 0 -38.333 -7.83301 -55 -23.5s-25 -33.5 -25 -53.5v-272c0 -22.667 7.83301 -41.334 23.5 -56.001s34.5 -22 56.5 -22h338v-186h-619z" />
    <glyph glyph-name="uniFECB" unicode="&#x639;" horiz-adv-x="789" arabic-form="initial" 
d="M-22 9l0.000976562 186.002h199c-8 25.333 -12 52 -12 80v270c0 79.333 24.667 144.166 74 194.499s112.666 75.5 189.999 75.5c72 0 133.333 -27 184 -81s76 -118 76 -192v-152c-66.667 64 -147 95.667 -241 95l58 20v40c0 51.333 -25 77 -75 77
c-20 0 -38.333 -7.83301 -55 -23.5s-25 -33.5 -25 -53.5v-272c0 -22.667 7.83301 -41.334 23.5 -56.001s34.5 -22 56.5 -22h258v-186h-711z" />
    <glyph glyph-name="uniFECC" unicode="&#x639;" horiz-adv-x="746" arabic-form="medial" 
d="M-24 9l0.000976562 186.002h219c-8 25.333 -12 52 -12 80v270c0 79.333 24.667 144.166 74 194.499s112.666 75.5 189.999 75.5c72 0 133.333 -27 184 -81s76 -118 76 -192v-152c-52.667 51.333 -133 83 -241 95l58 20v40c0 51.333 -25 77 -75 77
c-20 0 -38.333 -7.83301 -55 -23.5s-25 -33.5 -25 -53.5v-272c0 -22.667 7.83301 -41.334 23.5 -56.001s34.5 -22 56.5 -22h318v-186h-791z" />
    <glyph glyph-name="uniFECE" unicode="&#x63a;" horiz-adv-x="964" arabic-form="final" 
d="M368 9c-20 0 -38.665 -8.83105 -55.998 -26.498s-26 -36.167 -26 -55.5v-108c0 -21.333 8.33301 -39.5 25 -54.5s35.667 -22.5 57 -22.5c50 0 75 36.333 75 109h185c0 -94.667 -25.833 -169 -77.5 -223s-113.834 -81 -186.501 -81c-77.333 0 -140.5 25.667 -189.5 77
s-73.5 116.333 -73.5 195v106c0 82 24 147.5 72 196.5s112.333 73.5 193 73.5h29c-8 25.333 -12 52 -12 80v270c0 79.333 24.667 144.166 74 194.499s112.666 75.5 189.999 75.5c72 0 133.333 -27 184 -81s76 -118 76 -192v-152c-68 56 -148.333 87.667 -241 95l58 20v40
c0 51.333 -25 77 -75 77c-20 0 -38.333 -7.83301 -55 -23.5s-25 -33.5 -25 -53.5v-272c0 -22.667 7.83301 -41.334 23.5 -56.001s34.5 -22 56.5 -22h338v-186h-619zM632.002 1182c28 -4 50.001 -24 66.001 -60c12.667 -30.667 18 -63.667 16 -99
c-2 -34.667 -11.333 -65 -28 -91c-20 -30.667 -44.667 -43.667 -74 -39c-28 4 -49.667 24 -65 60c-12.667 30 -18.334 62.667 -17.001 98c2 35.333 11.333 66 28 92c20 29.333 44.667 42.333 74 39z" />
    <glyph glyph-name="uniFECF" unicode="&#x63a;" horiz-adv-x="783" arabic-form="initial" 
d="M-22 9l0.000976562 186.002h199c-8 25.333 -12 52 -12 80v270c0 79.333 24.667 144.166 74 194.499s112.666 75.5 189.999 75.5c72 0 133.333 -27 184 -81s76 -118 76 -192v-152c-66.667 64 -147 95.667 -241 95l58 20v40c0 51.333 -25 77 -75 77
c-20 0 -38.333 -7.83301 -55 -23.5s-25 -33.5 -25 -53.5v-272c0 -22.667 7.83301 -41.334 23.5 -56.001s34.5 -22 56.5 -22h258v-186h-711zM425.001 1179c28.667 -4 50.666 -24.001 65.999 -60.001c12.667 -30 18 -62.667 16 -98s-11.333 -65.666 -28 -90.999
c-19.333 -30.667 -43.666 -43.667 -72.999 -39c-28.667 4 -50.667 24 -66 60c-12.667 30 -18 62.667 -16 98c1.33301 35.333 10.333 66 27 92c20 29.333 44.667 42 74 38z" />
    <glyph glyph-name="uniFED0" unicode="&#x63a;" horiz-adv-x="748" arabic-form="medial" 
d="M-24 9l0.000976562 186.002h219c-8 25.333 -12 52 -12 80v270c0 79.333 24.667 144.166 74 194.499s112.666 75.5 189.999 75.5c72 0 133.333 -27 184 -81s76 -118 76 -192v-152c-52.667 51.333 -133 83 -241 95l58 20v40c0 51.333 -25 77 -75 77
c-20 0 -38.333 -7.83301 -55 -23.5s-25 -33.5 -25 -53.5v-272c0 -22.667 7.83301 -41.334 23.5 -56.001s34.5 -22 56.5 -22h318v-186h-791zM425.001 1179c28.667 -4 50.666 -24.001 65.999 -60.001c12.667 -30 18 -62.667 16 -98s-11.333 -65.666 -28 -90.999
c-19.333 -30.667 -43.666 -43.667 -72.999 -39c-28.667 4 -50.667 24 -66 60c-12.667 30 -18 62.667 -16 98c1.33301 35.333 10.333 66 27 92c20 29.333 44.667 42 74 38z" />
    <glyph glyph-name="uniFED2" unicode="&#x641;" horiz-adv-x="1396" arabic-form="final" 
d="M378 9c-78 0 -142.834 24.833 -194.501 74.5s-77.5 112.834 -77.5 189.501c0 75.333 26.833 139.5 80.5 192.5s118.167 79.5 193.5 79.5h99v-189h-99c-52.667 0 -79 -26.333 -79 -79c0 -21.333 7.5 -40.333 22.5 -57s33.167 -25 54.5 -25h559
c-74.667 25.333 -119.667 83.666 -135 174.999v175c0 78 25.833 142.167 77.5 192.5s116.834 75.5 195.501 75.5c72 0 134.833 -26 188.5 -78s80.5 -113.667 80.5 -185v-355h72v-186h-1038zM1154 547c0 47.333 -26.001 71 -78.001 71c-19.333 0 -38 -7.5 -56 -22.5
s-27 -31.833 -27 -50.5v-138c0 -15.333 11.333 -30.333 34 -45c20.667 -13.333 39.334 -20 56.001 -20h71v205zM1072 1183c28 -4 50.001 -24 66.001 -60c12.667 -30.667 18 -63.667 16 -99c-2 -34.667 -11.333 -65 -28 -91c-20 -30.667 -44.667 -43.667 -74 -39
c-28 4 -49.667 24 -65 60c-12.667 30 -18.334 62.667 -17.001 98c2 35.333 11.333 66 28 92c20 29.333 44.667 42.333 74 39z" />
    <glyph glyph-name="uniFED3" unicode="&#x641;" horiz-adv-x="776" arabic-form="initial" 
d="M-21 9l-0.000976562 185.998h309c-78.667 32.667 -122 97.334 -130 194.001v155c0 78 23.833 142.333 71.5 193s109.834 76 186.501 76c68 0 128 -26.667 180 -80s78 -114.666 78 -183.999v-540h-695zM489.999 546.998c0 20 -7.16797 36.667 -21.501 50
s-31.5 20 -51.5 20c-19.333 0 -37.166 -7.16699 -53.499 -21.5s-24.5 -31.5 -24.5 -51.5v-137c0 -16 9.83301 -30.667 29.5 -44s37.5 -20 53.5 -20h68v204zM421.998 1183c28 -4 50.001 -24 66.001 -60c12.667 -30.667 18 -63.667 16 -99c-2 -34.667 -11.333 -65 -28 -91
c-20 -30.667 -44.667 -43.667 -74 -39c-28 4 -49.667 24 -65 60c-12.667 30 -18.334 62.667 -17.001 98c2 35.333 11.333 66 28 92c20 29.333 44.667 42.333 74 39z" />
    <glyph glyph-name="uniFED4" unicode="&#x641;" horiz-adv-x="760" arabic-form="medial" 
d="M-25 9l-0.000976562 185.998h339c-78.667 32.667 -122 97.334 -130 194.001v155c0 78 23.833 142.333 71.5 193s109.834 76 186.501 76c68 0 128 -26.667 180 -80s78 -114.666 78 -183.999v-354h83v-186h-808zM515.999 546.998c0 20 -7.16797 36.667 -21.501 50
s-31.5 20 -51.5 20c-19.333 0 -37.166 -7.16699 -53.499 -21.5s-24.5 -31.5 -24.5 -51.5v-137c0 -16 9.83301 -30.667 29.5 -44s37.5 -20 53.5 -20h68v204zM451.998 1183c28 -4 50.001 -24 66.001 -60c12.667 -30.667 18 -63.667 16 -99c-2 -34.667 -11.333 -65 -28 -91
c-20 -30.667 -44.667 -43.667 -74 -39c-28 4 -49.667 24 -65 60c-12.667 30 -18.334 62.667 -17.001 98c2 35.333 11.333 66 28 92c20 29.333 44.667 42.333 74 39z" />
    <glyph glyph-name="uniFED6" unicode="&#x642;" horiz-adv-x="1246" arabic-form="final" 
d="M981 544c0 20.667 -7.83301 37.833 -23.5 51.5s-34.167 20.5 -55.5 20.5c-18.667 0 -37 -7.66699 -55 -23s-27 -32.333 -27 -51v-128c0 -16.667 11 -32 33 -46c20 -13.333 38.667 -20 56 -20h72v196zM982 -26.001l-1.00098 113v65h-79c-69.333 0 -129.833 23 -181.5 69
s-81.5 103.333 -89.5 172v149c0 77.333 25.5 141.5 76.5 192.5s115.167 76.5 192.5 76.5c72 0 134.667 -26.333 188 -79s80 -114.667 80 -186v-351h102v-186h-102v-222h-846c-77.333 0 -141 25 -191 75s-75 113 -75 189c0 73.333 26.167 136.5 78.5 189.5
s114.833 79.5 187.5 79.5h97v-188h-97c-50 0 -75 -26 -75 -78c0 -20.667 7.33301 -39.167 22 -55.5s32.334 -24.5 53.001 -24.5h660zM997.999 1183c28 -4 50.001 -24 66.001 -60c12.667 -30.667 18 -63.667 16 -99c-2 -34.667 -11.333 -65 -28 -91
c-20 -30.667 -44.667 -43.667 -74 -39c-28 4 -49.667 24 -65 60c-12.667 30 -18.334 62.667 -17.001 98c2 35.333 11.333 66 28 92c20 29.333 44.667 42.333 74 39zM778 1183c28 -4 50.001 -24 66.001 -60c12.667 -30.667 18 -63.667 16 -99c-2 -34.667 -11.333 -65 -28 -91
c-20 -30.667 -44.667 -43.667 -74 -39c-28 4 -49.667 24 -65 60c-12.667 30 -18.334 62.667 -17.001 98c2 35.333 11.333 66 28 92c20 29.333 44.667 42.333 74 39z" />
    <glyph glyph-name="uniFED7" unicode="&#x642;" horiz-adv-x="774" arabic-form="initial" 
d="M-21 9l-0.000976562 185.998h309c-78.667 32.667 -122 97.334 -130 194.001v155c0 78 23.833 142.333 71.5 193s109.834 76 186.501 76c68 0 128 -26.667 180 -80s78 -114.666 78 -183.999v-540h-695zM489.999 546.998c0 20 -7.16797 36.667 -21.501 50
s-31.5 20 -51.5 20c-19.333 0 -37.166 -7.16699 -53.499 -21.5s-24.5 -31.5 -24.5 -51.5v-137c0 -16 9.83301 -30.667 29.5 -44s37.5 -20 53.5 -20h68v204zM521.998 1183c28 -4 50.001 -24 66.001 -60c12.667 -30.667 18 -63.667 16 -99c-2 -34.667 -11.333 -65 -28 -91
c-20 -30.667 -44.667 -43.667 -74 -39c-28 4 -49.667 24 -65 60c-12.667 30 -18.334 62.667 -17.001 98c2 35.333 11.333 66 28 92c20 29.333 44.667 42.333 74 39zM301.999 1183c28 -4 50.001 -24 66.001 -60c12.667 -30.667 18 -63.667 16 -99
c-2 -34.667 -11.333 -65 -28 -91c-20 -30.667 -44.667 -43.667 -74 -39c-28 4 -49.667 24 -65 60c-12.667 30 -18.334 62.667 -17.001 98c2 35.333 11.333 66 28 92c20 29.333 44.667 42.333 74 39z" />
    <glyph glyph-name="uniFED8" unicode="&#x642;" horiz-adv-x="760" arabic-form="medial" 
d="M-25 9l-0.000976562 185.998h339c-78.667 32.667 -122 97.334 -130 194.001v155c0 78 23.833 142.333 71.5 193s109.834 76 186.501 76c68 0 128 -26.667 180 -80s78 -114.666 78 -183.999v-354h83v-186h-808zM515.999 546.998c0 20 -7.16797 36.667 -21.501 50
s-31.5 20 -51.5 20c-19.333 0 -37.166 -7.16699 -53.499 -21.5s-24.5 -31.5 -24.5 -51.5v-137c0 -16 9.83301 -30.667 29.5 -44s37.5 -20 53.5 -20h68v204zM551.998 1183c28 -4 50.001 -24 66.001 -60c12.667 -30.667 18 -63.667 16 -99c-2 -34.667 -11.333 -65 -28 -91
c-20 -30.667 -44.667 -43.667 -74 -39c-28 4 -49.667 24 -65 60c-12.667 30 -18.334 62.667 -17.001 98c2 35.333 11.333 66 28 92c20 29.333 44.667 42.333 74 39zM331.999 1183c28 -4 50.001 -24 66.001 -60c12.667 -30.667 18 -63.667 16 -99
c-2 -34.667 -11.333 -65 -28 -91c-20 -30.667 -44.667 -43.667 -74 -39c-28 4 -49.667 24 -65 60c-12.667 30 -18.334 62.667 -17.001 98c2 35.333 11.333 66 28 92c20 29.333 44.667 42.333 74 39z" />
    <glyph glyph-name="uniFEDE" unicode="&#x644;" horiz-adv-x="1000" arabic-form="final" 
d="M1025 9h-128.999v-220h-530c-78.667 0 -143.167 24.667 -193.5 74s-75.5 113.666 -75.5 192.999c0 74.667 26.333 139.334 79 194.001s116 82 190 82h97v-192h-97c-50 0 -75 -26.667 -75 -80c0 -22 7.16699 -41.667 21.5 -59s32.166 -26 53.499 -26h350v1213h-88
c118.667 40 208 116.667 268 230v-1223h129v-186z" />
    <glyph glyph-name="uniFEDF" unicode="&#x644;" horiz-adv-x="476" arabic-form="initial" 
d="M-30 9l0.000976562 186h224v990h-88c119.333 40 208.666 116.667 267.999 230v-1406h-404z" />
    <glyph glyph-name="uniFEE0" unicode="&#x644;" horiz-adv-x="456" arabic-form="medial" 
d="M-30 9l0.000976562 186h224v990h-88c119.333 40 208.666 116.667 267.999 230v-1220h110v-186h-514z" />
    <glyph glyph-name="uniFEE2" unicode="&#x645;" horiz-adv-x="670" arabic-form="final" 
d="M574 9c-56 -73.333 -127.333 -110 -214 -110h-66v-43c0 -75.333 -23.667 -138.666 -71 -189.999s-119 -77 -215 -77v192c62.667 0 94 25 94 75v688c0 72 25.5 134.833 76.5 188.5s111.5 80.5 181.5 80.5c77.333 0 139.5 -24.833 186.5 -74.5s70.5 -113.834 70.5 -192.501
v-351h79v-186h-122zM440 546c0 20 -8.66699 37.333 -26 52s-36 22 -56 22c-48 0 -72 -25.333 -72 -76v-452h72c54.667 0 82 24.667 82 74v380z" />
    <glyph glyph-name="uniFEE3" unicode="&#x645;" horiz-adv-x="810" arabic-form="initial" 
d="M450 -98h-253v107h-217v186h217v353c0 71.333 25 132.833 75 184.5s110.333 77.5 181 77.5c74.667 0 136 -24.5 184 -73.5s72 -111.167 72 -186.5v-387c0 -74 -24.667 -136 -74 -186s-111 -75 -185 -75zM528 550c0 18 -8.33203 34.167 -24.999 48.5
s-34.334 21.5 -53.001 21.5c-49.333 0 -74 -24 -74 -72v-457h74c52 0 78 23.333 78 70v389z" />
    <glyph glyph-name="uniFEE4" unicode="&#x645;" horiz-adv-x="738" arabic-form="medial" 
d="M635 9c-53.333 -72 -122.999 -107.999 -208.999 -107.999h-258v108h-190v186h190v354c0 71.333 25.667 132.666 77 183.999s112.666 77 183.999 77c75.333 0 137.5 -24.333 186.5 -73s73.5 -111 73.5 -187v-355h72v-186h-126zM506.001 550.001
c0 18.667 -8.83301 35.167 -26.5 49.5s-36.167 21.5 -55.5 21.5c-48.667 0 -73 -24 -73 -72v-458h73c54.667 0 82 23.333 82 70v389z" />
    <glyph glyph-name="uniFEE6" unicode="&#x646;" horiz-adv-x="1024" arabic-form="final" 
d="M966 9l-0.000976562 -220h-599c-77.333 0 -141 25 -191 75s-75 113.667 -75 191c0 73.333 26.167 136.5 78.5 189.5s114.833 79.5 187.5 79.5h97v-188h-97c-50 0 -75 -26 -75 -78c0 -20.667 7.33301 -39.5 22 -56.5s32.334 -25.5 53.001 -25.5h419v604h-88
c118.667 40 208 116.667 268 230v-615h79v-186h-79zM551.999 869c28 -4 50.001 -24 66.001 -60c12.667 -30.667 18 -63.667 16 -99c-2 -34.667 -11.333 -65 -28 -91c-20 -30.667 -44.667 -43.667 -74 -39c-28 4 -49.667 24 -65 60c-12.667 30 -18.334 62.667 -17.001 98
c2 35.333 11.333 66 28 92c20 29.333 44.667 42.333 74 39z" />
    <glyph glyph-name="uniFEE7" unicode="&#x646;" horiz-adv-x="581" arabic-form="initial" 
d="M-27 9l0.000976562 186h328v382h-88c119.333 40 208.666 116.667 267.999 230v-798h-508zM330.001 1183c28 -4 50.001 -24 66.001 -60c12.667 -30.667 18 -63.667 16 -99c-2 -34.667 -11.333 -65 -28 -91c-20 -30.667 -44.667 -43.667 -74 -39c-28 4 -49.667 24 -65 60
c-12.667 30 -18.334 62.667 -17.001 98c2 35.333 11.333 66 28 92c20 29.333 44.667 42.333 74 39z" />
    <glyph glyph-name="uniFEE8" unicode="&#x646;" horiz-adv-x="519" arabic-form="medial" 
d="M-25 9l0.000976562 186h328v382h-88c119.333 40 208.666 116.667 267.999 230v-612h55v-186h-563zM332.001 1183c28 -4 50.001 -24 66.001 -60c12.667 -30.667 18 -63.667 16 -99c-2 -34.667 -11.333 -65 -28 -91c-20 -30.667 -44.667 -43.667 -74 -39
c-28 4 -49.667 24 -65 60c-12.667 30 -18.334 62.667 -17.001 98c2 35.333 11.333 66 28 92c20 29.333 44.667 42.333 74 39z" />
    <glyph glyph-name="uniFEEA" unicode="&#x647;" horiz-adv-x="700" arabic-form="final" 
d="M101 9v355c0 100.667 43 190.667 129 270c59.333 60.667 132 95.667 218 105c68 10.667 123 34.667 165 72v-616h108v-186h-620zM432 538c-37.333 -12.667 -70 -35.333 -98 -68c-28.667 -35.333 -43 -72.333 -43 -111v-164h141v343z" />
    <glyph glyph-name="uniFEEB" unicode="&#x647;" horiz-adv-x="1055" arabic-form="initial" 
d="M-21 9v186.001h201v98c0 72 26 133.833 78 185.5s114.333 77.5 187 77.5c78 0 142 -24.333 192 -73s75 -111.334 75 -188.001v-20c0 -28 -4.33301 -54.667 -13 -80h67v354c0 48.667 -28 73 -84 73h-265l-20 -60c-38 124 -108 207 -210 249h497
c74 0 137.333 -25.333 190 -76s79 -112.667 79 -186v-540h-974zM525 295.001c0 19.333 -8.66699 36.501 -26 51.501s-36 22.5 -56 22.5c-51.333 0 -77 -24.667 -77 -74v-100h77c22 0 41.167 7.66699 57.5 23s24.5 33.666 24.5 54.999v22z" />
    <glyph glyph-name="uniFEEC" unicode="&#x647;" horiz-adv-x="1011" arabic-form="medial" 
d="M-21 9v186.001h201v98c0 72 26 133.833 78 185.5s114.333 77.5 187 77.5c78 0 142 -24.333 192 -73s75 -111.334 75 -188.001v-20c0 -28 -4.33301 -54.667 -13 -80h67v354c0 48.667 -28 73 -84 73h-265l-20 -60c-38 124 -108 207 -210 249h497
c74 0 137.333 -25.333 190 -76s79 -112.667 79 -186v-354h78v-186h-1052zM525 295.001c0 19.333 -8.66699 36.501 -26 51.501s-36 22.5 -56 22.5c-51.333 0 -77 -24.667 -77 -74v-100h77c22 0 41.167 7.66699 57.5 23s24.5 33.666 24.5 54.999v22z" />
    <glyph glyph-name="uniFEEE" unicode="&#x648;" horiz-adv-x="690" arabic-form="final" 
d="M611 9c-8 -64 -36.167 -116.667 -84.5 -158s-104.5 -62 -168.5 -62h-247v190h247c30 0 51.333 10 64 30h-64c-73.333 0 -134.333 24.833 -183 74.5s-73 111.834 -73 186.501v196c0 73.333 25 135.5 75 186.5s111 76.5 183 76.5c122 -6.66699 206 19.666 252 78.999v-613
h97v-186h-98zM435 538l-69 -0.000976562c-19.333 0 -38 -7.16699 -56 -21.5s-27 -31.166 -27 -50.499v-196c0 -18 8.33301 -35 25 -51s34 -24 52 -24h75v343z" />
    <glyph glyph-name="uniFEF0" unicode="&#x649;" horiz-adv-x="1328" arabic-form="final" 
d="M364 9c-77.333 0 -140.665 24.835 -189.998 74.502s-74 113.5 -74 191.5c0 74 25.667 137.667 77 191s113.666 80 186.999 80h97v-188h-97c-50 0 -75 -26.333 -75 -79c0 -20.667 7.5 -39.834 22.5 -57.501s32.5 -26.5 52.5 -26.5h411v277
c0 75.333 25.667 138.666 77 189.999s114.666 77 189.999 77c102 -10 176.333 14 223 72v-616h79v-186h-266v537h-63c-35.333 -8 -53 -32 -53 -72v-465h-598z" />
    <glyph glyph-name="space" unicode=" " horiz-adv-x="340" 
 />
    <glyph glyph-name="exclam" unicode="!" horiz-adv-x="673" 
d="M222 55c0 -48.667 -23 -73 -69 -73c-48 0 -72 23.667 -72 71c0 49.333 24 74 72 74c46 0 69 -24 69 -72zM196 246h-91l-16 1120h129z" />
    <glyph glyph-name="percent" unicode="%" horiz-adv-x="1294" 
d="M809 126c0 -31.333 -11.334 -58.666 -34.001 -81.999s-48.667 -35 -78 -35c-31.333 0 -58.666 11.667 -81.999 35s-35 50.666 -35 81.999c0 32 11.5 59.167 34.5 81.5s50.5 33.5 82.5 33.5c30 0 56.167 -11.333 78.5 -34s33.5 -49.667 33.5 -81zM313.999 0h-157l418 1400
h159zM82.999 1274c0 31.333 11.334 58.666 34.001 81.999s48.667 35 78 35c31.333 0 58.666 -11.667 81.999 -35s35 -50.666 35 -81.999c0 -32 -11.5 -59.167 -34.5 -81.5s-50.5 -33.5 -82.5 -33.5c-30 0 -56.167 11.333 -78.5 34s-33.5 49.667 -33.5 81z" />
    <glyph glyph-name="parenleft" unicode="(" horiz-adv-x="884" 
d="M461 -2l-89 -86c-203.333 228 -305 484.667 -305 770c0 268.667 101.333 526 304 772l92 -85c-176 -208 -264 -437 -264 -687c0 -244.667 87.333 -472.667 262 -684z" />
    <glyph glyph-name="parenright" unicode=")" horiz-adv-x="884" 
d="M24 1369l93 85.001c202.667 -230.667 304 -487.334 304 -770.001c0 -268.667 -101.333 -526 -304 -772l-93 86c176 207.333 264 436 264 686c0 244.667 -88 473 -264 685z" />
    <glyph glyph-name="asterisk" unicode="*" horiz-adv-x="1118" 
d="M709 1452h132l-189 -139l136 -191l-123 39l40 -128l-198 141l-138 -188v121l-105 -74l74 235l-230 75l116 38l-96 71h241v247l78 -106l39 119l72 -222l230 73z" />
    <glyph glyph-name="plus" unicode="+" horiz-adv-x="936" 
d="M835 312h-321v-323h-84v323h-325v83h325v328h84v-328h321v-83z" />
    <glyph glyph-name="comma" unicode="," 
d="M301 224c0 -48 -18.001 -98.665 -54.001 -151.998c-29.333 -43.333 -69.666 -81.333 -120.999 -114c0 74.667 -9.33301 117 -28 127c8 2.66699 20.333 9 37 19c24 19.333 36 38.666 36 57.999c-34.667 12 -52 38.333 -52 79c0 24.667 8.5 45.5 25.5 62.5
s37.5 25.5 61.5 25.5c28 0 50.833 -9.83301 68.5 -29.5s26.5 -44.834 26.5 -75.501z" />
    <glyph glyph-name="hyphen" unicode="-" horiz-adv-x="1024" 
d="M395 604h-340v80h340v-80z" />
    <glyph glyph-name="period" unicode="." horiz-adv-x="579" 
d="M242 55c0 -20 -7.16797 -37.167 -21.501 -51.5s-31.166 -21.5 -50.499 -21.5c-20.667 0 -38.167 7.16699 -52.5 21.5s-21.5 31.5 -21.5 51.5c0 48 24.667 72 74 72c48 0 72 -24 72 -72z" />
    <glyph glyph-name="slash" unicode="/" horiz-adv-x="745" 
d="M235 0h-157l418 1400h159z" />
    <glyph glyph-name="zero" unicode="0" horiz-adv-x="420" 
d="M285 617v-226h-180v226h180z" />
    <glyph glyph-name="zero" unicode="&#x6f0;" horiz-adv-x="420" 
d="M285 617v-226h-180v226h180z" />
    <glyph glyph-name="zero" unicode="&#x660;" horiz-adv-x="420" 
d="M285 617v-226h-180v226h180z" />
    <glyph glyph-name="one" unicode="1" horiz-adv-x="385" 
d="M17 9l0.000976562 1406c59.333 -113.333 148.666 -190 267.999 -230h-88v-1176h-180z" />
    <glyph glyph-name="one" unicode="&#x6f1;" horiz-adv-x="385" 
d="M17 9l0.000976562 1406c59.333 -113.333 148.666 -190 267.999 -230h-88v-1176h-180z" />
    <glyph glyph-name="one" unicode="&#x661;" horiz-adv-x="385" 
d="M17 9l0.000976562 1406c59.333 -113.333 148.666 -190 267.999 -230h-88v-1176h-180z" />
    <glyph glyph-name="two" unicode="2" horiz-adv-x="868" 
d="M285 616l0.00195312 -607h-180v1176h-88c119.333 40 208.666 116.667 267.999 230v-613h303v382h-88c119.333 40 208.666 116.667 267.999 230v-798h-483z" />
    <glyph glyph-name="two" unicode="&#x6f2;" horiz-adv-x="868" 
d="M285 616l0.00195312 -607h-180v1176h-88c119.333 40 208.666 116.667 267.999 230v-613h303v382h-88c119.333 40 208.666 116.667 267.999 230v-798h-483z" />
    <glyph glyph-name="two" unicode="&#x662;" horiz-adv-x="868" 
d="M285 616l0.00195312 -607h-180v1176h-88c119.333 40 208.666 116.667 267.999 230v-613h303v382h-88c119.333 40 208.666 116.667 267.999 230v-798h-483z" />
    <glyph glyph-name="three" unicode="3" horiz-adv-x="1138" 
d="M285 9h-179.997v1176h-88c119.333 40 208.666 116.667 267.999 230v-613h233v382h-88c119.333 40 208.666 116.667 267.999 230v-612h160v382h-88c119.333 40 208.666 116.667 267.999 230v-798h-753v-607z" />
    <glyph glyph-name="three" unicode="&#x6f3;" horiz-adv-x="1138" 
d="M285 9h-179.997v1176h-88c119.333 40 208.666 116.667 267.999 230v-613h233v382h-88c119.333 40 208.666 116.667 267.999 230v-612h160v382h-88c119.333 40 208.666 116.667 267.999 230v-798h-753v-607z" />
    </font>
</defs>
</svg>
