<?xml version="1.0" standalone="no"?>
<!DOCTYPE svg PUBLIC "-//W3C//DTD SVG 1.1//EN" "http://www.w3.org/Graphics/SVG/1.1/DTD/svg11.dtd" >
<svg>
<metadata>
Created by FontForge 20090914 at Wed Oct 19 00:45:23 2011
 By www-data
(c) by Abolfazl Seilsepour - +98 912 591 3420  -  seilsepor@yahoo.com
</metadata>
<defs>
<font id="FarAkbar" horiz-adv-x="621" >
  <font-face 
    font-family="Far.Akbar"
    font-weight="400"
    font-stretch="normal"
    units-per-em="2048"
    panose-1="0 0 4 0 0 0 0 0 0 0"
    ascent="1638"
    descent="-410"
    bbox="-289 -1086 2457 2179.1"
    underline-thickness="100"
    underline-position="-850"
    unicode-range="U+0020-U+FEFC"
  />
<missing-glyph horiz-adv-x="1024" 
d="M128 0v1360h768v-1360h-768zM256 128h512v1104h-512v-1104z" />
    <glyph glyph-name=".notdef" unicode="&#x652;&#x64d;" horiz-adv-x="1024" 
d="M128 0v1360h768v-1360h-768zM256 128h512v1104h-512v-1104z" />
    <glyph glyph-name="copyright" unicode="&#x652;&#x64b;" horiz-adv-x="1816" 
d="M862 1495c125.333 0 247.5 -32 366.5 -96s211.833 -155.5 278.5 -274.5s100 -243.167 100 -372.5s-32.833 -253.333 -98.5 -372s-157.667 -210.5 -276 -275.5s-241.833 -97.5 -370.5 -97.5c-129.333 0 -252.833 32.5 -370.5 97.5s-209.5 156.833 -275.5 275.5
s-99 242.667 -99 372s33.5 253.5 100.5 372.5s160 210.5 279 274.5s240.833 96 365.5 96zM862 1431c-114 0 -225.169 -29.333 -333.502 -88s-193.166 -142.334 -254.499 -251.001s-92 -222 -92 -340s30 -230.833 90 -338.5s144 -191.667 252 -252s220.667 -90.5 338 -90.5
s230 30.167 338 90.5s192.167 144.333 252.5 252s90.5 220.5 90.5 338.5s-30.667 231.333 -92 340s-146.166 192.334 -254.499 251.001s-219.833 88 -334.5 88zM1230 1230l22 -293.999h-41c-26 83.333 -66.167 145.5 -120.5 186.5s-120.166 61.5 -197.499 61.5
c-58 0 -109.333 -12 -154 -36s-81.334 -55.667 -110.001 -95c-21.333 -30.667 -39 -71 -53 -121s-21 -102 -21 -156c0 -148.667 32 -258.167 96 -328.5s148 -105.5 252 -105.5c136 0 245 56.667 327 170l39 -20c-97.333 -142 -231 -213 -401 -213
c-140.667 0 -257 45.333 -349 136s-138 200.667 -138 330c0 134 49 248.333 147 343s223 142 375 142c33.333 0 60.333 -2 81 -6s59 -15 115 -33c16.667 -6 29 -9 37 -9c11.333 0 21 3.16699 29 9.5s16 19.166 24 38.499h41z" />
    <glyph glyph-name="uniE818" unicode="&#x651;&#x64b;" 
d="M613 1657c-61.333 -19.333 -151.666 -56.667 -270.999 -112c-106 -50 -175.667 -75 -209 -75h-148l252 115c103.333 48 172.666 72 207.999 72h168zM651 1546c-61.333 -19.333 -151.666 -56.667 -270.999 -112c-106 -50 -175.667 -75 -209 -75h-148l252 115
c103.333 48 172.666 72 207.999 72h168zM648 1286c-45.333 -10 -112.333 -37.999 -201 -83.999c-86.667 -44.667 -138.667 -67 -156 -67c-34.667 0 -70.667 27.667 -108 83c-12.667 19.333 -35.334 48 -68.001 86h85c24 0 46.667 -10.667 68 -32s34 -32 38 -32
c22 0 33 9.66699 33 29c0 17.333 -7.33301 37 -22 59c-13.333 18.667 -35.333 37.334 -66 56.001h100c25.333 0 46 -12.333 62 -37c21.333 -32 33 -48 35 -48c20 0 30 12.667 30 38c0 31.333 -24.667 60.333 -74 87l86 7c41.333 3.33301 70.333 -14.334 87 -53.001
s40.334 -69.334 71.001 -92.001z" />
    <glyph glyph-name="uniFC5E" unicode="&#x651;&#x64c;" arabic-form="isolated" 
d="M648 1286c-45.333 -10 -112.331 -38.001 -200.998 -84.001c-86.667 -44.667 -139 -67 -157 -67c-34 0 -69.667 27.667 -107 83c-12.667 19.333 -35.334 48 -68.001 86h84c24.667 0 47.667 -10.667 69 -32s33.666 -32 36.999 -32c22 0 33 9.66699 33 29
c0 17.333 -7 37 -21 59c-13.333 18.667 -35.333 37.334 -66 56.001h99c26 0 47 -12.333 63 -37c21.333 -32 32.666 -48 33.999 -48c20 0 30 12.667 30 38c0 30 -15 53.333 -45 70c-8.66699 3.33301 -21 11.333 -37 24c-94 -52 -169.667 -78 -227 -78v75
c-18 -8 -45.667 -12 -83 -12h-116c62 26.667 136 61.334 222 104.001l77 42v-100c6.66699 2.66699 25 11 55 25l-19 17c-26.667 23.333 -40 47.333 -40 72c0 26.667 14 51 42 73l146 116c0 -34.667 14.667 -74.334 44 -119.001s44 -76.667 44 -96
c0 -33.333 -22.667 -60 -68 -80l45 -40c26 -2 47 -21.667 63 -59c14.667 -34 37.334 -62.333 68.001 -85zM441.002 1560c0 30.667 -13.667 46 -41 46c-24 0 -36 -10.333 -36 -31c0 -8 13.667 -23 41 -45c24 14 36 24 36 30z" />
    <glyph glyph-name="uniFC5F" unicode="&#x651;&#x64d;" horiz-adv-x="678" arabic-form="isolated" 
d="M577 1496c-45.333 -10 -112.333 -37.999 -201 -83.999c-86.667 -44.667 -138.667 -67 -156 -67c-34.667 0 -70.667 27.667 -108 83c-12.667 19.333 -35.334 48 -68.001 86h85c24 0 46.667 -10.667 68 -32s34 -32 38 -32c22 0 33 9.66699 33 29
c0 17.333 -7.33301 37 -22 59c-13.333 18.667 -35.333 37.334 -66 56.001h100c25.333 0 46 -12.333 62 -37c21.333 -32 33 -48 35 -48c20 0 30 12.667 30 38c0 31.333 -24.667 60.333 -74 87l86 7c41.333 3.33301 70.333 -14.334 87 -53.001s40.334 -69.334 71.001 -92.001z
M707 1433c-61.333 -19.333 -151.666 -56.667 -270.999 -112c-106 -50 -175.667 -75 -209 -75h-148l252 115c103.333 48 172.666 72 207.999 72h168zM745 1322c-61.333 -19.333 -151.666 -56.667 -270.999 -112c-106 -50 -175.667 -75 -209 -75h-148l252 115
c103.333 48 172.666 72 207.999 72h168z" />
    <glyph glyph-name="uniFC60" unicode="&#x651;&#x64e;" arabic-form="isolated" 
d="M650 1546c-61.333 -19.333 -151.666 -56.667 -270.999 -112c-106 -50 -175.667 -75 -209 -75h-148l252 115c103.333 48 172.666 72 207.999 72h168zM647 1286c-45.333 -10 -112.333 -37.999 -201 -83.999c-86.667 -44.667 -138.667 -67 -156 -67
c-34.667 0 -70.667 27.667 -108 83c-12.667 19.333 -35.334 48 -68.001 86h85c24 0 46.667 -10.667 68 -32s34 -32 38 -32c22 0 33 9.66699 33 29c0 17.333 -7.33301 37 -22 59c-13.333 18.667 -35.333 37.334 -66 56.001h100c25.333 0 46 -12.333 62 -37
c21.333 -32 33 -48 35 -48c20 0 30 12.667 30 38c0 31.333 -24.667 60.333 -74 87l86 7c41.333 3.33301 70.333 -14.334 87 -53.001s40.334 -69.334 71.001 -92.001z" />
    <glyph glyph-name="uniFC61" unicode="&#x651;&#x64f;" arabic-form="isolated" 
d="M647 1286c-44.667 -10 -111.331 -38 -199.998 -84c-86.667 -44.667 -139 -67 -157 -67c-34 0 -69.667 27.667 -107 83c-12.667 19.333 -35.334 48 -68.001 86h84c24.667 0 47.667 -10.667 69 -32s33.666 -32 36.999 -32c22 0 33 9.66699 33 29c0 17.333 -7 37 -21 59
c-13.333 18.667 -35.333 37.334 -66 56.001h99c26 0 47 -12.333 63 -37c21.333 -32 32.666 -48 33.999 -48c20 0 30 12.667 30 38c0 30 -15 53.333 -45 70c-9.33301 3.33301 -22.666 12 -39.999 26c4 2 -25 -12.667 -87 -44c-46.667 -24 -89.667 -36 -129 -36h-148
c104 39.333 201.667 84.333 293 135l-18 16c-26 24 -39 48 -39 72c0 26.667 14 51 42 73l146 116c0 -34.667 14.667 -74.334 44 -119.001s44 -76.667 44 -96c0 -33.333 -22.667 -60 -68 -80l45 -40c26 -2 47 -21.667 63 -59c14.667 -34 37 -62.333 67 -85zM441.003 1560
c0 30.667 -13.667 46 -41 46c-24 0 -36 -10.333 -36 -31c0 -8 13.667 -23 41 -45c24 14 36 24 36 30z" />
    <glyph glyph-name="uniFC62" unicode="&#x651;&#x650;" horiz-adv-x="640" arabic-form="isolated" 
d="M577 1385c-45.333 -10 -112.333 -37.999 -201 -83.999c-86.667 -44.667 -138.667 -67 -156 -67c-34.667 0 -70.667 27.667 -108 83c-12.667 19.333 -35.334 48 -68.001 86h85c24 0 46.667 -10.667 68 -32s34 -32 38 -32c22 0 33 9.66699 33 29
c0 17.333 -7.33301 37 -22 59c-13.333 18.667 -35.333 37.334 -66 56.001h100c25.333 0 46 -12.333 62 -37c21.333 -32 33 -48 35 -48c20 0 30 12.667 30 38c0 31.333 -24.667 60.333 -74 87l86 7c41.333 3.33301 70.333 -14.334 87 -53.001s40.334 -69.334 71.001 -92.001z
M707 1322c-61.333 -19.333 -151.666 -56.667 -270.999 -112c-106 -50 -175.667 -75 -209 -75h-148l252 115c103.333 48 172.666 72 207.999 72h168z" />
    <glyph glyph-name="uniFD3E" unicode="&#x652;&#x64e;" horiz-adv-x="937" 
d="M454 352c21.333 0 40.333 7.83301 57 23.5s25 35.167 25 58.5c0 20.667 -8.33301 38.5 -25 53.5s-35.667 22.5 -57 22.5c-22 0 -41.167 -7.5 -57.5 -22.5s-24.5 -32.833 -24.5 -53.5c0 -23.333 8.16699 -42.833 24.5 -58.5s35.5 -23.5 57.5 -23.5zM736 606v-96
c19.333 -4 41 -14.167 65 -30.5s36 -33.5 36 -51.5c0 -24.667 -33.667 -52.667 -101 -84v-90c0 -19.333 -4.66699 -29 -14 -29c-5.33301 0 -13 3.66699 -23 11l-129 98c-9.33301 6.66699 -18.666 10 -27.999 10c-11.333 -1.33301 -17 -6 -17 -14
c0 -10 6.33301 -21.667 19 -35l106 -119c4 -8 6 -14.667 6 -20c0 -11.333 -10.667 -15.666 -32 -12.999l-72 11c-6.66699 -34.667 14.333 -97 63 -187c33.333 -61.333 67 -114.666 101 -159.999c65.333 -65.333 98 -104 98 -116c0 -10 -6 -15 -18 -15
c-26 0 -85.667 48 -179 144c-108.667 113.333 -181.667 224.666 -219 333.999l-112 -21c-18 -1.33301 -27 3.33398 -27 14.001c0 7.33301 2.66699 15 8 23l99 135c8 9.33301 12 19.666 12 30.999c0 9.33301 -4.66699 14 -14 14c-10 0 -22.333 -6 -37 -18l-111 -96
c-12 -11.333 -22.333 -17 -31 -17c-13.333 0 -20 13 -20 39v86c-16.667 4 -35.667 14.333 -57 31c-26 20.667 -39 38.334 -39 53.001c0 26 32 53.333 96 82v100c0 18 6.66699 27 20 27c10 0 19 -4 27 -12l123 -105c9.33301 -8 18 -12 26 -12c8.66699 0 13.667 3.33301 15 10
c2.66699 8 0.666992 16.333 -6 25l-97 135c-6.66699 10.667 -10 19.667 -10 27c0 13.333 11 18.666 33 15.999l109 -16c30 87.333 78.333 171.666 145 252.999c49.333 60.667 104.666 116 165.999 166c47.333 40 74.666 60 81.999 60c14.667 0 22 -5.66699 22 -17
c0 -2.66699 -32.667 -42 -98 -118c-32.667 -38.667 -69 -96 -109 -172c-43.333 -86 -61.666 -143.333 -54.999 -172l76 4c14.667 2.66699 22 -1 22 -11c0 -8 -6 -19.333 -18 -34l-102 -119c-6 -6.66699 -9 -13 -9 -19c0 -9.33301 5 -14 15 -14c8 0 15.333 2.66699 22 8
l127 92c14 10 24.333 15 31 15c9.33301 0 14 -7 14 -21z" />
    <glyph glyph-name="uniFDF2" unicode="&#xfedf;&#xfee0;&#xfeea;" horiz-adv-x="1513" arabic-form="isolated" 
d="M372 560c-60 4 -88 -21 -84 -75v-107h155v182h-71zM443 0v188h-344v379c-2.66699 120 48.333 182 153 186h379v-565h254v872h188v-872h189v1329h188v-1517h-1007zM1026 1165l126 144v156h-97v-156l-29 -29l-26 28l1 1v156h-99v-156h1l-28 -29l-28 29v156h-96v-156
l124 -144l76 87z" />
    <glyph glyph-name="uniFEF5" unicode="&#xfedf;&#xfe82;" horiz-adv-x="718" arabic-form="isolated" 
d="M333 998l-4.99902 -66c-34 -41.333 -67.333 -62 -100 -62c-12.667 0 -31.334 6 -56.001 18s-43.667 18 -57 18c-22.667 0 -48.667 -9 -78 -27l12 72c30 25.333 55.667 38 77 38c14 0 34 -5.66699 60 -17s45.667 -17 59 -17c26.667 0 56 14.333 88 43zM425.001 1163h196
v-1158c3.33301 -76 -19.667 -131.667 -69 -167l-494 -405l-119 156l432 347c40 26 58 70.333 54 133v1094zM296.001 753v-740l-198 -187v927h198z" />
    <glyph glyph-name="uniFEF6" unicode="&#xfee0;&#xfe82;" horiz-adv-x="718" arabic-form="final" 
d="M425 1163h196v-975h118v-188h-118c3.33301 -72.667 -19.667 -126.667 -69 -162l-494 -405l-119 156l432 347c40 26 58 70.333 54 133v1094zM296 753v-740l-198 -187v927h198zM333 998l-4.99902 -66c-34 -41.333 -67.333 -62 -100 -62c-12.667 0 -31.334 6 -56.001 18
s-43.667 18 -57 18c-22.667 0 -48.667 -9 -78 -27l12 72c30 25.333 55.667 38 77 38c14 0 34 -5.66699 60 -17s45.667 -17 59 -17c26.667 0 56 14.333 88 43z" />
    <glyph glyph-name="uniFEF7" unicode="&#xfedf;&#xfe84;" horiz-adv-x="718" arabic-form="isolated" 
d="M423 1163h196v-1158c3.33301 -76 -19.667 -131.667 -69 -167l-494 -405l-119 156l432 347c40 26 58 70.333 54 133v1094zM294 753v-740l-198 -187v927h198zM155 1020l149.999 -0.000976562v-74h-96c-25.333 0 -36.333 -19 -33 -57h129v-72h-243v72h40v69
c-3.33301 46.667 14.334 67.334 53.001 62.001z" />
    <glyph glyph-name="uniFEF8" unicode="&#xfee0;&#xfe84;" horiz-adv-x="718" arabic-form="final" 
d="M423 1163h196v-975h118v-188h-118c3.33301 -72.667 -19.667 -126.667 -69 -162l-494 -405l-119 156l432 347c40 26 58 70.333 54 133v1094zM294 753v-740l-198 -187v927h198zM155 1020l149.999 -0.000976562v-74h-96c-25.333 0 -36.333 -19 -33 -57h129v-72h-243v72h40
v69c-3.33301 46.667 14.334 67.334 53.001 62.001z" />
    <glyph glyph-name="uniFEF9" unicode="&#xfedf;&#xfe88;" horiz-adv-x="718" arabic-form="isolated" 
d="M423 1163h196v-1158c3.33301 -76 -19.667 -131.667 -69 -167l-494 -405l-119 156l432 347c40 26 58 70.333 54 133v1094zM294 753v-740l-198 -187v927h198zM410 -363l151 -0.000976562v-74h-96c-25.333 0 -36.333 -19 -33 -57h129v-72h-243v72h40v69
c-3.33301 46.667 14 67.334 52 62.001z" />
    <glyph glyph-name="uniFEFA" unicode="&#xfee0;&#xfe88;" horiz-adv-x="718" arabic-form="final" 
d="M423 1163h196v-975h118v-188h-118c3.33301 -72.667 -19.667 -126.667 -69 -162l-494 -405l-119 156l432 347c40 26 58 70.333 54 133v1094zM294 753v-740l-198 -187v927h198zM410 -363l151 -0.000976562v-74h-96c-25.333 0 -36.333 -19 -33 -57h129v-72h-243v72h40v69
c-3.33301 46.667 14 67.334 52 62.001z" />
    <glyph glyph-name="uniFEFB" unicode="&#xfedf;&#xfe8e;" horiz-adv-x="718" arabic-form="isolated" 
d="M423 1163h196v-1158c3.33301 -76 -19.667 -131.667 -69 -167l-494 -405l-119 156l432 347c40 26 58 70.333 54 133v1094zM294 753v-740l-198 -187v927h198z" />
    <glyph glyph-name="uniFEFC" unicode="&#xfee0;&#xfe8e;" horiz-adv-x="718" arabic-form="final" 
d="M423 1163h196v-975h118v-188h-118c3.33301 -72.667 -19.667 -126.667 -69 -162l-494 -405l-119 156l432 347c40 26 58 70.333 54 133v1094zM294 753v-740l-198 -187v927h198z" />
    <glyph glyph-name="afii57410" unicode="&#x622;" horiz-adv-x="366" arabic-form="isolated" 
d="M333 1751l-4.99902 -66c-34 -41.333 -67.333 -62 -100 -62c-12.667 0 -31.334 6 -56.001 18s-43.667 18 -57 18c-22.667 0 -48.667 -9 -78 -27l12 72c30 25.333 55.667 38 77 38c14 0 34 -5.66699 60 -17s45.667 -17 59 -17c26.667 0 56 14.333 88 43zM93.001 1517h196
v-1515l-196 -196v1711z" />
    <glyph glyph-name="afii57411" unicode="&#x623;" horiz-adv-x="366" arabic-form="isolated" 
d="M154 1780l149.999 -0.000976562v-74h-96c-25.333 0 -36.333 -19 -33 -57h129v-72h-243v72h40v69c-3.33301 46.667 14.334 67.334 53.001 62.001zM91.999 1517h196v-1515l-196 -196v1711z" />
    <glyph glyph-name="afii57412" unicode="&#x624;" horiz-adv-x="740" arabic-form="isolated" 
d="M207 753l432 0.00195312v-753c3.33301 -72.667 -19.667 -126.667 -69 -162l-493 -405l-120 156l432 347c22.667 15.333 38 36.666 46 63.999h-333v644c-9.33301 77.333 25.667 113.666 105 108.999zM339 565.002c-38.667 4 -55.333 -13.333 -50 -52v-325h154v377h-104z
M347.001 1050l149.999 -0.000976562v-74h-96c-25.333 0 -36.333 -19 -33 -57h129v-72h-243v72h40v69c-3.33301 46.667 14.334 67.334 53.001 62.001z" />
    <glyph glyph-name="afii57413" unicode="&#x625;" horiz-adv-x="366" arabic-form="isolated" 
d="M154 -200l149.999 -0.000976562v-74h-96c-25.333 0 -36.333 -19 -33 -57h129v-72h-243v72h40v69c-3.33301 46.667 14.334 67.334 53.001 62.001zM91.999 1517h196v-1515l-196 -196v1711z" />
    <glyph glyph-name="afii57414" unicode="&#x626;" horiz-adv-x="1431" arabic-form="isolated" 
d="M1143 188v90h-265v475h454v-189h-265v-98h265v-466h-776c-70 -3.33301 -125.667 27 -167 91l-288 413l143 109l266 -380c25.333 -32 61.333 -47 108 -45h525zM129 855l149.999 -0.000976562v-74h-96c-25.333 0 -36.333 -19 -33 -57h129v-72h-243v72h40v69
c-3.33301 46.667 14.334 67.334 53.001 62.001z" />
    <glyph glyph-name="afii57415" unicode="&#x627;" horiz-adv-x="366" arabic-form="isolated" 
d="M92 1517h196v-1515l-196 -196v1711z" />
    <glyph glyph-name="afii57416" unicode="&#x628;" horiz-adv-x="1640" arabic-form="isolated" 
d="M1345 753h189v-753h-880c-78 -8.66699 -136 15.333 -174 72l-379 482l142 105l316 -387c40 -55.333 80.333 -83.333 121 -84h665v565zM973 -116c14.667 0 28.8311 -3.66699 42.498 -11s24.5 -18 32.5 -32s12 -28.667 12 -44c0 -14.667 -3.83301 -29 -11.5 -43
s-18.5 -24.667 -32.5 -32s-28.333 -11 -43 -11s-29 3.66699 -43 11s-24.667 18 -32 32s-11 28.333 -11 43c0 15.333 3.83301 30 11.5 44s18.334 24.667 32.001 32s27.834 11 42.501 11z" />
    <glyph glyph-name="afii57417" unicode="&#x629;" horiz-adv-x="701" arabic-form="isolated" 
d="M256 753h379v-753h-532v567c-2.66699 120 48.333 182 153 186zM376 560c-60 4 -88 -21 -84 -75v-295h155v370h-71zM217 1090l151 -0.000976562v-74h-96c-25.333 0 -36.333 -19 -33 -57h129v-72h-243v72h40v69c-3.33301 46.667 14 67.334 52 62.001z" />
    <glyph glyph-name="afii57418" unicode="&#x62a;" horiz-adv-x="1642" arabic-form="isolated" 
d="M1347 753h189v-753h-880c-78 -8.66699 -136 15.333 -174 72l-379 482l142 105l316 -387c40 -55.333 80.333 -83.333 121 -84h665v565zM972 1056c14.667 0 28.8311 -3.83301 42.498 -11.5s24.5 -18.5 32.5 -32.5s12 -28.333 12 -43s-3.83301 -29 -11.5 -43
s-18.5 -24.667 -32.5 -32s-28.333 -11 -43 -11s-29 3.66699 -43 11s-24.667 18 -32 32s-11 28.333 -11 43s3.83301 29 11.5 43s18.334 24.833 32.001 32.5s27.834 11.5 42.501 11.5zM781.997 1056c14.667 0 28.8311 -3.83301 42.498 -11.5s24.5 -18.5 32.5 -32.5
s12 -28.333 12 -43s-3.83301 -29 -11.5 -43s-18.5 -24.667 -32.5 -32s-28.333 -11 -43 -11s-29 3.66699 -43 11s-24.667 18 -32 32s-11 28.333 -11 43s3.83301 29 11.5 43s18.334 24.833 32.001 32.5s27.834 11.5 42.501 11.5z" />
    <glyph glyph-name="afii57419" unicode="&#x62b;" horiz-adv-x="1642" arabic-form="isolated" 
d="M1347 753h189v-753h-880c-78 -8.66699 -136 15.333 -174 72l-379 482l142 105l316 -387c40 -55.333 80.333 -83.333 121 -84h665v565zM972 1056c14.667 0 28.8311 -3.83301 42.498 -11.5s24.5 -18.5 32.5 -32.5s12 -28.333 12 -43s-3.83301 -29 -11.5 -43
s-18.5 -24.667 -32.5 -32s-28.333 -11 -43 -11s-29 3.66699 -43 11s-24.667 18 -32 32s-11 28.333 -11 43s3.83301 29 11.5 43s18.334 24.833 32.001 32.5s27.834 11.5 42.501 11.5zM781.997 1056c14.667 0 28.8311 -3.83301 42.498 -11.5s24.5 -18.5 32.5 -32.5
s12 -28.333 12 -43s-3.83301 -29 -11.5 -43s-18.5 -24.667 -32.5 -32s-28.333 -11 -43 -11s-29 3.66699 -43 11s-24.667 18 -32 32s-11 28.333 -11 43s3.83301 29 11.5 43s18.334 24.833 32.001 32.5s27.834 11.5 42.501 11.5zM877.994 1236
c14.667 0 28.8311 -3.83301 42.498 -11.5s24.5 -18.5 32.5 -32.5s12 -28.333 12 -43s-3.83301 -29 -11.5 -43s-18.5 -24.667 -32.5 -32s-28.333 -11 -43 -11s-29 3.66699 -43 11s-24.667 18 -32 32s-11 28.333 -11 43s3.83301 29 11.5 43s18.334 24.833 32.001 32.5
s27.834 11.5 42.501 11.5z" />
    <glyph glyph-name="afii57420" unicode="&#x62c;" horiz-adv-x="1077" arabic-form="isolated" 
d="M482 -170c15.333 0 29.666 -3.83301 42.999 -11.5s24 -18.334 32 -32.001s12 -28.167 12 -43.5c0 -14.667 -3.83301 -29 -11.5 -43s-18.334 -24.667 -32.001 -32s-28.167 -11 -43.5 -11c-14.667 0 -29 3.66699 -43 11s-24.667 18 -32 32s-11 28.333 -11 43
c0 15.333 3.83301 29.833 11.5 43.5s18.334 24.334 32.001 32.001s27.834 11.5 42.501 11.5zM563 0h-262.001v-285c-1.33301 -46.667 18 -81.334 58 -104.001l338 -253l-124 -131l-360 260c-77.333 50.667 -115.333 113.334 -114 188.001v366c-4 103.333 43 152.333 141 147
h269l-104 308c-9.33301 48 -35.666 70.667 -78.999 68h-227v189h285c118.667 4 188 -45.333 208 -148l118 -417h276v-188h-227l64 -204h-201z" />
    <glyph glyph-name="afii57421" unicode="&#x62d;" horiz-adv-x="1075" arabic-form="isolated" 
d="M382 753c118.667 4 187.999 -45.333 207.999 -148l118 -417h276v-188h-227l64 -204h-201l-59 204h-262v-285c-1.33301 -46.667 18 -81.334 58 -104.001l338 -253l-124 -131l-360 260c-77.333 50.667 -115.333 113.334 -114 188.001v366c-4 103.333 43 152.333 141 147
h269l-104 308c-9.33301 48 -35.666 70.667 -78.999 68h-227v189h285z" />
    <glyph glyph-name="afii57422" unicode="&#x62e;" horiz-adv-x="1075" arabic-form="isolated" 
d="M382 753c118.667 4 187.999 -45.333 207.999 -148l118 -417h276v-188h-227l64 -204h-201l-59 204h-262v-285c-1.33301 -46.667 18 -81.334 58 -104.001l338 -253l-124 -131l-360 260c-77.333 50.667 -115.333 113.334 -114 188.001v366c-4 103.333 43 152.333 141 147
h269l-104 308c-9.33301 48 -35.666 70.667 -78.999 68h-227v189h285zM348.999 1048c14.667 0 28.668 -3.66699 42.001 -11s24 -18 32 -32s12 -28.333 12 -43c0 -15.333 -3.66699 -30 -11 -44s-18 -24.667 -32 -32s-28.333 -11 -43 -11c-15.333 0 -30 3.66699 -44 11
s-24.667 18 -32 32s-11 28.667 -11 44c0 14.667 4 29 12 43s18.667 24.667 32 32s27.666 11 42.999 11z" />
    <glyph glyph-name="afii57423" unicode="&#x62f;" horiz-adv-x="903" arabic-form="isolated" 
d="M149 753h307.999c104.667 8 170.334 -35.667 197.001 -131l156 -622h-728v188h472l-76 291c-15.333 64.667 -50.333 93 -105 85h-224v189z" />
    <glyph glyph-name="afii57424" unicode="&#x630;" horiz-adv-x="903" arabic-form="isolated" 
d="M149 753h307.999c104.667 8 170.334 -35.667 197.001 -131l156 -622h-728v188h472l-76 291c-15.333 64.667 -50.333 93 -105 85h-224v189zM313.999 1051c14.667 0 28.668 -3.66699 42.001 -11s24 -18 32 -32s12 -28.333 12 -43c0 -15.333 -3.66699 -30 -11 -44
s-18 -24.667 -32 -32s-28.333 -11 -43 -11c-15.333 0 -30 3.66699 -44 11s-24.667 18 -32 32s-11 28.667 -11 44c0 14.667 4 29 12 43s18.667 24.667 32 32s27.666 11 42.999 11z" />
    <glyph glyph-name="afii57425" unicode="&#x631;" horiz-adv-x="490" arabic-form="isolated" 
d="M-169 -567l-120 156l432 347c38.667 26 56.667 70.333 54 133v684h196v-748c8.66699 -74 -14.333 -129.667 -69 -167l-112 -92l-7 -5z" />
    <glyph glyph-name="afii57426" unicode="&#x632;" horiz-adv-x="497" arabic-form="isolated" 
d="M204 753h196v-748c3.33301 -76 -19.667 -131.667 -69 -167l-493 -405l-120 156l432 347c38.667 26 56.667 70.333 54 133v684zM304 1052c14.667 0 28.668 -3.66699 42.001 -11s24 -18 32 -32s12 -28.333 12 -43c0 -15.333 -3.66699 -30 -11 -44s-18 -24.667 -32 -32
s-28.333 -11 -43 -11c-15.333 0 -30 3.66699 -44 11s-24.667 18 -32 32s-11 28.667 -11 44c0 14.667 4 29 12 43s18.667 24.667 32 32s27.666 11 42.999 11z" />
    <glyph glyph-name="afii57427" unicode="&#x633;" horiz-adv-x="2024" arabic-form="isolated" 
d="M1927 753v-753h-598v-182h-776c-70 -3.33301 -125.667 27 -167 91l-288 413l143 109l266 -380c25.333 -38.667 61.333 -55.667 108 -51h527v753h188l-1 -565h111v565h189v-565l109 2v563h189z" />
    <glyph glyph-name="afii57428" unicode="&#x634;" horiz-adv-x="2024" arabic-form="isolated" 
d="M1927 753v-753h-598v-182h-776c-70 -3.33301 -125.667 27 -167 91l-288 413l143 109l266 -380c25.333 -38.667 61.333 -55.667 108 -51h527v753h188l-1 -565h111v565h189v-565l109 2v563h189zM1637 1052c14.667 0 28.8311 -3.83301 42.498 -11.5s24.5 -18.5 32.5 -32.5
s12 -28.333 12 -43s-3.83301 -29 -11.5 -43s-18.5 -24.667 -32.5 -32s-28.333 -11 -43 -11s-29 3.66699 -43 11s-24.667 18 -32 32s-11 28.333 -11 43s3.83301 29 11.5 43s18.334 24.833 32.001 32.5s27.834 11.5 42.501 11.5zM1447 1052
c14.667 0 28.8311 -3.83301 42.498 -11.5s24.5 -18.5 32.5 -32.5s12 -28.333 12 -43s-3.83301 -29 -11.5 -43s-18.5 -24.667 -32.5 -32s-28.333 -11 -43 -11s-29 3.66699 -43 11s-24.667 18 -32 32s-11 28.333 -11 43s3.83301 29 11.5 43s18.334 24.833 32.001 32.5
s27.834 11.5 42.501 11.5zM1542.99 1232c14.667 0 28.8311 -3.83301 42.498 -11.5s24.5 -18.5 32.5 -32.5s12 -28.333 12 -43s-3.83301 -29 -11.5 -43s-18.5 -24.667 -32.5 -32s-28.333 -11 -43 -11s-29 3.66699 -43 11s-24.667 18 -32 32s-11 28.333 -11 43
s3.83301 29 11.5 43s18.334 24.833 32.001 32.5s27.834 11.5 42.501 11.5z" />
    <glyph glyph-name="afii57429" unicode="&#x635;" horiz-adv-x="2406" arabic-form="isolated" 
d="M1334 -182h-776c-70 -3.33301 -125.667 27 -167 91l-288 413l143 109l266 -380c25.333 -38.667 61.333 -55.667 108 -51h527v505h191v-317h87v565h592c106 2 172.333 -57.333 199 -178l141 -575h-1023v-182zM1614 559v-371h474l-70 289c-24 60 -63.667 87.333 -119 82
h-285z" />
    <glyph glyph-name="afii57430" unicode="&#x636;" horiz-adv-x="2404" arabic-form="isolated" 
d="M1334 -182h-776c-70 -3.33301 -125.667 27 -167 91l-288 413l143 109l266 -380c25.333 -38.667 61.333 -55.667 108 -51h527v505h191v-317h87v565h592c106 2 172.333 -57.333 199 -178l141 -575h-1023v-182zM1614 559v-371h474l-70 289c-24 60 -63.667 87.333 -119 82
h-285zM1669 1053c14.667 0 28.8311 -3.83301 42.498 -11.5s24.5 -18.5 32.5 -32.5s12 -28.333 12 -43s-3.83301 -29 -11.5 -43s-18.5 -24.667 -32.5 -32s-28.333 -11 -43 -11s-29 3.66699 -43 11s-24.667 18 -32 32s-11 28.333 -11 43s3.83301 29 11.5 43
s18.334 24.833 32.001 32.5s27.834 11.5 42.501 11.5z" />
    <glyph glyph-name="afii57431" unicode="&#x637;" horiz-adv-x="1681" arabic-form="isolated" 
d="M654 753h594c81.333 4.66699 135.333 -32.333 162 -111l174 -642h-1030c-70 -3.33301 -125.667 27 -167 91l-288 413l143 109l266 -380c25.333 -32 61.333 -47 108 -45h38v565zM844 559v-370.999h472l-65 250c-18.667 85.333 -63 125.666 -133 120.999h-274zM389 1163
h188v-877l-188 257v620z" />
    <glyph glyph-name="afii57432" unicode="&#x638;" horiz-adv-x="1681" arabic-form="isolated" 
d="M1584 0h-1030c-70 -3.33301 -125.667 27 -167 91l-288 413l143 109l266 -380c24 -30 57.333 -45 100 -45h46v565h594c81.333 4.66699 135.333 -32.333 162 -111zM844 559v-370.999h472l-65 250c-18.667 85.333 -63 125.666 -133 120.999h-274zM411 1163h188v-877
l-188 219v658zM895 1051c14.667 0 28.8311 -3.83301 42.498 -11.5s24.5 -18.5 32.5 -32.5s12 -28.333 12 -43s-3.83301 -29 -11.5 -43s-18.5 -24.667 -32.5 -32s-28.333 -11 -43 -11s-29 3.66699 -43 11s-24.667 18 -32 32s-11 28.333 -11 43s3.83301 29 11.5 43
s18.334 24.833 32.001 32.5s27.834 11.5 42.501 11.5z" />
    <glyph glyph-name="afii57433" unicode="&#x639;" horiz-adv-x="1301" arabic-form="isolated" 
d="M1106 753v-193.999h-288c-52 -9.33301 -86 -43 -102 -101l-66 -270h550v-188h-599l-61 -204h-198l53 204h-92v-301c-0.666992 -36 13.333 -65.667 42 -89l357 -258l-133 -134l-343 255c-86 64.667 -128 129 -126 193v371c-3.33301 111.333 62 161.666 196 150.999h145
l106 443c30 84 95 124.667 195 122h364z" />
    <glyph glyph-name="afii57434" unicode="&#x63a;" horiz-adv-x="1302" arabic-form="isolated" 
d="M1107 753v-193.999h-288c-52 -9.33301 -86 -43 -102 -101l-66 -270h550v-188h-599l-61 -204h-198l53 204h-92v-301c-0.666992 -36 13.333 -65.667 42 -89l357 -258l-133 -134l-343 255c-86 64.667 -128 129 -126 193v371c-3.33301 111.333 62 161.666 196 150.999h145
l106 443c30 84 95 124.667 195 122h364zM867 1053c14.667 0 28.8311 -3.83301 42.498 -11.5s24.5 -18.5 32.5 -32.5s12 -28.333 12 -43s-3.83301 -29 -11.5 -43s-18.5 -24.667 -32.5 -32s-28.333 -11 -43 -11s-29 3.66699 -43 11s-24.667 18 -32 32s-11 28.333 -11 43
s3.83301 29 11.5 43s18.334 24.833 32.001 32.5s27.834 11.5 42.501 11.5z" />
    <glyph glyph-name="afii57441" unicode="&#x641;" horiz-adv-x="1825" arabic-form="isolated" 
d="M1343 753l378 -0.000976562v-753h-1098c-86 -5.33301 -150.333 22.334 -193 83.001l-331 422h228l218 -274c32.667 -32 70.667 -46.333 114 -43h874v82h-343v334c-6 103.333 45 153 153 149zM1440 569.999c-44.667 2 -65.333 -18 -62 -60v-90h155v150h-93zM1465 1055
c14.667 0 28.8311 -3.83301 42.498 -11.5s24.5 -18.5 32.5 -32.5s12 -28.333 12 -43s-3.83301 -29 -11.5 -43s-18.5 -24.667 -32.5 -32s-28.333 -11 -43 -11s-29 3.66699 -43 11s-24.667 18 -32 32s-11 28.333 -11 43s3.83301 29 11.5 43s18.334 24.833 32.001 32.5
s27.834 11.5 42.501 11.5z" />
    <glyph glyph-name="afii57442" unicode="&#x642;" horiz-adv-x="1441" arabic-form="isolated" 
d="M953 753l378 -0.000976562v-753h-708c-86 -5.33301 -150.333 22.334 -193 83.001l-331 422h228l218 -274c32.667 -32 70.667 -46.333 114 -43h484v82h-343v334c-6 103.333 45 153 153 149zM1050 569.999c-44.667 2 -65.333 -18 -62 -60v-90h155v150h-93zM1175 1053
c14.667 0 28.8311 -3.83301 42.498 -11.5s24.5 -18.5 32.5 -32.5s12 -28.333 12 -43s-3.83301 -29 -11.5 -43s-18.5 -24.667 -32.5 -32s-28.333 -11 -43 -11s-29 3.66699 -43 11s-24.667 18 -32 32s-11 28.333 -11 43s3.83301 29 11.5 43s18.334 24.833 32.001 32.5
s27.834 11.5 42.501 11.5zM984.998 1053c14.667 0 28.8311 -3.83301 42.498 -11.5s24.5 -18.5 32.5 -32.5s12 -28.333 12 -43s-3.83301 -29 -11.5 -43s-18.5 -24.667 -32.5 -32s-28.333 -11 -43 -11s-29 3.66699 -43 11s-24.667 18 -32 32s-11 28.333 -11 43
s3.83301 29 11.5 43s18.334 24.833 32.001 32.5s27.834 11.5 42.501 11.5z" />
    <glyph glyph-name="afii57443" unicode="&#x643;" horiz-adv-x="1834" arabic-form="isolated" 
d="M761 1163l287.999 0.000976562l-525 -410h812c106.667 9.33301 170.334 -28.334 191.001 -113.001l186 -640h-1562l-48 188h1336l-102 287c-11.333 64.667 -51.333 92.667 -120 84h-983v194z" />
    <glyph glyph-name="afii57444" unicode="&#x644;" horiz-adv-x="1203" arabic-form="isolated" 
d="M916 1517h188v-1721h-548c-70 -3.33301 -125.667 27 -167 91l-288 412l143 109l266 -380c25.333 -33.333 61.333 -48 108 -44h297l1 1v1532z" />
    <glyph glyph-name="afii57445" unicode="&#x645;" horiz-adv-x="1069" arabic-form="isolated" 
d="M564 753l407.001 -0.000976562v-627c14.667 -94.667 -25.333 -136.667 -120 -126h-408v563h-79c-46.667 3.33301 -69.334 -18.334 -68.001 -65.001v-1065h-192v1222c-8.66699 72.667 26.333 105.334 105 98.001h234v-95c4 70.667 44.333 102.334 121 95.001z
M691.001 562.999c-47.333 2.66699 -66.334 -13.667 -57.001 -49v-326h85c46.667 -6 67.334 15.333 62.001 64v311h-90z" />
    <glyph glyph-name="afii57446" unicode="&#x646;" horiz-adv-x="1624" arabic-form="isolated" 
d="M1335 753h189v-941h-780c-78 -8.66699 -136 15.333 -174 72l-471 601l142 105l408 -506c40 -55.333 80.333 -83.333 121 -84h565v753zM915 1055c14.667 0 28.8311 -3.83301 42.498 -11.5s24.5 -18.5 32.5 -32.5s12 -28.333 12 -43s-3.83301 -29 -11.5 -43
s-18.5 -24.667 -32.5 -32s-28.333 -11 -43 -11s-29 3.66699 -43 11s-24.667 18 -32 32s-11 28.333 -11 43s3.83301 29 11.5 43s18.334 24.833 32.001 32.5s27.834 11.5 42.501 11.5z" />
    <glyph glyph-name="afii57470" unicode="&#x647;" horiz-adv-x="699" arabic-form="isolated" 
d="M254 753h379v-753h-532v567c-2.66699 120 48.333 182 153 186zM374 560c-60 4 -88 -21 -84 -75v-295h155v370h-71z" />
    <glyph glyph-name="afii57448" unicode="&#x648;" horiz-adv-x="740" arabic-form="isolated" 
d="M207 753l432 0.00195312v-753c3.33301 -72.667 -19.667 -126.667 -69 -162l-493 -405l-120 156l432 347c22.667 15.333 38 36.666 46 63.999h-333v644c-9.33301 77.333 25.667 113.666 105 108.999zM339 565.002c-38.667 4 -55.333 -13.333 -50 -52v-325h154v377h-104z
" />
    <glyph glyph-name="afii57449" unicode="&#x649;" horiz-adv-x="1430" arabic-form="isolated" 
d="M1141 188v90h-265v475h454v-189h-265v-98h265v-466h-776c-70 -3.33301 -125.667 27 -167 91l-288 413l143 109l266 -380c25.333 -32 61.333 -47 108 -45h525z" />
    <glyph glyph-name="afii57450" unicode="&#x64a;" horiz-adv-x="1430" arabic-form="isolated" 
d="M1141 188v90h-265v475h454v-189h-265v-98h265v-466h-776c-70 -3.33301 -125.667 27 -167 91l-288 413l143 109l266 -380c25.333 -32 61.333 -47 108 -45h525z" />
    <glyph glyph-name="afii57506" unicode="&#x67e;" horiz-adv-x="1640" arabic-form="isolated" 
d="M1345 753h189v-753h-880c-78 -8.66699 -136 15.333 -174 72l-379 482l142 105l316 -387c40 -55.333 80.333 -83.333 121 -84h665v565zM1062.5 -284.5c-13.667 7.66699 -24.3311 18.5 -31.998 32.5s-11.5 28.333 -11.5 43s3.66699 29 11 43s18 24.667 32 32
s28.333 11 43 11s29 -3.66699 43 -11s24.833 -18 32.5 -32s11.5 -28.333 11.5 -43s-4 -29 -12 -43s-18.833 -24.833 -32.5 -32.5s-27.834 -11.5 -42.501 -11.5s-28.834 3.83301 -42.501 11.5zM872.503 -284.5c-13.667 7.66699 -24.3311 18.5 -31.998 32.5
s-11.5 28.333 -11.5 43s3.66699 29 11 43s18 24.667 32 32s28.333 11 43 11s29 -3.66699 43 -11s24.833 -18 32.5 -32s11.5 -28.333 11.5 -43s-4 -29 -12 -43s-18.833 -24.833 -32.5 -32.5s-27.834 -11.5 -42.501 -11.5s-28.834 3.83301 -42.501 11.5zM968.506 -464.5
c-13.667 7.66699 -24.3311 18.5 -31.998 32.5s-11.5 28.333 -11.5 43s3.66699 29 11 43s18 24.667 32 32s28.333 11 43 11s29 -3.66699 43 -11s24.833 -18 32.5 -32s11.5 -28.333 11.5 -43s-4 -29 -12 -43s-18.833 -24.833 -32.5 -32.5s-27.834 -11.5 -42.501 -11.5
s-28.834 3.83301 -42.501 11.5z" />
    <glyph glyph-name="afii57507" unicode="&#x686;" horiz-adv-x="1075" arabic-form="isolated" 
d="M561 0h-262.001v-285c-1.33301 -46.667 18 -81.334 58 -104.001l338 -253l-124 -131l-360 260c-77.333 50.667 -115.333 113.334 -114 188.001v366c-4 103.333 43 152.333 141 147h269l-104 308c-9.33301 48 -35.666 70.667 -78.999 68h-227v189h285
c118.667 4 188 -45.333 208 -148l118 -417h276v-188h-227l64 -204h-201zM743.499 -391.5c-13.667 7.66699 -24.3311 18.5 -31.998 32.5s-11.5 28.333 -11.5 43s3.66699 29 11 43s18 24.667 32 32s28.333 11 43 11s29 -3.66699 43 -11s24.833 -18 32.5 -32
s11.5 -28.333 11.5 -43s-4 -29 -12 -43s-18.833 -24.833 -32.5 -32.5s-27.834 -11.5 -42.501 -11.5s-28.834 3.83301 -42.501 11.5zM553.502 -391.5c-13.667 7.66699 -24.3311 18.5 -31.998 32.5s-11.5 28.333 -11.5 43s3.66699 29 11 43s18 24.667 32 32s28.333 11 43 11
s29 -3.66699 43 -11s24.833 -18 32.5 -32s11.5 -28.333 11.5 -43s-4 -29 -12 -43s-18.833 -24.833 -32.5 -32.5s-27.834 -11.5 -42.501 -11.5s-28.834 3.83301 -42.501 11.5zM649.505 -571.5c-13.667 7.66699 -24.3311 18.5 -31.998 32.5s-11.5 28.333 -11.5 43
s3.66699 29 11 43s18 24.667 32 32s28.333 11 43 11s29 -3.66699 43 -11s24.833 -18 32.5 -32s11.5 -28.333 11.5 -43s-4 -29 -12 -43s-18.833 -24.833 -32.5 -32.5s-27.834 -11.5 -42.501 -11.5s-28.834 3.83301 -42.501 11.5z" />
    <glyph glyph-name="afii57508" unicode="&#x698;" horiz-adv-x="497" arabic-form="isolated" 
d="M204 753h196v-748c3.33301 -76 -19.667 -131.667 -69 -167l-493 -405l-120 156l432 347c38.667 26 56.667 70.333 54 133v684zM366 1052c14.667 0 28.8311 -3.83301 42.498 -11.5s24.5 -18.5 32.5 -32.5s12 -28.333 12 -43s-3.83301 -29 -11.5 -43
s-18.5 -24.667 -32.5 -32s-28.333 -11 -43 -11s-29 3.66699 -43 11s-24.667 18 -32 32s-11 28.333 -11 43s3.83301 29 11.5 43s18.334 24.833 32.001 32.5s27.834 11.5 42.501 11.5zM175.997 1052c14.667 0 28.8311 -3.83301 42.498 -11.5s24.5 -18.5 32.5 -32.5
s12 -28.333 12 -43s-3.83301 -29 -11.5 -43s-18.5 -24.667 -32.5 -32s-28.333 -11 -43 -11s-29 3.66699 -43 11s-24.667 18 -32 32s-11 28.333 -11 43s3.83301 29 11.5 43s18.334 24.833 32.001 32.5s27.834 11.5 42.501 11.5zM271.994 1232
c14.667 0 28.8311 -3.83301 42.498 -11.5s24.5 -18.5 32.5 -32.5s12 -28.333 12 -43s-3.83301 -29 -11.5 -43s-18.5 -24.667 -32.5 -32s-28.333 -11 -43 -11s-29 3.66699 -43 11s-24.667 18 -32 32s-11 28.333 -11 43s3.83301 29 11.5 43s18.334 24.833 32.001 32.5
s27.834 11.5 42.501 11.5z" />
    <glyph glyph-name="afii57509" unicode="&#x6af;" horiz-adv-x="1834" arabic-form="isolated" 
d="M234 753l526.999 410.001h288l-525 -410h812c106.667 9.33301 170.334 -28.334 191.001 -113.001l186 -640h-1562l-48 188h1336l-102 287c-11.333 64.667 -51.333 92.667 -120 84h-983v194zM233.999 949.001l265 215h156l-421 -329v114z" />
    <glyph glyph-name="uniFB57" unicode="&#x67e;" horiz-adv-x="1638" arabic-form="final" 
d="M1345 753h189v-565h120v-188h-1000c-78 -8.66699 -136 15.333 -174 72l-379 482l142 105l316 -387c40 -55.333 80.333 -83.333 121 -84h665v565zM1104.5 -285.5c-13.667 7.66699 -24.3311 18.5 -31.998 32.5s-11.5 28.333 -11.5 43s3.66699 29 11 43s18 24.667 32 32
s28.333 11 43 11s29 -3.66699 43 -11s24.833 -18 32.5 -32s11.5 -28.333 11.5 -43s-4 -29 -12 -43s-18.833 -24.833 -32.5 -32.5s-27.834 -11.5 -42.501 -11.5s-28.834 3.83301 -42.501 11.5zM914.503 -285.5c-13.667 7.66699 -24.3311 18.5 -31.998 32.5
s-11.5 28.333 -11.5 43s3.66699 29 11 43s18 24.667 32 32s28.333 11 43 11s29 -3.66699 43 -11s24.833 -18 32.5 -32s11.5 -28.333 11.5 -43s-4 -29 -12 -43s-18.833 -24.833 -32.5 -32.5s-27.834 -11.5 -42.501 -11.5s-28.834 3.83301 -42.501 11.5zM1010.51 -465.5
c-13.667 7.66699 -24.3311 18.5 -31.998 32.5s-11.5 28.333 -11.5 43s3.66699 29 11 43s18 24.667 32 32s28.333 11 43 11s29 -3.66699 43 -11s24.833 -18 32.5 -32s11.5 -28.333 11.5 -43s-4 -29 -12 -43s-18.833 -24.833 -32.5 -32.5s-27.834 -11.5 -42.501 -11.5
s-28.834 3.83301 -42.501 11.5z" />
    <glyph glyph-name="uniFB58" unicode="&#x67e;" horiz-adv-x="486" arabic-form="initial" 
d="M202 753h187v-753h-456v188h269v565zM278.5 -284.5c-13.667 7.66699 -24.3311 18.5 -31.998 32.5s-11.5 28.333 -11.5 43s3.66699 29 11 43s18 24.667 32 32s28.333 11 43 11s29 -3.66699 43 -11s24.833 -18 32.5 -32s11.5 -28.333 11.5 -43s-4 -29 -12 -43
s-18.833 -24.833 -32.5 -32.5s-27.834 -11.5 -42.501 -11.5s-28.834 3.83301 -42.501 11.5zM88.5029 -284.5c-13.667 7.66699 -24.3311 18.5 -31.998 32.5s-11.5 28.333 -11.5 43s3.66699 29 11 43s18 24.667 32 32s28.333 11 43 11s29 -3.66699 43 -11s24.833 -18 32.5 -32
s11.5 -28.333 11.5 -43s-4 -29 -12 -43s-18.833 -24.833 -32.5 -32.5s-27.834 -11.5 -42.501 -11.5s-28.834 3.83301 -42.501 11.5zM184.506 -464.5c-13.667 7.66699 -24.3311 18.5 -31.998 32.5s-11.5 28.333 -11.5 43s3.66699 29 11 43s18 24.667 32 32s28.333 11 43 11
s29 -3.66699 43 -11s24.833 -18 32.5 -32s11.5 -28.333 11.5 -43s-4 -29 -12 -43s-18.833 -24.833 -32.5 -32.5s-27.834 -11.5 -42.501 -11.5s-28.834 3.83301 -42.501 11.5z" />
    <glyph glyph-name="uniFB59" unicode="&#x67e;" horiz-adv-x="683" arabic-form="medial" 
d="M98 753h187v-753l54 -71l55 71v753h189v-565h154v-188h-154l-244 -346l-241 346h-139v188h139v565zM390.5 -579.5c-13.667 7.66699 -24.3311 18.5 -31.998 32.5s-11.5 28.333 -11.5 43s3.66699 29 11 43s18 24.667 32 32s28.333 11 43 11s29 -3.66699 43 -11
s24.833 -18 32.5 -32s11.5 -28.333 11.5 -43s-4 -29 -12 -43s-18.833 -24.833 -32.5 -32.5s-27.834 -11.5 -42.501 -11.5s-28.834 3.83301 -42.501 11.5zM200.503 -579.5c-13.667 7.66699 -24.3311 18.5 -31.998 32.5s-11.5 28.333 -11.5 43s3.66699 29 11 43
s18 24.667 32 32s28.333 11 43 11s29 -3.66699 43 -11s24.833 -18 32.5 -32s11.5 -28.333 11.5 -43s-4 -29 -12 -43s-18.833 -24.833 -32.5 -32.5s-27.834 -11.5 -42.501 -11.5s-28.834 3.83301 -42.501 11.5zM296.506 -759.5c-13.667 7.66699 -24.3311 18.5 -31.998 32.5
s-11.5 28.333 -11.5 43s3.66699 29 11 43s18 24.667 32 32s28.333 11 43 11s29 -3.66699 43 -11s24.833 -18 32.5 -32s11.5 -28.333 11.5 -43s-4 -29 -12 -43s-18.833 -24.833 -32.5 -32.5s-27.834 -11.5 -42.501 -11.5s-28.834 3.83301 -42.501 11.5z" />
    <glyph glyph-name="uniFB7B" unicode="&#x686;" horiz-adv-x="919" arabic-form="final" 
d="M561 0h-262.001v-285c-1.33301 -46.667 18 -81.334 58 -104.001l338 -253l-124 -131l-360 260c-77.333 50.667 -115.333 113.334 -114 188.001v366c-4 103.333 43 152.333 141 147h269l-104 308c-9.33301 48 -35.666 70.667 -78.999 68h-227v189h285
c118.667 4 188 -45.333 208 -148l118 -417h276v-188h-227l64 -204h-201zM743.499 -391.5c-13.667 7.66699 -24.3311 18.5 -31.998 32.5s-11.5 28.333 -11.5 43s3.66699 29 11 43s18 24.667 32 32s28.333 11 43 11s29 -3.66699 43 -11s24.833 -18 32.5 -32
s11.5 -28.333 11.5 -43s-4 -29 -12 -43s-18.833 -24.833 -32.5 -32.5s-27.834 -11.5 -42.501 -11.5s-28.834 3.83301 -42.501 11.5zM553.502 -391.5c-13.667 7.66699 -24.3311 18.5 -31.998 32.5s-11.5 28.333 -11.5 43s3.66699 29 11 43s18 24.667 32 32s28.333 11 43 11
s29 -3.66699 43 -11s24.833 -18 32.5 -32s11.5 -28.333 11.5 -43s-4 -29 -12 -43s-18.833 -24.833 -32.5 -32.5s-27.834 -11.5 -42.501 -11.5s-28.834 3.83301 -42.501 11.5zM649.505 -571.5c-13.667 7.66699 -24.3311 18.5 -31.998 32.5s-11.5 28.333 -11.5 43
s3.66699 29 11 43s18 24.667 32 32s28.333 11 43 11s29 -3.66699 43 -11s24.833 -18 32.5 -32s11.5 -28.333 11.5 -43s-4 -29 -12 -43s-18.833 -24.833 -32.5 -32.5s-27.834 -11.5 -42.501 -11.5s-28.834 3.83301 -42.501 11.5z" />
    <glyph glyph-name="uniFB7C" unicode="&#x686;" horiz-adv-x="1075" arabic-form="initial" 
d="M382 753c118.667 4 187.999 -45.333 207.999 -148l118 -419h276v-186h-227l64 -204h-200l-60 204h-613v186h559l-104 310c-9.33301 48 -35.666 70.667 -78.999 68h-227v189h285zM401.499 -284.5c-13.667 7.66699 -24.3311 18.5 -31.998 32.5s-11.5 28.333 -11.5 43
s3.66699 29 11 43s18 24.667 32 32s28.333 11 43 11s29 -3.66699 43 -11s24.833 -18 32.5 -32s11.5 -28.333 11.5 -43s-4 -29 -12 -43s-18.833 -24.833 -32.5 -32.5s-27.834 -11.5 -42.501 -11.5s-28.834 3.83301 -42.501 11.5zM211.502 -284.5
c-13.667 7.66699 -24.3311 18.5 -31.998 32.5s-11.5 28.333 -11.5 43s3.66699 29 11 43s18 24.667 32 32s28.333 11 43 11s29 -3.66699 43 -11s24.833 -18 32.5 -32s11.5 -28.333 11.5 -43s-4 -29 -12 -43s-18.833 -24.833 -32.5 -32.5s-27.834 -11.5 -42.501 -11.5
s-28.834 3.83301 -42.501 11.5zM307.505 -464.5c-13.667 7.66699 -24.3311 18.5 -31.998 32.5s-11.5 28.333 -11.5 43s3.66699 29 11 43s18 24.667 32 32s28.333 11 43 11s29 -3.66699 43 -11s24.833 -18 32.5 -32s11.5 -28.333 11.5 -43s-4 -29 -12 -43
s-18.833 -24.833 -32.5 -32.5s-27.834 -11.5 -42.501 -11.5s-28.834 3.83301 -42.501 11.5z" />
    <glyph glyph-name="uniFB7D" unicode="&#x686;" horiz-adv-x="921" arabic-form="medial" 
d="M382 753c118.667 4 187.999 -45.333 207.999 -148l118 -419h276v-186h-227l64 -204h-200l-60 204h-613v186h559l-104 310c-9.33301 48 -35.666 70.667 -78.999 68h-227v189h285zM401.499 -284.5c-13.667 7.66699 -24.3311 18.5 -31.998 32.5s-11.5 28.333 -11.5 43
s3.66699 29 11 43s18 24.667 32 32s28.333 11 43 11s29 -3.66699 43 -11s24.833 -18 32.5 -32s11.5 -28.333 11.5 -43s-4 -29 -12 -43s-18.833 -24.833 -32.5 -32.5s-27.834 -11.5 -42.501 -11.5s-28.834 3.83301 -42.501 11.5zM211.502 -284.5
c-13.667 7.66699 -24.3311 18.5 -31.998 32.5s-11.5 28.333 -11.5 43s3.66699 29 11 43s18 24.667 32 32s28.333 11 43 11s29 -3.66699 43 -11s24.833 -18 32.5 -32s11.5 -28.333 11.5 -43s-4 -29 -12 -43s-18.833 -24.833 -32.5 -32.5s-27.834 -11.5 -42.501 -11.5
s-28.834 3.83301 -42.501 11.5zM307.505 -464.5c-13.667 7.66699 -24.3311 18.5 -31.998 32.5s-11.5 28.333 -11.5 43s3.66699 29 11 43s18 24.667 32 32s28.333 11 43 11s29 -3.66699 43 -11s24.833 -18 32.5 -32s11.5 -28.333 11.5 -43s-4 -29 -12 -43
s-18.833 -24.833 -32.5 -32.5s-27.834 -11.5 -42.501 -11.5s-28.834 3.83301 -42.501 11.5z" />
    <glyph glyph-name="uniFB8B" unicode="&#x698;" horiz-adv-x="497" arabic-form="final" 
d="M204 753h196v-565h123v-188h-123c3.33301 -72.667 -19.667 -126.667 -69 -162l-493 -405l-120 156l432 347c38.667 26 56.667 70.333 54 133v684zM376 1052c14.667 0 28.8311 -3.83301 42.498 -11.5s24.5 -18.5 32.5 -32.5s12 -28.333 12 -43s-3.83301 -29 -11.5 -43
s-18.5 -24.667 -32.5 -32s-28.333 -11 -43 -11s-29 3.66699 -43 11s-24.667 18 -32 32s-11 28.333 -11 43s3.83301 29 11.5 43s18.334 24.833 32.001 32.5s27.834 11.5 42.501 11.5zM185.997 1052c14.667 0 28.8311 -3.83301 42.498 -11.5s24.5 -18.5 32.5 -32.5
s12 -28.333 12 -43s-3.83301 -29 -11.5 -43s-18.5 -24.667 -32.5 -32s-28.333 -11 -43 -11s-29 3.66699 -43 11s-24.667 18 -32 32s-11 28.333 -11 43s3.83301 29 11.5 43s18.334 24.833 32.001 32.5s27.834 11.5 42.501 11.5zM281.994 1232
c14.667 0 28.8311 -3.83301 42.498 -11.5s24.5 -18.5 32.5 -32.5s12 -28.333 12 -43s-3.83301 -29 -11.5 -43s-18.5 -24.667 -32.5 -32s-28.333 -11 -43 -11s-29 3.66699 -43 11s-24.667 18 -32 32s-11 28.333 -11 43s3.83301 29 11.5 43s18.334 24.833 32.001 32.5
s27.834 11.5 42.501 11.5z" />
    <glyph glyph-name="uniFB8F" unicode="&#x6a9;" horiz-adv-x="1861" arabic-form="final" 
d="M759 1163l287.999 0.000976562l-525 -410h812c106.667 9.33301 170.334 -28.334 191.001 -113.001l131 -452h235v-188h-190l59 -204h-208l-67 204h-1334l-50 188h1336l-102 287c-11.333 64.667 -51.333 92.667 -120 84h-983v194z" />
    <glyph glyph-name="uniFB90" unicode="&#x6a9;" horiz-adv-x="1733" arabic-form="initial" 
d="M631 1163l287.999 0.000976562l-525 -410h812c106.667 9.33301 170.334 -28.334 191.001 -113.001l186 -640l-226 -1h-1384v189h1336l-102 287c-11.333 64.667 -51.333 92.667 -120 84h-983v194z" />
    <glyph glyph-name="uniFB91" unicode="&#x6a9;" horiz-adv-x="1733" arabic-form="medial" 
d="M631 1163l287.999 0.000976562l-525 -410h812c106.667 9.33301 170.334 -28.334 191.001 -113.001l131 -452h235v-189h-190l59 -203h-208l-67 203h-1384v189h1336l-102 287c-11.333 64.667 -51.333 92.667 -120 84h-983v194z" />
    <glyph glyph-name="uniFB93" unicode="&#x6af;" horiz-adv-x="1861" arabic-form="final" 
d="M759 1163l287.999 0.000976562l-525 -410h812c106.667 9.33301 170.334 -28.334 191.001 -113.001l131 -452h235v-188h-190l59 -204h-208l-67 204h-1334l-50 188h1336l-102 287c-11.333 64.667 -51.333 92.667 -120 84h-983v194zM233.999 949.001l265 215h156l-421 -329
v114z" />
    <glyph glyph-name="uniFB94" unicode="&#x6af;" horiz-adv-x="1733" arabic-form="initial" 
d="M631 1163l287.999 0.000976562l-525 -410h812c106.667 9.33301 170.334 -28.334 191.001 -113.001l186 -640l-226 -1h-1384v189h1336l-102 287c-11.333 64.667 -51.333 92.667 -120 84h-983v194zM104.999 949.001l265 215h156l-421 -330v115z" />
    <glyph glyph-name="uniFB95" unicode="&#x6af;" horiz-adv-x="1733" arabic-form="medial" 
d="M631 1163l287.999 0.000976562l-525 -410h812c106.667 9.33301 170.334 -28.334 191.001 -113.001l131 -452h235v-189h-190l59 -203h-208l-67 203h-1384v189h1336l-102 287c-11.333 64.667 -51.333 92.667 -120 84h-983v194zM104.999 949.001l265 215h156l-421 -330v115z
" />
    <glyph glyph-name="uniFBA5" unicode="&#x6c0;" horiz-adv-x="732" arabic-form="final" 
d="M253 753h379v-565h144v-188h-332v188h-344v379c-2.66699 120 48.333 182 153 186zM373 560c-60 4 -88 -21 -84 -75v-107h155v182h-71zM227 1090l151 -0.000976562v-74h-96c-25.333 0 -36.333 -19 -33 -57h129v-72h-243v72h40v69c-3.33301 46.667 14 67.334 52 62.001z
" />
    <glyph glyph-name="uniFBFD" unicode="&#x6cc;" horiz-adv-x="1728" arabic-form="final" 
d="M1142 188v565h487v-565h118v-188h-307v564h-109v-564h-776c-70 -3.33301 -125.667 27 -167 91l-288 413l143 109l266 -380c25.333 -32 61.333 -47 108 -45h525z" />
    <glyph glyph-name="uniFBFE" unicode="&#x6cc;" horiz-adv-x="483" arabic-form="initial" 
d="M200 753h187v-753h-456v188h269v565zM276 -112c15.333 0 29.665 -3.66699 42.998 -11s24 -18 32 -32s12 -28.667 12 -44c0 -14.667 -3.66699 -29 -11 -43s-18 -24.667 -32 -32s-28.667 -11 -44 -11c-14.667 0 -29 3.66699 -43 11s-24.667 18 -32 32s-11 28.333 -11 43
c0 15.333 3.83301 30 11.5 44s18.334 24.667 32.001 32s27.834 11 42.501 11zM86.999 -112c14.667 0 28.666 -3.66699 41.999 -11s24 -18 32 -32s12 -28.667 12 -44c0 -14.667 -3.66699 -29 -11 -43s-18 -24.667 -32 -32s-28.333 -11 -43 -11s-29 3.66699 -43 11
s-24.833 18 -32.5 32s-11.5 28.333 -11.5 43c0 15.333 4 30 12 44s18.833 24.667 32.5 32s27.834 11 42.501 11z" />
    <glyph glyph-name="uniFBFF" unicode="&#x6cc;" horiz-adv-x="683" arabic-form="medial" 
d="M98 753h187v-753l54 -71l55 71v753h189v-565h154v-188h-154l-244 -346l-241 346h-139v188h139v565zM435 -413c15.333 0 29.667 -3.66699 43 -11s24 -18 32 -32s12 -28.667 12 -44c0 -14.667 -3.66699 -29 -11 -43s-18 -24.667 -32 -32s-28.667 -11 -44 -11
c-14.667 0 -29 3.66699 -43 11s-24.667 18 -32 32s-11 28.333 -11 43c0 15.333 4 30 12 44s18.667 24.667 32 32s27.333 11 42 11zM245.001 -413c15.333 0 29.667 -3.66699 43 -11s24 -18 32 -32s12 -28.667 12 -44c0 -14.667 -3.66699 -29 -11 -43s-18 -24.667 -32 -32
s-28.667 -11 -44 -11c-14.667 0 -29 3.66699 -43 11s-24.667 18 -32 32s-11 28.333 -11 43c0 15.333 4 30 12 44s18.667 24.667 32 32s27.333 11 42 11z" />
    <glyph glyph-name="uniFE82" unicode="&#x622;" horiz-adv-x="387" arabic-form="final" 
d="M333 1751l-4.99902 -66c-34 -41.333 -67.333 -62 -100 -62c-12.667 0 -31.334 6 -56.001 18s-43.667 18 -57 18c-22.667 0 -48.667 -9 -78 -27l12 72c30 25.333 55.667 38 77 38c14 0 34 -5.66699 60 -17s45.667 -17 59 -17c26.667 0 56 14.333 88 43zM93.001 1517h196
v-1329h159v-188l-355 -1v1518z" />
    <glyph glyph-name="uniFE84" unicode="&#x623;" horiz-adv-x="388" arabic-form="final" 
d="M93 1517h196v-1329h159v-188l-355 -1v1518zM155 1780l149.999 -0.000976562v-74h-96c-25.333 0 -36.333 -19 -33 -57h129v-72h-243v72h40v69c-3.33301 46.667 14.334 67.334 53.001 62.001z" />
    <glyph glyph-name="uniFE86" unicode="&#x624;" horiz-adv-x="740" arabic-form="final" 
d="M207 753l432 0.00195312v-565h123v-188h-123c3.33301 -72.667 -19.667 -126.667 -69 -162l-493 -405l-120 156l432 347c22.667 15.333 38 36.666 46 63.999h-333v644c-9.33301 77.333 25.667 113.666 105 108.999zM339 565.002c-38.667 4 -55.333 -13.333 -50 -52v-325
h154v377h-104zM347.001 1050l149.999 -0.000976562v-74h-96c-25.333 0 -36.333 -19 -33 -57h129v-72h-243v72h40v69c-3.33301 46.667 14.334 67.334 53.001 62.001z" />
    <glyph glyph-name="uniFE88" unicode="&#x625;" horiz-adv-x="388" arabic-form="final" 
d="M154 -60l149.999 -0.000976562v-74h-96c-25.333 0 -36.333 -19 -33 -57h129v-72h-243v72h40v69c-3.33301 46.667 14.334 67.334 53.001 62.001zM91.999 1517h196v-1329h159v-188l-355 -1v1518z" />
    <glyph glyph-name="uniFE8A" unicode="&#x626;" horiz-adv-x="1665" arabic-form="final" 
d="M1143 188v565h487v-565h118v-188h-307v564h-109v-564h-776c-70 -3.33301 -125.667 27 -167 91l-288 413l143 109l266 -380c25.333 -32 61.333 -47 108 -45h525zM129 855l149.999 -0.000976562v-74h-96c-25.333 0 -36.333 -19 -33 -57h129v-72h-243v72h40v69
c-3.33301 46.667 14.334 67.334 53.001 62.001z" />
    <glyph glyph-name="uniFE8B" unicode="&#x626;" horiz-adv-x="485" arabic-form="initial" 
d="M202 753h187v-753h-456v188h269v565zM157 1050l149.999 -0.000976562v-74h-96c-25.333 0 -36.333 -19 -33 -57h129v-72h-243v72h40v69c-3.33301 46.667 14.334 67.334 53.001 62.001z" />
    <glyph glyph-name="uniFE8C" unicode="&#x626;" horiz-adv-x="685" arabic-form="medial" 
d="M100 753h187v-753l54 -71l55 71v753h189v-565h154v-188h-154l-244 -346l-241 346h-139v188h139v565zM307 1050l149.999 -0.000976562v-74h-96c-25.333 0 -36.333 -19 -33 -57h129v-72h-243v72h40v69c-3.33301 46.667 14.334 67.334 53.001 62.001z" />
    <glyph glyph-name="uniFE8E" unicode="&#x627;" horiz-adv-x="387" arabic-form="final" 
d="M93 1517h196v-1329h159v-188l-355 -1v1518z" />
    <glyph glyph-name="uniFE90" unicode="&#x628;" horiz-adv-x="1638" arabic-form="final" 
d="M1345 753h189v-565h120v-188h-1000c-78 -8.66699 -136 15.333 -174 72l-379 482l142 105l316 -387c40 -55.333 80.333 -83.333 121 -84h665v565zM973 -116c14.667 0 28.8311 -3.66699 42.498 -11s24.5 -18 32.5 -32s12 -28.667 12 -44c0 -14.667 -3.83301 -29 -11.5 -43
s-18.5 -24.667 -32.5 -32s-28.333 -11 -43 -11s-29 3.66699 -43 11s-24.667 18 -32 32s-11 28.333 -11 43c0 15.333 3.83301 30 11.5 44s18.334 24.667 32.001 32s27.834 11 42.501 11z" />
    <glyph glyph-name="uniFE91" unicode="&#x628;" horiz-adv-x="486" arabic-form="initial" 
d="M202 753h187v-753h-456v188h269v565zM156 -115c14.667 0 28.8311 -3.66699 42.498 -11s24.334 -18 32.001 -32s11.5 -28.667 11.5 -44c0 -14.667 -3.66699 -29 -11 -43s-18 -24.667 -32 -32s-28.333 -11 -43 -11s-29 3.66699 -43 11s-24.833 18 -32.5 32
s-11.5 28.333 -11.5 43c0 15.333 4 30 12 44s18.833 24.667 32.5 32s27.834 11 42.501 11z" />
    <glyph glyph-name="uniFE92" unicode="&#x628;" horiz-adv-x="683" arabic-form="medial" 
d="M98 753h187v-753l54 -71l55 71v753h189v-565h154v-188h-154l-244 -346l-241 346h-139v188h139v565zM345 -412c15.333 0 29.665 -3.66699 42.998 -11s24 -18 32 -32s12 -28.333 12 -43s-3.66699 -29 -11 -43s-18 -24.833 -32 -32.5s-28.667 -11.5 -44 -11.5
c-14.667 0 -29 3.83301 -43 11.5s-24.667 18.5 -32 32.5s-11 28.333 -11 43s3.83301 29 11.5 43s18.334 24.667 32.001 32s27.834 11 42.501 11z" />
    <glyph glyph-name="uniFE96" unicode="&#x62a;" horiz-adv-x="1638" arabic-form="final" 
d="M1345 753h189v-565h120v-188h-1000c-78 -8.66699 -136 15.333 -174 72l-379 482l142 105l316 -387c40 -55.333 80.333 -83.333 121 -84h665v565zM970 1056c14.667 0 28.8311 -3.83301 42.498 -11.5s24.5 -18.5 32.5 -32.5s12 -28.333 12 -43s-3.83301 -29 -11.5 -43
s-18.5 -24.667 -32.5 -32s-28.333 -11 -43 -11s-29 3.66699 -43 11s-24.667 18 -32 32s-11 28.333 -11 43s3.83301 29 11.5 43s18.334 24.833 32.001 32.5s27.834 11.5 42.501 11.5zM779.997 1056c14.667 0 28.8311 -3.83301 42.498 -11.5s24.5 -18.5 32.5 -32.5
s12 -28.333 12 -43s-3.83301 -29 -11.5 -43s-18.5 -24.667 -32.5 -32s-28.333 -11 -43 -11s-29 3.66699 -43 11s-24.667 18 -32 32s-11 28.333 -11 43s3.83301 29 11.5 43s18.334 24.833 32.001 32.5s27.834 11.5 42.501 11.5z" />
    <glyph glyph-name="uniFE97" unicode="&#x62a;" horiz-adv-x="484" arabic-form="initial" 
d="M200 753h187v-753h-456v188h269v565zM385 1052c14.667 0 28.8311 -3.83301 42.498 -11.5s24.5 -18.5 32.5 -32.5s12 -28.333 12 -43s-3.83301 -29 -11.5 -43s-18.5 -24.667 -32.5 -32s-28.333 -11 -43 -11s-29 3.66699 -43 11s-24.667 18 -32 32s-11 28.333 -11 43
s3.83301 29 11.5 43s18.334 24.833 32.001 32.5s27.834 11.5 42.501 11.5zM194.997 1052c14.667 0 28.8311 -3.83301 42.498 -11.5s24.5 -18.5 32.5 -32.5s12 -28.333 12 -43s-3.83301 -29 -11.5 -43s-18.5 -24.667 -32.5 -32s-28.333 -11 -43 -11s-29 3.66699 -43 11
s-24.667 18 -32 32s-11 28.333 -11 43s3.83301 29 11.5 43s18.334 24.833 32.001 32.5s27.834 11.5 42.501 11.5z" />
    <glyph glyph-name="uniFE98" unicode="&#x62a;" horiz-adv-x="683" arabic-form="medial" 
d="M98 753h187v-753l54 -71l55 71v753h189v-565h154v-188h-154l-244 -346l-241 346h-139v188h139v565zM428 1054c14.667 0 28.8311 -3.83301 42.498 -11.5s24.5 -18.5 32.5 -32.5s12 -28.333 12 -43s-3.83301 -29 -11.5 -43s-18.5 -24.667 -32.5 -32s-28.333 -11 -43 -11
s-29 3.66699 -43 11s-24.667 18 -32 32s-11 28.333 -11 43s3.83301 29 11.5 43s18.334 24.833 32.001 32.5s27.834 11.5 42.501 11.5zM237.997 1054c14.667 0 28.8311 -3.83301 42.498 -11.5s24.5 -18.5 32.5 -32.5s12 -28.333 12 -43s-3.83301 -29 -11.5 -43
s-18.5 -24.667 -32.5 -32s-28.333 -11 -43 -11s-29 3.66699 -43 11s-24.667 18 -32 32s-11 28.333 -11 43s3.83301 29 11.5 43s18.334 24.833 32.001 32.5s27.834 11.5 42.501 11.5z" />
    <glyph glyph-name="uniFE9A" unicode="&#x62b;" horiz-adv-x="1638" arabic-form="final" 
d="M1345 753h189v-565h120v-188h-1000c-78 -8.66699 -136 15.333 -174 72l-379 482l142 105l316 -387c40 -55.333 80.333 -83.333 121 -84h665v565zM970 1056c14.667 0 28.8311 -3.83301 42.498 -11.5s24.5 -18.5 32.5 -32.5s12 -28.333 12 -43s-3.83301 -29 -11.5 -43
s-18.5 -24.667 -32.5 -32s-28.333 -11 -43 -11s-29 3.66699 -43 11s-24.667 18 -32 32s-11 28.333 -11 43s3.83301 29 11.5 43s18.334 24.833 32.001 32.5s27.834 11.5 42.501 11.5zM779.997 1056c14.667 0 28.8311 -3.83301 42.498 -11.5s24.5 -18.5 32.5 -32.5
s12 -28.333 12 -43s-3.83301 -29 -11.5 -43s-18.5 -24.667 -32.5 -32s-28.333 -11 -43 -11s-29 3.66699 -43 11s-24.667 18 -32 32s-11 28.333 -11 43s3.83301 29 11.5 43s18.334 24.833 32.001 32.5s27.834 11.5 42.501 11.5zM875.994 1236
c14.667 0 28.8311 -3.83301 42.498 -11.5s24.5 -18.5 32.5 -32.5s12 -28.333 12 -43s-3.83301 -29 -11.5 -43s-18.5 -24.667 -32.5 -32s-28.333 -11 -43 -11s-29 3.66699 -43 11s-24.667 18 -32 32s-11 28.333 -11 43s3.83301 29 11.5 43s18.334 24.833 32.001 32.5
s27.834 11.5 42.501 11.5z" />
    <glyph glyph-name="uniFE9B" unicode="&#x62b;" horiz-adv-x="484" arabic-form="initial" 
d="M200 753h187v-753h-456v188h269v565zM385 1055c14.667 0 28.8311 -3.83301 42.498 -11.5s24.5 -18.5 32.5 -32.5s12 -28.333 12 -43s-3.83301 -29 -11.5 -43s-18.5 -24.667 -32.5 -32s-28.333 -11 -43 -11s-29 3.66699 -43 11s-24.667 18 -32 32s-11 28.333 -11 43
s3.83301 29 11.5 43s18.334 24.833 32.001 32.5s27.834 11.5 42.501 11.5zM194.997 1055c14.667 0 28.8311 -3.83301 42.498 -11.5s24.5 -18.5 32.5 -32.5s12 -28.333 12 -43s-3.83301 -29 -11.5 -43s-18.5 -24.667 -32.5 -32s-28.333 -11 -43 -11s-29 3.66699 -43 11
s-24.667 18 -32 32s-11 28.333 -11 43s3.83301 29 11.5 43s18.334 24.833 32.001 32.5s27.834 11.5 42.501 11.5zM290.994 1235c14.667 0 28.8311 -3.83301 42.498 -11.5s24.5 -18.5 32.5 -32.5s12 -28.333 12 -43s-3.83301 -29 -11.5 -43s-18.5 -24.667 -32.5 -32
s-28.333 -11 -43 -11s-29 3.66699 -43 11s-24.667 18 -32 32s-11 28.333 -11 43s3.83301 29 11.5 43s18.334 24.833 32.001 32.5s27.834 11.5 42.501 11.5z" />
    <glyph glyph-name="uniFE9C" unicode="&#x62b;" horiz-adv-x="683" arabic-form="medial" 
d="M98 753h187v-753l54 -71l55 71v753h189v-565h154v-188h-154l-244 -346l-241 346h-139v188h139v565zM437 1055c14.667 0 28.8311 -3.83301 42.498 -11.5s24.5 -18.5 32.5 -32.5s12 -28.333 12 -43s-3.83301 -29 -11.5 -43s-18.5 -24.667 -32.5 -32s-28.333 -11 -43 -11
s-29 3.66699 -43 11s-24.667 18 -32 32s-11 28.333 -11 43s3.83301 29 11.5 43s18.334 24.833 32.001 32.5s27.834 11.5 42.501 11.5zM246.997 1055c14.667 0 28.8311 -3.83301 42.498 -11.5s24.5 -18.5 32.5 -32.5s12 -28.333 12 -43s-3.83301 -29 -11.5 -43
s-18.5 -24.667 -32.5 -32s-28.333 -11 -43 -11s-29 3.66699 -43 11s-24.667 18 -32 32s-11 28.333 -11 43s3.83301 29 11.5 43s18.334 24.833 32.001 32.5s27.834 11.5 42.501 11.5zM342.994 1235c14.667 0 28.8311 -3.83301 42.498 -11.5s24.5 -18.5 32.5 -32.5
s12 -28.333 12 -43s-3.83301 -29 -11.5 -43s-18.5 -24.667 -32.5 -32s-28.333 -11 -43 -11s-29 3.66699 -43 11s-24.667 18 -32 32s-11 28.333 -11 43s3.83301 29 11.5 43s18.334 24.833 32.001 32.5s27.834 11.5 42.501 11.5z" />
    <glyph glyph-name="uniFE9E" unicode="&#x62c;" horiz-adv-x="919" arabic-form="final" 
d="M480 -170c15.333 0 29.666 -3.83301 42.999 -11.5s24 -18.334 32 -32.001s12 -28.167 12 -43.5c0 -14.667 -3.83301 -29 -11.5 -43s-18.334 -24.667 -32.001 -32s-28.167 -11 -43.5 -11c-14.667 0 -29 3.66699 -43 11s-24.667 18 -32 32s-11 28.333 -11 43
c0 15.333 3.83301 29.833 11.5 43.5s18.334 24.334 32.001 32.001s27.834 11.5 42.501 11.5zM561 0h-262.001v-285c-1.33301 -46.667 18 -81.334 58 -104.001l338 -253l-124 -131l-360 260c-77.333 50.667 -115.333 113.334 -114 188.001v366c-4 103.333 43 152.333 141 147
h269l-104 308c-9.33301 48 -35.666 70.667 -78.999 68h-227v189h285c118.667 4 188 -45.333 208 -148l118 -417h276v-188h-227l64 -204h-200z" />
    <glyph glyph-name="uniFE9F" unicode="&#x62c;" horiz-adv-x="1075" arabic-form="initial" 
d="M382 753c118.667 4 187.999 -45.333 207.999 -148l118 -419h276v-186h-227l64 -204h-200l-60 204h-613v186h559l-104 310c-9.33301 48 -35.666 70.667 -78.999 68h-227v189h285zM379.999 -115c15.333 0 29.666 -3.83301 42.999 -11.5s24 -18.334 32 -32.001
s12 -28.167 12 -43.5c0 -14.667 -3.83301 -29 -11.5 -43s-18.334 -24.667 -32.001 -32s-28.167 -11 -43.5 -11c-14.667 0 -29 3.66699 -43 11s-24.667 18 -32 32s-11 28.333 -11 43c0 15.333 3.83301 29.833 11.5 43.5s18.334 24.334 32.001 32.001s27.834 11.5 42.501 11.5
z" />
    <glyph glyph-name="uniFEA0" unicode="&#x62c;" horiz-adv-x="921" arabic-form="medial" 
d="M382 753c118.667 4 187.999 -45.333 207.999 -148l118 -419h276v-186h-227l64 -204h-200l-60 204h-613v186h559l-104 310c-9.33301 48 -35.666 70.667 -78.999 68h-227v189h285zM379.999 -116c15.333 0 29.666 -3.83301 42.999 -11.5s24 -18.334 32 -32.001
s12 -28.167 12 -43.5c0 -14.667 -3.83301 -29 -11.5 -43s-18.334 -24.667 -32.001 -32s-28.167 -11 -43.5 -11c-14.667 0 -29 3.66699 -43 11s-24.667 18 -32 32s-11 28.333 -11 43c0 15.333 3.83301 29.833 11.5 43.5s18.334 24.334 32.001 32.001s27.834 11.5 42.501 11.5
z" />
    <glyph glyph-name="uniFEA2" unicode="&#x62d;" horiz-adv-x="919" arabic-form="final" 
d="M382 753c118.667 4 187.999 -45.333 207.999 -148l118 -417h276v-188h-227l64 -204h-201l-59 204h-262v-285c-1.33301 -46.667 18 -81.334 58 -104.001l338 -253l-124 -131l-360 260c-77.333 50.667 -115.333 113.334 -114 188.001v366c-4 103.333 43 152.333 141 147
h269l-104 308c-9.33301 48 -35.666 70.667 -78.999 68h-227v189h285z" />
    <glyph glyph-name="uniFEA3" unicode="&#x62d;" horiz-adv-x="1075" arabic-form="initial" 
d="M382 753c118.667 4 187.999 -45.333 207.999 -148l118 -419h276v-186h-227l64 -204h-200l-60 204h-613v186h559l-104 310c-9.33301 48 -35.666 70.667 -78.999 68h-227v189h285z" />
    <glyph glyph-name="uniFEA4" unicode="&#x62d;" horiz-adv-x="921" arabic-form="medial" 
d="M382 753c118.667 4 187.999 -45.333 207.999 -148l118 -419h276v-186h-227l64 -204h-200l-60 204h-613v186h559l-104 310c-9.33301 48 -35.666 70.667 -78.999 68h-227v189h285z" />
    <glyph glyph-name="uniFEA6" unicode="&#x62e;" horiz-adv-x="919" arabic-form="final" 
d="M382 753c118.667 4 187.999 -45.333 207.999 -148l118 -417h276v-188h-227l64 -204h-201l-59 204h-262v-285c-1.33301 -46.667 18 -81.334 58 -104.001l338 -253l-124 -131l-360 260c-77.333 50.667 -115.333 113.334 -114 188.001v366c-4 103.333 43 152.333 141 147
h269l-104 308c-9.33301 48 -35.666 70.667 -78.999 68h-227v189h285zM348.999 1048c14.667 0 28.668 -3.66699 42.001 -11s24 -18 32 -32s12 -28.333 12 -43c0 -15.333 -3.66699 -30 -11 -44s-18 -24.667 -32 -32s-28.333 -11 -43 -11c-15.333 0 -30 3.66699 -44 11
s-24.667 18 -32 32s-11 28.667 -11 44c0 14.667 4 29 12 43s18.667 24.667 32 32s27.666 11 42.999 11z" />
    <glyph glyph-name="uniFEA7" unicode="&#x62e;" horiz-adv-x="1075" arabic-form="initial" 
d="M382 753c118.667 4 187.999 -45.333 207.999 -148l118 -419h276v-186h-227l64 -204h-200l-60 204h-613v186h559l-104 310c-9.33301 48 -35.666 70.667 -78.999 68h-227v189h285zM311.999 1055c14.667 0 28.668 -3.66699 42.001 -11s24 -18 32 -32s12 -28.333 12 -43
c0 -15.333 -3.66699 -30 -11 -44s-18 -24.667 -32 -32s-28.333 -11 -43 -11c-15.333 0 -30 3.66699 -44 11s-24.667 18 -32 32s-11 28.667 -11 44c0 14.667 4 29 12 43s18.667 24.667 32 32s27.666 11 42.999 11z" />
    <glyph glyph-name="uniFEA8" unicode="&#x62e;" horiz-adv-x="921" arabic-form="medial" 
d="M382 753c118.667 4 187.999 -45.333 207.999 -148l118 -419h276v-186h-227l64 -204h-200l-60 204h-613v186h559l-104 310c-9.33301 48 -35.666 70.667 -78.999 68h-227v189h285zM311.999 1055c14.667 0 28.668 -3.66699 42.001 -11s24 -18 32 -32s12 -28.333 12 -43
c0 -15.333 -3.66699 -30 -11 -44s-18 -24.667 -32 -32s-28.333 -11 -43 -11c-15.333 0 -30 3.66699 -44 11s-24.667 18 -32 32s-11 28.667 -11 44c0 14.667 4 29 12 43s18.667 24.667 32 32s27.666 11 42.999 11z" />
    <glyph glyph-name="uniFEAA" unicode="&#x62f;" horiz-adv-x="863" arabic-form="final" 
d="M149 753h307.999c104.667 8 170.334 -35.667 197.001 -131l109 -434h132v-188h-813v188h472l-76 291c-15.333 64.667 -50.333 93 -105 85h-224v189z" />
    <glyph glyph-name="uniFEAC" unicode="&#x630;" horiz-adv-x="863" arabic-form="final" 
d="M149 753h307.999c104.667 8 170.334 -35.667 197.001 -131l109 -434h132v-188h-813v188h472l-76 291c-15.333 64.667 -50.333 93 -105 85h-224v189zM313.999 1051c14.667 0 28.668 -3.66699 42.001 -11s24 -18 32 -32s12 -28.333 12 -43c0 -15.333 -3.66699 -30 -11 -44
s-18 -24.667 -32 -32s-28.333 -11 -43 -11c-15.333 0 -30 3.66699 -44 11s-24.667 18 -32 32s-11 28.667 -11 44c0 14.667 4 29 12 43s18.667 24.667 32 32s27.666 11 42.999 11z" />
    <glyph glyph-name="uniFEAE" unicode="&#x631;" horiz-adv-x="497" arabic-form="final" 
d="M204 753h196v-565h123v-188h-123c3.33301 -72.667 -19.667 -126.667 -69 -162l-493 -405l-120 156l432 347c38.667 26 56.667 70.333 54 133v684z" />
    <glyph glyph-name="uniFEB0" unicode="&#x632;" horiz-adv-x="504" arabic-form="final" 
d="M211 753h196v-565h123v-188h-123c3.33301 -72.667 -19.667 -126.667 -69 -162l-493 -405l-120 156l432 347c38.667 26 56.667 70.333 54 133v684zM311 1052c14.667 0 28.668 -3.66699 42.001 -11s24 -18 32 -32s12 -28.333 12 -43c0 -15.333 -3.66699 -30 -11 -44
s-18 -24.667 -32 -32s-28.333 -11 -43 -11c-15.333 0 -30 3.66699 -44 11s-24.667 18 -32 32s-11 28.667 -11 44c0 14.667 4 29 12 43s18.667 24.667 32 32s27.666 11 42.999 11z" />
    <glyph glyph-name="uniFEB2" unicode="&#x633;" horiz-adv-x="2024" arabic-form="final" 
d="M1927 753v-565h121v-188h-719v-182h-776c-70 -3.33301 -125.667 27 -167 91l-288 413l143 109l266 -380c25.333 -38.667 61.333 -55.667 108 -51h527v753h188l-1 -565h111v565h189v-565h109v565h189z" />
    <glyph glyph-name="uniFEB3" unicode="&#x633;" horiz-adv-x="982" arabic-form="initial" 
d="M886 753v-753h-923v188h138v565h188v-565h110v565h189v-565h109v565h189z" />
    <glyph glyph-name="uniFEB4" unicode="&#x633;" horiz-adv-x="980" arabic-form="medial" 
d="M491 -136l-148 -210l-241 346h-139v188h139v565h187v-753l54 -71l54 70l-1 1v753h191v-753l-2 -2l52 -69l55 71v753h189v-565h154v-188h-154l-244 -346z" />
    <glyph glyph-name="uniFEB6" unicode="&#x634;" horiz-adv-x="2024" arabic-form="final" 
d="M1927 753v-565h121v-188h-719v-182h-776c-70 -3.33301 -125.667 27 -167 91l-288 413l143 109l266 -380c25.333 -38.667 61.333 -55.667 108 -51h527v753h188l-1 -565h111v565h189v-565h109v565h189zM1637 1052c14.667 0 28.8311 -3.83301 42.498 -11.5
s24.5 -18.5 32.5 -32.5s12 -28.333 12 -43s-3.83301 -29 -11.5 -43s-18.5 -24.667 -32.5 -32s-28.333 -11 -43 -11s-29 3.66699 -43 11s-24.667 18 -32 32s-11 28.333 -11 43s3.83301 29 11.5 43s18.334 24.833 32.001 32.5s27.834 11.5 42.501 11.5zM1447 1052
c14.667 0 28.8311 -3.83301 42.498 -11.5s24.5 -18.5 32.5 -32.5s12 -28.333 12 -43s-3.83301 -29 -11.5 -43s-18.5 -24.667 -32.5 -32s-28.333 -11 -43 -11s-29 3.66699 -43 11s-24.667 18 -32 32s-11 28.333 -11 43s3.83301 29 11.5 43s18.334 24.833 32.001 32.5
s27.834 11.5 42.501 11.5zM1542.99 1232c14.667 0 28.8311 -3.83301 42.498 -11.5s24.5 -18.5 32.5 -32.5s12 -28.333 12 -43s-3.83301 -29 -11.5 -43s-18.5 -24.667 -32.5 -32s-28.333 -11 -43 -11s-29 3.66699 -43 11s-24.667 18 -32 32s-11 28.333 -11 43
s3.83301 29 11.5 43s18.334 24.833 32.001 32.5s27.834 11.5 42.501 11.5z" />
    <glyph glyph-name="uniFEB7" unicode="&#x634;" horiz-adv-x="983" arabic-form="initial" 
d="M887 753v-753h-923v188h138v565h188v-565h110v565h189v-565h109v565h189zM597 1056c14.667 0 28.8311 -3.83301 42.498 -11.5s24.5 -18.5 32.5 -32.5s12 -28.333 12 -43s-3.83301 -29 -11.5 -43s-18.5 -24.667 -32.5 -32s-28.333 -11 -43 -11s-29 3.66699 -43 11
s-24.667 18 -32 32s-11 28.333 -11 43s3.83301 29 11.5 43s18.334 24.833 32.001 32.5s27.834 11.5 42.501 11.5zM406.997 1056c14.667 0 28.8311 -3.83301 42.498 -11.5s24.5 -18.5 32.5 -32.5s12 -28.333 12 -43s-3.83301 -29 -11.5 -43s-18.5 -24.667 -32.5 -32
s-28.333 -11 -43 -11s-29 3.66699 -43 11s-24.667 18 -32 32s-11 28.333 -11 43s3.83301 29 11.5 43s18.334 24.833 32.001 32.5s27.834 11.5 42.501 11.5zM502.994 1236c14.667 0 28.8311 -3.83301 42.498 -11.5s24.5 -18.5 32.5 -32.5s12 -28.333 12 -43
s-3.83301 -29 -11.5 -43s-18.5 -24.667 -32.5 -32s-28.333 -11 -43 -11s-29 3.66699 -43 11s-24.667 18 -32 32s-11 28.333 -11 43s3.83301 29 11.5 43s18.334 24.833 32.001 32.5s27.834 11.5 42.501 11.5z" />
    <glyph glyph-name="uniFEB8" unicode="&#x634;" horiz-adv-x="980" arabic-form="medial" 
d="M637 -346l244 346h154v188h-154v565h-189v-753l-55 -71l-52 69l2 2v753h-191v-753l1 -1l-54 -70l-54 71v753h-187v-565h-139v-188h139l241 -346l148 210zM597 1055c14.667 0 28.8311 -3.83301 42.498 -11.5s24.5 -18.5 32.5 -32.5s12 -28.333 12 -43
s-3.83301 -29 -11.5 -43s-18.5 -24.667 -32.5 -32s-28.333 -11 -43 -11s-29 3.66699 -43 11s-24.667 18 -32 32s-11 28.333 -11 43s3.83301 29 11.5 43s18.334 24.833 32.001 32.5s27.834 11.5 42.501 11.5zM502.997 1235c14.667 0 28.8311 -3.83301 42.498 -11.5
s24.5 -18.5 32.5 -32.5s12 -28.333 12 -43s-3.83301 -29 -11.5 -43s-18.5 -24.667 -32.5 -32s-28.333 -11 -43 -11s-29 3.66699 -43 11s-24.667 18 -32 32s-11 28.333 -11 43s3.83301 29 11.5 43s18.334 24.833 32.001 32.5s27.834 11.5 42.501 11.5zM406.994 1055
c14.667 0 28.8311 -3.83301 42.498 -11.5s24.5 -18.5 32.5 -32.5s12 -28.333 12 -43s-3.83301 -29 -11.5 -43s-18.5 -24.667 -32.5 -32s-28.333 -11 -43 -11s-29 3.66699 -43 11s-24.667 18 -32 32s-11 28.333 -11 43s3.83301 29 11.5 43s18.334 24.833 32.001 32.5
s27.834 11.5 42.501 11.5z" />
    <glyph glyph-name="uniFEBA" unicode="&#x635;" horiz-adv-x="2404" arabic-form="final" 
d="M1425 753h592c106 2 172.333 -57.333 199 -178l97 -387h144v-188h-1123v-182h-776c-70 -3.33301 -125.667 27 -167 91l-288 413l143 109l266 -380c25.333 -38.667 61.333 -55.667 108 -51h527v505h191v-317h87v565zM1614 559v-371h474l-70 289
c-24 60 -63.667 87.333 -119 82h-285z" />
    <glyph glyph-name="uniFEBB" unicode="&#x635;" horiz-adv-x="1410" arabic-form="initial" 
d="M383 753h592c106 2 172.333 -57.333 199 -178l141 -575h-1357v188h147v317h191v-317h87v565zM572 559v-371h474l-70 289c-24 60 -63.667 87.333 -119 82h-285z" />
    <glyph glyph-name="uniFEBC" unicode="&#x635;" horiz-adv-x="1369" arabic-form="medial" 
d="M383 753h592c106 2 172.333 -57.333 199 -178l97 -387h144v-188h-1457v188h147v317h191v-317h87v565zM572 559v-371h474l-70 289c-24 60 -63.667 87.333 -119 82h-285z" />
    <glyph glyph-name="uniFEBE" unicode="&#x636;" horiz-adv-x="2404" arabic-form="final" 
d="M1425 753h592c106 2 172.333 -57.333 199 -178l97 -387h144v-188h-1123v-182h-776c-70 -3.33301 -125.667 27 -167 91l-288 413l143 109l266 -380c25.333 -38.667 61.333 -55.667 108 -51h527v505h191v-317h87v565zM1614 559v-371h474l-70 289
c-24 60 -63.667 87.333 -119 82h-285zM1669 1053c14.667 0 28.8311 -3.83301 42.498 -11.5s24.5 -18.5 32.5 -32.5s12 -28.333 12 -43s-3.83301 -29 -11.5 -43s-18.5 -24.667 -32.5 -32s-28.333 -11 -43 -11s-29 3.66699 -43 11s-24.667 18 -32 32s-11 28.333 -11 43
s3.83301 29 11.5 43s18.334 24.833 32.001 32.5s27.834 11.5 42.501 11.5z" />
    <glyph glyph-name="uniFEBF" unicode="&#x636;" horiz-adv-x="1410" arabic-form="initial" 
d="M383 753h592c106 2 172.333 -57.333 199 -178l141 -575h-1357v188h147v317h191v-317h87v565zM572 559v-371h474l-70 289c-24 60 -63.667 87.333 -119 82h-285zM627 1052c14.667 0 28.8311 -3.83301 42.498 -11.5s24.5 -18.5 32.5 -32.5s12 -28.333 12 -43
s-3.83301 -29 -11.5 -43s-18.5 -24.667 -32.5 -32s-28.333 -11 -43 -11s-29 3.66699 -43 11s-24.667 18 -32 32s-11 28.333 -11 43s3.83301 29 11.5 43s18.334 24.833 32.001 32.5s27.834 11.5 42.501 11.5z" />
    <glyph glyph-name="uniFEC0" unicode="&#x636;" horiz-adv-x="1369" arabic-form="medial" 
d="M383 753h592c106 2 172.333 -57.333 199 -178l97 -387h144v-188h-1457v188h147v317h191v-317h87v565zM572 559v-371h474l-70 289c-24 60 -63.667 87.333 -119 82h-285zM627 1053c14.667 0 28.8311 -3.83301 42.498 -11.5s24.5 -18.5 32.5 -32.5s12 -28.333 12 -43
s-3.83301 -29 -11.5 -43s-18.5 -24.667 -32.5 -32s-28.333 -11 -43 -11s-29 3.66699 -43 11s-24.667 18 -32 32s-11 28.333 -11 43s3.83301 29 11.5 43s18.334 24.833 32.001 32.5s27.834 11.5 42.501 11.5z" />
    <glyph glyph-name="uniFEC2" unicode="&#x637;" horiz-adv-x="1636" arabic-form="final" 
d="M654 753h594c81.333 4.66699 135.333 -32.333 162 -111l124 -454h130v-188h-1110c-70 -3.33301 -125.667 27 -167 91l-288 413l143 109l266 -380c24 -30 57.333 -45 100 -45h46v565zM844 559v-370.999h472l-65 250c-18.667 85.333 -63 125.666 -133 120.999h-274z
M389 1163h188v-877l-188 257v620z" />
    <glyph glyph-name="uniFEC3" unicode="&#x637;" horiz-adv-x="1374" arabic-form="initial" 
d="M103 1143h188v-907h-188v907zM346 753h594c81.333 4.66699 135.333 -32.333 162 -111l174 -642h-1316l1 188h385v565zM536 559v-370.999h472l-65 250c-18.667 85.333 -63 125.666 -133 120.999h-274z" />
    <glyph glyph-name="uniFEC4" unicode="&#x637;" horiz-adv-x="1333" arabic-form="medial" 
d="M106 1141h188v-907h-188v907zM348 753h594c81.333 4.66699 135.333 -32.333 162 -111l124 -454h130v-188h-1386v188h376v565zM538 559v-370.999h472l-65 250c-18.667 85.333 -63 125.666 -133 120.999h-274z" />
    <glyph glyph-name="uniFEC6" unicode="&#x638;" horiz-adv-x="1636" arabic-form="final" 
d="M1664 0h-1110c-70 -3.33301 -125.667 27 -167 91l-288 413l143 109l266 -380c24 -30 57.333 -45 100 -45h46v565h594c81.333 4.66699 135.333 -32.333 162 -111l124 -454h130v-188zM844 559v-370.999h472l-65 250c-18.667 85.333 -63 125.666 -133 120.999h-274z
M411 1163h188v-877l-188 219v658zM895 1051c14.667 0 28.8311 -3.83301 42.498 -11.5s24.5 -18.5 32.5 -32.5s12 -28.333 12 -43s-3.83301 -29 -11.5 -43s-18.5 -24.667 -32.5 -32s-28.333 -11 -43 -11s-29 3.66699 -43 11s-24.667 18 -32 32s-11 28.333 -11 43
s3.83301 29 11.5 43s18.334 24.833 32.001 32.5s27.834 11.5 42.501 11.5z" />
    <glyph glyph-name="uniFEC7" unicode="&#x638;" horiz-adv-x="1374" arabic-form="initial" 
d="M103 1163h188v-907h-188v907zM346 753h594c81.333 4.66699 135.333 -32.333 162 -111l174 -642h-1316l1 188h385v565zM536 559v-370.999h472l-65 250c-18.667 85.333 -63 125.666 -133 120.999h-274zM587 1051c14.667 0 28.8311 -3.83301 42.498 -11.5
s24.5 -18.5 32.5 -32.5s12 -28.333 12 -43s-3.83301 -29 -11.5 -43s-18.5 -24.667 -32.5 -32s-28.333 -11 -43 -11s-29 3.66699 -43 11s-24.667 18 -32 32s-11 28.333 -11 43s3.83301 29 11.5 43s18.334 24.833 32.001 32.5s27.834 11.5 42.501 11.5z" />
    <glyph glyph-name="uniFEC8" unicode="&#x638;" horiz-adv-x="1331" arabic-form="medial" 
d="M103 1163h188v-907h-188v907zM346 753h594c81.333 4.66699 135.333 -32.333 162 -111l124 -454h130v-188h-1386v188h376v565zM536 559v-370.999h472l-65 250c-18.667 85.333 -63 125.666 -133 120.999h-274zM587 1051c14.667 0 28.8311 -3.83301 42.498 -11.5
s24.5 -18.5 32.5 -32.5s12 -28.333 12 -43s-3.83301 -29 -11.5 -43s-18.5 -24.667 -32.5 -32s-28.333 -11 -43 -11s-29 3.66699 -43 11s-24.667 18 -32 32s-11 28.333 -11 43s3.83301 29 11.5 43s18.334 24.833 32.001 32.5s27.834 11.5 42.501 11.5z" />
    <glyph glyph-name="uniFECA" unicode="&#x639;" horiz-adv-x="1200" arabic-form="final" 
d="M1107 753v-193.999h-288c-52 -9.33301 -86 -43 -102 -101l-66 -270h590v-188h-639l-61 -204h-198l53 204h-92v-301c-0.666992 -36 13.333 -65.667 42 -89l357 -258l-133 -134l-343 255c-86 64.667 -128 129 -126 193v371c-3.33301 111.333 62 161.666 196 150.999h145
l106 443c30 84 95 124.667 195 122h364z" />
    <glyph glyph-name="uniFECB" unicode="&#x639;" horiz-adv-x="1070" arabic-form="initial" 
d="M872 753v-194h-288c-52 -9.33301 -86 -43 -102 -101l-66 -270h550v-188h-599l-61 -198h-200l55 198h-212v188h258l106 443c30 84 95 124.667 195 122h364z" />
    <glyph glyph-name="uniFECC" unicode="&#x639;" horiz-adv-x="972" arabic-form="medial" 
d="M872 753v-194h-288c-52 -9.33301 -86 -43 -102 -101l-66 -270h590v-188h-639l-61 -198h-200l55 198h-212v188h258l106 443c30 84 95 124.667 195 122h364z" />
    <glyph glyph-name="uniFECE" unicode="&#x63a;" horiz-adv-x="1200" arabic-form="final" 
d="M1107 753v-193.999h-288c-52 -9.33301 -86 -43 -102 -101l-66 -270h590v-188h-639l-61 -204h-198l53 204h-92v-301c-0.666992 -36 13.333 -65.667 42 -89l357 -258l-133 -134l-343 255c-86 64.667 -128 129 -126 193v371c-3.33301 111.333 62 161.666 196 150.999h145
l106 443c30 84 95 124.667 195 122h364zM867 1053c14.667 0 28.8311 -3.83301 42.498 -11.5s24.5 -18.5 32.5 -32.5s12 -28.333 12 -43s-3.83301 -29 -11.5 -43s-18.5 -24.667 -32.5 -32s-28.333 -11 -43 -11s-29 3.66699 -43 11s-24.667 18 -32 32s-11 28.333 -11 43
s3.83301 29 11.5 43s18.334 24.833 32.001 32.5s27.834 11.5 42.501 11.5z" />
    <glyph glyph-name="uniFECF" unicode="&#x63a;" horiz-adv-x="1070" arabic-form="initial" 
d="M872 753v-194h-288c-52 -9.33301 -86 -43 -102 -101l-66 -270h550v-188h-599l-61 -198h-200l55 198h-212v188h258l106 443c30 84 95 124.667 195 122h364zM627 1051c14.667 0 28.8311 -3.83301 42.498 -11.5s24.5 -18.5 32.5 -32.5s12 -28.333 12 -43
s-3.83301 -29 -11.5 -43s-18.5 -24.667 -32.5 -32s-28.333 -11 -43 -11s-29 3.66699 -43 11s-24.667 18 -32 32s-11 28.333 -11 43s3.83301 29 11.5 43s18.334 24.833 32.001 32.5s27.834 11.5 42.501 11.5z" />
    <glyph glyph-name="uniFED0" unicode="&#x63a;" horiz-adv-x="972" arabic-form="medial" 
d="M872 753v-194h-288c-52 -9.33301 -86 -43 -102 -101l-66 -270h590v-188h-639l-61 -198h-200l55 198h-212v188h258l106 443c30 84 95 124.667 195 122h364zM627 1052c14.667 0 28.8311 -3.83301 42.498 -11.5s24.5 -18.5 32.5 -32.5s12 -28.333 12 -43
s-3.83301 -29 -11.5 -43s-18.5 -24.667 -32.5 -32s-28.333 -11 -43 -11s-29 3.66699 -43 11s-24.667 18 -32 32s-11 28.333 -11 43s3.83301 29 11.5 43s18.334 24.833 32.001 32.5s27.834 11.5 42.501 11.5z" />
    <glyph glyph-name="uniFED2" unicode="&#x641;" horiz-adv-x="1825" arabic-form="final" 
d="M1343 753l378 -0.000976562v-565h140v-188h-1238c-86 -5.33301 -150.333 22.334 -193 83.001l-331 422h228l218 -274c32.667 -32 70.667 -46.333 114 -43h874v82h-343v334c-6 103.333 45 153 153 149zM1440 569.999c-44.667 2 -65.333 -18 -62 -60v-90h155v150h-93z
M1465 1053c14.667 0 28.8311 -3.83301 42.498 -11.5s24.5 -18.5 32.5 -32.5s12 -28.333 12 -43s-3.83301 -29 -11.5 -43s-18.5 -24.667 -32.5 -32s-28.333 -11 -43 -11s-29 3.66699 -43 11s-24.667 18 -32 32s-11 28.333 -11 43s3.83301 29 11.5 43
s18.334 24.833 32.001 32.5s27.834 11.5 42.501 11.5z" />
    <glyph glyph-name="uniFED3" unicode="&#x641;" horiz-adv-x="739" arabic-form="initial" 
d="M253 753h378v-753h-672l1 188h483v82h-343v334c-6 103.333 45 153 153 149zM350 570c-44.667 2 -65.333 -18 -62 -60v-90h155v150h-93zM375.001 1053c14.667 0 28.8311 -3.83301 42.498 -11.5s24.5 -18.5 32.5 -32.5s12 -28.333 12 -43s-3.83301 -29 -11.5 -43
s-18.5 -24.667 -32.5 -32s-28.333 -11 -43 -11s-29 3.66699 -43 11s-24.667 18 -32 32s-11 28.333 -11 43s3.83301 29 11.5 43s18.334 24.833 32.001 32.5s27.834 11.5 42.501 11.5z" />
    <glyph glyph-name="uniFED4" unicode="&#x641;" horiz-adv-x="739" arabic-form="medial" 
d="M253 753h378v-565h140v-188h-812l1 188h483v82h-343v334c-6 103.333 45 153 153 149zM350 570c-44.667 2 -65.333 -18 -62 -60v-90h155v150h-93zM375.001 1053c14.667 0 28.8311 -3.83301 42.498 -11.5s24.5 -18.5 32.5 -32.5s12 -28.333 12 -43s-3.83301 -29 -11.5 -43
s-18.5 -24.667 -32.5 -32s-28.333 -11 -43 -11s-29 3.66699 -43 11s-24.667 18 -32 32s-11 28.333 -11 43s3.83301 29 11.5 43s18.334 24.833 32.001 32.5s27.834 11.5 42.501 11.5z" />
    <glyph glyph-name="uniFED6" unicode="&#x642;" horiz-adv-x="1441" arabic-form="final" 
d="M953 753l378 -0.000976562v-565h160v-188h-868c-86 -5.33301 -150.333 22.334 -193 83.001l-331 422h228l218 -274c32.667 -32 70.667 -46.333 114 -43h484v82h-343v334c-6 103.333 45 153 153 149zM1050 569.999c-44.667 2 -65.333 -18 -62 -60v-90h155v150h-93z
M1175 1053c14.667 0 28.8311 -3.83301 42.498 -11.5s24.5 -18.5 32.5 -32.5s12 -28.333 12 -43s-3.83301 -29 -11.5 -43s-18.5 -24.667 -32.5 -32s-28.333 -11 -43 -11s-29 3.66699 -43 11s-24.667 18 -32 32s-11 28.333 -11 43s3.83301 29 11.5 43
s18.334 24.833 32.001 32.5s27.834 11.5 42.501 11.5zM984.998 1053c14.667 0 28.8311 -3.83301 42.498 -11.5s24.5 -18.5 32.5 -32.5s12 -28.333 12 -43s-3.83301 -29 -11.5 -43s-18.5 -24.667 -32.5 -32s-28.333 -11 -43 -11s-29 3.66699 -43 11s-24.667 18 -32 32
s-11 28.333 -11 43s3.83301 29 11.5 43s18.334 24.833 32.001 32.5s27.834 11.5 42.501 11.5z" />
    <glyph glyph-name="uniFED7" unicode="&#x642;" horiz-adv-x="739" arabic-form="initial" 
d="M253 753h378v-753h-672l1 188h483v82h-343v334c-6 103.333 45 153 153 149zM350 570c-44.667 2 -65.333 -18 -62 -60v-90h155v150h-93zM475.001 1052c14.667 0 28.8311 -3.83301 42.498 -11.5s24.5 -18.5 32.5 -32.5s12 -28.333 12 -43s-3.83301 -29 -11.5 -43
s-18.5 -24.667 -32.5 -32s-28.333 -11 -43 -11s-29 3.66699 -43 11s-24.667 18 -32 32s-11 28.333 -11 43s3.83301 29 11.5 43s18.334 24.833 32.001 32.5s27.834 11.5 42.501 11.5zM284.998 1052c14.667 0 28.8311 -3.83301 42.498 -11.5s24.5 -18.5 32.5 -32.5
s12 -28.333 12 -43s-3.83301 -29 -11.5 -43s-18.5 -24.667 -32.5 -32s-28.333 -11 -43 -11s-29 3.66699 -43 11s-24.667 18 -32 32s-11 28.333 -11 43s3.83301 29 11.5 43s18.334 24.833 32.001 32.5s27.834 11.5 42.501 11.5z" />
    <glyph glyph-name="uniFED8" unicode="&#x642;" horiz-adv-x="739" arabic-form="medial" 
d="M253 753h378v-565h140v-188h-812l1 188h483v82h-343v334c-6 103.333 45 153 153 149zM350 570c-44.667 2 -65.333 -18 -62 -60v-90h155v150h-93zM475.001 1052c14.667 0 28.8311 -3.83301 42.498 -11.5s24.5 -18.5 32.5 -32.5s12 -28.333 12 -43s-3.83301 -29 -11.5 -43
s-18.5 -24.667 -32.5 -32s-28.333 -11 -43 -11s-29 3.66699 -43 11s-24.667 18 -32 32s-11 28.333 -11 43s3.83301 29 11.5 43s18.334 24.833 32.001 32.5s27.834 11.5 42.501 11.5zM284.998 1052c14.667 0 28.8311 -3.83301 42.498 -11.5s24.5 -18.5 32.5 -32.5
s12 -28.333 12 -43s-3.83301 -29 -11.5 -43s-18.5 -24.667 -32.5 -32s-28.333 -11 -43 -11s-29 3.66699 -43 11s-24.667 18 -32 32s-11 28.333 -11 43s3.83301 29 11.5 43s18.334 24.833 32.001 32.5s27.834 11.5 42.501 11.5z" />
    <glyph glyph-name="uniFEDE" unicode="&#x644;" horiz-adv-x="1203" arabic-form="final" 
d="M1104 -204h-548c-70 -3.33301 -125.667 27 -167 91l-288 412l143 109l266 -380c25.333 -33.333 61.333 -48 108 -44h297l1 1v1532h188v-1329h124v-188h-124v-204z" />
    <glyph glyph-name="uniFEDF" unicode="&#x644;" horiz-adv-x="380" arabic-form="initial" 
d="M98 1517h188v-1517h-327v188h139v1329z" />
    <glyph glyph-name="uniFEE0" unicode="&#x644;" horiz-adv-x="380" arabic-form="medial" 
d="M98 1517h188v-1329h130v-188h-457v188h139v1329z" />
    <glyph glyph-name="uniFEE2" unicode="&#x645;" horiz-adv-x="1069" arabic-form="final" 
d="M564 753l407.001 -0.000976562v-565h130v-188h-130v62c-10.667 -49.333 -50.667 -70 -120 -62h-408v563h-79c-46.667 3.33301 -69.334 -18.334 -68.001 -65.001v-1065h-192v1222c-8.66699 72.667 26.333 105.334 105 98.001h234v-95c4 70.667 44.333 102.334 121 95.001z
M691.001 562.999c-47.333 2.66699 -66.334 -13.667 -57.001 -49v-326h85c46.667 -6 67.334 15.333 62.001 64v311h-90z" />
    <glyph glyph-name="uniFEE3" unicode="&#x645;" horiz-adv-x="731" arabic-form="initial" 
d="M223 753h407.001v-627c2.66699 -91.333 -37.333 -133.333 -120 -126h-533v188h125v445c-4.66699 83.333 35.666 123.333 120.999 120zM349.001 563c-41.333 2.66699 -60.333 -13.666 -57 -48.999v-326h86c44 -4.66699 64.333 16.666 61 63.999v311h-90z" />
    <glyph glyph-name="uniFEE4" unicode="&#x645;" horiz-adv-x="732" arabic-form="medial" 
d="M224 753l407.001 -0.000976562v-565h130v-188h-130v106c-4 -77.333 -44 -112.666 -120 -105.999h-533v188h125v445c-4.66699 83.333 35.666 123.333 120.999 120zM350.001 562.999c-41.333 2.66699 -60.333 -13.666 -57 -48.999v-326h86
c44 -4.66699 64.333 16.666 61 63.999v311h-90z" />
    <glyph glyph-name="uniFEE6" unicode="&#x646;" horiz-adv-x="1624" arabic-form="final" 
d="M1335 753h189v-565h122v-179h-122v-197h-780c-78 -8.66699 -136 15.333 -174 72l-471 601l142 105l408 -506c40 -55.333 80.333 -83.333 121 -84h565v753zM915 1055c14.667 0 28.8311 -3.83301 42.498 -11.5s24.5 -18.5 32.5 -32.5s12 -28.333 12 -43
s-3.83301 -29 -11.5 -43s-18.5 -24.667 -32.5 -32s-28.333 -11 -43 -11s-29 3.66699 -43 11s-24.667 18 -32 32s-11 28.333 -11 43s3.83301 29 11.5 43s18.334 24.833 32.001 32.5s27.834 11.5 42.501 11.5z" />
    <glyph glyph-name="uniFEE7" unicode="&#x646;" horiz-adv-x="484" arabic-form="initial" 
d="M200 753h187v-753h-456v188h269v565zM295 1052c14.667 0 28.8311 -3.83301 42.498 -11.5s24.5 -18.5 32.5 -32.5s12 -28.333 12 -43s-3.83301 -29 -11.5 -43s-18.5 -24.667 -32.5 -32s-28.333 -11 -43 -11s-29 3.66699 -43 11s-24.667 18 -32 32s-11 28.333 -11 43
s3.83301 29 11.5 43s18.334 24.833 32.001 32.5s27.834 11.5 42.501 11.5z" />
    <glyph glyph-name="uniFEE8" unicode="&#x646;" horiz-adv-x="683" arabic-form="medial" 
d="M98 753h187v-753l54 -71l55 71v753h189v-565h154v-188h-154l-244 -346l-241 346h-139v188h139v565zM345 1054c14.667 0 28.8311 -3.83301 42.498 -11.5s24.5 -18.5 32.5 -32.5s12 -28.333 12 -43s-3.83301 -29 -11.5 -43s-18.5 -24.667 -32.5 -32s-28.333 -11 -43 -11
s-29 3.66699 -43 11s-24.667 18 -32 32s-11 28.333 -11 43s3.83301 29 11.5 43s18.334 24.833 32.001 32.5s27.834 11.5 42.501 11.5z" />
    <glyph glyph-name="uniFEEA" unicode="&#x647;" horiz-adv-x="733" arabic-form="final" 
d="M254 753h379v-565h174v-188h-362v188h-344v379c-2.66699 120 48.333 182 153 186zM374 560c-60 4 -88 -21 -84 -75v-107h155v182h-71z" />
    <glyph glyph-name="uniFEEB" unicode="&#x647;" horiz-adv-x="1200" arabic-form="initial" 
d="M255 495h358.999l93 -307h123l-104 308c-9.33301 48 -35.666 70.667 -78.999 68h-347v189h405c118.667 4 188 -45.333 208 -148l174 -605h-1114l-1 188h145l-15 121c-2.66699 120 48.333 182 153 186zM384.999 307c-60 4 -84.667 -21 -74 -75l11 -44h174l-30 119h-81z
" />
    <glyph glyph-name="uniFEEC" unicode="&#x647;" horiz-adv-x="1127" arabic-form="medial" 
d="M255 495h358.999l93 -307h123l-104 308c-9.33301 48 -35.666 70.667 -78.999 68h-347v189h405c118.667 4 188 -45.333 208 -148l124 -417h117v-188h-1181l-1 188h145l-15 121c-2.66699 120 48.333 182 153 186zM384.999 307c-60 4 -84.667 -21 -74 -75l11 -44h174
l-30 119h-81z" />
    <glyph glyph-name="uniFEEE" unicode="&#x648;" horiz-adv-x="740" arabic-form="final" 
d="M207 753l432 0.00195312v-565h123v-188h-123c3.33301 -72.667 -19.667 -126.667 -69 -162l-493 -405l-120 156l432 347c22.667 15.333 38 36.666 46 63.999h-333v644c-9.33301 77.333 25.667 113.666 105 108.999zM339 565.002c-38.667 4 -55.333 -13.333 -50 -52v-325
h154v377h-104z" />
    <glyph glyph-name="uniFEF0" unicode="&#x649;" horiz-adv-x="1728" arabic-form="final" 
d="M1142 188v565h487v-565h118v-188h-307v564h-109v-564h-776c-70 -3.33301 -125.667 27 -167 91l-288 413l143 109l266 -380c25.333 -32 61.333 -47 108 -45h525z" />
    <glyph glyph-name="space" unicode=" " horiz-adv-x="469" 
 />
    <glyph glyph-name="exclam" unicode="!" horiz-adv-x="305" 
d="M222 55c0 -48.667 -23 -73 -69 -73c-48 0 -72 23.667 -72 71c0 49.333 24 74 72 74c46 0 69 -24 69 -72zM196 246h-91l-16 1120h129z" />
    <glyph glyph-name="percent" unicode="%" horiz-adv-x="1040" 
d="M158 0l513 1254h234l-513 -1254h-234zM114 784v228h233v-228h-233zM712 191v228h234v-228h-234z" />
    <glyph glyph-name="parenleft" unicode="(" horiz-adv-x="487" 
d="M444 -2l-71 -67.999c-194 217.333 -291 468 -291 752c0 267.333 97 518.666 291 753.999l73 -68c-174.667 -206 -262 -434.667 -262 -686c0 -246 86.667 -474 260 -684z" />
    <glyph glyph-name="parenright" unicode=")" horiz-adv-x="487" 
d="M41 1368l74 67.999c194 -220 291 -470.667 291 -752c0 -267.333 -97 -518.666 -291 -753.999l-74 68c174.667 206 262 434.667 262 686c0 246 -87.333 474 -262 684z" />
    <glyph glyph-name="asterisk" unicode="*" horiz-adv-x="993" 
d="M843 1283l-48 148l-213 -70v226h-155l2 -223l-214 70l-50 -149l217 -70l-133 -183l123 -89l131 179l133 -179l126 89l-133 183z" />
    <glyph glyph-name="plus" unicode="+" horiz-adv-x="946" 
d="M835 452h-321v-323h-84v323h-325v83h325v328h84v-328h321v-83z" />
    <glyph glyph-name="comma" unicode="," horiz-adv-x="415" 
d="M301 204c0 -48 -18.001 -98.665 -54.001 -151.998c-29.333 -43.333 -69.666 -81.333 -120.999 -114c0 74.667 -9.33301 117 -28 127c8 2.66699 20.333 9 37 19c24 19.333 36 38.666 36 57.999c-34.667 12 -52 38.333 -52 79c0 24.667 8.5 45.5 25.5 62.5
s37.5 25.5 61.5 25.5c28 0 50.833 -9.83301 68.5 -29.5s26.5 -44.834 26.5 -75.501z" />
    <glyph glyph-name="hyphen" unicode="-" horiz-adv-x="448" 
d="M395 604h-340v80h340v-80z" />
    <glyph glyph-name="period" unicode="." horiz-adv-x="337" 
d="M242 55c0 -20 -7.16797 -37.167 -21.501 -51.5s-31.166 -21.5 -50.499 -21.5c-20.667 0 -38.167 7.16699 -52.5 21.5s-21.5 31.5 -21.5 51.5c0 48 24.667 72 74 72c48 0 72 -24 72 -72z" />
    <glyph glyph-name="slash" unicode="/" horiz-adv-x="843" 
d="M261 0h-213l517 1197h215z" />
    <glyph glyph-name="zero" unicode="0" horiz-adv-x="483" 
d="M100 0v341h293v-341h-293z" />
    <glyph glyph-name="zero" unicode="&#x6f0;" horiz-adv-x="483" 
d="M100 0v341h293v-341h-293z" />
    <glyph glyph-name="zero" unicode="&#x660;" horiz-adv-x="483" 
d="M100 0v341h293v-341h-293z" />
    <glyph glyph-name="one" unicode="1" horiz-adv-x="373" 
d="M288 0h-188v1099h188v-1099z" />
    <glyph glyph-name="one" unicode="&#x6f1;" horiz-adv-x="373" 
d="M288 0h-188v1099h188v-1099z" />
    <glyph glyph-name="one" unicode="&#x661;" horiz-adv-x="373" 
d="M288 0h-188v1099h188v-1099z" />
    <glyph glyph-name="two" unicode="2" horiz-adv-x="836" 
d="M756 910h-466v-910h-188v1099h654v-189z" />
    <glyph glyph-name="two" unicode="&#x6f2;" horiz-adv-x="836" 
d="M756 910h-466v-910h-188v1099h654v-189z" />
    <glyph glyph-name="two" unicode="&#x662;" horiz-adv-x="836" 
d="M756 910h-466v-910h-188v1099h654v-189z" />
    <glyph glyph-name="three" unicode="3" horiz-adv-x="968" 
d="M886 1099v-443h-597v-656h-188v1099h188v-255h110v255h189v-255h109v255h189z" />
    <glyph glyph-name="three" unicode="&#x6f3;" horiz-adv-x="968" 
d="M886 1099v-443h-597v-656h-188v1099h188v-255h110v255h189v-255h109v255h189z" />
    <glyph glyph-name="three" unicode="&#x663;" horiz-adv-x="968" 
d="M886 1099v-443h-597v-656h-188v1099h188v-255h110v255h189v-255h109v255h189z" />
    <glyph glyph-name="four" unicode="4" horiz-adv-x="816" 
d="M739 1099v-187h-293l-71 -134l70 -133h294v-191h-295l-69 -130l71 -135h293v-189h-423l-216 324l152 226l-152 228l206 321h433z" />
    <glyph glyph-name="four" unicode="&#x6f4;" horiz-adv-x="816" 
d="M739 1099v-187h-293l-71 -134l70 -133h294v-191h-295l-69 -130l71 -135h293v-189h-423l-216 324l152 226l-152 228l206 321h433z" />
    <glyph glyph-name="four" unicode="&#x664;" horiz-adv-x="816" 
d="M739 1099v-187h-293l-71 -134l70 -133h294v-191h-295l-69 -130l71 -135h293v-189h-423l-216 324l152 226l-152 228l206 321h433z" />
    <glyph glyph-name="five" unicode="5" horiz-adv-x="699" 
d="M253 1099h379v-1099h-532v913c-2.66699 120 48.333 182 153 186zM373 906c-60 4 -88 -21 -84 -75v-641h155v716h-71z" />
    <glyph glyph-name="five" unicode="&#x6f5;" horiz-adv-x="699" 
d="M253 1099h379v-1099h-532v913c-2.66699 120 48.333 182 153 186zM373 906c-60 4 -88 -21 -84 -75v-641h155v716h-71z" />
    <glyph glyph-name="five" unicode="&#x665;" horiz-adv-x="699" 
d="M253 1099h379v-1099h-532v913c-2.66699 120 48.333 182 153 186zM373 906c-60 4 -88 -21 -84 -75v-641h155v716h-71z" />
    <glyph glyph-name="six" unicode="6" horiz-adv-x="884" 
d="M516 1099c118.667 4 187.999 -45.333 207.999 -148l89 -951h-201l-75 842c-9.33301 48 -35.666 70.667 -78.999 68h-357v189h415z" />
    <glyph glyph-name="six" unicode="&#x6f6;" horiz-adv-x="884" 
d="M516 1099c118.667 4 187.999 -45.333 207.999 -148l89 -951h-201l-75 842c-9.33301 48 -35.666 70.667 -78.999 68h-357v189h415z" />
    <glyph glyph-name="six" unicode="&#x666;" horiz-adv-x="884" 
d="M516 1099c118.667 4 187.999 -45.333 207.999 -148l89 -951h-201l-75 842c-9.33301 48 -35.666 70.667 -78.999 68h-357v189h415z" />
    <glyph glyph-name="seven" unicode="7" horiz-adv-x="673" 
d="M100 1099h187v-753l54 -71l55 71v753h189v-753l-244 -346l-241 346v753z" />
    <glyph glyph-name="seven" unicode="&#x6f7;" horiz-adv-x="673" 
d="M100 1099h187v-753l54 -71l55 71v753h189v-753l-244 -346l-241 346v753z" />
    <glyph glyph-name="seven" unicode="&#x667;" horiz-adv-x="673" 
d="M100 1099h187v-753l54 -71l55 71v753h189v-753l-244 -346l-241 346v753z" />
    <glyph glyph-name="eight" unicode="8" horiz-adv-x="675" 
d="M584 0h-187l1 753l-53 71l-56 -71l-1 -753h-188v753l245 346l240 -346z" />
    <glyph glyph-name="eight" unicode="&#x6f8;" horiz-adv-x="675" 
d="M584 0h-187l1 753l-53 71l-56 -71l-1 -753h-188v753l245 346l240 -346z" />
    <glyph glyph-name="eight" unicode="&#x668;" horiz-adv-x="675" 
d="M584 0h-187l1 753l-53 71l-56 -71l-1 -753h-188v753l245 346l240 -346z" />
    <glyph glyph-name="nine" unicode="9" horiz-adv-x="719" 
d="M253 1099h379v-1099h-188v560h-344v353c-2.66699 120 48.333 182 153 186zM373 906c-60 4 -88 -21 -84 -75v-81h155v156h-71z" />
    <glyph glyph-name="nine" unicode="&#x6f9;" horiz-adv-x="719" 
d="M253 1099h379v-1099h-188v560h-344v353c-2.66699 120 48.333 182 153 186zM373 906c-60 4 -88 -21 -84 -75v-81h155v156h-71z" />
    <glyph glyph-name="nine" unicode="&#x669;" horiz-adv-x="719" 
d="M253 1099h379v-1099h-188v560h-344v353c-2.66699 120 48.333 182 153 186zM373 906c-60 4 -88 -21 -84 -75v-81h155v156h-71z" />
    <glyph glyph-name="colon" unicode=":" horiz-adv-x="322" 
d="M168 173c14.667 0 28.833 -3.83301 42.5 -11.5s24.334 -18.5 32.001 -32.5s11.5 -28.333 11.5 -43s-3.66699 -29 -11 -43s-18 -24.667 -32 -32s-28.333 -11 -43 -11c-15.333 0 -30 3.66699 -44 11s-24.667 18 -32 32s-11 28.333 -11 43s4 29 12 43s18.667 24.833 32 32.5
s27.666 11.5 42.999 11.5zM167.999 673c14.667 0 28.833 -3.83301 42.5 -11.5s24.334 -18.5 32.001 -32.5s11.5 -28.333 11.5 -43s-3.66699 -29 -11 -43s-18 -24.667 -32 -32s-28.333 -11 -43 -11c-15.333 0 -30 3.66699 -44 11s-24.667 18 -32 32s-11 28.333 -11 43
s4 29 12 43s18.667 24.833 32 32.5s27.666 11.5 42.999 11.5z" />
    <glyph glyph-name="equal" unicode="=" horiz-adv-x="946" 
d="M836 539h-731v86h731v-86zM836 362h-731v86h731v-86z" />
    <glyph glyph-name="bracketleft" unicode="[" horiz-adv-x="581" 
d="M487 -440v-95h-354v1403h354v-94h-208v-1214h208z" />
    <glyph glyph-name="bracketright" unicode="]" horiz-adv-x="581" 
d="M451 -535h-359v95h209v1214h-209v94h359v-1403z" />
    <glyph glyph-name="braceleft" unicode="{" horiz-adv-x="981" 
d="M832 -320c-100.667 18 -183.668 61 -249.001 129c-68.667 72 -103 157.667 -103 257c0 40.667 8.66699 99.667 26 177c12.667 56.667 19 94 19 112c0 63.333 -24 117.333 -72 162c-45.333 42 -100.666 66.667 -165.999 74v38c159.333 34.667 239 107.667 239 219
c0 31.333 -5.33301 72 -16 122c-18 84 -27 146.667 -27 188c0 100.667 33.667 186.334 101 257.001c64 68 146.667 110.333 248 127v-40c-62 -9.33301 -113.667 -33.666 -155 -72.999c-44.667 -42.667 -67 -94.334 -67 -155.001c0 -30.667 4.33301 -69 13 -115
c20 -106.667 30 -176.667 30 -210c0 -149.333 -95.333 -261.333 -286 -336c188.667 -77.333 283 -194 283 -350c0 -32.667 -9 -92.334 -27 -179.001c-11.333 -54.667 -17 -99.667 -17 -135c0 -120 75.333 -197.667 226 -233v-36z" />
    <glyph glyph-name="braceright" unicode="}" horiz-adv-x="981" 
d="M695 593c-159.333 -34.667 -239 -107.997 -239 -219.997c0 -34.667 5 -75.334 15 -122.001c18.667 -87.333 28 -149.666 28 -186.999c0 -100 -33.667 -185.667 -101 -257c-64.667 -68 -147.334 -110.333 -248.001 -127v40c62 9.33301 113.667 33.666 155 72.999
c44 42.667 66 94.334 66 155.001c0 32 -4 70 -12 114c-20 109.333 -30 179.666 -30 210.999c0 148.667 95 260.667 285 336c-188 77.333 -282 193.666 -282 348.999c0 36.667 8.66699 96.667 26 180c12 58 18 103 18 135c0 120 -75.333 197.667 -226 233v36
c100.667 -18.667 183.334 -61.667 248.001 -129c69.333 -72 104 -157.667 104 -257c0 -38 -9 -97 -27 -177c-12 -53.333 -18 -91 -18 -113c0 -64 24.333 -118 73 -162c43.333 -38.667 98.333 -63.334 165 -74.001v-37z" />
    <glyph glyph-name="guillemotleft" unicode="&#xab;" horiz-adv-x="854" 
d="M804 129h-93l-340 400l340 393h87l-226 -393zM497 129h-89l-338 400l340 393h87l-226 -393z" />
    <glyph glyph-name="periodcentered" unicode="&#xb7;" horiz-adv-x="512" 
d="M253 653c-64.667 0 -97 35.001 -97 105.001c0 71.333 32.333 107 97 107c63.333 0 95 -35.667 95 -107c0 -28.667 -8.66699 -53.334 -26 -74.001s-40.333 -31 -69 -31z" />
    <glyph glyph-name="periodcentered" unicode="&#x2219;" horiz-adv-x="512" 
d="M253 653c-64.667 0 -97 35.001 -97 105.001c0 71.333 32.333 107 97 107c63.333 0 95 -35.667 95 -107c0 -28.667 -8.66699 -53.334 -26 -74.001s-40.333 -31 -69 -31z" />
    <glyph glyph-name="periodcentered" unicode="&#x2d9;" horiz-adv-x="512" 
d="M253 653c-64.667 0 -97 35.001 -97 105.001c0 71.333 32.333 107 97 107c63.333 0 95 -35.667 95 -107c0 -28.667 -8.66699 -53.334 -26 -74.001s-40.333 -31 -69 -31z" />
    <glyph glyph-name="guillemotright" unicode="&#xbb;" horiz-adv-x="854" 
d="M784 529l-338 -400h-89l226 400l-226 393h87zM483 529l-340 -400h-93l232 400l-226 393h87z" />
    <glyph glyph-name="multiply" unicode="&#xd7;" horiz-adv-x="946" 
d="M802 219l-58 -57l-277 275l-277 -275l-59 57l275 278l-275 278l62 56l274 -276l277 276l58 -56l-279 -278z" />
    <glyph glyph-name="divide" unicode="&#xf7;" horiz-adv-x="946" 
d="M549 772c0 -24 -8 -44.499 -24 -61.499s-35.667 -25.5 -59 -25.5s-43.5 8.66699 -60.5 26s-25.5 37.666 -25.5 60.999s8.33301 43 25 59s37 24 61 24c23.333 0 43 -8 59 -24s24 -35.667 24 -59zM835 452.001h-730v83h730v-83zM549 215.001c0 -24 -8 -44.333 -24 -61
s-35.667 -25 -59 -25s-43.5 8.5 -60.5 25.5s-25.5 37.167 -25.5 60.5c0 24 8.33301 44.167 25 60.5s37 24.5 61 24.5c23.333 0 43 -8.16699 59 -24.5s24 -36.5 24 -60.5z" />
    <glyph glyph-name="afii57388" unicode="&#x60c;" horiz-adv-x="415" 
d="M281 354c-24 -19.333 -35.999 -38.6689 -35.999 -58.002c34.667 -12 52 -38.333 52 -79c0 -24.667 -8.5 -45.5 -25.5 -62.5s-37.5 -25.5 -61.5 -25.5c-28 0 -50.833 9.83301 -68.5 29.5s-26.5 44.834 -26.5 75.501c0 48 18 98.667 54 152
c29.333 43.333 69.666 81.333 120.999 114c0 -74.667 9 -117 27 -127c-8 -3.33301 -20 -9.66602 -36 -18.999z" />
    <glyph glyph-name="afii57403" unicode="&#x61b;" horiz-adv-x="415" 
d="M281 625c-24 -19.333 -35.999 -38.6689 -35.999 -58.002c34.667 -12 52 -38.333 52 -79c0 -24.667 -8.5 -45.5 -25.5 -62.5s-37.5 -25.5 -61.5 -25.5c-28 0 -50.833 9.83301 -68.5 29.5s-26.5 44.834 -26.5 75.501c0 48 18 98.667 54 152
c29.333 43.333 69.666 81.333 120.999 114c0 -74.667 9 -117 27 -127c-8 -3.33301 -20 -9.66602 -36 -18.999zM297.001 218.997c0 -24 -8.83398 -45 -26.501 -63s-38.5 -27 -62.5 -27c-24.667 0 -46 9 -64 27s-27 39 -27 63s9 45 27 63s39 27 63 27
c24.667 0 45.834 -9 63.501 -27s26.5 -39 26.5 -63z" />
    <glyph glyph-name="afii57407" unicode="&#x61f;" horiz-adv-x="934" 
d="M847 836c-77.333 101.333 -135.998 156.001 -175.998 164.001c-64.667 156 -139.334 234 -224.001 234c-46.667 0 -84.5 -15.5 -113.5 -46.5s-43.5 -73.167 -43.5 -126.5c0 -64.667 41.667 -159.334 125 -284.001c59.333 -88.667 99.666 -165 120.999 -229
c24 -71.333 36.667 -158.333 38 -261h-88c-0.666992 92 -19.334 173.333 -56.001 244c-26.667 49.333 -76 113.333 -148 192c-59.333 66 -100.333 116.667 -123 152c-40 63.333 -60 127 -60 191c0 76.667 26.333 135 79 175c44.667 34 102.334 51 173.001 51
c135.333 0 283 -50.667 443 -152zM540.002 227.001c28 -2.66699 50.001 -15.332 66.001 -37.999c12.667 -20 18 -41.333 16 -64s-11.333 -42.334 -28 -59.001c-20 -20 -44.667 -28.333 -74 -25c-28 2.66699 -49.667 15.334 -65 38.001
c-12.667 19.333 -18.334 40.666 -17.001 63.999c2 22.667 11.333 42.334 28 59.001c20 19.333 44.667 27.666 74 24.999z" />
    <glyph glyph-name="afii57409" unicode="&#x621;" horiz-adv-x="927" 
d="M458 753l371.001 0.000976562v-189h-255c-86.667 0 -127.334 -48 -122.001 -144v-232h377v-188h-729v188h162v333c-7.33301 165.333 58 242.666 196 231.999z" />
    <glyph glyph-name="afii57440" unicode="&#x640;" horiz-adv-x="183" 
d="M203 188v-188h-223v188h223z" />
    <glyph glyph-name="afii57451" unicode="&#x64b;" horiz-adv-x="367" 
d="M413 1930l-445 -207v105l445 211v-109zM413 1750l-445 -207v105l445 211v-109z" />
    <glyph glyph-name="afii57452" unicode="&#x64c;" horiz-adv-x="465" 
d="M491 2029l-52 13c-18 6.66699 -28.667 -0.333008 -32 -21l-27 -104l79 -19l2 7zM102 1823l-170.001 41.001l66 268c12 40.667 34.333 55 67 43l166 -41l55 -13l-57 -227l-23 -97c-7.33301 -37.333 -25.666 -62 -54.999 -74l-302 -147l-42 95l263 124
c14 5.33301 24.667 14.666 32 27.999zM160.999 2049l-52 13c-18 6.66699 -28.667 -0.333008 -32 -21l-27 -104l79 -19l2 7zM431.999 1803l-171.002 41.001l66 268c12.667 40.667 35.334 55 68.001 43l166 -41l55 -13l-57 -227l-23 -97
c-7.33301 -37.333 -25.666 -62 -54.999 -74l-303 -147l-42 95l264 124c14 5.33301 24.667 14.666 32 27.999z" />
    <glyph glyph-name="afii57453" unicode="&#x64d;" horiz-adv-x="365" 
d="M411 -700l-445 -206v104l445 212v-110zM411 -880l-445 -206v104l445 212v-110z" />
    <glyph glyph-name="afii57454" unicode="&#x64e;" horiz-adv-x="366" 
d="M413 1750l-445 -207v105l445 211v-109z" />
    <glyph glyph-name="afii57455" unicode="&#x64f;" horiz-adv-x="366" 
d="M323 2029l-52 13c-18 6.66699 -28.667 -0.333008 -32 -21l-27 -104l79 -19l2 7zM264 1803l-171.002 41.001l66 268c12.667 40.667 35.334 55 68.001 43l166 -41l55 -13l-57 -227l-23 -97c-7.33301 -37.333 -25.666 -62 -54.999 -74l-303 -147l-41 95l263 124
c14 5.33301 24.667 14.666 32 27.999z" />
    <glyph glyph-name="afii57456" unicode="&#x650;" horiz-adv-x="367" 
d="M413 -660l-445 -206v104l445 212v-110z" />
    <glyph glyph-name="afii57457" unicode="&#x651;" horiz-adv-x="365" 
d="M189 1692l-85 -122l-140 201v162h108v-162l32 -42l30 41v163h111v-162l-1 -2l30 -40l32 42v162h109v-162l-141 -201z" />
    <glyph glyph-name="afii57458" unicode="&#x652;" horiz-adv-x="365" 
d="M116 1981h213v-353h-299v248c-2 67.333 26.667 102.333 86 105zM183 1872c-33.333 2.66699 -49 -11.333 -47 -42v-95h87v137h-40z" />
    <glyph glyph-name="afii61664" unicode="&#x200c;" horiz-adv-x="45" 
 />
    <glyph glyph-name="afii301" unicode="&#x200d;" horiz-adv-x="45" 
 />
    <glyph glyph-name="afii299" unicode="&#x200e;" horiz-adv-x="41" 
d="M271 1444l-120 -123l-31 26l80 79h-159v-1426h-41v1464h195l-75 75l31 28z" />
    <glyph glyph-name="afii300" unicode="&#x200f;" horiz-adv-x="41" 
d="M41 0h-41v1426h-159l77 -79l-26 -26l-125 123l125 123l26 -28l-74 -75h197v-1464z" />
    <glyph glyph-name="quoteleft" unicode="&#x2018;" horiz-adv-x="662" 
d="M467 976c0 -73.333 -45.667 -110 -137 -110c-54 0 -89.667 14.333 -107 43c-13.333 21.333 -20 60.333 -20 117c0 108 8.33301 184 25 228c28.667 74 87.334 115.333 176.001 124v-65c-51.333 -6 -86.333 -31.667 -105 -77c-10.667 -26.667 -17.334 -72 -20.001 -136
c125.333 0 188 -41.333 188 -124z" />
    <glyph glyph-name="quoteright" unicode="&#x2019;" horiz-adv-x="570" 
d="M153 1268c0 73.333 45.333 109.999 136 109.999c54.667 0 91 -14.333 109 -43c12 -20 18 -59 18 -117c0 -109.333 -8.33301 -185.666 -25 -228.999c-28 -74 -86.667 -115 -176 -123v65c52.667 5.33301 88 30.333 106 75c10 24.667 16.333 70.667 19 138
c-124.667 0 -187 41.333 -187 124z" />
    <glyph glyph-name="quotedblleft" unicode="&#x201c;" horiz-adv-x="618" 
d="M303 971c0 -73.333 -45.667 -110 -137 -110c-54.667 0 -90.667 14.333 -108 43c-12.667 20 -19 59 -19 117c0 108.667 8.33301 185 25 229c28 74 86.667 115 176 123v-65c-52.667 -5.33301 -88 -30.333 -106 -75c-10 -25.333 -16.333 -71.333 -19 -138
c125.333 0 188 -41.333 188 -124zM604 976c0 -73.333 -45.333 -110 -136 -110c-54.667 0 -90.667 14.333 -108 43c-13.333 21.333 -20 60.333 -20 117c0 108 8.33301 184 25 228c28.667 74 87.334 115.333 176.001 124v-65c-51.333 -6 -86.333 -31.667 -105 -77
c-10.667 -26.667 -17.334 -72 -20.001 -136c125.333 0 188 -41.333 188 -124z" />
    <glyph glyph-name="quotedblright" unicode="&#x201d;" horiz-adv-x="618" 
d="M340 1268c0 73.333 45.335 109.999 136.002 109.999c55.333 0 91.666 -14.333 108.999 -43c12.667 -20 19 -59 19 -117c0 -109.333 -8.33301 -185.666 -25 -228.999c-28.667 -74 -87.334 -115 -176.001 -123v65c52 5.33301 87.333 30.333 106 75
c10 24.667 16.333 70.667 19 138c-125.333 0 -188 41.333 -188 124zM39.002 1263c0 73.333 45.332 110 135.999 110c54 0 90 -14.333 108 -43c13.333 -21.333 20 -60.333 20 -117c0 -108.667 -8.33301 -184.667 -25 -228c-28.667 -74 -87.667 -115.333 -177 -124v65
c52 6 87 31.667 105 77c10.667 26 17.334 71.333 20.001 136c-124.667 0 -187 41.333 -187 124z" />
    <glyph glyph-name="guilsinglleft" unicode="&#x2039;" horiz-adv-x="1365" 
d="M1222 270l-1080 456v97l1080 455v-118l-936 -385l936 -387v-118z" />
    <glyph glyph-name="guilsinglright" unicode="&#x203a;" horiz-adv-x="1365" 
d="M1222 724l-1080 -454v117l937 386l-937 387v118l1080 -457v-97z" />
    <glyph glyph-name="uniE820" unicode="&#xe820;" horiz-adv-x="583" 
d="M650 1322c-61.333 -19.333 -151.666 -56.667 -270.999 -112c-106 -50 -175.667 -75 -209 -75h-148l252 115c103.333 48 172.666 72 207.999 72h168z" />
    <glyph glyph-name="uniE821" unicode="&#xe821;" horiz-adv-x="511" 
d="M526 1332c0 -33.333 -22.667 -59.999 -68 -79.999l67 -60h-74c-26 0 -50 7.66699 -72 23c3.33301 2 -26 -12.667 -88 -44c-46.667 -24 -89.667 -36 -129 -36h-148c104 39.333 201.667 84.333 293 135l-18 16c-26 24 -39 48 -39 72c0 26.667 14 51 42 73l146 116
c0 -34.667 14.667 -74.334 44 -119.001s44 -76.667 44 -96zM427 1342c0 30.667 -13.667 46 -41 46c-24 0 -36 -10.333 -36 -31c0 -8 13.667 -23 41 -45c24 14 36 24 36 30z" />
    <glyph glyph-name="uniE822" unicode="&#xe822;" horiz-adv-x="326" 
d="M341 1262c0 -34.667 -14 -64.499 -42 -89.499s-61.667 -37.5 -101 -37.5c-40 0 -73.833 12 -101.5 36s-41.5 51 -41.5 81c0 35.333 22.333 75.666 67 120.999l111 114c0 -50 18 -93 54 -129s54 -68 54 -96zM245 1254c0 13.333 -7 27.666 -21 42.999s-24 26 -30 32
c-4 -4.66699 -12.167 -13.667 -24.5 -27s-18.5 -26.666 -18.5 -39.999c0 -30.667 15 -46 45 -46c10.667 0 21.5 3.83301 32.5 11.5s16.5 16.5 16.5 26.5z" />
    <glyph glyph-name="uniE823" unicode="&#xe823;" horiz-adv-x="583" 
d="M613 1433c-61.333 -19.333 -151.666 -56.667 -270.999 -112c-106 -50 -175.667 -75 -209 -75h-148l252 115c103.333 48 172.666 72 207.999 72h168zM651 1322c-61.333 -19.333 -151.666 -56.667 -270.999 -112c-106 -50 -175.667 -75 -209 -75h-148l252 115
c103.333 48 172.666 72 207.999 72h168z" />
    </font>
</defs>
</svg>
