<?xml version="1.0" standalone="no"?>
<!DOCTYPE svg PUBLIC "-//W3C//DTD SVG 1.1//EN" "http://www.w3.org/Graphics/SVG/1.1/DTD/svg11.dtd" >
<svg>
<metadata>
Created by FontForge 20090914 at Wed Oct 19 00:45:35 2011
 By www-data
(c) by Abolfazl Seilsepour - +98 912 591 3420  -  seilsepor@yahoo.com
</metadata>
<defs>
<font id="FarAlArabiya" horiz-adv-x="958" >
  <font-face 
    font-family="Far.Al Arabiya"
    font-weight="400"
    font-stretch="normal"
    units-per-em="2048"
    panose-1="0 0 4 0 0 0 0 0 0 0"
    ascent="1638"
    descent="-410"
    bbox="-233 -863 2141 2263"
    underline-thickness="100"
    underline-position="-850"
    unicode-range="U+0020-U+FEFC"
  />
<missing-glyph horiz-adv-x="1024" 
d="M128 0v1360h768v-1360h-768zM256 128h512v1104h-512v-1104z" />
    <glyph glyph-name=".notdef" unicode="&#x652;&#x64d;" horiz-adv-x="1024" 
d="M128 0v1360h768v-1360h-768zM256 128h512v1104h-512v-1104z" />
    <glyph glyph-name="copyright" unicode="&#x652;&#x64b;" horiz-adv-x="1816" 
d="M862 1495c125.333 0 247.5 -32 366.5 -96s211.833 -155.5 278.5 -274.5s100 -243.167 100 -372.5s-32.833 -253.333 -98.5 -372s-157.667 -210.5 -276 -275.5s-241.833 -97.5 -370.5 -97.5c-129.333 0 -252.833 32.5 -370.5 97.5s-209.5 156.833 -275.5 275.5
s-99 242.667 -99 372s33.5 253.5 100.5 372.5s160 210.5 279 274.5s240.833 96 365.5 96zM862 1431c-114 0 -225.169 -29.333 -333.502 -88s-193.166 -142.334 -254.499 -251.001s-92 -222 -92 -340s30 -230.833 90 -338.5s144 -191.667 252 -252s220.667 -90.5 338 -90.5
s230 30.167 338 90.5s192.167 144.333 252.5 252s90.5 220.5 90.5 338.5s-30.667 231.333 -92 340s-146.166 192.334 -254.499 251.001s-219.833 88 -334.5 88zM1230 1230l22 -293.999h-41c-26 83.333 -66.167 145.5 -120.5 186.5s-120.166 61.5 -197.499 61.5
c-58 0 -109.333 -12 -154 -36s-81.334 -55.667 -110.001 -95c-21.333 -30.667 -39 -71 -53 -121s-21 -102 -21 -156c0 -148.667 32 -258.167 96 -328.5s148 -105.5 252 -105.5c136 0 245 56.667 327 170l39 -20c-97.333 -142 -231 -213 -401 -213
c-140.667 0 -257 45.333 -349 136s-138 200.667 -138 330c0 134 49 248.333 147 343s223 142 375 142c33.333 0 60.333 -2 81 -6s59 -15 115 -33c16.667 -6 29 -9 37 -9c11.333 0 21 3.16699 29 9.5s16 19.166 24 38.499h41z" />
    <glyph glyph-name="uniE818" unicode="&#x651;&#x64b;" horiz-adv-x="678" 
d="M580 1648c-32 -7.33301 -92.9971 -34.334 -182.997 -81.001c-84 -43.333 -133.333 -65 -148 -65c-28 0 -59.333 25.667 -94 77c-12.667 19.333 -31.334 43.333 -56.001 72h59c19.333 0 39.666 -10.667 60.999 -32s36.333 -32 45 -32c32 0 48 13 48 39
c0 18.667 -7.66699 39.667 -23 63c-14 20 -27.667 34 -41 42h61c19.333 0 35.666 -10.333 48.999 -31c24 -36 40 -54 48 -54c30 0 45 16 45 48c0 34.667 -17.333 61.334 -52 80.001l51 4c33.333 2.66699 57.833 -14.333 73.5 -51s34.5 -63 56.5 -79zM553.003 2025
c-21.333 -6.66699 -92 -38 -212 -94c-103.333 -48.667 -170.333 -73 -201 -73h-100l212 97c101.333 46.667 168 70 200 70h101zM591.003 1914c-21.333 -6.66699 -92 -38 -212 -94c-103.333 -48.667 -170.333 -73 -201 -73h-100l212 97c101.333 46.667 168 70 200 70h101z
" />
    <glyph glyph-name="uniFC5E" unicode="&#x651;&#x64c;" horiz-adv-x="621" arabic-form="isolated" 
d="M621 1816c-32 -7.33301 -92.9961 -34.334 -182.996 -81.001c-84 -43.333 -133.333 -65 -148 -65c-28 0 -59.333 25.667 -94 77c-12.667 19.333 -31.334 43.333 -56.001 72h59c19.333 0 39.666 -10.667 60.999 -32s36.333 -32 45 -32c32 0 48 13 48 39
c0 18.667 -7.66699 39.667 -23 63c-14 20 -27.667 34 -41 42h61c19.333 0 35.666 -10.333 48.999 -31c24 -36 40 -54 48 -54c30 0 45 16 45 48c0 33.333 -17.333 59.333 -52 78c-8 3.33301 -22.667 13.333 -44 30c-98 -54.667 -169 -82 -213 -82v83
c-30.667 -13.333 -63.334 -20 -98.001 -20h-66c34 14.667 94 43.334 180 86.001l54 29v-96c21.333 8 51.333 21.333 90 40l-28 25c-24 21.333 -36 43.333 -36 66c0 24.667 12.667 47 38 67l120 95c0 -18 14.667 -49.333 44 -94s44 -76 44 -94c0 -30 -24.667 -56 -74 -78
l58 -52c23.333 -1.33301 42 -18.333 56 -51c15.333 -36 34 -62 56 -78zM456.004 2085c0 37.333 -18.667 55.999 -56 55.999c-34 0 -51 -13.667 -51 -41c0 -10 18 -29.667 54 -59c35.333 20.667 53 35.334 53 44.001z" />
    <glyph glyph-name="uniFC5F" unicode="&#x651;&#x64d;" horiz-adv-x="678" arabic-form="isolated" 
d="M551 2026c-32 -7.33301 -92.9971 -34.333 -182.997 -81c-84 -43.333 -133.333 -65 -148 -65c-28 0 -59.333 25.667 -94 77c-12.667 19.333 -31.334 43.333 -56.001 72h59c19.333 0 39.666 -10.667 60.999 -32s36.333 -32 45 -32c32 0 48 13 48 39
c0 18.667 -7.66699 39.667 -23 63c-14 20 -27.667 34 -41 42h61c19.333 0 35.666 -10.333 48.999 -31c24 -36 40 -54 48 -54c30 0 45 16 45 48c0 34.667 -17.333 61.334 -52 80l51 4c33.333 2.66699 57.833 -14.333 73.5 -51s34.5 -63 56.5 -79zM640.003 1948
c-21.333 -6.66699 -92 -38 -212 -94c-103.333 -48.667 -170.333 -73 -201 -73h-100l212 97c101.333 46.667 168 70 200 70h101zM678.003 1837c-21.333 -6.66699 -92 -38 -212 -94c-103.333 -48.667 -170.333 -73 -201 -73h-100l212 97c101.333 46.667 168 70 200 70h101z
" />
    <glyph glyph-name="uniFC60" unicode="&#x651;&#x64e;" horiz-adv-x="621" arabic-form="isolated" 
d="M583 2061c-21.333 -6.66699 -92 -38 -212 -94c-103.333 -48.667 -170.333 -73 -201 -73h-100l212 97c101.333 46.667 168 70 200 70h101zM621 1816c-32 -7.33301 -92.9971 -34.334 -182.997 -81.001c-84 -43.333 -133.333 -65 -148 -65c-28 0 -59.333 25.667 -94 77
c-12.667 19.333 -31.334 43.333 -56.001 72h59c19.333 0 39.666 -10.667 60.999 -32s36.333 -32 45 -32c32 0 48 13 48 39c0 18.667 -7.66699 39.667 -23 63c-14 20 -27.667 34 -41 42h61c19.333 0 35.666 -10.333 48.999 -31c24 -36 40 -54 48 -54c30 0 45 16 45 48
c0 34.667 -17.333 61.334 -52 80.001l51 4c33.333 2.66699 57.833 -14.333 73.5 -51s34.5 -63 56.5 -79z" />
    <glyph glyph-name="uniFC61" unicode="&#x651;&#x64f;" horiz-adv-x="621" arabic-form="isolated" 
d="M621 1816c-32 -7.33301 -92.9971 -34.333 -182.997 -81c-84 -43.333 -133.333 -65 -148 -65c-28 0 -59.333 25.667 -94 77c-12.667 19.333 -31.334 43.333 -56.001 72h59c19.333 0 39.666 -10.667 60.999 -32s36.333 -32 45 -32c32 0 48 13 48 39
c0 18.667 -7.66699 39.667 -23 63c-14 20 -27.667 34 -41 42h61c19.333 0 35.666 -10.333 48.999 -31c24 -36 40 -54 48 -54c30 0 45 16 45 48c0 33.333 -17.333 59.333 -52 78c-8.66699 3.33301 -23.667 13.666 -45 30.999c-3.33301 -1.33301 -36.333 -17.666 -99 -48.999
c-44 -22.667 -84 -34 -120 -34h-92c72 27.333 157.667 68.333 257 123l-26 24c-24 22 -36 44 -36 66c0 24.667 12.667 47 38 67l120 95c0 -18 14.667 -49.333 44 -94s44 -76 44 -94c0 -30 -24.667 -56 -74 -78l58 -52c23.333 -1.33301 42 -18.333 56 -51
c15.333 -36 34 -62 56 -78zM456.003 2085c0 37.333 -18.667 56 -56 56c-34 0 -51 -13.667 -51 -41c0 -10 18 -29.667 54 -59c35.333 20.667 53 35.334 53 44z" />
    <glyph glyph-name="uniFC62" unicode="&#x651;&#x650;" horiz-adv-x="640" arabic-form="isolated" 
d="M551 1915c-32 -7.33301 -92.9971 -34.334 -182.997 -81.001c-84 -43.333 -133.333 -65 -148 -65c-28 0 -59.333 25.667 -94 77c-12.667 19.333 -31.334 43.333 -56.001 72h59c19.333 0 39.666 -10.667 60.999 -32s36.333 -32 45 -32c32 0 48 13 48 39
c0 18.667 -7.66699 39.667 -23 63c-14 20 -27.667 34 -41 42h61c19.333 0 35.666 -10.333 48.999 -31c24 -36 40 -54 48 -54c30 0 45 16 45 48c0 34.667 -17.333 61.334 -52 80.001l51 4c33.333 2.66699 57.833 -14.333 73.5 -51s34.5 -63 56.5 -79zM640.003 1837
c-21.333 -6.66699 -92 -38 -212 -94c-103.333 -48.667 -170.333 -73 -201 -73h-100l212 97c101.333 46.667 168 70 200 70h101z" />
    <glyph glyph-name="uniFD3E" unicode="&#x652;&#x64e;" horiz-adv-x="937" 
d="M454 352c21.333 0 40.333 7.83301 57 23.5s25 35.167 25 58.5c0 20.667 -8.33301 38.5 -25 53.5s-35.667 22.5 -57 22.5c-22 0 -41.167 -7.5 -57.5 -22.5s-24.5 -32.833 -24.5 -53.5c0 -23.333 8.16699 -42.833 24.5 -58.5s35.5 -23.5 57.5 -23.5zM736 606v-96
c19.333 -4 41 -14.167 65 -30.5s36 -33.5 36 -51.5c0 -24.667 -33.667 -52.667 -101 -84v-90c0 -19.333 -4.66699 -29 -14 -29v0c-5.33301 0 -13 3.66699 -23 11l-129 98c-9.33301 6.66699 -18.666 10 -27.999 10c-11.333 -1.33301 -17 -6 -17 -14
c0 -10 6.33301 -21.667 19 -35l106 -119c4 -8 6 -14.667 6 -20c0 -11.333 -10.667 -15.666 -32 -12.999l-72 11c-6.66699 -34.667 14.333 -97 63 -187c33.333 -61.333 67 -114.666 101 -159.999c65.333 -65.333 98 -104 98 -116c0 -10 -6 -15 -18 -15
c-26 0 -85.667 48 -179 144c-108.667 113.333 -181.667 224.666 -219 333.999l-112 -21c-18 -1.33301 -27 3.33398 -27 14.001c0 7.33301 2.66699 15 8 23l99 135c8 9.33301 12 19.666 12 30.999c0 9.33301 -4.66699 14 -14 14c-10 0 -22.333 -6 -37 -18l-111 -96
c-12 -11.333 -22.333 -17 -31 -17c-13.333 0 -20 13 -20 39v86c-16.667 4 -35.667 14.333 -57 31c-26 20.667 -39 38.334 -39 53.001c0 26 32 53.333 96 82v100c0 18 6.66699 27 20 27c10 0 19 -4 27 -12l123 -105c9.33301 -8 18 -12 26 -12v0
c8.66699 0 13.667 3.33301 15 10c2.66699 8 0.666992 16.333 -6 25l-97 135c-6.66699 10.667 -10 19.667 -10 27c0 13.333 11 18.666 33 15.999l109 -16c30 87.333 78.333 171.666 145 252.999c49.333 60.667 104.666 116 165.999 166c47.333 40 74.666 60 81.999 60
c14.667 0 22 -5.66699 22 -17c0 -2.66699 -32.667 -42 -98 -118c-32.667 -38.667 -69 -96 -109 -172c-43.333 -86 -61.666 -143.333 -54.999 -172l76 4c14.667 2.66699 22 -1 22 -11c0 -8 -6 -19.333 -18 -34l-102 -119c-6 -6.66699 -9 -13 -9 -19c0 -9.33301 5 -14 15 -14
c8 0 15.333 2.66699 22 8l127 92c14 10 24.333 15 31 15c9.33301 0 14 -7 14 -21zM468 616l34.999 0.000976562v-41l98 93l-4 8l-104 -23c18.667 79.333 38.334 138.666 59.001 177.999v80c-22 -21.333 -48.333 -62.833 -79 -124.5s-46 -104.167 -46 -127.5l-109 25l72 -115
h6v47h41l29 52h2v-52zM322.999 377.001h-68.001v35c-19.333 0 -35.666 6.66699 -48.999 20c22 9.33301 38.333 14 49 14v33h74v4l-123 92v-90c-12.667 -1.33301 -32.667 -8.5 -60 -21.5s-41 -23.5 -41 -31.5c0 -12 13.333 -24.5 40 -37.5s47 -19.5 61 -19.5v-90l117 88v4z
M506.998 285.001l0.000976562 -43h-35v-52h-4l-31 52h-39v49h-2l-78 -115l109 27c2.66699 -26 18.667 -69.667 48 -131s55 -102.333 77 -123v80c-16.667 31.333 -36.334 89.333 -59.001 174l106 -19l2 4zM649.999 483.001v-34.001c19.333 -3.33301 35 -10.333 47 -21
c-18.667 -10.667 -34.334 -16 -47.001 -16v-33h-69l-4 -2l120 -90v88c12.667 1.33301 32.334 8.5 59.001 21.5s40 23.5 40 31.5c0 10.667 -13 22.834 -39 36.501s-46 20.5 -60 20.5v90l-116 -88v-4h69z" />
    <glyph glyph-name="uniFDF2" unicode="&#xfedf;&#xfee0;&#xfeea;" horiz-adv-x="1800" arabic-form="isolated" 
d="M1488 1200h233.999v-1200h-1102v543c-150 -76 -257.667 -214 -323 -414l-27 -129h-220c6.66699 222.667 87.334 418.667 242.001 588c59.333 64.667 134.833 117 226.5 157s203.5 59.667 335.5 59v-614h224v1010h234v-1010h176v1010zM929.999 1485h96v-141h96v143l96 1
v-144h96v145h96v-232h-481l1 87v141z" />
    <glyph glyph-name="uniFEF5" unicode="&#xfedf;&#xfe82;" horiz-adv-x="1054" arabic-form="isolated" 
d="M438 1141h93.999v-51h-92c-46.667 0 -89 -12.333 -127 -37l-37 37c28.667 18 55.334 30.333 80.001 37c20.667 9.33301 48 14 82 14zM297.999 800h234v-610h226v1010h234v-1010v-190h-932v190h238v610z" />
    <glyph glyph-name="uniFEF6" unicode="&#xfee0;&#xfe82;" horiz-adv-x="1080" arabic-form="final" 
d="M430 1077h93.999v-51h-92c-46.667 0 -89 -12.333 -127 -37l-37 37c28.667 18 55.334 30.333 80.001 37c20.667 9.33301 48 14 82 14zM297.999 800h234v-610h226v1010h234v-1010h122v-190h-1054v190h238v610z" />
    <glyph glyph-name="uniFEF7" unicode="&#xfedf;&#xfe84;" horiz-adv-x="1061" arabic-form="isolated" 
d="M334 1117v-91h-29v-76h206v76h-118v58c-1.33301 18 7.33398 26.667 26.001 26h92v79h-133c-26.667 -24.667 -41.334 -48.667 -44.001 -72zM305 800h234v-610h226v1010h234v-1010v-190h-932v190h238v610z" />
    <glyph glyph-name="uniFEF8" unicode="&#xfee0;&#xfe84;" horiz-adv-x="1069" arabic-form="final" 
d="M327 1117v-91h-29v-76h206v76h-118v58c-1.33301 18 7.33398 26.667 26.001 26h92v79h-133c-26.667 -24.667 -41.334 -48.667 -44.001 -72zM298 800h234v-610h226v1010h234v-1010h122v-190h-1054v190h238v610z" />
    <glyph glyph-name="uniFEF9" unicode="&#xfedf;&#xfe88;" horiz-adv-x="1050" arabic-form="isolated" 
d="M176 -131v-91h-29v-76h206v76h-118v58c-1.33301 18 7.33398 26.667 26.001 26h92v79h-133c-26.667 -24.667 -41.334 -48.667 -44.001 -72zM758 1200h234v-1010v-190h-932v190h238v1010h234v-1010h226v1010z" />
    <glyph glyph-name="uniFEFA" unicode="&#xfee0;&#xfe88;" horiz-adv-x="1099" arabic-form="final" 
d="M188 -130v-91h-29v-76h206v76h-118v58c-1.33301 18 7.33398 26.667 26.001 26h92v79h-133c-26.667 -24.667 -41.334 -48.667 -44.001 -72zM758 1200h234v-1010h122v-190h-1054v190h238v1010h234v-1010h226v1010z" />
    <glyph glyph-name="uniFEFB" unicode="&#xfedf;&#xfe8e;" horiz-adv-x="1054" arabic-form="isolated" 
d="M758 1200h234v-1010v-190h-932v190h238v1010h234v-1010h226v1010z" />
    <glyph glyph-name="uniFEFC" unicode="&#xfee0;&#xfe8e;" horiz-adv-x="1069" arabic-form="final" 
d="M758 1200h234v-1010h122v-190h-1054v190h238v1010h234v-1010h226v1010z" />
    <glyph glyph-name="afii57410" unicode="&#x622;" horiz-adv-x="358" arabic-form="isolated" 
d="M214 1390h93.999v-52h-92c-46.667 0 -89 -12.333 -127 -37l-37 37c28.667 18 55.334 30.333 80.001 37c20 10 47.333 15 82 15zM287.999 0h-234v1200h234v-1200z" />
    <glyph glyph-name="afii57411" unicode="&#x623;" horiz-adv-x="346" arabic-form="isolated" 
d="M78 1452v-91h-29v-76h206v76h-118v58c-1.33301 18 7.33398 26.667 26.001 26h92v79h-133c-26.667 -24.667 -41.334 -48.667 -44.001 -72zM272 0h-234v1200h234v-1200z" />
    <glyph glyph-name="afii57412" unicode="&#x624;" horiz-adv-x="742" arabic-form="isolated" 
d="M185 1122v-91h-29v-76h206v76h-118v58c-1.33301 18 7.33398 26.667 26.001 26h92v79h-133c-26.667 -24.667 -41.334 -48.667 -44.001 -72zM521 603c-172 -7.33301 -244.333 -95.668 -217 -265.001c36.667 -111.333 109 -160.666 217 -147.999v413zM740 799.998
l-0.000976562 -609.998v-190c2 -85.333 -16 -154.666 -54 -207.999c-59.333 -67.333 -146.666 -98 -261.999 -92h-293v203h321c60 5.33301 83 37.666 69 96.999c-164 -8.66699 -284.167 42.666 -360.5 153.999s-89 246.166 -38 404.499s230.5 238.833 538.5 241.5h79z" />
    <glyph glyph-name="afii57413" unicode="&#x625;" horiz-adv-x="347" arabic-form="isolated" 
d="M61 -129v-91h-29v-76h206v76h-118v58c-1.33301 18 7.33398 26.667 26.001 26h92v79h-133c-26.667 -24.667 -41.334 -48.667 -44.001 -72zM277 0h-234v1200h234v-1200z" />
    <glyph glyph-name="afii57414" unicode="&#x626;" horiz-adv-x="1006" arabic-form="isolated" 
d="M90 904v-91h-29v-76h206v76h-118v58c-1.33301 18 7.33398 26.667 26.001 26h92v79h-133c-26.667 -24.667 -41.334 -48.667 -44.001 -72zM952 800l-0.000976562 -200h-375v-370h375v-212c6.66699 -227.333 -102.666 -333.333 -327.999 -318h-399l1 1l-2 -1
c-116 14 -171.333 84 -166 210v715h194v-721h380c50.667 6 79.334 29.333 86.001 70v42l-2 14h-360v518c-4.66699 166 60.666 250 195.999 252h400z" />
    <glyph glyph-name="afii57415" unicode="&#x627;" horiz-adv-x="354" arabic-form="isolated" 
d="M284 0h-234v1200h234v-1200z" />
    <glyph glyph-name="afii57416" unicode="&#x628;" horiz-adv-x="1659" arabic-form="isolated" 
d="M779 -318h210v210h-210v-210zM1358 190v610h234v-800h-1077c-286 -18 -441 92 -465 330v470h225v-350c-2 -149.333 53.333 -236 166 -260h917z" />
    <glyph glyph-name="afii57417" unicode="&#x629;" horiz-adv-x="701" arabic-form="isolated" 
d="M256 753h379v-753h-532v567c-2.66699 120 48.333 182 153 186zM376 560c-60 4 -88 -21 -84 -75v-295h155v370h-71zM217 1090l151 -0.000976562v-74h-96c-25.333 0 -36.333 -19 -33 -57h129v-72h-243v72h40v69c-3.33301 46.667 14 67.334 52 62.001z" />
    <glyph glyph-name="afii57418" unicode="&#x62a;" horiz-adv-x="1659" arabic-form="isolated" 
d="M591 950h210v210h-210v-210zM891 950h210v210h-210v-210zM1358 190v610h234v-800h-1077c-286 -18 -441 92 -465 330v470h225v-350c-2 -149.333 53.333 -236 166 -260h917z" />
    <glyph glyph-name="afii57419" unicode="&#x62b;" horiz-adv-x="1665" arabic-form="isolated" 
d="M731 1263h200v200h-200v-200zM591 950h210v210h-210v-210zM891 950h210v210h-210v-210zM1358 190v610h234v-800h-1077c-286 -18 -441 92 -465 330v470h225v-350c-2 -149.333 53.333 -236 166 -260h917z" />
    <glyph glyph-name="afii57420" unicode="&#x62c;" horiz-adv-x="895" arabic-form="isolated" 
d="M667 -308h210v210h-210v-210zM154 791l367.999 -0.000976562c196 -9.33301 311.667 -102.666 347 -279.999v-321v-190h-525c-32 -3.33301 -47.333 -21.5 -46 -54.5s38.333 -46.833 111 -41.5h201v-204h-229c-161.333 -4 -256.833 37.333 -286.5 124
s-27.167 170.167 7.5 250.5s142 118.833 322 115.5h201v268c4.66699 72.667 -34.666 120 -117.999 142h-353v191z" />
    <glyph glyph-name="afii57421" unicode="&#x62d;" horiz-adv-x="900" arabic-form="isolated" 
d="M155 791l367.999 -0.000976562c196 -9.33301 311.667 -102.666 347 -279.999v-321v-190h-525c-32 -3.33301 -47.333 -21.5 -46 -54.5s38.333 -46.833 111 -41.5h201v-204h-229c-161.333 -4 -256.833 37.333 -286.5 124s-27.167 170.167 7.5 250.5s142 118.833 322 115.5
h201v268c4.66699 72.667 -34.666 120 -117.999 142h-353v191z" />
    <glyph glyph-name="afii57422" unicode="&#x62e;" horiz-adv-x="899" arabic-form="isolated" 
d="M314 950h210v210h-210v-210zM158 791l367.999 -0.000976562c196 -9.33301 311.667 -102.666 347 -279.999v-321v-190h-525c-32 -3.33301 -47.333 -21.5 -46 -54.5s38.333 -46.833 111 -41.5h201v-204h-229c-161.333 -4 -256.833 37.333 -286.5 124
s-27.167 170.167 7.5 250.5s142 118.833 322 115.5h201v268c4.66699 72.667 -34.666 120 -117.999 142h-353v191z" />
    <glyph glyph-name="afii57423" unicode="&#x62f;" horiz-adv-x="857" arabic-form="isolated" 
d="M198 617c262 -8 397 -137.001 405 -387.001v-40h-555v-190h769v190c5.33301 96 -13 197.333 -55 304s-120.667 194.334 -236 263.001c-104.667 50.667 -214 72.667 -328 66v-206z" />
    <glyph glyph-name="afii57424" unicode="&#x630;" horiz-adv-x="851" arabic-form="isolated" 
d="M192 617c262 -8 397 -137.001 405 -387.001v-40h-555v-190h769v190c5.33301 96 -13 197.333 -55 304s-120.667 194.334 -236 263.001c-104.667 50.667 -214 72.667 -328 66v-206zM201 949.999h210v210h-210v-210z" />
    <glyph glyph-name="afii57425" unicode="&#x631;" horiz-adv-x="464" arabic-form="isolated" 
d="M164 800v-667c0.666992 -152 -54 -228.333 -164 -229v-204c254 -11.333 383.667 132 389 430v670h-225z" />
    <glyph glyph-name="afii57426" unicode="&#x632;" horiz-adv-x="456" arabic-form="isolated" 
d="M164 800v-667c0.666992 -152 -54 -228.333 -164 -229v-204c254 -11.333 383.667 132 389 430v670h-225zM174 950h210v210h-210v-210z" />
    <glyph glyph-name="afii57427" unicode="&#x633;" horiz-adv-x="2098" arabic-form="isolated" 
d="M1780 800h243.999v-610v-190h-992c-16.667 -109.333 -53 -188.333 -109 -237s-138.667 -69.667 -248 -63h-274c-101.333 -6 -182.666 23 -243.999 87s-91 184.333 -89 361v352h239v-447c2.66699 -105.333 51.667 -155.333 147 -150h196c105.333 -2 156 65 152 201v396
h242v-310h246v460h244v-460h246v610z" />
    <glyph glyph-name="afii57428" unicode="&#x634;" horiz-adv-x="2096" arabic-form="isolated" 
d="M1289 1203h200v200h-200v-200zM1139 950h210v210h-210v-210zM1439 950h210v210h-210v-210zM1776 800h243.999v-610v-190h-992c-16.667 -109.333 -53 -188.333 -109 -237s-138.667 -69.667 -248 -63h-274c-101.333 -6 -182.666 23 -243.999 87s-91 184.333 -89 361v352
h239v-447c2.66699 -105.333 51.667 -155.333 147 -150h196c105.333 -2 156 65 152 201v396h242v-310h246v460h244v-460h246v610z" />
    <glyph glyph-name="afii57429" unicode="&#x635;" horiz-adv-x="1937" arabic-form="isolated" 
d="M1034 600v-410h595v293c-6 68 -46.333 107 -121 117h-474zM802 800l751.999 -0.00195312c62 -1.33301 110.833 -9.5 146.5 -24.5s71.5 -43.5 107.5 -85.5s59.667 -102 71 -180v-320v-190h-847c-16.667 -109.333 -53 -188.333 -109 -237s-138.667 -69.667 -248 -63h-274
c-108 0.666992 -191 31.334 -249 92.001s-86 179.334 -84 356.001v352h239v-447c2.66699 -105.333 51.667 -155.333 147 -150h196c108.667 -2 159.334 65 152.001 201v696z" />
    <glyph glyph-name="afii57430" unicode="&#x636;" horiz-adv-x="1957" arabic-form="isolated" 
d="M1217 950h210v210h-210v-210zM1038 600v-410h595v293c-6 68 -46.333 107 -121 117h-474zM806 800l751.999 -0.00195312c62 -1.33301 110.833 -9.5 146.5 -24.5s71.5 -43.5 107.5 -85.5s59.667 -102 71 -180v-320v-190h-847c-16.667 -109.333 -53 -188.333 -109 -237
s-138.667 -69.667 -248 -63h-274c-108 0.666992 -191 31.334 -249 92.001s-86 179.334 -84 356.001v352h239v-447c2.66699 -105.333 51.667 -155.333 147 -150h196c108.667 -2 159.334 65 152.001 201v696z" />
    <glyph glyph-name="afii57431" unicode="&#x637;" horiz-adv-x="1296" arabic-form="isolated" 
d="M148 190h-118v-190h1197v190v320c-11.333 78 -35 138 -71 180s-71.833 70.5 -107.5 85.5s-84.5 23.167 -146.5 24.5h-520v400h-234v-1010zM856 600c74.667 -10 115 -49 121 -117v-293h-595v0v410h474z" />
    <glyph glyph-name="afii57432" unicode="&#x638;" horiz-adv-x="1313" arabic-form="isolated" 
d="M152 190h-118v-190h1197v190v320c-11.333 78 -35 138 -71 180s-71.833 70.5 -107.5 85.5s-84.5 23.167 -146.5 24.5h-520v400h-234v-1010zM860 600c74.667 -10 115 -49 121 -117v-293h-595v0v410h474zM575 950h210v210h-210v-210z" />
    <glyph glyph-name="afii57433" unicode="&#x639;" horiz-adv-x="903" arabic-form="isolated" 
d="M871 0l-527 0.000976562c-32 -3.33301 -49 -21.333 -51 -54s36.667 -46.667 116 -42h401v-204h-419c-156.667 -8.66699 -252.667 28.166 -288 110.499s-35.666 168.5 -0.999023 258.5c25.333 66.667 90.333 106 195 118l2 3h-1c-40 52.667 -56.333 141.667 -49 267
c13.333 118 71.666 212.333 174.999 283s220.333 91 351 61l47 -188c-248.667 14.667 -363.667 -76.666 -345 -273.999c13.333 -82.667 56.333 -132.334 129 -149.001h265v-190z" />
    <glyph glyph-name="afii57434" unicode="&#x63a;" horiz-adv-x="895" arabic-form="isolated" 
d="M497 950h210v210h-210v-210zM864 0l-527 0.000976562c-32 -3.33301 -49 -21.333 -51 -54s36.667 -46.667 116 -42h401v-204h-419c-156.667 -8.66699 -252.667 28.166 -288 110.499s-35.666 168.5 -0.999023 258.5c25.333 66.667 90.333 106 195 118l2 3h-1
c-40 52.667 -56.333 141.667 -49 267c13.333 118 71.666 212.333 174.999 283s220.333 91 351 61l47 -188c-248.667 14.667 -363.667 -76.666 -345 -273.999c13.333 -82.667 56.333 -132.334 129 -149.001h265v-190z" />
    <glyph glyph-name="afii57441" unicode="&#x641;" horiz-adv-x="1561" arabic-form="isolated" 
d="M1094 950h210v210h-210v-210zM1250 586c-135.333 10 -207 -31.332 -215 -123.999c30 -120.667 110.667 -211.334 242 -272.001v396h-27zM818 583.001c58 146 186.333 218.333 385 217h305v-610v-190h-987c-286 -18 -441 92 -465 330v310h225v-190
c-2 -149.333 53.333 -236 166 -260h481c-120 109.333 -156.667 240.333 -110 393z" />
    <glyph glyph-name="afii57442" unicode="&#x642;" horiz-adv-x="1154" arabic-form="isolated" 
d="M513 950h210v210h-210v-210zM793 950h210v210h-210v-210zM862 586h-26c-135.333 10 -207 -31.333 -215 -124c18.667 -118 99 -198.667 241 -242v366zM414 583c58 152.667 183 225 375 217h303v-610v-190c-5.33301 -106.667 -38.833 -185 -100.5 -235
s-147.167 -71.667 -256.5 -65h-334c-134.667 0.666992 -226 33.834 -274 99.501s-71 175.167 -69 328.5v372h239v-447c2.66699 -98.667 45 -148.667 127 -150h326c60 7.33301 95 39.666 105 96.999c-189.333 42 -330.333 136.333 -423 283l3 -1
c-53.333 88 -60.333 188.333 -21 301z" />
    <glyph glyph-name="afii57443" unicode="&#x643;" horiz-adv-x="1655" arabic-form="isolated" 
d="M509 0c-282 -16 -435 94 -459 330v370h225v-250c-2 -149.333 53.333 -236 166 -260h895c34 186 -8.33301 281.667 -127 287h-615v270l564 453h322l-604 -500h337c233.333 -12.667 355.333 -122.667 366 -330v-370h-1070z" />
    <glyph glyph-name="afii57444" unicode="&#x644;" horiz-adv-x="1156" arabic-form="isolated" 
d="M876 1200l229.999 -0.00195312v-1010v-190c-16.667 -109.333 -53 -188.333 -109 -237s-138.667 -69.667 -248 -63h-344c-108 0.666992 -191 33.834 -249 99.501s-86 181.834 -84 348.501v352h239v-447c2.66699 -98.667 51.667 -148.667 147 -150h266
c108.667 -2 159.334 65 152.001 201v1096z" />
    <glyph glyph-name="afii57445" unicode="&#x645;" horiz-adv-x="835" arabic-form="isolated" 
d="M493 596c-46 -3.33301 -71.334 -29.667 -76.001 -79v-504h51c52.667 2.66699 77.334 30.667 74.001 84v499h-49zM184.999 496.999c20.667 196 145.333 297 374 303h221v-596c6.66699 -264 -118 -395.333 -374 -394c-10 -286 -139.333 -423.667 -388 -413v194
c107.333 7.33301 162 83.333 164 228v678h3z" />
    <glyph glyph-name="afii57446" unicode="&#x646;" horiz-adv-x="1100" arabic-form="isolated" 
d="M801 104c7.33301 -136 -43.333 -202.998 -152 -200.998h-196c-95.333 1.33301 -144.333 51.333 -147 150v447h-239v-352c-2 -166.667 26 -282.834 84 -348.501s141 -98.834 249 -99.501h274c109.333 -6.66699 192 14.333 248 63s92.333 127.667 109 237v190v610h-230
v-696zM402.001 950.002h210v210h-210v-210z" />
    <glyph glyph-name="afii57470" unicode="&#x647;" horiz-adv-x="927" arabic-form="isolated" 
d="M560 749.5c-76 -37 -134.001 -74 -174.001 -111s-77 -77 -111 -120s-65.167 -88.333 -93.5 -136s-54.166 -103.667 -77.499 -168s-37 -106.333 -41 -126s-4.33301 -49.167 -1 -88.5h810v804h-12h-12c-116 0.666992 -212 -17.5 -288 -54.5zM641.999 543v-357h-298
c60.667 164 160 283 298 357z" />
    <glyph glyph-name="afii57448" unicode="&#x648;" horiz-adv-x="750" arabic-form="isolated" 
d="M524 603c-172 -7.33301 -244.333 -95.668 -217 -265.001c36.667 -111.333 109 -160.666 217 -147.999v413zM743 799.998l-0.000976562 -609.998v-190c2 -85.333 -16 -154.666 -54 -207.999c-59.333 -67.333 -146.666 -98 -261.999 -92h-293v203h321
c60 5.33301 83 37.666 69 96.999c-164 -8.66699 -284.167 42.666 -360.5 153.999s-89 246.166 -38 404.499s230.5 238.833 538.5 241.5h79z" />
    <glyph glyph-name="afii57449" unicode="&#x649;" horiz-adv-x="1006" arabic-form="isolated" 
d="M952 800l-0.000976562 -200h-375v-370h375v-212c6.66699 -227.333 -102.666 -333.333 -327.999 -318h-399l1 1l-2 -1c-116 14 -171.333 84 -166 210v715h194v-721h380c50.667 6 79.334 29.333 86.001 70v42l-2 14h-360v518c-4.66699 166 60.666 250 195.999 252h400z" />
    <glyph glyph-name="afii57450" unicode="&#x64a;" horiz-adv-x="1006" arabic-form="isolated" 
d="M952 800l-0.000976562 -200h-375v-370h375v-212c6.66699 -227.333 -102.666 -333.333 -327.999 -318h-399l1 1l-2 -1c-116 14 -171.333 84 -166 210v715h194v-721h380c50.667 6 79.334 29.333 86.001 70v42l-2 14h-360v518c-4.66699 166 60.666 250 195.999 252h400z" />
    <glyph glyph-name="afii57506" unicode="&#x67e;" horiz-adv-x="1659" arabic-form="isolated" 
d="M1358 190v610h234v-800h-1077c-286 -18 -441 92 -465 330v470h225v-350c-2 -149.333 53.333 -236 166 -260h917zM771 -619h200v200h-200v-200zM631 -316h210v210h-210v-210zM931 -316h210v210h-210v-210z" />
    <glyph glyph-name="afii57507" unicode="&#x686;" horiz-adv-x="1113" arabic-form="isolated" 
d="M339 791l367.999 -0.000976562c196 -9.33301 311.667 -102.666 347 -279.999v-321v-190h-709c-32 -3.33301 -47.333 -21.5 -46 -54.5s29 -46.833 83 -41.5v-204c-161.333 -4 -256.833 37.333 -286.5 124s-27.167 170.167 7.5 250.5s142 118.833 322 115.5h385v268
c4.66699 72.667 -34.666 120 -117.999 142h-353v191zM598.999 -619.001h200v200h-200v-200zM458.999 -316.001h210v210h-210v-210zM758.999 -316.001h210v210h-210v-210z" />
    <glyph glyph-name="afii57508" unicode="&#x698;" horiz-adv-x="611" arabic-form="isolated" 
d="M227 800v-667c0.666992 -152 -54 -228.333 -164 -229v-204c254 -11.333 383.667 132 389 430v670h-225zM219 1262h200v200h-200v-200zM79 949h210v210h-210v-210zM379 949h210v210h-210v-210z" />
    <glyph glyph-name="afii57509" unicode="&#x6af;" horiz-adv-x="1655" arabic-form="isolated" 
d="M594 816l465 384h-200l-265 -220v-164zM509 0c-282 -16 -435 94 -459 330v370h225v-250c-2 -149.333 53.333 -236 166 -260h895c34 186 -8.33301 281.667 -127 287h-615v270l564 453h322l-604 -500h337c233.333 -12.667 355.333 -122.667 366 -330v-370h-1070z" />
    <glyph glyph-name="uniFB57" unicode="&#x67e;" horiz-adv-x="1650" arabic-form="final" 
d="M1358 800h234v-610h96v-190h-1173c-286 -18 -441 92 -465 330v470h225v-350c-2 -149.333 53.333 -236 166 -260h917v610zM771 -619h200v200h-200v-200zM631 -316h210v210h-210v-210zM931 -316h210v210h-210v-210z" />
    <glyph glyph-name="uniFB58" unicode="&#x67e;" horiz-adv-x="625" arabic-form="initial" 
d="M321 190h-331v-190h565v190v610h-234v-610zM193 -620h200v200h-200v-200zM53 -317h210v210h-210v-210zM353 -317h210v210h-210v-210z" />
    <glyph glyph-name="uniFB59" unicode="&#x67e;" horiz-adv-x="667" arabic-form="medial" 
d="M300 190h-310v-190h689v190h-145v610h-234v-610zM236 -620h200v200h-200v-200zM96 -317h210v210h-210v-210zM396 -317h210v210h-210v-210z" />
    <glyph glyph-name="uniFB7B" unicode="&#x686;" horiz-adv-x="1129" arabic-form="final" 
d="M271 791l367.999 -0.000976562c196 -9.33301 311.667 -102.666 347 -279.999v-321h155v-190h-793c-32 -3.33301 -47.333 -21.5 -46 -54.5s29 -46.833 83 -41.5v-204c-161.333 -4 -256.833 37.333 -286.5 124s-27.167 170.167 7.5 250.5s142 118.833 322 115.5h314v268
c4.66699 72.667 -34.666 120 -117.999 142h-353v191zM597.999 -619.001h200v200h-200v-200zM457.999 -316.001h210v210h-210v-210zM757.999 -316.001h210v210h-210v-210z" />
    <glyph glyph-name="uniFB7C" unicode="&#x686;" horiz-adv-x="904" arabic-form="initial" 
d="M108 600l353.001 0.000976562c83.333 -22 122.666 -69.333 117.999 -142v-268h-597v-190h567h274v190v321c-35.333 177.333 -151 270.666 -347 279.999h-368v-191zM301.001 -619.999h200v200h-200v-200zM161.001 -316.999h210v210h-210v-210zM461.001 -316.999h210v210
h-210v-210z" />
    <glyph glyph-name="uniFB7D" unicode="&#x686;" horiz-adv-x="904" arabic-form="medial" 
d="M105 791l367.999 -0.000976562c196 -9.33301 311.667 -102.666 347 -279.999v-321h117v-190h-958v190h597v268c4.66699 72.667 -34.666 120 -117.999 142h-353v191zM400.999 -618.001h200v200h-200v-200zM260.999 -315.001h210v210h-210v-210zM560.999 -315.001h210v210
h-210v-210z" />
    <glyph glyph-name="uniFB8B" unicode="&#x698;" horiz-adv-x="574" arabic-form="final" 
d="M426 800v-610h179v-190h-191c-38 -209.333 -163.667 -309.333 -377 -300v204c110 0.666992 164.667 77 164 229v667h225zM193 1262h200v200h-200v-200zM53 949h210v210h-210v-210zM353 949h210v210h-210v-210z" />
    <glyph glyph-name="uniFB8F" unicode="&#x6a9;" horiz-adv-x="1649" arabic-form="final" 
d="M509 0c-282 -16 -435 94.002 -459 330.002v370h225v-250c-2 -149.333 53.333 -236 166 -260h894c0.666992 3.33301 1.66699 6.66602 3 9.99902c30.667 179.333 -12.333 271.666 -129 276.999h-615v270l564 453h322l-604 -500h337
c233.333 -12.667 355.333 -122.667 366 -330v-180h101v-190h-1171z" />
    <glyph glyph-name="uniFB90" unicode="&#x6a9;" horiz-adv-x="1143" arabic-form="initial" 
d="M84 747v-270h615c118.667 -5.33301 161 -101 127 -287h-839v-190h1082v370c-10.667 207.333 -132.667 317.333 -366 330h-337l604 500h-322z" />
    <glyph glyph-name="uniFB91" unicode="&#x6a9;" horiz-adv-x="1117" arabic-form="medial" 
d="M836 308c-1.33301 108.667 -47.333 165 -138 169h-615v270l564 453h322l-604 -500h337c205.333 -11.333 324.333 -98 357 -260c4.66699 -22 7.66699 -45.333 9 -70v-180h63l2 -190h-1147v190h839c8 44 11.667 83.333 11 118z" />
    <glyph glyph-name="uniFB93" unicode="&#x6af;" horiz-adv-x="1649" arabic-form="final" 
d="M594 816l465 384h-200l-265 -220v-164zM509 0c-282 -16 -435 94.002 -459 330.002v370h225v-250c-2 -149.333 53.333 -236 166 -260h894c0.666992 3.33301 1.66699 6.66602 3 9.99902c30.667 179.333 -12.333 271.666 -129 276.999h-615v270l564 453h322l-604 -500h337
c233.333 -12.667 355.333 -122.667 366 -330v-180h101v-190h-1171z" />
    <glyph glyph-name="uniFB94" unicode="&#x6af;" horiz-adv-x="1143" arabic-form="initial" 
d="M84 747v-270h615c118.667 -5.33301 161 -101 127 -287h-839v-190h1082v370c-10.667 207.333 -132.667 317.333 -366 330h-337l604 500h-322zM84 980l265 220h200l-465 -384v164z" />
    <glyph glyph-name="uniFB95" unicode="&#x6af;" horiz-adv-x="1117" arabic-form="medial" 
d="M836 308c-1.33301 108.667 -47.333 165 -138 169h-615v270l564 453h322l-604 -500h337c205.333 -11.333 324.333 -98 357 -260c4.66699 -22 7.66699 -45.333 9 -70v-180h63l2 -190h-1147v190h839c8 44 11.667 83.333 11 118zM84 980l265 220h200l-465 -384v164z" />
    <glyph glyph-name="uniFBA5" unicode="&#x6c0;" horiz-adv-x="732" arabic-form="final" 
d="M253 753h379v-565h144v-188h-332v188h-344v379c-2.66699 120 48.333 182 153 186zM373 560c-60 4 -88 -21 -84 -75v-107h155v182h-71zM227 1090l151 -0.000976562v-74h-96c-25.333 0 -36.333 -19 -33 -57h129v-72h-243v72h40v69c-3.33301 46.667 14 67.334 52 62.001z
" />
    <glyph glyph-name="uniFBFD" unicode="&#x6cc;" horiz-adv-x="996" arabic-form="final" 
d="M27 540l-0.000976562 -624.001c8 -146 86 -218 234 -216h348c180.667 11.333 284.334 111.333 311.001 300h108v190h-481v-190h143c7.33301 -65.333 -47 -98.666 -163 -99.999h-280v640h-220z" />
    <glyph glyph-name="uniFBFE" unicode="&#x6cc;" horiz-adv-x="601" arabic-form="initial" 
d="M268 190h-278v-190h512v190v610h-234v-610zM-1 -315h210v210h-210v-210zM299 -315h210v210h-210v-210z" />
    <glyph glyph-name="uniFBFF" unicode="&#x6cc;" horiz-adv-x="602" arabic-form="medial" 
d="M288 190h-298v-190h637v190h-105v610h-234v-610zM4 -315h210v210h-210v-210zM304 -315h210v210h-210v-210z" />
    <glyph glyph-name="uniFE82" unicode="&#x622;" horiz-adv-x="401" arabic-form="final" 
d="M190 1546h93.999v-52h-92c-46.667 0 -89 -12.333 -127 -37l-37 37c28.667 18 55.334 30.333 80.001 37c20 10 47.333 15 82 15zM287.999 190h128v-190h-362v190v1010h234v-1010z" />
    <glyph glyph-name="uniFE84" unicode="&#x623;" horiz-adv-x="393" arabic-form="final" 
d="M66 1612v-91h-29v-76h206v76h-118v58c-1.33301 18 7.33398 26.667 26.001 26h92v79h-133c-26.667 -24.667 -41.334 -48.667 -44.001 -72zM280 190h128v-190h-362v190v1010h234v-1010z" />
    <glyph glyph-name="uniFE86" unicode="&#x624;" horiz-adv-x="772" arabic-form="final" 
d="M180 1117v-91h-29v-76h206v76h-118v58c-1.33301 18 7.33398 26.667 26.001 26h92v79h-133c-26.667 -24.667 -41.334 -48.667 -44.001 -72zM521 603c-172 -7.33301 -244.333 -95.668 -217 -265.001c36.667 -111.333 109 -160.666 217 -147.999v413zM740 799.998
l-0.000976562 -609.998h95v-190h-95c2 -85.333 -16 -154.666 -54 -207.999c-59.333 -67.333 -146.666 -98 -261.999 -92h-293v203h321c60 5.33301 83 37.666 69 96.999c-164 -8.66699 -284.167 42.666 -360.5 153.999s-89 246.166 -38 404.499s230.5 238.833 538.5 241.5h79
z" />
    <glyph glyph-name="uniFE88" unicode="&#x625;" horiz-adv-x="397" arabic-form="final" 
d="M74 -129v-91h-29v-76h206v76h-118v58c-1.33301 18 7.33398 26.667 26.001 26h92v79h-133c-26.667 -24.667 -41.334 -48.667 -44.001 -72zM284 190h128v-190h-362v190v1010h234v-1010z" />
    <glyph glyph-name="uniFE8A" unicode="&#x626;" horiz-adv-x="999" arabic-form="final" 
d="M66 786v-91h-29v-76h206v76h-118v58c-1.33301 18 7.33398 26.667 26.001 26h92v79h-133c-26.667 -24.667 -41.334 -48.667 -44.001 -72zM30 540l-0.000976562 -624.001c8 -146 86 -218 234 -216h348c180.667 11.333 284.334 111.333 311.001 300h108v190h-481v-190h143
c7.33301 -65.333 -47 -98.666 -163 -99.999h-280v640h-220z" />
    <glyph glyph-name="uniFE8B" unicode="&#x626;" horiz-adv-x="500" arabic-form="initial" 
d="M187 1059v-91h-29v-76h206v76h-118v58c-1.33301 18 7.33398 26.667 26.001 26h92v79h-133c-26.667 -24.667 -41.334 -48.667 -44.001 -72zM168 190h-178v-190h412v190v610h-234v-610z" />
    <glyph glyph-name="uniFE8C" unicode="&#x626;" horiz-adv-x="500" arabic-form="medial" 
d="M193 1069v-91h-29v-76h206v76h-118v58c-1.33301 18 7.33398 26.667 26.001 26h92v79h-133c-26.667 -24.667 -41.334 -48.667 -44.001 -72zM168 190h-178v-190h547v190h-135v610h-234v-610z" />
    <glyph glyph-name="uniFE8E" unicode="&#x627;" horiz-adv-x="393" arabic-form="final" 
d="M280 190h128v-190h-362v190v1010h234v-1010z" />
    <glyph glyph-name="uniFE90" unicode="&#x628;" horiz-adv-x="1650" arabic-form="final" 
d="M796 -315h210v210h-210v-210zM1358 800h234v-610h96v-190h-1173c-286 -18 -441 92 -465 330v470h225v-350c-2 -149.333 53.333 -236 166 -260h917v610z" />
    <glyph glyph-name="uniFE91" unicode="&#x628;" horiz-adv-x="500" arabic-form="initial" 
d="M168 190h-178v-190h412v190v610h-234v-610zM121 -315h210v210h-210v-210z" />
    <glyph glyph-name="uniFE92" unicode="&#x628;" horiz-adv-x="514" arabic-form="medial" 
d="M158 190h-168v-190h547v190h-145v610h-234v-610zM148 -315h210v210h-210v-210z" />
    <glyph glyph-name="uniFE96" unicode="&#x62a;" horiz-adv-x="1654" arabic-form="final" 
d="M591 950h210v210h-210v-210zM891 950h210v210h-210v-210zM1358 800h234v-610h96v-190h-1173c-286 -18 -441 92 -465 330v470h225v-350c-2 -149.333 53.333 -236 166 -260h917v610z" />
    <glyph glyph-name="uniFE97" unicode="&#x62a;" horiz-adv-x="599" arabic-form="initial" 
d="M278 190h-288v-190h522v190v610h-234v-610zM1 950h210v210h-210v-210zM301 950h210v210h-210v-210z" />
    <glyph glyph-name="uniFE98" unicode="&#x62a;" horiz-adv-x="601" arabic-form="medial" 
d="M278 190h-288v-190h657v190h-135v610h-234v-610zM-9 950h210v210h-210v-210zM291 950h210v210h-210v-210z" />
    <glyph glyph-name="uniFE9A" unicode="&#x62b;" horiz-adv-x="1654" arabic-form="final" 
d="M891 950h210v210h-210v-210zM743 1200h210v210h-210v-210zM591 950h210v210h-210v-210zM1358 800h234v-610h96v-190h-1173c-286 -18 -441 92 -465 330v470h225v-350c-2 -149.333 53.333 -236 166 -260h917v610z" />
    <glyph glyph-name="uniFE9B" unicode="&#x62b;" horiz-adv-x="567" arabic-form="initial" 
d="M268 190h-278v-190h512v190v610h-234v-610zM141 1203h200v200h-200v-200zM-9 950h210v210h-210v-210zM291 950h210v210h-210v-210z" />
    <glyph glyph-name="uniFE9C" unicode="&#x62b;" horiz-adv-x="602" arabic-form="medial" 
d="M288 190h-298v-190h637v190h-105v610h-234v-610zM141 1203h200v200h-200v-200zM-9 950h210v210h-210v-210zM291 950h210v210h-210v-210z" />
    <glyph glyph-name="uniFE9E" unicode="&#x62c;" horiz-adv-x="923" arabic-form="final" 
d="M671 -304h210v210h-210v-210zM158 791l367.999 -0.000976562c196 -9.33301 311.667 -102.666 347 -279.999v-321h84v-190h-609c-32 -3.33301 -47.333 -21.5 -46 -54.5s38.333 -46.833 111 -41.5h201v-204h-229c-161.333 -4 -256.833 37.333 -286.5 124
s-27.167 170.167 7.5 250.5s142 118.833 322 115.5h201v268c4.66699 72.667 -34.666 120 -117.999 142h-353v191z" />
    <glyph glyph-name="uniFE9F" unicode="&#x62c;" horiz-adv-x="901" arabic-form="initial" 
d="M293 -315h210v210h-210v-210zM105 791l367.999 -0.000976562c196 -9.33301 311.667 -102.666 347 -279.999v-321v-190h-841v190h597v268c4.66699 72.667 -34.666 120 -117.999 142h-353v191z" />
    <glyph glyph-name="uniFEA0" unicode="&#x62c;" horiz-adv-x="904" arabic-form="medial" 
d="M300 -315h210v210h-210v-210zM108 791l367.999 -0.000976562c196 -9.33301 311.667 -102.666 347 -279.999v-321h117v-190h-958v190h597v268c4.66699 72.667 -34.666 120 -117.999 142h-353v191z" />
    <glyph glyph-name="uniFEA2" unicode="&#x62d;" horiz-adv-x="920" arabic-form="final" 
d="M158 791l367.999 -0.000976562c196 -9.33301 311.667 -102.666 347 -279.999v-321h84v-190h-609c-32 -3.33301 -47.333 -21.5 -46 -54.5s38.333 -46.833 111 -41.5h201v-204h-229c-161.333 -4 -256.833 37.333 -286.5 124s-27.167 170.167 7.5 250.5
s142 118.833 322 115.5h201v268c4.66699 72.667 -34.666 120 -117.999 142h-353v191z" />
    <glyph glyph-name="uniFEA3" unicode="&#x62d;" horiz-adv-x="904" arabic-form="initial" 
d="M108 600l353.001 0.000976562c83.333 -22 122.666 -69.333 117.999 -142v-268h-597v-190h567h274v190v321c-35.333 177.333 -151 270.666 -347 279.999h-368v-191z" />
    <glyph glyph-name="uniFEA4" unicode="&#x62d;" horiz-adv-x="904" arabic-form="medial" 
d="M105 791l367.999 -0.000976562c196 -9.33301 311.667 -102.666 347 -279.999v-321h117v-190h-958v190h597v268c4.66699 72.667 -34.666 120 -117.999 142h-353v191z" />
    <glyph glyph-name="uniFEA6" unicode="&#x62e;" horiz-adv-x="913" arabic-form="final" 
d="M311 950h210v210h-210v-210zM155 791l367.999 -0.000976562c196 -9.33301 311.667 -102.666 347 -279.999v-321h84v-190h-609c-32 -3.33301 -47.333 -21.5 -46 -54.5s38.333 -46.833 111 -41.5h201v-204h-229c-161.333 -4 -256.833 37.333 -286.5 124
s-27.167 170.167 7.5 250.5s142 118.833 322 115.5h201v268c4.66699 72.667 -34.666 120 -117.999 142h-353v191z" />
    <glyph glyph-name="uniFEA7" unicode="&#x62e;" horiz-adv-x="900" arabic-form="initial" 
d="M105 600l353.001 0.000976562c83.333 -22 122.666 -69.333 117.999 -142v-268h-597v-190h567h274v180v331c-35.333 177.333 -151 270.666 -347 279.999h-368v-191zM291.001 950.001h210v210h-210v-210z" />
    <glyph glyph-name="uniFEA8" unicode="&#x62e;" horiz-adv-x="904" arabic-form="medial" 
d="M291 950h210v210h-210v-210zM105 791l367.999 -0.000976562c196 -9.33301 311.667 -102.666 347 -279.999v-321h117v-190h-958v190h597v268c4.66699 72.667 -34.666 120 -117.999 142h-353v191z" />
    <glyph glyph-name="uniFEAA" unicode="&#x62f;" horiz-adv-x="874" arabic-form="final" 
d="M194 617c262 -8 397 -137.001 405 -387.001v-40h-555v-190h852v190h-83c5.33301 96 -13 197.333 -55 304s-120.667 194.334 -236 263.001c-96 50.667 -205.333 72.667 -328 66v-206z" />
    <glyph glyph-name="uniFEAC" unicode="&#x630;" horiz-adv-x="872" arabic-form="final" 
d="M192 617c262 -8 396.999 -137.001 404.999 -387.001v-40h-555v-190h852v190h-83c5.33301 96 -13 197.333 -55 304s-120.667 194.334 -236 263.001c-89.333 50.667 -198.666 72.667 -327.999 66v-206zM200.999 949.999h210v210h-210v-210z" />
    <glyph glyph-name="uniFEAE" unicode="&#x631;" horiz-adv-x="460" arabic-form="final" 
d="M389 800v-610h99v-190h-111c-38 -209.333 -163.667 -309.333 -377 -300v204c110 0.666992 164.667 77 164 229v667h225z" />
    <glyph glyph-name="uniFEB0" unicode="&#x632;" horiz-adv-x="460" arabic-form="final" 
d="M171 950h210v210h-210v-210zM389 800v-610h99v-190h-111c-38 -209.333 -163.667 -309.333 -377 -300v204c110 0.666992 164.667 77 164 229v667h225z" />
    <glyph glyph-name="uniFEB2" unicode="&#x633;" horiz-adv-x="2093" arabic-form="final" 
d="M1780 800h243.999v-610h117v-190h-1109c-16.667 -109.333 -53 -188.333 -109 -237s-138.667 -69.667 -248 -63h-274c-101.333 -6 -182.666 23 -243.999 87s-91 184.333 -89 361v352h239v-447c2.66699 -105.333 51.667 -155.333 147 -150h196c105.333 -2 156 65 152 201
v396h242v-310h246v460h244v-460h246v610z" />
    <glyph glyph-name="uniFEB3" unicode="&#x633;" horiz-adv-x="1551" arabic-form="initial" 
d="M768 650h244v-460h246v610h244v-800h-1512v190h288v310h244v-310h246v460z" />
    <glyph glyph-name="uniFEB4" unicode="&#x633;" horiz-adv-x="1578" arabic-form="medial" 
d="M768 650h244v-460h246v610h244v-610h105v-190h-1617v190h288v310h244v-310h246v460z" />
    <glyph glyph-name="uniFEB6" unicode="&#x634;" horiz-adv-x="2100" arabic-form="final" 
d="M1293 1203h200v200h-200v-200zM1143 950h210v210h-210v-210zM1443 950h210v210h-210v-210zM1780 800h243.999v-610h117v-190h-1109c-16.667 -109.333 -53 -188.333 -109 -237s-138.667 -69.667 -248 -63h-274c-101.333 -6 -182.666 23 -243.999 87s-91 184.333 -89 361
v352h239v-447c2.66699 -105.333 51.667 -155.333 147 -150h196c105.333 -2 156 65 152 201v396h242v-310h246v460h244v-460h246v610z" />
    <glyph glyph-name="uniFEB7" unicode="&#x634;" horiz-adv-x="1549" arabic-form="initial" 
d="M791 1203h200v200h-200v-200zM641 950h210v210h-210v-210zM941 950h210v210h-210v-210zM768 650h244v-460h246v610h244v-610v-190h-1512v190h288v310h244v-310h246v460z" />
    <glyph glyph-name="uniFEB8" unicode="&#x634;" horiz-adv-x="1577" arabic-form="medial" 
d="M787 1203h200v200h-200v-200zM637 950h210v210h-210v-210zM937 950h210v210h-210v-210zM764 650h244v-460h246v610h244v-610h105v-190h-1617v190h288v310h244v-310h246v460z" />
    <glyph glyph-name="uniFEBA" unicode="&#x635;" horiz-adv-x="1942" arabic-form="final" 
d="M1034 600v-410h595v293c-6 68 -46.333 107 -121 117h-474zM802 800l751.999 -0.00195312c62 -1.33301 110.833 -9.5 146.5 -24.5s71.5 -43.5 107.5 -85.5s59.667 -102 71 -180v-320h93v-190h-940c-16.667 -109.333 -53 -188.333 -109 -237s-138.667 -69.667 -248 -63
h-274c-108 0.666992 -191 31.334 -249 92.001s-86 179.334 -84 356.001v352h239v-447c2.66699 -105.333 51.667 -155.333 147 -150h196c108.667 -2 159.334 65 152.001 201v696z" />
    <glyph glyph-name="uniFEBB" unicode="&#x635;" horiz-adv-x="1603" arabic-form="initial" 
d="M695 600v-410h595v293c-6 68 -46.333 107 -121 117h-474zM461 800h754c62 -1.33301 110.833 -9.5 146.5 -24.5s71.5 -43.5 107.5 -85.5s59.667 -102 71 -180v-320v-190h-1547v190h128v350h224v-350h116v610z" />
    <glyph glyph-name="uniFEBC" unicode="&#x635;" horiz-adv-x="1609" arabic-form="medial" 
d="M692 600v-410h595v293c-6 68 -46.333 107 -121 117h-474zM458 800h754c62 -1.33301 110.833 -9.5 146.5 -24.5s71.5 -43.5 107.5 -85.5s59.667 -102 71 -180v-320h93v-190h-1640v190h128v350h224v-350h116v610z" />
    <glyph glyph-name="uniFEBE" unicode="&#x636;" horiz-adv-x="1952" arabic-form="final" 
d="M1213 950h210v210h-210v-210zM1034 600v-410h595v293c-6 68 -46.333 107 -121 117h-474zM802 800l751.999 -0.00195312c62 -1.33301 110.833 -9.5 146.5 -24.5s71.5 -43.5 107.5 -85.5s59.667 -102 71 -180v-320h93v-190h-940c-16.667 -109.333 -53 -188.333 -109 -237
s-138.667 -69.667 -248 -63h-274c-108 0.666992 -191 31.334 -249 92.001s-86 179.334 -84 356.001v352h239v-447c2.66699 -105.333 51.667 -155.333 147 -150h196c108.667 -2 159.334 65 152.001 201v696z" />
    <glyph glyph-name="uniFEBF" unicode="&#x636;" horiz-adv-x="1597" arabic-form="initial" 
d="M891 950h210v210h-210v-210zM692 600v-410h595v293c-6 68 -46.333 107 -121 117h-474zM458 800h754c62 -1.33301 110.833 -9.5 146.5 -24.5s71.5 -43.5 107.5 -85.5s59.667 -102 71 -180v-320v-190h-1547v190h128v350h224v-350h116v610z" />
    <glyph glyph-name="uniFEC0" unicode="&#x636;" horiz-adv-x="1612" arabic-form="medial" 
d="M901 950h210v210h-210v-210zM692 600v-410h595v293c-6 68 -46.333 107 -121 117h-474zM458 800h754c62 -1.33301 110.833 -9.5 146.5 -24.5s71.5 -43.5 107.5 -85.5s59.667 -102 71 -180v-320h93v-190h-1640v190h128v350h224v-350h116v610z" />
    <glyph glyph-name="uniFEC2" unicode="&#x637;" horiz-adv-x="1327" arabic-form="final" 
d="M138 190l-98 0.000976562v-190h1302v190h-115v320c-18 78 -43.333 136.333 -76 175s-68.5 67.167 -107.5 85.5s-89.5 28.166 -151.5 29.499h-520v400h-234v-1010zM846 600.001c74.667 -10 115 -49 121 -117v-293h-595v0v410h474z" />
    <glyph glyph-name="uniFEC3" unicode="&#x637;" horiz-adv-x="1256" arabic-form="initial" 
d="M128 190h-138v-190h1207v190v320c-11.333 78 -35 138 -71 180s-71.833 70.5 -107.5 85.5s-84.5 23.167 -146.5 24.5h-520v400h-224v-1010zM826 600c74.667 -10 115 -49 121 -117v-293h-595v0v410h474z" />
    <glyph glyph-name="uniFEC4" unicode="&#x637;" horiz-adv-x="1318" arabic-form="medial" 
d="M144 190l-158 0.000976562v-190h1352v190h-115v320c-18 78 -43.333 136.333 -76 175s-68.5 67.167 -107.5 85.5s-89.5 28.166 -151.5 29.499h-520v400h-224v-1010zM842 600.001c74.667 -10 115 -49 121 -117v-293h-595v0v410h474z" />
    <glyph glyph-name="uniFEC6" unicode="&#x638;" horiz-adv-x="1318" arabic-form="final" 
d="M138 190l-98 0.000976562v-190h1302v190h-115v320c-18 78 -43.333 136.333 -76 175s-68.5 67.167 -107.5 85.5s-89.5 28.166 -151.5 29.499h-520v400h-234v-1010zM846 600.001c74.667 -10 115 -49 121 -117v-293h-595v0v410h474zM571 950.001h210v210h-210v-210z" />
    <glyph glyph-name="uniFEC7" unicode="&#x638;" horiz-adv-x="1257" arabic-form="initial" 
d="M118 190h-128v-190h1207v190v320c-11.333 78 -35 138 -71 180s-71.833 70.5 -107.5 85.5s-84.5 23.167 -146.5 24.5h-520v400h-234v-1010zM826 600c74.667 -10 115 -49 121 -117v-293h-595v0v410h474zM571 950h210v210h-210v-210z" />
    <glyph glyph-name="uniFEC8" unicode="&#x638;" horiz-adv-x="1324" arabic-form="medial" 
d="M135 190l-148 0.000976562v-190h1352v190h-115v320c-18 78 -43.333 136.333 -76 175s-68.5 67.167 -107.5 85.5s-89.5 28.166 -151.5 29.499h-520v400h-234v-1010zM843 600.001c74.667 -10 115 -49 121 -117v-293h-595v0v410h474zM568 950.001h210v210h-210v-210z" />
    <glyph glyph-name="uniFECA" unicode="&#x639;" horiz-adv-x="887" arabic-form="final" 
d="M567 582c-36.667 30.667 -101.667 41.333 -195 32c69.333 -63.333 122 -157.333 158 -282c64.667 94 77 177.333 37 250zM215 817.999l450.999 -13.001c100 -35.333 158 -95.333 174 -180c0 -93.333 -16.167 -181.333 -48.5 -264s-62.833 -139.667 -91.5 -171h238v-190
h-389h-3h-130h-2h-64c-32 -3.33301 -47.333 -21.5 -46 -54.5s38.333 -46.833 111 -41.5h411v-204h-439c-161.333 -4 -256.833 37.333 -286.5 124s-25.5 172 12.5 256c30.667 66.667 104.334 103.334 221.001 110.001c-16 130 -94 249 -234 357z" />
    <glyph glyph-name="uniFECB" unicode="&#x639;" horiz-adv-x="764" arabic-form="initial" 
d="M244.5 753.5c-103 -79.667 -161.167 -178.5 -174.5 -296.5c-7.33301 -125.333 9 -214.333 49 -267h-129v-190h742l-8 190h-277c-86 16.667 -135.667 66.334 -149 149.001c-18.667 197.333 96.333 288.666 345 273.999l-47 188c-131.333 48 -248.5 32.167 -351.5 -47.5z
" />
    <glyph glyph-name="uniFECC" unicode="&#x639;" horiz-adv-x="866" arabic-form="medial" 
d="M67 547c139.333 -108 216.669 -227 232.002 -357h-309v-190h388c16.667 0 39 18.667 67 56c27.333 -37.333 49.666 -56 66.999 -56h376v190h-226c28 31.333 58.167 88.333 90.5 171s48.166 170.667 47.499 264c-26.667 94.667 -84 154.667 -172 180l-447 13zM530.003 582
c39.333 -72.667 27 -155.999 -37 -249.999c-36 124.667 -88.333 218.667 -157 282c93.333 9.33301 158 -1.33398 194 -32.001z" />
    <glyph glyph-name="uniFECE" unicode="&#x63a;" horiz-adv-x="898" arabic-form="final" 
d="M365 950h210v210h-210v-210zM566 582c-36.667 30.667 -101.667 41.333 -195 32c69.333 -63.333 122 -157.333 158 -282c64.667 94 77 177.333 37 250zM214 817.999l450.999 -13.001c100 -35.333 158 -95.333 174 -180c0 -93.333 -16.167 -181.333 -48.5 -264
s-62.833 -139.667 -91.5 -171h238v-190h-389h-3h-130h-2h-64c-32 -3.33301 -47.333 -21.5 -46 -54.5s38.333 -46.833 111 -41.5h411v-204h-439c-161.333 -4 -256.833 37.333 -286.5 124s-25.5 172 12.5 256c30.667 66.667 104.334 103.334 221.001 110.001
c-16 130 -94 249 -234 357z" />
    <glyph glyph-name="uniFECF" unicode="&#x63a;" horiz-adv-x="776" arabic-form="initial" 
d="M234.5 733.5c-96.333 -66.333 -151.167 -158.5 -164.5 -276.5c-7.33301 -125.333 9 -214.333 49 -267h-129v-190h742l-8 190h-297c-72.667 16.667 -115.667 66.334 -129 149.001c-18.667 197.333 96.333 288.666 345 273.999l-47 188
c-144.667 21.333 -265.167 -1.16699 -361.5 -67.5zM310.999 950h210v210h-210v-210z" />
    <glyph glyph-name="uniFED0" unicode="&#x63a;" horiz-adv-x="871" arabic-form="medial" 
d="M67 547c139.333 -108 216.669 -227 232.002 -357h-309v-190h388c16.667 0 39 18.667 67 56c27.333 -37.333 49.666 -56 66.999 -56h376v190h-226c28 31.333 58.167 88.333 90.5 171s48.166 170.667 47.499 264c-26.667 94.667 -84 154.667 -172 180l-447 13zM530.003 582
c39.333 -72.667 27 -155.999 -37 -249.999c-36 124.667 -88.333 218.667 -157 282c93.333 9.33301 158 -1.33398 194 -32.001zM361.003 950.001h210v210h-210v-210z" />
    <glyph glyph-name="uniFED2" unicode="&#x641;" horiz-adv-x="1577" arabic-form="final" 
d="M1111 950h210v210h-210v-210zM1247 586c-135.333 10 -207 -31.332 -215 -123.999c30 -120.667 110.667 -211.334 242 -272.001v396h-27zM815 583.001c58 146 186.333 218.333 385 217h305v-610h110v-190h-1097c-286 -18 -441 92 -465 330v310h225v-190
c-2 -149.333 53.333 -236 166 -260h481c-120 109.333 -156.667 240.333 -110 393z" />
    <glyph glyph-name="uniFED3" unicode="&#x641;" horiz-adv-x="853" arabic-form="initial" 
d="M401 950h210v210h-210v-210zM544 586c-135.333 10 -207 -31.332 -215 -123.999c30 -120.667 110.667 -211.334 242 -272.001v396h-27zM112 583.001c58 146 186.333 218.333 385 217h305v-610v-190h-810v190h230c-120 109.333 -156.667 240.333 -110 393z" />
    <glyph glyph-name="uniFED4" unicode="&#x641;" horiz-adv-x="856" arabic-form="medial" 
d="M401 950h210v210h-210v-210zM544 586c-135.333 10 -207 -31.332 -215 -123.999c30 -120.667 110.667 -211.334 242 -272.001v396h-27zM112 583.001c58 146 186.333 218.333 385 217h305v-610h88v-190h-898v190h230c-120 109.333 -156.667 240.333 -110 393z" />
    <glyph glyph-name="uniFED6" unicode="&#x642;" horiz-adv-x="1164" arabic-form="final" 
d="M513 950h210v210h-210v-210zM793 950h210v210h-210v-210zM862 586h-26c-135.333 10 -207 -31.333 -215 -124c18.667 -118 99 -198.667 241 -242v366zM414 583c58 152.667 183 225 375 217h303v-610h98v-190h-98c-5.33301 -106.667 -38.833 -185 -100.5 -235
s-147.167 -71.667 -256.5 -65h-334c-134.667 0.666992 -226 33.834 -274 99.501s-71 175.167 -69 328.5v372h239v-447c2.66699 -98.667 45 -148.667 127 -150h326c60 7.33301 95 39.666 105 96.999c-189.333 42 -330.333 136.333 -423 283l3 -1
c-53.333 88 -60.333 188.333 -21 301z" />
    <glyph glyph-name="uniFED7" unicode="&#x642;" horiz-adv-x="872" arabic-form="initial" 
d="M241 950h210v210h-210v-210zM521 950h210v210h-210v-210zM544 586c-135.333 10 -207 -31.332 -215 -123.999c30 -120.667 110.667 -211.334 242 -272.001v396h-27zM112 583.001c58 146 186.333 218.333 385 217h305v-610v-190h-810v190h230
c-120 109.333 -156.667 240.333 -110 393z" />
    <glyph glyph-name="uniFED8" unicode="&#x642;" horiz-adv-x="868" arabic-form="medial" 
d="M221 950h210v210h-210v-210zM501 950h210v210h-210v-210zM544 586c-135.333 10 -207 -31.332 -215 -123.999c30 -120.667 110.667 -211.334 242 -272.001v396h-27zM112 583.001c58 146 186.333 218.333 385 217h305v-610h88v-190h-898v190h230
c-120 109.333 -156.667 240.333 -110 393z" />
    <glyph glyph-name="uniFEDE" unicode="&#x644;" horiz-adv-x="1199" arabic-form="final" 
d="M872 1200l229.999 -0.00195312v-1010h121l-1 -190h-120c-16.667 -109.333 -53 -188.333 -109 -237s-138.667 -69.667 -248 -63h-344c-108 0.666992 -191 33.834 -249 99.501s-86 181.834 -84 348.501v352h239v-447c2.66699 -98.667 51.667 -148.667 147 -150h266
c108.667 -2 159.334 65 152.001 201v1096z" />
    <glyph glyph-name="uniFEDF" unicode="&#x644;" horiz-adv-x="424" arabic-form="initial" 
d="M118 190h-128v-190h362v190v1010h-234v-1010z" />
    <glyph glyph-name="uniFEE0" unicode="&#x644;" horiz-adv-x="519" arabic-form="medial" 
d="M148 190h-158v-190h547v190h-155v1010h-234v-1010z" />
    <glyph glyph-name="uniFEE2" unicode="&#x645;" horiz-adv-x="836" arabic-form="final" 
d="M488 596c-46 -3.33301 -71.334 -29.667 -76.001 -79v-504h51c52.667 2.66699 77.334 30.667 74.001 84v499h-49zM179.999 496.999c20.667 196 145.333 296.999 374 302.999h221v-596v-14h74v-190h-105c-50.667 -127.333 -165 -190.666 -343 -189.999
c-10 -286 -139.333 -423.667 -388 -413v194c110 7.33301 164.667 87 164 239v667h3z" />
    <glyph glyph-name="uniFEE3" unicode="&#x645;" horiz-adv-x="721" arabic-form="initial" 
d="M67 455v-265h-74v-190h74v-190h195c276 -11.333 410.333 120 403 394v596h-221c-244 -6 -369.667 -121 -377 -345zM427 596l0.000976562 -498.999c3.33301 -53.333 -21.334 -81.333 -74.001 -84h-51v504c4.66699 49.333 30 75.666 76 78.999h49z" />
    <glyph glyph-name="uniFEE4" unicode="&#x645;" horiz-adv-x="725" arabic-form="medial" 
d="M378 596c-46 -3.33301 -71.334 -29.667 -76.001 -79v-504h51c52.667 2.66699 77.334 30.667 74.001 84v499h-49zM66.999 454.999c7.33301 224 133 339 377 345h221v-596v-14h74v-190h-105c-53.333 -134.667 -177.333 -198 -372 -190h-195v190h-74v190h74v265v0z" />
    <glyph glyph-name="uniFEE6" unicode="&#x646;" horiz-adv-x="1109" arabic-form="final" 
d="M423 950h210v210h-210v-210zM797 800l229.999 -0.00195312v-610h115c-2 -126.667 -4 -190 -6 -190h-110c-16.667 -109.333 -52.667 -188.333 -108 -237c-56 -48.667 -138.667 -69.667 -248 -63h-274c-108 0.666992 -191 33.834 -249 99.501s-86 181.834 -84 348.501v352
h239v-447c2.66699 -98.667 51.667 -148.667 147 -150h196c108.667 -2 159.334 65 152.001 201v696z" />
    <glyph glyph-name="uniFEE7" unicode="&#x646;" horiz-adv-x="500" arabic-form="initial" 
d="M168 190h-178v-190h412v190v610h-234v-610zM171 950h210v210h-210v-210z" />
    <glyph glyph-name="uniFEE8" unicode="&#x646;" horiz-adv-x="500" arabic-form="medial" 
d="M158 190h-168v-190h537v190h-135v610h-234v-610zM161 950h210v210h-210v-210z" />
    <glyph glyph-name="uniFEEA" unicode="&#x647;" horiz-adv-x="949" arabic-form="final" 
d="M292 588c59.333 64.667 134.832 117 226.499 157s203.5 59.667 335.5 59v-614h118v-190h-352v543c-150 -76 -257.667 -214 -323 -414l-27 -129h-220c6.66699 222.667 87.334 418.667 242.001 588z" />
    <glyph glyph-name="uniFEEB" unicode="&#x647;" horiz-adv-x="1048" arabic-form="initial" 
d="M466 190c10 127.333 -25.833 190.167 -107.5 188.5s-115.5 -64.5 -101.5 -188.5h209v0zM404 590.001c188 -18 278.333 -151.334 271 -400.001h107v290c-0.666992 76.667 -37 113.334 -109 110.001h-269zM321 800h358c205.333 -1.33301 315 -81 329 -239v-371v-190h-1017
v190h75c-12 254.667 83.667 388 287 400h-32v210z" />
    <glyph glyph-name="uniFEEC" unicode="&#x647;" horiz-adv-x="1056" arabic-form="medial" 
d="M464 190c10 127.333 -25.833 190.167 -107.5 188.5s-115.5 -64.5 -101.5 -188.5h209v0zM402 590.001c188 -18 278.333 -151.334 271 -400.001h107v290c-0.666992 76.667 -37 113.334 -109 110.001h-269zM319 800h358c205.333 -1.33301 315 -81 329 -239v-371h62l3 -190
h-1082v190h75c-12 254.667 83.667 388 287 400h-32v210z" />
    <glyph glyph-name="uniFEEE" unicode="&#x648;" horiz-adv-x="754" arabic-form="final" 
d="M518 603c-172 -7.33301 -244.333 -95.668 -217 -265.001c36.667 -111.333 109 -160.666 217 -147.999v413zM737 799.998l-0.000976562 -609.998h95v-190h-95c2 -85.333 -16 -154.666 -54 -207.999c-59.333 -67.333 -146.666 -98 -261.999 -92h-293v203h321
c60 5.33301 83 37.666 69 96.999c-164 -8.66699 -284.167 42.666 -360.5 153.999s-89 246.166 -38 404.499s230.5 238.833 538.5 241.5h79z" />
    <glyph glyph-name="uniFEF0" unicode="&#x649;" horiz-adv-x="996" arabic-form="final" 
d="M27 540l-0.000976562 -624.001c8 -146 86 -218 234 -216h348c180.667 11.333 284.334 111.333 311.001 300h108v190h-481v-190h143c7.33301 -65.333 -47 -98.666 -163 -99.999h-280v640h-220z" />
    <glyph glyph-name="space" unicode=" " horiz-adv-x="469" 
 />
    <glyph glyph-name="exclam" unicode="!" horiz-adv-x="305" 
d="M222 55c0 -48.667 -23 -73 -69 -73c-48 0 -72 23.667 -72 71c0 49.333 24 74 72 74c46 0 69 -24 69 -72zM196 246h-91l-16 1120h129z" />
    <glyph glyph-name="percent" unicode="%" horiz-adv-x="1040" 
d="M158 0l513 1254h234l-513 -1254h-234zM114 784v228h233v-228h-233zM712 191v228h234v-228h-234z" />
    <glyph glyph-name="parenleft" unicode="(" horiz-adv-x="487" 
d="M444 -2l-71 -67.999c-194 217.333 -291 468 -291 752c0 267.333 97 518.666 291 753.999l73 -68c-174.667 -206 -262 -434.667 -262 -686c0 -246 86.667 -474 260 -684z" />
    <glyph glyph-name="parenright" unicode=")" horiz-adv-x="487" 
d="M41 1368l74 67.999c194 -220 291 -470.667 291 -752c0 -267.333 -97 -518.666 -291 -753.999l-74 68c174.667 206 262 434.667 262 686c0 246 -87.333 474 -262 684z" />
    <glyph glyph-name="asterisk" unicode="*" horiz-adv-x="993" 
d="M843 1283l-48 148l-213 -70v226h-155l2 -223l-214 70l-50 -149l217 -70l-133 -183l123 -89l131 179l133 -179l126 89l-133 183z" />
    <glyph glyph-name="plus" unicode="+" horiz-adv-x="946" 
d="M835 452h-321v-323h-84v323h-325v83h325v328h84v-328h321v-83z" />
    <glyph glyph-name="comma" unicode="," horiz-adv-x="415" 
d="M301 204c0 -48 -18.001 -98.665 -54.001 -151.998c-29.333 -43.333 -69.666 -81.333 -120.999 -114c0 74.667 -9.33301 117 -28 127c8 2.66699 20.333 9 37 19c24 19.333 36 38.666 36 57.999c-34.667 12 -52 38.333 -52 79c0 24.667 8.5 45.5 25.5 62.5
s37.5 25.5 61.5 25.5c28 0 50.833 -9.83301 68.5 -29.5s26.5 -44.834 26.5 -75.501z" />
    <glyph glyph-name="hyphen" unicode="-" horiz-adv-x="448" 
d="M395 604h-340v80h340v-80z" />
    <glyph glyph-name="period" unicode="." horiz-adv-x="337" 
d="M242 55c0 -20 -7.16797 -37.167 -21.501 -51.5s-31.166 -21.5 -50.499 -21.5c-20.667 0 -38.167 7.16699 -52.5 21.5s-21.5 31.5 -21.5 51.5c0 48 24.667 72 74 72c48 0 72 -24 72 -72z" />
    <glyph glyph-name="slash" unicode="/" horiz-adv-x="843" 
d="M261 0h-213l517 1197h215z" />
    <glyph glyph-name="zero" unicode="0" 
d="M579 473c0 -34 -11.667 -60.667 -35 -80c-22 -24 -48.333 -36 -79 -36h-90v203h204v-87z" />
    <glyph glyph-name="zero" unicode="&#x6f0;" 
d="M579 473c0 -34 -11.667 -60.667 -35 -80c-22 -24 -48.333 -36 -79 -36h-90v203h204v-87z" />
    <glyph glyph-name="zero" unicode="&#x660;" 
d="M579 473c0 -34 -11.667 -60.667 -35 -80c-22 -24 -48.333 -36 -79 -36h-90v203h204v-87z" />
    <glyph glyph-name="one" unicode="1" horiz-adv-x="802" 
d="M520 169l-1 -23.998c0 -4.66699 -2.16699 -11.834 -6.5 -21.501s-14.833 -22.834 -31.5 -39.501l-18 -17l-104 -59v1013h161v-852z" />
    <glyph glyph-name="one" unicode="&#x6f1;" horiz-adv-x="802" 
d="M520 169l-1 -23.998c0 -4.66699 -2.16699 -11.834 -6.5 -21.501s-14.833 -22.834 -31.5 -39.501l-18 -17l-104 -59v1013h161v-852z" />
    <glyph glyph-name="one" unicode="&#x661;" horiz-adv-x="802" 
d="M520 169l-1 -23.998c0 -4.66699 -2.16699 -11.834 -6.5 -21.501s-14.833 -22.834 -31.5 -39.501l-18 -17l-104 -59v1013h161v-852z" />
    <glyph glyph-name="two" unicode="2" 
d="M762 1021l-63 -103.999l-20 -22c-12 -12 -23 -21 -33 -27l-49 -8h-277v-668v-31c0 -14.667 -2.66699 -28.334 -8 -41.001c-4 -12 -11 -22 -21 -30l-28 -23l-104 -59v1013h603z" />
    <glyph glyph-name="two" unicode="&#x6f2;" 
d="M762 1021l-63 -103.999l-20 -22c-12 -12 -23 -21 -33 -27l-49 -8h-277v-668v-31c0 -14.667 -2.66699 -28.334 -8 -41.001c-4 -12 -11 -22 -21 -30l-28 -23l-104 -59v1013h603z" />
    <glyph glyph-name="two" unicode="&#x662;" 
d="M762 1021l-63 -103.999l-20 -22c-12 -12 -23 -21 -33 -27l-49 -8h-277v-668v-31c0 -14.667 -2.66699 -28.334 -8 -41.001c-4 -12 -11 -22 -21 -30l-28 -23l-104 -59v1013h603z" />
    <glyph glyph-name="three" unicode="3" 
d="M840 1041l0.00195312 -32v-26v-25l-2 -14v-12l-2 -13c0 -5.33301 -2.33301 -14 -7 -26l-9 -36l-6 -18l-7 -13c-8 -18 -20.333 -33.333 -37 -46l-31 -23l-34 -19l-33 -10l-34 -5h-12l-23 3c-10 2 -22 6 -36 12c-12.667 6.66699 -25.667 16 -39 28
c-20.667 18.667 -40.334 44.667 -59.001 78c-6 -22 -15 -45.333 -27 -70c-27.333 -46 -72 -75 -134 -87l-16 -1c-19.333 0 -44 9 -74 27c-4 2 -9.33301 7.66699 -16 17v-516l-1 -34c0 -6.66699 -2.33301 -15.667 -7 -27c-4 -16 -13 -31 -27 -45c-10 -12 -19.333 -20 -28 -24
l-98 -86v1043h161c0 -29.333 2 -57 6 -83c12 -56 39.667 -84 83 -84c37.333 0 70.666 28 99.999 84l11 43l12 40h110l7 -57l9 -28c20 -58.667 51.333 -88 94 -88c42 0 70.333 28.667 85 86l5 38l3 49h113z" />
    <glyph glyph-name="three" unicode="&#x6f3;" 
d="M840 1041l0.00195312 -32v-26v-25l-2 -14v-12l-2 -13c0 -5.33301 -2.33301 -14 -7 -26l-9 -36l-6 -18l-7 -13c-8 -18 -20.333 -33.333 -37 -46l-31 -23l-34 -19l-33 -10l-34 -5h-12l-23 3c-10 2 -22 6 -36 12c-12.667 6.66699 -25.667 16 -39 28
c-20.667 18.667 -40.334 44.667 -59.001 78c-6 -22 -15 -45.333 -27 -70c-27.333 -46 -72 -75 -134 -87l-16 -1c-19.333 0 -44 9 -74 27c-4 2 -9.33301 7.66699 -16 17v-516l-1 -34c0 -6.66699 -2.33301 -15.667 -7 -27c-4 -16 -13 -31 -27 -45c-10 -12 -19.333 -20 -28 -24
l-98 -86v1043h161c0 -29.333 2 -57 6 -83c12 -56 39.667 -84 83 -84c37.333 0 70.666 28 99.999 84l11 43l12 40h110l7 -57l9 -28c20 -58.667 51.333 -88 94 -88c42 0 70.333 28.667 85 86l5 38l3 49h113z" />
    <glyph glyph-name="three" unicode="&#x663;" 
d="M840 1041l0.00195312 -32v-26v-25l-2 -14v-12l-2 -13c0 -5.33301 -2.33301 -14 -7 -26l-9 -36l-6 -18l-7 -13c-8 -18 -20.333 -33.333 -37 -46l-31 -23l-34 -19l-33 -10l-34 -5h-12l-23 3c-10 2 -22 6 -36 12c-12.667 6.66699 -25.667 16 -39 28
c-20.667 18.667 -40.334 44.667 -59.001 78c-6 -22 -15 -45.333 -27 -70c-27.333 -46 -72 -75 -134 -87l-16 -1c-19.333 0 -44 9 -74 27c-4 2 -9.33301 7.66699 -16 17v-516l-1 -34c0 -6.66699 -2.33301 -15.667 -7 -27c-4 -16 -13 -31 -27 -45c-10 -12 -19.333 -20 -28 -24
l-98 -86v1043h161c0 -29.333 2 -57 6 -83c12 -56 39.667 -84 83 -84c37.333 0 70.666 28 99.999 84l11 43l12 40h110l7 -57l9 -28c20 -58.667 51.333 -88 94 -88c42 0 70.333 28.667 85 86l5 38l3 49h113z" />
    <glyph glyph-name="four" unicode="4" 
d="M699 929c0 -18 -7.33301 -33 -22 -45c-6.66699 -6.66699 -21.667 -14 -45 -22h-153c-32.667 0 -49 -11.667 -49 -35l-1 -11l1 -23l10 -19l102 -142l39 -47c1.33301 -1.33301 6 -15 14 -41l-1 -24l-6 -19l-11 -24l-19 -29l-132 -179l-18 -24
c-7.33301 -11.333 -11 -22.666 -11 -33.999c0 -4 3 -12 9 -24c10 -17.333 27.667 -26 53 -26h224v-94c0 -10.667 -1.66699 -19 -5 -25c-2 -6.66699 -7.33301 -14.667 -16 -24c-16 -12 -31.667 -18 -47 -18h-313c-28 0 -50.667 9.66699 -68 29l-21 33l-19 46l-4 26
c0 17.333 12 46.666 36 87.999l43 59l106 157l19 31l12 16l10 28l6 31c0 21.333 -7.66699 41 -23 59l-26 25l-16 18l-133 157l-31 46l-10 48l7 40c4 20 16 39 36 57c22 18 47.333 27 76 27h397v-92z" />
    <glyph glyph-name="four" unicode="&#x6f4;" 
d="M699 929c0 -18 -7.33301 -33 -22 -45c-6.66699 -6.66699 -21.667 -14 -45 -22h-153c-32.667 0 -49 -11.667 -49 -35l-1 -11l1 -23l10 -19l102 -142l39 -47c1.33301 -1.33301 6 -15 14 -41l-1 -24l-6 -19l-11 -24l-19 -29l-132 -179l-18 -24
c-7.33301 -11.333 -11 -22.666 -11 -33.999c0 -4 3 -12 9 -24c10 -17.333 27.667 -26 53 -26h224v-94c0 -10.667 -1.66699 -19 -5 -25c-2 -6.66699 -7.33301 -14.667 -16 -24c-16 -12 -31.667 -18 -47 -18h-313c-28 0 -50.667 9.66699 -68 29l-21 33l-19 46l-4 26
c0 17.333 12 46.666 36 87.999l43 59l106 157l19 31l12 16l10 28l6 31c0 21.333 -7.66699 41 -23 59l-26 25l-16 18l-133 157l-31 46l-10 48l7 40c4 20 16 39 36 57c22 18 47.333 27 76 27h397v-92z" />
    <glyph glyph-name="four" unicode="&#x664;" 
d="M699 929c0 -18 -7.33301 -33 -22 -45c-6.66699 -6.66699 -21.667 -14 -45 -22h-153c-32.667 0 -49 -11.667 -49 -35l-1 -11l1 -23l10 -19l102 -142l39 -47c1.33301 -1.33301 6 -15 14 -41l-1 -24l-6 -19l-11 -24l-19 -29l-132 -179l-18 -24
c-7.33301 -11.333 -11 -22.666 -11 -33.999c0 -4 3 -12 9 -24c10 -17.333 27.667 -26 53 -26h224v-94c0 -10.667 -1.66699 -19 -5 -25c-2 -6.66699 -7.33301 -14.667 -16 -24c-16 -12 -31.667 -18 -47 -18h-313c-28 0 -50.667 9.66699 -68 29l-21 33l-19 46l-4 26
c0 17.333 12 46.666 36 87.999l43 59l106 157l19 31l12 16l10 28l6 31c0 21.333 -7.66699 41 -23 59l-26 25l-16 18l-133 157l-31 46l-10 48l7 40c4 20 16 39 36 57c22 18 47.333 27 76 27h397v-92z" />
    <glyph glyph-name="five" unicode="5" 
d="M681 137c-12.667 -22.667 -26.168 -42 -40.501 -58s-32.833 -31.333 -55.5 -46c-40 -22 -83 -33 -129 -33c-42.667 0 -88.5 12 -137.5 36s-85.167 57.667 -108.5 101c-14 27.333 -26 62 -36 104c-8.66699 52 -13 96 -13 132c0 152.667 29.833 302.5 89.5 449.5
s124.834 220.5 195.501 220.5c66 0 129.333 -73.667 190 -221s91 -295 91 -443v-28v-29l-2 -16l-1 -31c0 -6.66699 -2.33301 -16.667 -7 -30c-6 -36 -18 -72 -36 -108zM586.999 259l19.0029 65l5 40l2 46c0 44 -4 91.667 -12 143l-5 28l-3 17
c-1.33301 9.33301 -4 17.333 -8 24c-6 24.667 -14.333 49 -25 73c-16 46 -33.333 81.333 -52 106s-39.334 37 -62.001 37c-34.667 0 -73.334 -48.333 -116.001 -145c-14 -42.667 -26.667 -92.167 -38 -148.5s-17 -103.5 -17 -141.5c0 -26 2 -53.667 6 -83l7 -32l16 -29
c12 -22 31.667 -40.333 59 -55l41 -14l21 -4l23 -1c65.333 0 111.666 24.667 138.999 74z" />
    <glyph glyph-name="five" unicode="&#x6f5;" 
d="M681 137c-12.667 -22.667 -26.168 -42 -40.501 -58s-32.833 -31.333 -55.5 -46c-40 -22 -83 -33 -129 -33c-42.667 0 -88.5 12 -137.5 36s-85.167 57.667 -108.5 101c-14 27.333 -26 62 -36 104c-8.66699 52 -13 96 -13 132c0 152.667 29.833 302.5 89.5 449.5
s124.834 220.5 195.501 220.5c66 0 129.333 -73.667 190 -221s91 -295 91 -443v-28v-29l-2 -16l-1 -31c0 -6.66699 -2.33301 -16.667 -7 -30c-6 -36 -18 -72 -36 -108zM586.999 259l19.0029 65l5 40l2 46c0 44 -4 91.667 -12 143l-5 28l-3 17
c-1.33301 9.33301 -4 17.333 -8 24c-6 24.667 -14.333 49 -25 73c-16 46 -33.333 81.333 -52 106s-39.334 37 -62.001 37c-34.667 0 -73.334 -48.333 -116.001 -145c-14 -42.667 -26.667 -92.167 -38 -148.5s-17 -103.5 -17 -141.5c0 -26 2 -53.667 6 -83l7 -32l16 -29
c12 -22 31.667 -40.333 59 -55l41 -14l21 -4l23 -1c65.333 0 111.666 24.667 138.999 74z" />
    <glyph glyph-name="five" unicode="&#x665;" 
d="M681 137c-12.667 -22.667 -26.168 -42 -40.501 -58s-32.833 -31.333 -55.5 -46c-40 -22 -83 -33 -129 -33c-42.667 0 -88.5 12 -137.5 36s-85.167 57.667 -108.5 101c-14 27.333 -26 62 -36 104c-8.66699 52 -13 96 -13 132c0 152.667 29.833 302.5 89.5 449.5
s124.834 220.5 195.501 220.5c66 0 129.333 -73.667 190 -221s91 -295 91 -443v-28v-29l-2 -16l-1 -31c0 -6.66699 -2.33301 -16.667 -7 -30c-6 -36 -18 -72 -36 -108zM586.999 259l19.0029 65l5 40l2 46c0 44 -4 91.667 -12 143l-5 28l-3 17
c-1.33301 9.33301 -4 17.333 -8 24c-6 24.667 -14.333 49 -25 73c-16 46 -33.333 81.333 -52 106s-39.334 37 -62.001 37c-34.667 0 -73.334 -48.333 -116.001 -145c-14 -42.667 -26.667 -92.167 -38 -148.5s-17 -103.5 -17 -141.5c0 -26 2 -53.667 6 -83l7 -32l16 -29
c12 -22 31.667 -40.333 59 -55l41 -14l21 -4l23 -1c65.333 0 111.666 24.667 138.999 74z" />
    <glyph glyph-name="six" unicode="6" 
d="M713 192v-31l-1 -25l-6 -17l-13 -18l-10 -11l-27 -23l-106 -59v852h-277l-47 8l-32 25l-21 24l-65 104h605v-829z" />
    <glyph glyph-name="six" unicode="&#x6f6;" 
d="M713 192v-31l-1 -25l-6 -17l-13 -18l-10 -11l-27 -23l-106 -59v852h-277l-47 8l-32 25l-21 24l-65 104h605v-829z" />
    <glyph glyph-name="six" unicode="&#x666;" 
d="M713 192v-31l-1 -25l-6 -17l-13 -18l-10 -11l-27 -23l-106 -59v852h-277l-47 8l-32 25l-21 24l-65 104h605v-829z" />
    <glyph glyph-name="seven" unicode="7" 
d="M760 1021l-232 -937c-4 -26 -15.667 -46.667 -35 -62c-16.667 -14.667 -37.667 -22 -63 -22c-23.333 -0 -44.333 7.33301 -63 22c-9.33301 10 -21 30.667 -35 62l-232 937h161l169 -836l171 836h159z" />
    <glyph glyph-name="seven" unicode="&#x6f7;" 
d="M760 1021l-232 -937c-4 -26 -15.667 -46.667 -35 -62c-16.667 -14.667 -37.667 -22 -63 -22c-23.333 -0 -44.333 7.33301 -63 22c-9.33301 10 -21 30.667 -35 62l-232 937h161l169 -836l171 836h159z" />
    <glyph glyph-name="seven" unicode="&#x667;" 
d="M760 1021l-232 -937c-4 -26 -15.667 -46.667 -35 -62c-16.667 -14.667 -37.667 -22 -63 -22c-23.333 -0 -44.333 7.33301 -63 22c-9.33301 10 -21 30.667 -35 62l-232 937h161l169 -836l171 836h159z" />
    <glyph glyph-name="eight" unicode="8" 
d="M760 0h-159l-171 836l-169 -836h-161l232 937c4 22 15.667 41.667 35 59c16.667 16.667 37.667 25 63 25c24.667 0 45.667 -8.33301 63 -25c6 -6 12.333 -14.667 19 -26l16 -33z" />
    <glyph glyph-name="eight" unicode="&#x6f8;" 
d="M760 0h-159l-171 836l-169 -836h-161l232 937c4 22 15.667 41.667 35 59c16.667 16.667 37.667 25 63 25c24.667 0 45.667 -8.33301 63 -25c6 -6 12.333 -14.667 19 -26l16 -33z" />
    <glyph glyph-name="eight" unicode="&#x668;" 
d="M760 0h-159l-171 836l-169 -836h-161l232 937c4 22 15.667 41.667 35 59c16.667 16.667 37.667 25 63 25c24.667 0 45.667 -8.33301 63 -25c6 -6 12.333 -14.667 19 -26l16 -33z" />
    <glyph glyph-name="nine" unicode="9" 
d="M699 232l0.000976562 -36.002l-1 -30c0 -5.33301 -2.33301 -11.666 -7 -18.999l-21 -35l-14 -14l-120 -90v518h-169c-51.333 0 -101 25 -149 75c-39.333 51.333 -59 110.333 -59 177s20.667 123.834 62 171.501s92.666 71.5 153.999 71.5h324v-789zM536.001 684.998
l0.000976562 181h-122c-16.667 0 -37 -8 -61 -24c-18 -18 -27 -39.333 -27 -64c0 -22 7.33301 -43.667 22 -65c17.333 -18.667 38.666 -28 63.999 -28h124z" />
    <glyph glyph-name="nine" unicode="&#x6f9;" 
d="M699 232l0.000976562 -36.002l-1 -30c0 -5.33301 -2.33301 -11.666 -7 -18.999l-21 -35l-14 -14l-120 -90v518h-169c-51.333 0 -101 25 -149 75c-39.333 51.333 -59 110.333 -59 177s20.667 123.834 62 171.501s92.666 71.5 153.999 71.5h324v-789zM536.001 684.998
l0.000976562 181h-122c-16.667 0 -37 -8 -61 -24c-18 -18 -27 -39.333 -27 -64c0 -22 7.33301 -43.667 22 -65c17.333 -18.667 38.666 -28 63.999 -28h124z" />
    <glyph glyph-name="nine" unicode="&#x669;" 
d="M699 232l0.000976562 -36.002l-1 -30c0 -5.33301 -2.33301 -11.666 -7 -18.999l-21 -35l-14 -14l-120 -90v518h-169c-51.333 0 -101 25 -149 75c-39.333 51.333 -59 110.333 -59 177s20.667 123.834 62 171.501s92.666 71.5 153.999 71.5h324v-789zM536.001 684.998
l0.000976562 181h-122c-16.667 0 -37 -8 -61 -24c-18 -18 -27 -39.333 -27 -64c0 -22 7.33301 -43.667 22 -65c17.333 -18.667 38.666 -28 63.999 -28h124z" />
    <glyph glyph-name="colon" unicode=":" horiz-adv-x="322" 
d="M168 173c14.667 0 28.833 -3.83301 42.5 -11.5s24.334 -18.5 32.001 -32.5s11.5 -28.333 11.5 -43s-3.66699 -29 -11 -43s-18 -24.667 -32 -32s-28.333 -11 -43 -11c-15.333 0 -30 3.66699 -44 11s-24.667 18 -32 32s-11 28.333 -11 43s4 29 12 43s18.667 24.833 32 32.5
s27.666 11.5 42.999 11.5zM167.999 673c14.667 0 28.833 -3.83301 42.5 -11.5s24.334 -18.5 32.001 -32.5s11.5 -28.333 11.5 -43s-3.66699 -29 -11 -43s-18 -24.667 -32 -32s-28.333 -11 -43 -11c-15.333 0 -30 3.66699 -44 11s-24.667 18 -32 32s-11 28.333 -11 43
s4 29 12 43s18.667 24.833 32 32.5s27.666 11.5 42.999 11.5z" />
    <glyph glyph-name="equal" unicode="=" horiz-adv-x="946" 
d="M836 539h-731v86h731v-86zM836 362h-731v86h731v-86z" />
    <glyph glyph-name="bracketleft" unicode="[" horiz-adv-x="581" 
d="M487 -440v-95h-354v1403h354v-94h-208v-1214h208z" />
    <glyph glyph-name="bracketright" unicode="]" horiz-adv-x="581" 
d="M451 -535h-359v95h209v1214h-209v94h359v-1403z" />
    <glyph glyph-name="braceleft" unicode="{" horiz-adv-x="981" 
d="M832 -320c-100.667 18 -183.668 61 -249.001 129c-68.667 72 -103 157.667 -103 257c0 40.667 8.66699 99.667 26 177c12.667 56.667 19 94 19 112c0 63.333 -24 117.333 -72 162c-45.333 42 -100.666 66.667 -165.999 74v38c159.333 34.667 239 107.667 239 219
c0 31.333 -5.33301 72 -16 122c-18 84 -27 146.667 -27 188c0 100.667 33.667 186.334 101 257.001c64 68 146.667 110.333 248 127v-40c-62 -9.33301 -113.667 -33.666 -155 -72.999c-44.667 -42.667 -67 -94.334 -67 -155.001c0 -30.667 4.33301 -69 13 -115
c20 -106.667 30 -176.667 30 -210c0 -149.333 -95.333 -261.333 -286 -336c188.667 -77.333 283 -194 283 -350c0 -32.667 -9 -92.334 -27 -179.001c-11.333 -54.667 -17 -99.667 -17 -135c0 -120 75.333 -197.667 226 -233v-36z" />
    <glyph glyph-name="braceright" unicode="}" horiz-adv-x="981" 
d="M695 593c-159.333 -34.667 -239 -107.997 -239 -219.997c0 -34.667 5 -75.334 15 -122.001c18.667 -87.333 28 -149.666 28 -186.999c0 -100 -33.667 -185.667 -101 -257c-64.667 -68 -147.334 -110.333 -248.001 -127v40c62 9.33301 113.667 33.666 155 72.999
c44 42.667 66 94.334 66 155.001c0 32 -4 70 -12 114c-20 109.333 -30 179.666 -30 210.999c0 148.667 95 260.667 285 336c-188 77.333 -282 193.666 -282 348.999c0 36.667 8.66699 96.667 26 180c12 58 18 103 18 135c0 120 -75.333 197.667 -226 233v36
c100.667 -18.667 183.334 -61.667 248.001 -129c69.333 -72 104 -157.667 104 -257c0 -38 -9 -97 -27 -177c-12 -53.333 -18 -91 -18 -113c0 -64 24.333 -118 73 -162c43.333 -38.667 98.333 -63.334 165 -74.001v-37z" />
    <glyph glyph-name="guillemotleft" unicode="&#xab;" horiz-adv-x="854" 
d="M804 129h-93l-340 400l340 393h87l-226 -393zM497 129h-89l-338 400l340 393h87l-226 -393z" />
    <glyph glyph-name="periodcentered" unicode="&#xb7;" horiz-adv-x="512" 
d="M253 653c-64.667 0 -97 35.001 -97 105.001c0 71.333 32.333 107 97 107c63.333 0 95 -35.667 95 -107c0 -28.667 -8.66699 -53.334 -26 -74.001s-40.333 -31 -69 -31z" />
    <glyph glyph-name="periodcentered" unicode="&#x2219;" horiz-adv-x="512" 
d="M253 653c-64.667 0 -97 35.001 -97 105.001c0 71.333 32.333 107 97 107c63.333 0 95 -35.667 95 -107c0 -28.667 -8.66699 -53.334 -26 -74.001s-40.333 -31 -69 -31z" />
    <glyph glyph-name="periodcentered" unicode="&#x2d9;" horiz-adv-x="512" 
d="M253 653c-64.667 0 -97 35.001 -97 105.001c0 71.333 32.333 107 97 107c63.333 0 95 -35.667 95 -107c0 -28.667 -8.66699 -53.334 -26 -74.001s-40.333 -31 -69 -31z" />
    <glyph glyph-name="guillemotright" unicode="&#xbb;" horiz-adv-x="854" 
d="M784 529l-338 -400h-89l226 400l-226 393h87zM483 529l-340 -400h-93l232 400l-226 393h87z" />
    <glyph glyph-name="multiply" unicode="&#xd7;" horiz-adv-x="946" 
d="M802 219l-58 -57l-277 275l-277 -275l-59 57l275 278l-275 278l62 56l274 -276l277 276l58 -56l-279 -278z" />
    <glyph glyph-name="divide" unicode="&#xf7;" horiz-adv-x="946" 
d="M549 772c0 -24 -8 -44.499 -24 -61.499s-35.667 -25.5 -59 -25.5s-43.5 8.66699 -60.5 26s-25.5 37.666 -25.5 60.999s8.33301 43 25 59s37 24 61 24c23.333 0 43 -8 59 -24s24 -35.667 24 -59zM835 452.001h-730v83h730v-83zM549 215.001c0 -24 -8 -44.333 -24 -61
s-35.667 -25 -59 -25s-43.5 8.5 -60.5 25.5s-25.5 37.167 -25.5 60.5c0 24 8.33301 44.167 25 60.5s37 24.5 61 24.5c23.333 0 43 -8.16699 59 -24.5s24 -36.5 24 -60.5z" />
    <glyph glyph-name="afii57388" unicode="&#x60c;" horiz-adv-x="415" 
d="M281 354c-24 -19.333 -35.999 -38.6689 -35.999 -58.002c34.667 -12 52 -38.333 52 -79c0 -24.667 -8.5 -45.5 -25.5 -62.5s-37.5 -25.5 -61.5 -25.5c-28 0 -50.833 9.83301 -68.5 29.5s-26.5 44.834 -26.5 75.501c0 48 18 98.667 54 152
c29.333 43.333 69.666 81.333 120.999 114c0 -74.667 9 -117 27 -127c-8 -3.33301 -20 -9.66602 -36 -18.999z" />
    <glyph glyph-name="afii57403" unicode="&#x61b;" horiz-adv-x="415" 
d="M281 625c-24 -19.333 -35.999 -38.6689 -35.999 -58.002c34.667 -12 52 -38.333 52 -79c0 -24.667 -8.5 -45.5 -25.5 -62.5s-37.5 -25.5 -61.5 -25.5c-28 0 -50.833 9.83301 -68.5 29.5s-26.5 44.834 -26.5 75.501c0 48 18 98.667 54 152
c29.333 43.333 69.666 81.333 120.999 114c0 -74.667 9 -117 27 -127c-8 -3.33301 -20 -9.66602 -36 -18.999zM297.001 218.997c0 -24 -8.83398 -45 -26.501 -63s-38.5 -27 -62.5 -27c-24.667 0 -46 9 -64 27s-27 39 -27 63s9 45 27 63s39 27 63 27
c24.667 0 45.834 -9 63.501 -27s26.5 -39 26.5 -63z" />
    <glyph glyph-name="afii57407" unicode="&#x61f;" horiz-adv-x="934" 
d="M847 836c-77.333 101.333 -135.998 156.001 -175.998 164.001c-64.667 156 -139.334 234 -224.001 234c-46.667 0 -84.5 -15.5 -113.5 -46.5s-43.5 -73.167 -43.5 -126.5c0 -64.667 41.667 -159.334 125 -284.001c59.333 -88.667 99.666 -165 120.999 -229
c24 -71.333 36.667 -158.333 38 -261h-88c-0.666992 92 -19.334 173.333 -56.001 244c-26.667 49.333 -76 113.333 -148 192c-59.333 66 -100.333 116.667 -123 152c-40 63.333 -60 127 -60 191c0 76.667 26.333 135 79 175c44.667 34 102.334 51 173.001 51
c135.333 0 283 -50.667 443 -152zM540.002 227.001c28 -2.66699 50.001 -15.332 66.001 -37.999c12.667 -20 18 -41.333 16 -64s-11.333 -42.334 -28 -59.001c-20 -20 -44.667 -28.333 -74 -25c-28 2.66699 -49.667 15.334 -65 38.001
c-12.667 19.333 -18.334 40.666 -17.001 63.999c2 22.667 11.333 42.334 28 59.001c20 19.333 44.667 27.666 74 24.999z" />
    <glyph glyph-name="afii57409" unicode="&#x621;" horiz-adv-x="825" 
d="M146 568v-270.999v-97h-98v-200h704v200h-404v229c-3.33301 76 26.667 113 90 111h314v210h-453c-92.667 -18.667 -143.667 -79.334 -153 -182.001z" />
    <glyph glyph-name="afii57440" unicode="&#x640;" horiz-adv-x="301" 
d="M323 190v-190h-333v190h333z" />
    <glyph glyph-name="afii57451" unicode="&#x64b;" horiz-adv-x="583" 
d="M545 1948c-21.333 -6.66699 -92 -38 -212 -94c-103.333 -48.667 -170.333 -73 -201 -73h-100l212 97c101.333 46.667 168 70 200 70h101zM583 1837c-21.333 -6.66699 -92 -38 -212 -94c-103.333 -48.667 -170.333 -73 -201 -73h-100l212 97c101.333 46.667 168 70 200 70
h101z" />
    <glyph glyph-name="afii57452" unicode="&#x64c;" horiz-adv-x="576" 
d="M576 1857c0 -30 -24.666 -56.001 -73.999 -78.001l58 -52h-44c-22 0 -45 8.33301 -69 25c-98 -54.667 -169 -82 -213 -82v83c-30.667 -13.333 -63.334 -20 -98.001 -20h-66c34 14.667 94 43.334 180 86.001l54 29v-96c21.333 8 51.333 21.333 90 40l-28 25
c-24 21.333 -36 43.333 -36 66c0 24.667 12.667 47 38 67l120 95c0 -18 14.667 -49.333 44 -94s44 -76 44 -94zM507.001 1867c0 37.333 -18.667 55.999 -56 55.999c-34 0 -51 -13.667 -51 -41c0 -10 18 -29.667 54 -59c35.333 20.667 53 35.334 53 44.001z" />
    <glyph glyph-name="afii57453" unicode="&#x64d;" horiz-adv-x="583" 
d="M545 -585c-21.333 -6.66699 -92 -38 -212 -94c-103.333 -48.667 -170.333 -73 -201 -73h-100l212 97c101.333 46.667 168 70 200 70h101zM583 -696c-21.333 -6.66699 -92 -38 -212 -94c-103.333 -48.667 -170.333 -73 -201 -73h-100l212 97c101.333 46.667 168 70 200 70
h101z" />
    <glyph glyph-name="afii57454" unicode="&#x64e;" horiz-adv-x="583" 
d="M583 1837c-21.333 -6.66699 -92 -38 -212 -94c-103.333 -48.667 -170.333 -73 -201 -73h-100l212 97c101.333 46.667 168 70 200 70h101z" />
    <glyph glyph-name="afii57455" unicode="&#x64f;" horiz-adv-x="511" 
d="M511 1857c0 -30 -24.667 -56.001 -74 -78.001l58 -52h-44c-22 0 -45.333 8.66699 -70 26c-3.33301 -1.33301 -36.333 -17.666 -99 -48.999c-44 -22.667 -84 -34 -120 -34h-92c72 27.333 157.667 68.333 257 123l-26 24c-24 22 -36 44 -36 66c0 24.667 12.667 47 38 67
l120 95c0 -18 14.667 -49.333 44 -94s44 -76 44 -94zM442 1867c0 37.333 -18.667 55.999 -56 55.999c-34 0 -51 -13.667 -51 -41c0 -10 18 -29.667 54 -59c35.333 20.667 53 35.334 53 44.001z" />
    <glyph glyph-name="afii57456" unicode="&#x650;" horiz-adv-x="583" 
d="M583 -585c-21.333 -6.66699 -92 -38 -212 -94c-103.333 -48.667 -170.333 -73 -201 -73h-100l212 97c101.333 46.667 168 70 200 70h101z" />
    <glyph glyph-name="afii57457" unicode="&#x651;" horiz-adv-x="551" 
d="M551 1816c-32 -7.33301 -92.9971 -34.334 -182.997 -81.001c-84 -43.333 -133.333 -65 -148 -65c-28 0 -59.333 25.667 -94 77c-12.667 19.333 -31.334 43.333 -56.001 72h59c19.333 0 39.666 -10.667 60.999 -32s36.333 -32 45 -32c32 0 48 13 48 39
c0 18.667 -7.66699 39.667 -23 63c-14 20 -27.667 34 -41 42h61c19.333 0 35.666 -10.333 48.999 -31c24 -36 40 -54 48 -54c30 0 45 16 45 48c0 34.667 -17.333 61.334 -52 80.001l51 4c33.333 2.66699 57.833 -14.333 73.5 -51s34.5 -63 56.5 -79z" />
    <glyph glyph-name="afii57458" unicode="&#x652;" horiz-adv-x="326" 
d="M326 1787c0 -32.667 -12.667 -60.333 -38 -83s-55.333 -34 -90 -34c-35.333 0 -65.5 10.833 -90.5 32.5s-37.5 46.5 -37.5 74.5c0 33.333 21.333 72 64 116l84 86c0 -30 18 -63 54 -99s54 -67 54 -93zM260 1779c0 14.667 -7.33301 30.166 -22 46.499l-44 47.5
l-38.5 -42.5c-13 -14.333 -19.5 -28.833 -19.5 -43.5c0 -37.333 20 -56 60 -56c14.667 0 29 4.83301 43 14.5s21 20.834 21 33.501z" />
    <glyph glyph-name="afii61664" unicode="&#x200c;" horiz-adv-x="45" 
 />
    <glyph glyph-name="afii301" unicode="&#x200d;" horiz-adv-x="45" 
 />
    <glyph glyph-name="afii299" unicode="&#x200e;" horiz-adv-x="41" 
d="M271 1444l-120 -123l-31 26l80 79h-159v-1426h-41v1464h195l-75 75l31 28z" />
    <glyph glyph-name="afii300" unicode="&#x200f;" horiz-adv-x="41" 
d="M41 0h-41v1426h-159l77 -79l-26 -26l-125 123l125 123l26 -28l-74 -75h197v-1464z" />
    <glyph glyph-name="quoteleft" unicode="&#x2018;" horiz-adv-x="662" 
d="M467 976c0 -73.333 -45.667 -110 -137 -110c-54 0 -89.667 14.333 -107 43c-13.333 21.333 -20 60.333 -20 117c0 108 8.33301 184 25 228c28.667 74 87.334 115.333 176.001 124v-65c-51.333 -6 -86.333 -31.667 -105 -77c-10.667 -26.667 -17.334 -72 -20.001 -136
c125.333 0 188 -41.333 188 -124z" />
    <glyph glyph-name="quoteright" unicode="&#x2019;" horiz-adv-x="570" 
d="M153 1268c0 73.333 45.333 109.999 136 109.999c54.667 0 91 -14.333 109 -43c12 -20 18 -59 18 -117c0 -109.333 -8.33301 -185.666 -25 -228.999c-28 -74 -86.667 -115 -176 -123v65c52.667 5.33301 88 30.333 106 75c10 24.667 16.333 70.667 19 138
c-124.667 0 -187 41.333 -187 124z" />
    <glyph glyph-name="quotedblleft" unicode="&#x201c;" horiz-adv-x="618" 
d="M303 971c0 -73.333 -45.667 -110 -137 -110c-54.667 0 -90.667 14.333 -108 43c-12.667 20 -19 59 -19 117c0 108.667 8.33301 185 25 229c28 74 86.667 115 176 123v-65c-52.667 -5.33301 -88 -30.333 -106 -75c-10 -25.333 -16.333 -71.333 -19 -138
c125.333 0 188 -41.333 188 -124zM604 976c0 -73.333 -45.333 -110 -136 -110c-54.667 0 -90.667 14.333 -108 43c-13.333 21.333 -20 60.333 -20 117c0 108 8.33301 184 25 228c28.667 74 87.334 115.333 176.001 124v-65c-51.333 -6 -86.333 -31.667 -105 -77
c-10.667 -26.667 -17.334 -72 -20.001 -136c125.333 0 188 -41.333 188 -124z" />
    <glyph glyph-name="quotedblright" unicode="&#x201d;" horiz-adv-x="618" 
d="M340 1268c0 73.333 45.335 109.999 136.002 109.999c55.333 0 91.666 -14.333 108.999 -43c12.667 -20 19 -59 19 -117c0 -109.333 -8.33301 -185.666 -25 -228.999c-28.667 -74 -87.334 -115 -176.001 -123v65c52 5.33301 87.333 30.333 106 75
c10 24.667 16.333 70.667 19 138c-125.333 0 -188 41.333 -188 124zM39.002 1263c0 73.333 45.332 110 135.999 110c54 0 90 -14.333 108 -43c13.333 -21.333 20 -60.333 20 -117c0 -108.667 -8.33301 -184.667 -25 -228c-28.667 -74 -87.667 -115.333 -177 -124v65
c52 6 87 31.667 105 77c10.667 26 17.334 71.333 20.001 136c-124.667 0 -187 41.333 -187 124z" />
    <glyph glyph-name="guilsinglleft" unicode="&#x2039;" horiz-adv-x="1365" 
d="M1222 270l-1080 456v97l1080 455v-118l-936 -385l936 -387v-118z" />
    <glyph glyph-name="guilsinglright" unicode="&#x203a;" horiz-adv-x="1365" 
d="M1222 724l-1080 -454v117l937 386l-937 387v118l1080 -457v-97z" />
    <glyph glyph-name="uniE820" unicode="&#xe820;" horiz-adv-x="583" 
d="M583 1462c-21.333 -6.66699 -92 -38 -212 -94c-103.333 -48.667 -170.333 -73 -201 -73h-100l212 97c101.333 46.667 168 70 200 70h101z" />
    <glyph glyph-name="uniE821" unicode="&#xe821;" horiz-adv-x="511" 
d="M511 1482c0 -30 -24.667 -56.001 -74 -78.001l58 -52h-44c-22 0 -45.333 8.66699 -70 26c-3.33301 -1.33301 -36.333 -17.666 -99 -48.999c-44 -22.667 -84 -34 -120 -34h-92c72 27.333 157.667 68.333 257 123l-26 24c-24 22 -36 44 -36 66c0 24.667 12.667 47 38 67
l120 95c0 -18 14.667 -49.333 44 -94s44 -76 44 -94zM442 1492c0 37.333 -18.667 55.999 -56 55.999c-34 0 -51 -13.667 -51 -41c0 -10 18 -29.667 54 -59c35.333 20.667 53 35.334 53 44.001z" />
    <glyph glyph-name="uniE822" unicode="&#xe822;" horiz-adv-x="326" 
d="M326 1412c0 -32.667 -12.667 -60.333 -38 -83s-55.333 -34 -90 -34c-35.333 0 -65.5 10.833 -90.5 32.5s-37.5 46.5 -37.5 74.5c0 33.333 21.333 72 64 116l84 86c0 -30 18 -63 54 -99s54 -67 54 -93zM260 1404c0 14.667 -7.33301 30.166 -22 46.499l-44 47.5
l-38.5 -42.5c-13 -14.333 -19.5 -28.833 -19.5 -43.5c0 -37.333 20 -56 60 -56c14.667 0 29 4.83301 43 14.5s21 20.834 21 33.501z" />
    <glyph glyph-name="uniE823" unicode="&#xe823;" horiz-adv-x="583" 
d="M545 1573c-21.333 -6.66699 -92 -38 -212 -94c-103.333 -48.667 -170.333 -73 -201 -73h-100l212 97c101.333 46.667 168 70 200 70h101zM583 1462c-21.333 -6.66699 -92 -38 -212 -94c-103.333 -48.667 -170.333 -73 -201 -73h-100l212 97c101.333 46.667 168 70 200 70
h101z" />
    <glyph glyph-name="uniE824" unicode="&#xe824;" horiz-adv-x="576" 
d="M576 1482c0 -30 -24.666 -56.001 -73.999 -78.001l58 -52h-44c-22 0 -45 8.33301 -69 25c-98 -54.667 -169 -82 -213 -82v83c-30.667 -13.333 -63.334 -20 -98.001 -20h-66c34 14.667 94 43.334 180 86.001l54 29v-96c21.333 8 51.333 21.333 90 40l-28 25
c-24 21.333 -36 43.333 -36 66c0 24.667 12.667 47 38 67l120 95c0 -18 14.667 -49.333 44 -94s44 -76 44 -94zM507.001 1492c0 37.333 -18.667 55.999 -56 55.999c-34 0 -51 -13.667 -51 -41c0 -10 18 -29.667 54 -59c35.333 20.667 53 35.334 53 44.001z" />
    <glyph glyph-name="uniE825" unicode="&#xe825;" horiz-adv-x="551" 
d="M551 1441c-32 -7.33301 -92.9971 -34.334 -182.997 -81.001c-84 -43.333 -133.333 -65 -148 -65c-28 0 -59.333 25.667 -94 77c-12.667 19.333 -31.334 43.333 -56.001 72h59c19.333 0 39.666 -10.667 60.999 -32s36.333 -32 45 -32c32 0 48 13 48 39
c0 18.667 -7.66699 39.667 -23 63c-14 20 -27.667 34 -41 42h61c19.333 0 35.666 -10.333 48.999 -31c24 -36 40 -54 48 -54c30 0 45 16 45 48c0 34.667 -17.333 61.334 -52 80.001l51 4c33.333 2.66699 57.833 -14.333 73.5 -51s34.5 -63 56.5 -79z" />
    <glyph glyph-name="uniE826" unicode="&#xe826;" horiz-adv-x="583" 
d="M583 -230c-21.333 -6.66699 -92 -38 -212 -94c-103.333 -48.667 -170.333 -73 -201 -73h-100l212 97c101.333 46.667 168 70 200 70h101z" />
    <glyph glyph-name="uniE827" unicode="&#xe827;" horiz-adv-x="583" 
d="M545 -230c-21.333 -6.66699 -92 -38 -212 -94c-103.333 -48.667 -170.333 -73 -201 -73h-100l212 97c101.333 46.667 168 70 200 70h101zM583 -341c-21.333 -6.66699 -92 -38 -212 -94c-103.333 -48.667 -170.333 -73 -201 -73h-100l212 97c101.333 46.667 168 70 200 70
h101z" />
    <glyph glyph-name="uniE828" unicode="&#xe828;" horiz-adv-x="621" 
d="M583 2061c-21.333 -6.66699 -92 -38 -212 -94c-103.333 -48.667 -170.333 -73 -201 -73h-100l212 97c101.333 46.667 168 70 200 70h101zM621 1816c-32 -7.33301 -92.9971 -34.334 -182.997 -81.001c-84 -43.333 -133.333 -65 -148 -65c-28 0 -59.333 25.667 -94 77
c-12.667 19.333 -31.334 43.333 -56.001 72h59c19.333 0 39.666 -10.667 60.999 -32s36.333 -32 45 -32c32 0 48 13 48 39c0 18.667 -7.66699 39.667 -23 63c-14 20 -27.667 34 -41 42h61c19.333 0 35.666 -10.333 48.999 -31c24 -36 40 -54 48 -54c30 0 45 16 45 48
c0 34.667 -17.333 61.334 -52 80.001l51 4c33.333 2.66699 57.833 -14.333 73.5 -51s34.5 -63 56.5 -79z" />
    <glyph glyph-name="uniE829" unicode="&#xe829;" horiz-adv-x="621" 
d="M621 1816c-32 -7.33301 -92.9971 -34.333 -182.997 -81c-84 -43.333 -133.333 -65 -148 -65c-28 0 -59.333 25.667 -94 77c-12.667 19.333 -31.334 43.333 -56.001 72h59c19.333 0 39.666 -10.667 60.999 -32s36.333 -32 45 -32c32 0 48 13 48 39
c0 18.667 -7.66699 39.667 -23 63c-14 20 -27.667 34 -41 42h61c19.333 0 35.666 -10.333 48.999 -31c24 -36 40 -54 48 -54c30 0 45 16 45 48c0 33.333 -17.333 59.333 -52 78c-8.66699 3.33301 -23.667 13.666 -45 30.999c-3.33301 -1.33301 -36.333 -17.666 -99 -48.999
c-44 -22.667 -84 -34 -120 -34h-92c72 27.333 157.667 68.333 257 123l-26 24c-24 22 -36 44 -36 66c0 24.667 12.667 47 38 67l120 95c0 -18 14.667 -49.333 44 -94s44 -76 44 -94c0 -30 -24.667 -56 -74 -78l58 -52c23.333 -1.33301 42 -18.333 56 -51
c15.333 -36 34 -62 56 -78zM456.003 2085c0 37.333 -18.667 56 -56 56c-34 0 -51 -13.667 -51 -41c0 -10 18 -29.667 54 -59c35.333 20.667 53 35.334 53 44z" />
    <glyph glyph-name="uniE82A" unicode="&#xe82a;" horiz-adv-x="678" 
d="M580 1648c-32 -7.33301 -92.9971 -34.334 -182.997 -81.001c-84 -43.333 -133.333 -65 -148 -65c-28 0 -59.333 25.667 -94 77c-12.667 19.333 -31.334 43.333 -56.001 72h59c19.333 0 39.666 -10.667 60.999 -32s36.333 -32 45 -32c32 0 48 13 48 39
c0 18.667 -7.66699 39.667 -23 63c-14 20 -27.667 34 -41 42h61c19.333 0 35.666 -10.333 48.999 -31c24 -36 40 -54 48 -54c30 0 45 16 45 48c0 34.667 -17.333 61.334 -52 80.001l51 4c33.333 2.66699 57.833 -14.333 73.5 -51s34.5 -63 56.5 -79zM553.003 2025
c-21.333 -6.66699 -92 -38 -212 -94c-103.333 -48.667 -170.333 -73 -201 -73h-100l212 97c101.333 46.667 168 70 200 70h101zM591.003 1914c-21.333 -6.66699 -92 -38 -212 -94c-103.333 -48.667 -170.333 -73 -201 -73h-100l212 97c101.333 46.667 168 70 200 70h101z
" />
    <glyph glyph-name="uniE82B" unicode="&#xe82b;" horiz-adv-x="621" 
d="M621 1816c-32 -7.33301 -92.9961 -34.334 -182.996 -81.001c-84 -43.333 -133.333 -65 -148 -65c-28 0 -59.333 25.667 -94 77c-12.667 19.333 -31.334 43.333 -56.001 72h59c19.333 0 39.666 -10.667 60.999 -32s36.333 -32 45 -32c32 0 48 13 48 39
c0 18.667 -7.66699 39.667 -23 63c-14 20 -27.667 34 -41 42h61c19.333 0 35.666 -10.333 48.999 -31c24 -36 40 -54 48 -54c30 0 45 16 45 48c0 33.333 -17.333 59.333 -52 78c-8 3.33301 -22.667 13.333 -44 30c-98 -54.667 -169 -82 -213 -82v83
c-30.667 -13.333 -63.334 -20 -98.001 -20h-66c34 14.667 94 43.334 180 86.001l54 29v-96c21.333 8 51.333 21.333 90 40l-28 25c-24 21.333 -36 43.333 -36 66c0 24.667 12.667 47 38 67l120 95c0 -18 14.667 -49.333 44 -94s44 -76 44 -94c0 -30 -24.667 -56 -74 -78
l58 -52c23.333 -1.33301 42 -18.333 56 -51c15.333 -36 34 -62 56 -78zM456.004 2085c0 37.333 -18.667 55.999 -56 55.999c-34 0 -51 -13.667 -51 -41c0 -10 18 -29.667 54 -59c35.333 20.667 53 35.334 53 44.001z" />
    <glyph glyph-name="uniE82C" unicode="&#xe82c;" horiz-adv-x="640" 
d="M551 1915c-32 -7.33301 -92.9971 -34.334 -182.997 -81.001c-84 -43.333 -133.333 -65 -148 -65c-28 0 -59.333 25.667 -94 77c-12.667 19.333 -31.334 43.333 -56.001 72h59c19.333 0 39.666 -10.667 60.999 -32s36.333 -32 45 -32c32 0 48 13 48 39
c0 18.667 -7.66699 39.667 -23 63c-14 20 -27.667 34 -41 42h61c19.333 0 35.666 -10.333 48.999 -31c24 -36 40 -54 48 -54c30 0 45 16 45 48c0 34.667 -17.333 61.334 -52 80.001l51 4c33.333 2.66699 57.833 -14.333 73.5 -51s34.5 -63 56.5 -79zM640.003 1837
c-21.333 -6.66699 -92 -38 -212 -94c-103.333 -48.667 -170.333 -73 -201 -73h-100l212 97c101.333 46.667 168 70 200 70h101z" />
    <glyph glyph-name="uniE82D" unicode="&#xe82d;" horiz-adv-x="678" 
d="M551 2026c-32 -7.33301 -92.9971 -34.333 -182.997 -81c-84 -43.333 -133.333 -65 -148 -65c-28 0 -59.333 25.667 -94 77c-12.667 19.333 -31.334 43.333 -56.001 72h59c19.333 0 39.666 -10.667 60.999 -32s36.333 -32 45 -32c32 0 48 13 48 39
c0 18.667 -7.66699 39.667 -23 63c-14 20 -27.667 34 -41 42h61c19.333 0 35.666 -10.333 48.999 -31c24 -36 40 -54 48 -54c30 0 45 16 45 48c0 34.667 -17.333 61.334 -52 80l51 4c33.333 2.66699 57.833 -14.333 73.5 -51s34.5 -63 56.5 -79zM640.003 1948
c-21.333 -6.66699 -92 -38 -212 -94c-103.333 -48.667 -170.333 -73 -201 -73h-100l212 97c101.333 46.667 168 70 200 70h101zM678.003 1837c-21.333 -6.66699 -92 -38 -212 -94c-103.333 -48.667 -170.333 -73 -201 -73h-100l212 97c101.333 46.667 168 70 200 70h101z
" />
    <glyph glyph-name="uniFD3F" unicode="&#xfd3f;" horiz-adv-x="937" 
d="M450 352c21.333 0 39.833 7.83301 55.5 23.5s23.5 35.167 23.5 58.5c0 20.667 -7.83301 38.5 -23.5 53.5s-34.167 22.5 -55.5 22.5c-23.333 0 -43.166 -7.5 -59.499 -22.5s-24.5 -32.833 -24.5 -53.5c0 -23.333 8.16699 -42.833 24.5 -58.5s36.166 -23.5 59.499 -23.5z
M165 510l-0.00585938 96.002c0 14 4.66699 21 14 21c8.66699 0 19.667 -5 33 -15l125 -92c6.66699 -5.33301 13.334 -8 20.001 -8v0c8.66699 0 14.334 3.33301 17.001 10s0.666992 14.334 -6 23.001l-107 119c-10.667 13.333 -16 24 -16 32
c0 11.333 7.33301 15.666 22 12.999l78 -4c6.66699 28.667 -11.666 86 -54.999 172c-40 76 -76.333 133.333 -109 172l-61 71c-23.333 26 -35 41.667 -35 47c0 11.333 6.66699 17 20 17c7.33301 0 34.666 -20 81.999 -60c60.667 -50 115.334 -105.333 164.001 -166
c67.333 -81.333 116 -165.666 146 -252.999l108 16c23.333 4 35 -0.666992 35 -14c0 -8.66699 -4 -18.334 -12 -29.001l-94 -135c-7.33301 -8.66699 -10.333 -17 -9 -25c1.33301 -6.66699 6.33301 -10 15 -10c9.33301 0 18.666 4 27.999 12l123 105c10 8 19 12 27 12
c12 0 18 -9 18 -27v-100c67.333 -28.667 101 -56 101 -82c0 -14.667 -12.667 -31.334 -38 -50.001s-46.333 -30 -63 -34v-86c0 -26 -6 -39 -18 -39c-8 0 -18.333 5.66699 -31 17l-110 96c-15.333 13.333 -27.666 20 -36.999 20c-11.333 0 -17 -5.33301 -17 -16
c-1.33301 -11.333 3 -21.666 13 -30.999l98 -135c5.33301 -8 8 -14.667 8 -20c0 -12.667 -9 -18.334 -27 -17.001l-112 21c-35.333 -109.333 -107.666 -220.666 -216.999 -333.999c-94.667 -96 -155 -144 -181 -144c-10.667 0 -16 5 -16 15c0 12 32.667 50.667 98 116
c33.333 44 67 97.333 101 160c48.667 90 70.334 152.333 65.001 187l-75 -11c-20.667 -2.66699 -31 1.66602 -31 12.999c0 5.33301 2 12 6 20l106 119c12.667 13.333 19 24.333 19 33c0 9.33301 -5.66699 14.666 -17 15.999c-9.33301 0 -18.666 -3.33301 -27.999 -10
l-129 -98c-10 -7.33301 -18.333 -11 -25 -11c-9.33301 0 -14 9.66699 -14 29v90c-64 30 -96 58 -96 84c0 18 12 35.667 36 53c20.667 15.333 40.667 25 60 29zM395.994 616.002h41.002v52l31 -52h35v-47h6l76 115l-107 -25c-1.33301 23.333 -17.333 65.833 -48 127.5
s-56.334 103.167 -77.001 124.5v-80c15.333 -32.667 34.666 -92 57.999 -178l-101 23l-4 -8l90 -93v41zM649.996 377.002h-70.999v-4l118 -88v90c14 0 34 6.5 60 19.5s39 25.5 39 37.5c0 8 -13.333 18.5 -40 31.5s-46.334 20.167 -59.001 21.5v90l-120 -92v-4h73v-33
c10 0 25.667 -4.66699 47 -14c-13.333 -13.333 -29 -20 -47 -20v-35zM395.997 242.002l-0.000976562 43l-92 -97l4 -4l103 19c-11.333 -40 -31.333 -98 -60 -174v-80c20.667 20.667 46.334 62 77.001 124s46.667 105.333 48 130l107 -27l-76 115h-4v-49h-37l-29 -52h-4v52
h-37zM254.996 449.002v34.001h66l2 4l-117 88v-90c-14 0 -34.333 -6.83301 -61 -20.5s-40 -25.834 -40 -36.501c0 -8 13.667 -18.5 41 -31.5s47.333 -20.167 60 -21.5v-88l123 90l-6 2h-68v33c-13.333 0 -29.666 5.33301 -48.999 16c13.333 10.667 29.666 17.667 48.999 21z
" />
    <glyph glyph-name="glyph1" horiz-adv-x="0" 
 />
    <glyph glyph-name="glyph2" horiz-adv-x="469" 
 />
  </font>
</defs>
</svg>
