<?xml version="1.0" standalone="no"?>
<!DOCTYPE svg PUBLIC "-//W3C//DTD SVG 1.1//EN" "http://www.w3.org/Graphics/SVG/1.1/DTD/svg11.dtd" >
<svg>
<metadata>
Created by FontForge 20090914 at Wed Oct 19 00:45:52 2011
 By www-data
(c) by Abolfazl Seilsepour - +98 912 591 3420  -  seilsepor@yahoo.com
</metadata>
<defs>
<font id="FarAlex" horiz-adv-x="0" >
  <font-face 
    font-family="Far.Alex"
    font-weight="400"
    font-stretch="normal"
    units-per-em="2048"
    panose-1="0 0 4 0 0 0 0 0 0 0"
    ascent="1638"
    descent="-410"
    bbox="-259 -1178 2681 2074"
    underline-thickness="100"
    underline-position="-850"
    unicode-range="U+0020-U+FEFC"
  />
<missing-glyph horiz-adv-x="1024" 
d="M128 0v1360h768v-1360h-768zM256 128h512v1104h-512v-1104z" />
    <glyph glyph-name=".notdef" unicode="&#x652;&#x64d;" horiz-adv-x="1024" 
d="M128 0v1360h768v-1360h-768zM256 128h512v1104h-512v-1104z" />
    <glyph glyph-name="copyright" unicode="&#x652;&#x64b;" horiz-adv-x="1816" 
d="M862 1495c125.333 0 247.5 -32 366.5 -96s211.833 -155.5 278.5 -274.5s100 -243.167 100 -372.5s-32.833 -253.333 -98.5 -372s-157.667 -210.5 -276 -275.5s-241.833 -97.5 -370.5 -97.5c-129.333 0 -252.833 32.5 -370.5 97.5s-209.5 156.833 -275.5 275.5
s-99 242.667 -99 372s33.5 253.5 100.5 372.5s160 210.5 279 274.5s240.833 96 365.5 96zM862 1431c-114 0 -225.169 -29.333 -333.502 -88s-193.166 -142.334 -254.499 -251.001s-92 -222 -92 -340s30 -230.833 90 -338.5s144 -191.667 252 -252s220.667 -90.5 338 -90.5
s230 30.167 338 90.5s192.167 144.333 252.5 252s90.5 220.5 90.5 338.5s-30.667 231.333 -92 340s-146.166 192.334 -254.499 251.001s-219.833 88 -334.5 88zM1230 1230l22 -293.999h-41c-26 83.333 -66.167 145.5 -120.5 186.5s-120.166 61.5 -197.499 61.5
c-58 0 -109.333 -12 -154 -36s-81.334 -55.667 -110.001 -95c-21.333 -30.667 -39 -71 -53 -121s-21 -102 -21 -156c0 -148.667 32 -258.167 96 -328.5s148 -105.5 252 -105.5c136 0 245 56.667 327 170l39 -20c-97.333 -142 -231 -213 -401 -213
c-140.667 0 -257 45.333 -349 136s-138 200.667 -138 330c0 134 49 248.333 147 343s223 142 375 142c33.333 0 60.333 -2 81 -6s59 -15 115 -33c16.667 -6 29 -9 37 -9c11.333 0 21 3.16699 29 9.5s16 19.166 24 38.499h41z" />
    <glyph glyph-name="uniE818" unicode="&#x651;&#x64b;" 
d="M561 1533c0 -49.333 -12.333 -89 -37 -119c-27.333 -35.333 -64 -53 -110 -53c-34.667 0 -70.667 16.333 -108 49c-26.667 -32.667 -64 -49 -112 -49c-44 0 -79 18.333 -105 55c-20 30 -30 69 -30 117h75c0 -66.667 22 -100 66 -100c43.333 0 66 33.333 68 100h80
c0 -66.667 22.667 -100 68 -100c44 0 66.333 33.333 67 100h78zM501 1924l-340 -185l-38 69l340 188zM500 1807l-339 -181l-39 66l340 187z" />
    <glyph glyph-name="uniFC5E" unicode="&#x651;&#x64c;" arabic-form="isolated" 
d="M592 1526c0 -49.333 -12.333 -89 -37 -119c-27.333 -35.333 -64 -53 -110 -53c-34.667 0 -70.667 16.333 -108 49c-26.667 -32.667 -64 -49 -112 -49c-44 0 -79 18.333 -105 55c-20 30 -30 69 -30 117h75c0 -66.667 22 -100 66 -100c43.333 0 66 33.333 68 100h80
c0 -66.667 22.667 -100 68 -100c44 0 66.333 33.333 67 100h78zM563 1937c0 -64 -18.3301 -105.667 -54.9971 -125l-298 -159l-39 66c37.333 24 59 41.667 65 53c0 14.667 -10 22 -30 22c-16 0 -34.333 -5.66699 -55 -17l-32 57c47.333 16 81.666 24 102.999 24
c47.333 0 75.333 -22.667 84 -68l43 25c-48 27.333 -72 65.333 -72 114c0 64 32 108.333 96 133c21.333 8 35.666 12 42.999 12c41.333 0 76.166 -13.5 104.499 -40.5s42.5 -59.167 42.5 -96.5zM487.003 1938c0 20 -7.5 36.5 -22.5 49.5s-31.167 19.5 -48.5 19.5
c-42.667 0 -64 -25.667 -64 -77c0 -45.333 23.333 -68 70 -68c12 0 25.833 8.5 41.5 25.5s23.5 33.833 23.5 50.5z" />
    <glyph glyph-name="uniFC5F" unicode="&#x651;&#x64d;" arabic-form="isolated" 
d="M581 1956c0 -49.333 -12.333 -89 -37 -119c-27.333 -35.333 -64 -53 -110 -53c-34.667 0 -70.667 16.333 -108 49c-26.667 -32.667 -64 -49 -112 -49c-44 0 -79 18.333 -105 55c-20 30 -30 69 -30 117h75c0 -66.667 22 -100 66 -100c43.333 0 66 33.333 68 100h80
c0 -66.667 22.667 -100 68 -100c44 0 66.333 33.333 67 100h78zM489 1667l-338 -182l-39 67l340 187zM489 1523l-339 -182l-37 68l339 188z" />
    <glyph glyph-name="uniFC60" unicode="&#x651;&#x64e;" arabic-form="isolated" 
d="M581 1492c0 -49.333 -12.333 -89 -37 -119c-27.333 -35.333 -64 -53 -110 -53c-34.667 0 -70.667 16.333 -108 49c-26.667 -32.667 -64 -49 -112 -49c-44 0 -79 18.333 -105 55c-20 30 -30 69 -30 117h75c0 -66.667 22 -100 66 -100c43.333 0 66 33.333 68 100h80
c0 -66.667 22.667 -100 68 -100c44 0 66.333 33.333 67 100h78zM501 1752l-339 -181l-39 66l340 190z" />
    <glyph glyph-name="uniFC61" unicode="&#x651;&#x64f;" arabic-form="isolated" 
d="M602 1503c0 -49.333 -12.333 -89 -37 -119c-27.333 -35.333 -64 -53 -110 -53c-34.667 0 -70.667 16.333 -108 49c-26.667 -32.667 -64 -49 -112 -49c-44 0 -79 18.333 -105 55c-20 30 -30 69 -30 117h75c0 -66.667 22 -100 66 -100c43.333 0 66 33.333 68 100h80
c0 -66.667 22.667 -100 68 -100c44 0 66.333 33.333 67 100h78zM512 1918c0 -62.667 -18.666 -104.001 -55.999 -124.001l-243 -129l-39 66l121 67c-46.667 27.333 -70 65 -70 113c0 64.667 32.667 109.334 98 134.001c19.333 7.33301 32.666 11 39.999 11
c41.333 0 76.5 -13.5 105.5 -40.5s43.5 -59.5 43.5 -97.5zM435.001 1920c0 20 -7.5 36.333 -22.5 49s-31.5 19 -49.5 19c-42 0 -63 -25.333 -63 -76c0 -46 23.667 -69 71 -69c11.333 0 24.833 8.66699 40.5 26s23.5 34.333 23.5 51z" />
    <glyph glyph-name="uniFC62" unicode="&#x651;&#x650;" arabic-form="isolated" 
d="M571 1799c0 -49.333 -12.333 -89 -37 -119c-27.333 -35.333 -64 -53 -110 -53c-34.667 0 -70.667 16.333 -108 49c-26.667 -32.667 -64 -49 -112 -49c-44 0 -79 18.333 -105 55c-20 30 -30 69 -30 117h75c0 -66.667 22 -100 66 -100c43.333 0 66 33.333 68 100h80
c0 -66.667 22.667 -100 68 -100c44 0 66.333 33.333 67 100h78zM495 1531l-337 -182l-41 67l340 189z" />
    <glyph glyph-name="uniFD3E" unicode="&#x652;&#x64e;" horiz-adv-x="759" 
d="M659 92c-31.333 -36 -51.3311 -66.3311 -59.998 -90.998c-5.33301 -14.667 -7.66602 -35.667 -6.99902 -63c2 -16 9.66699 -84.667 23 -206l-203 250c-72 89.333 -122 191.333 -150 306c-58 0 -121.667 -6 -191 -18c59.333 44 109.666 87.333 150.999 130
c13.333 14.667 24.666 29 33.999 43c-11.333 8.66699 -20 17.334 -26 26.001c-17.333 -12 -31.666 -23.333 -42.999 -34c-41.333 -39.333 -84.666 -89.666 -129.999 -150.999c12.667 72 19 138 19 198v123c0 60.667 -6.33301 126.667 -19 198
c45.333 -60.667 88.666 -111 129.999 -151c11.333 -10.667 25.666 -22 42.999 -34c8 10 17 19 27 27c-10.667 15.333 -22.334 29.666 -35.001 42.999c-41.333 42.667 -91.666 86 -150.999 130c72 -12.667 135.667 -19 191 -19c28 115.333 78 217.333 150 306l203 251
c-8 -60.667 -15.667 -129.334 -23 -206.001c-0.666992 -28 1.66602 -49 6.99902 -63c8.66699 -24.667 28.667 -55.334 60 -92.001c-70.667 0 -120.334 -10.333 -149.001 -31c-36.667 -24.667 -70.334 -79.667 -101.001 -165c49.333 0 109.666 6.33301 180.999 19
c-60.667 -45.333 -111 -88.666 -151 -129.999c-12.667 -14 -24.334 -28.333 -35.001 -43c10 -8 19 -17 27 -27c18.667 13.333 33.334 24.666 44.001 33.999c40 38 83.333 88.333 130 151c-12 -68.667 -18 -134.667 -18 -198v-123c0 -62.667 6 -128.667 18 -198
c-45.333 61.333 -88.666 111.666 -129.999 150.999c-12.667 11.333 -27.334 22.666 -44.001 33.999c-7.33301 -10 -16.333 -18.667 -27 -26c10.667 -14.667 22.334 -29 35.001 -43c40 -41.333 90.333 -84.666 151 -129.999c-68.667 12 -129 18 -181 18
c30.667 -85.333 64.334 -140.333 101.001 -165c28.667 -20.667 78.334 -31 149.001 -31zM422.002 544.002c0 24.667 -9 46 -27 64s-39.333 27 -64 27s-46.167 -9 -64.5 -27s-27.5 -39.333 -27.5 -64s9 -46 27 -64s39.667 -27 65 -27c24.667 0 46 9 64 27s27 39.333 27 64z
" />
    <glyph glyph-name="uniFDF2" unicode="&#xfedf;&#xfee0;&#xfeea;" horiz-adv-x="2137" arabic-form="isolated" 
d="M579 162l56.001 54v337c-53.333 -10 -105.666 -44 -156.999 -102c-20.667 -25.333 -40.334 -58.333 -59.001 -99c-10 -37.333 -16.333 -67 -19 -89c0 -32.667 9.33301 -65 28 -97c20 -20 41 -30 63 -30c31.333 0 60.666 8.66699 87.999 26zM795.001 0
c-60 0 -101.666 15.666 -124.999 46.999l-11 14l-6 17l-7 23l-11 29c-48.667 -48 -108.334 -85 -179.001 -111l-61 -15l-60 -5h-21l-20 1l-37 11c-92 28.667 -138 93.334 -138 194.001c0 92.667 64.667 182.667 194 270c86.667 58 194 105.667 322 143v17
c0 57.333 -10.667 99 -32 125c-18.667 28 -62.667 42 -132 42l45 64c255.333 0 383 -98.667 383 -296v-469c0 -20 3 -33.667 9 -41c8 -6.66699 16.667 -10.667 26 -12h69c26 0 51 12 75 36l17 33l7 38v843c0 38.667 -6.33301 64.667 -19 78c-2 4 -28.667 14.667 -80 32v44
h371v-996c0 -40.667 6 -68 18 -82c21.333 -17.333 45.666 -26 72.999 -26h91c30 0 55 10.667 75 32c13.333 16 20 35.333 20 58v1245h384v-48c-27.333 0 -48 -2.66699 -62 -8l-16 -9l-10 -4l-11 -9l-15 -32c-3.33301 -13.333 -5 -29.333 -5 -48v-1284
c-129.333 39.333 -235.666 59 -318.999 59h-802zM1227 1314c-22.667 -52 -49.333 -78 -80 -78c-42.667 0 -64 27.333 -64 82c0 51.333 10 77.333 30 78l10 -11l-2 -15l-2 -18c0 -18.667 8.66699 -28 26 -28c22 0 42.333 29.667 61 89l2 22l6 10
c7.33301 0 13 -9.33301 17 -28c0 -22.667 11.667 -35.667 35 -39c18.667 0 31.667 24 39 72c4 22.667 8.33301 37 13 43c18.667 0 28 -32.667 28 -98c0 -20 -7.33301 -45 -22 -75c-15.333 -24.667 -34 -37 -56 -37c-15.333 0 -29 10.333 -41 31z" />
    <glyph glyph-name="uniFEF5" unicode="&#xfedf;&#xfe82;" horiz-adv-x="1554" arabic-form="isolated" 
d="M784 1383l-0.000976562 -50.001c72 0 122 -11.667 150 -35c26.667 -18.667 40 -71 40 -157v-1163c0 -166 -43 -278.333 -129 -337c-43.333 -23.333 -93 -35 -149 -35c-145.333 0 -245.666 54.667 -300.999 164l-15 39l-6 41c0 17.333 5.66699 35.333 17 54
c11.333 13.333 31 24.333 59 33c24 10 54 15 90 15v48h-421v-48c58.667 -11.333 99 -26.666 121 -45.999l50 -105c36 -70.667 68.333 -124 97 -160c78 -88 202 -132 372 -132c348 0 522 156.333 522 469v1163c0 79.333 8 129.666 24 150.999
c14.667 14.667 58 28.334 130 41.001v50h-651zM353.999 288.999c0 -62.667 11.002 -108.665 33.002 -137.998c22.667 -24.667 73.667 -41.334 153 -50.001v-53h-421v53c59.333 7.33301 99.666 21.333 120.999 42c18.667 15.333 28 55.333 28 120v880
c0 78 -9.33301 126.333 -28 145l-45 25l-33 9l-43 11v50h421v-50c-58.667 0 -108.334 -16.667 -149.001 -50c-24.667 -24.667 -37 -71.334 -37 -140.001v-854zM487.001 1488l-43.999 1l-49 12l-48 11l-35 4c-48.667 0 -82.334 -25 -101.001 -75l-22 7
c17.333 72 53.666 128 108.999 168c8 4 21.833 9 41.5 15s40.167 9 61.5 9h15l18 -2c12.667 0 24.667 -2.33301 36 -7l87 -21l21 -1c22 0 42.333 11 61 33l13 13l2 15l15 30l24 -8c-11.333 -48 -26.666 -87.667 -45.999 -119c-38.667 -56.667 -91.667 -85 -159 -85z" />
    <glyph glyph-name="uniFEF6" unicode="&#xfee0;&#xfe82;" horiz-adv-x="1513" arabic-form="final" 
d="M784 1383l-0.000976562 -50.001c72 0 122 -11.667 150 -35c26.667 -18.667 40 -71 40 -157v-1163c0 -166 -43 -278.333 -129 -337c-43.333 -23.333 -93 -35 -149 -35c-145.333 0 -245.666 54.667 -300.999 164l-15 39l-6 41c0 17.333 5.66699 35.333 17 54
c11.333 13.333 31 24.333 59 33c24 10 54 15 90 15v48h-421v-48c58.667 -11.333 99 -26.666 121 -45.999l50 -105c36 -70.667 68.333 -124 97 -160c78 -88 202 -132 372 -132c348 0 522 156.333 522 469v22h268v48h-268v1093c0 79.333 8 129.666 24 150.999
c14.667 14.667 58 28.334 130 41.001v50h-651zM353.999 288.999c0 -62.667 11.002 -108.665 33.002 -137.998c22.667 -24.667 73.667 -41.334 153 -50.001v-53h-421v53c59.333 7.33301 99.666 21.333 120.999 42c18.667 15.333 28 55.333 28 120v880
c0 78 -9.33301 126.333 -28 145l-45 25l-33 9l-43 11v50h421v-50c-58.667 0 -108.334 -16.667 -149.001 -50c-24.667 -24.667 -37 -71.334 -37 -140.001v-854zM487.001 1488l-43.999 1l-49 12l-48 11l-35 4c-48.667 0 -82.334 -25 -101.001 -75l-22 7
c17.333 72 53.666 128 108.999 168c8 4 21.833 9 41.5 15s40.167 9 61.5 9h15l18 -2c12.667 0 24.667 -2.33301 36 -7l87 -21l21 -1c22 0 42.333 11 61 33l13 13l2 15l15 30l24 -8c-11.333 -48 -26.666 -87.667 -45.999 -119c-38.667 -56.667 -91.667 -85 -159 -85z" />
    <glyph glyph-name="uniFEF7" unicode="&#xfedf;&#xfe84;" horiz-adv-x="1554" arabic-form="isolated" 
d="M784 1383l-0.000976562 -50.001c72 0 122 -11.667 150 -35c26.667 -18.667 40 -71 40 -157v-1163c0 -166 -43 -278.333 -129 -337c-43.333 -23.333 -93 -35 -149 -35c-145.333 0 -245.666 54.667 -300.999 164l-15 39l-6 41c0 17.333 5.66699 35.333 17 54
c11.333 13.333 31 24.333 59 33c24 10 54 15 90 15v48h-421v-48c58.667 -11.333 99 -26.666 121 -45.999l50 -105c36 -70.667 68.333 -124 97 -160c78 -88 202 -132 372 -132c348 0 522 156.333 522 469v1163c0 79.333 8 129.666 24 150.999
c14.667 14.667 58 28.334 130 41.001v50h-651zM353.999 288.999c0 -62.667 11.002 -108.665 33.002 -137.998c22.667 -24.667 73.667 -41.334 153 -50.001v-53h-421v53c59.333 7.33301 99.666 21.333 120.999 42c18.667 15.333 28 55.333 28 120v880
c0 78 -9.33301 126.333 -28 145l-45 25l-33 9l-43 11v50h421v-50c-58.667 0 -108.334 -16.667 -149.001 -50c-24.667 -24.667 -37 -71.334 -37 -140.001v-854zM355.001 1598l-3 -3.00293l-2 -7c-2 -3.33301 -3 -7 -3 -11c0 -8 3 -15 9 -21c2.66699 -2 10.667 -4.66699 24 -8
c23.333 0 35 11.333 35 34c0 20.667 -15.667 39.334 -47 56.001l-16 5l-16 2l-18 2c-25.333 0 -48.833 -5.83301 -70.5 -17.5s-32.5 -32.834 -32.5 -63.501v-66h-72v-12h72v-15c0 -5.33301 -0.666992 -8.66602 -2 -9.99902l-7 -3l-4 1l-8 6l-9 -11
c16 -19.333 35.667 -29 59 -29c14 0 25.333 4.66699 34 14l8 22v25h54c14 0 24 -1.66699 30 -5c1.33301 -2 2.33301 -3.66699 3 -5c3.33301 -5.33301 6 -10.666 8 -15.999h10v60h-10l-10 -17l-25 -5h-60v84c0 10.667 3 20.834 9 30.501s17.667 14.5 35 14.5h5l10 -1l8 -4
c4 -2 7 -6.33301 9 -13l-1 -6z" />
    <glyph glyph-name="uniFEF8" unicode="&#xfee0;&#xfe84;" horiz-adv-x="1513" arabic-form="final" 
d="M784 1383l-0.000976562 -50.001c72 0 122 -11.667 150 -35c26.667 -18.667 40 -71 40 -157v-1163c0 -166 -43 -278.333 -129 -337c-43.333 -23.333 -93 -35 -149 -35c-145.333 0 -245.666 54.667 -300.999 164l-15 39l-6 41c0 17.333 5.66699 35.333 17 54
c11.333 13.333 31 24.333 59 33c24 10 54 15 90 15v48h-421v-48c58.667 -11.333 99 -26.666 121 -45.999l50 -105c36 -70.667 68.333 -124 97 -160c78 -88 202 -132 372 -132c348 0 522 156.333 522 469v22h268v48h-268v1093c0 79.333 8 129.666 24 150.999
c14.667 14.667 58 28.334 130 41.001v50h-651zM353.999 288.999c0 -62.667 11.002 -108.665 33.002 -137.998c22.667 -24.667 73.667 -41.334 153 -50.001v-53h-421v53c59.333 7.33301 99.666 21.333 120.999 42c18.667 15.333 28 55.333 28 120v880
c0 78 -9.33301 126.333 -28 145l-45 25l-33 9l-43 11v50h421v-50c-58.667 0 -108.334 -16.667 -149.001 -50c-24.667 -24.667 -37 -71.334 -37 -140.001v-854zM344.001 1609l-3 -3.00293l-2 -7c-2 -3.33301 -3 -7 -3 -11c0 -8 3 -15 9 -21c2.66699 -2 10.667 -4.66699 24 -8
c23.333 0 35 11.333 35 34c0 20.667 -15.667 39.334 -47 56.001l-16 5l-16 2l-18 2c-25.333 0 -48.833 -5.83301 -70.5 -17.5s-32.5 -32.834 -32.5 -63.501v-66h-72v-12h72v-15c0 -5.33301 -0.666992 -8.66602 -2 -9.99902l-7 -3l-4 1l-8 6l-9 -11
c16 -19.333 35.667 -29 59 -29c14 0 25.333 4.66699 34 14l8 22v25h54c14 0 24 -1.66699 30 -5c1.33301 -2 2.33301 -3.66699 3 -5c3.33301 -5.33301 6 -10.666 8 -15.999h10v60h-10l-10 -17l-25 -5h-60v84c0 10.667 3 20.834 9 30.501s17.667 14.5 35 14.5h5l10 -1l8 -4
c4 -2 7 -6.33301 9 -13l-1 -6z" />
    <glyph glyph-name="uniFEF9" unicode="&#xfedf;&#xfe88;" horiz-adv-x="1554" arabic-form="isolated" 
d="M784 1383l-0.000976562 -50.001c72 0 122.333 -11.667 151 -35c26 -18.667 39 -71 39 -157v-1163c0 -166 -43 -278.333 -129 -337c-43.333 -23.333 -93 -35 -149 -35c-145.333 0 -245.666 54.667 -300.999 164l-15 39l-6 41c0 17.333 5.66699 35.333 17 54
c11.333 13.333 31.333 24.333 60 33c23.333 10 53 15 89 15v48h-421v-48c58.667 -11.333 99 -26.666 121 -45.999l50 -105c36 -70.667 68.333 -124 97 -160c78.667 -88 203 -132 373 -132c347.333 0 521 156.333 521 469v1163c0 79.333 8 129.666 24 150.999
c14.667 14.667 58 28.334 130 41.001v50h-651zM353.999 298.999c0 -62.667 11.001 -108.665 33.001 -137.998c22.667 -24.667 73.667 -41.334 153 -50.001v-53h-421v53c60 7.33301 100.333 21.333 121 42c18.667 15.333 28 55.333 28 120v880c0 78 -9.33301 126.333 -28 145
l-45 25l-33 9l-43 11v50h421v-50c-58.667 0 -108.334 -16.667 -149.001 -50c-24.667 -24.667 -37 -71.334 -37 -140.001v-854zM283 -475.999l-3 -3.00293l-2 -7c-2 -3.33301 -3 -7 -3 -11c0 -8 3 -15 9 -21c2.66699 -2 10.667 -4.66699 24 -8c23.333 0 35 11.333 35 34
c0 20.667 -15.667 39.334 -47 56.001l-16 5l-16 2l-18 2c-25.333 0 -48.833 -5.83301 -70.5 -17.5s-32.5 -32.834 -32.5 -63.501v-66h-72v-12h72v-15c0 -5.33301 -0.666992 -8.66602 -2 -9.99902l-7 -3l-4 1l-8 6l-9 -11c16 -19.333 35.667 -29 59 -29
c14 0 25.333 4.66699 34 14l8 22v25h54c14 0 24 -1.66699 30 -5c1.33301 -2 2.33301 -3.66699 3 -5c3.33301 -5.33301 6 -10.666 8 -15.999h10v60h-10l-10 -17l-25 -5h-60v84c0 10.667 3 20.834 9 30.501s17.667 14.5 35 14.5h5l10 -1l8 -4c4 -2 7 -6.33301 9 -13l-1 -6z
" />
    <glyph glyph-name="uniFEFA" unicode="&#xfee0;&#xfe88;" horiz-adv-x="1513" arabic-form="final" 
d="M784 1383l-0.000976562 -50.001c72 0 122.333 -11.667 151 -35c26 -18.667 39 -71 39 -157v-1163c0 -166 -43 -278.333 -129 -337c-43.333 -23.333 -93 -35 -149 -35c-145.333 0 -245.666 54.667 -300.999 164l-15 39l-6 41c0 17.333 5.66699 35.333 17 54
c11.333 13.333 31.333 24.333 60 33c23.333 10 53 15 89 15v48h-421v-48c58.667 -11.333 99 -26.666 121 -45.999l50 -105c36 -70.667 68.333 -124 97 -160c78.667 -88 203 -132 373 -132c347.333 0 521 156.333 521 469v22h268v48h-268v1093c0 79.333 8 129.666 24 150.999
c14.667 14.667 58 28.334 130 41.001v50h-651zM353.999 288.999c0 -62.667 11.001 -108.665 33.001 -137.998c22.667 -24.667 73.667 -41.334 153 -50.001v-53h-421v53c60 7.33301 100.333 21.333 121 42c18.667 15.333 28 55.333 28 120v880c0 78 -9.33301 126.333 -28 145
l-45 25l-33 9l-43 11v50h421v-50c-58.667 0 -108.334 -16.667 -149.001 -50c-24.667 -24.667 -37 -71.334 -37 -140.001v-854zM283 -475.999l-3 -3.00293l-2 -7c-2 -3.33301 -3 -7 -3 -11c0 -8 3 -15 9 -21c2.66699 -2 10.667 -4.66699 24 -8c23.333 0 35 11.333 35 34
c0 20.667 -15.667 39.334 -47 56.001l-16 5l-16 2l-18 2c-25.333 0 -48.833 -5.83301 -70.5 -17.5s-32.5 -32.834 -32.5 -63.501v-66h-72v-12h72v-15c0 -5.33301 -0.666992 -8.66602 -2 -9.99902l-7 -3l-4 1l-8 6l-9 -11c16 -19.333 35.667 -29 59 -29
c14 0 25.333 4.66699 34 14l8 22v25h54c14 0 24 -1.66699 30 -5c1.33301 -2 2.33301 -3.66699 3 -5c3.33301 -5.33301 6 -10.666 8 -15.999h10v60h-10l-10 -17l-25 -5h-60v84c0 10.667 3 20.834 9 30.501s17.667 14.5 35 14.5h5l10 -1l8 -4c4 -2 7 -6.33301 9 -13l-1 -6z
" />
    <glyph glyph-name="uniFEFB" unicode="&#xfedf;&#xfe8e;" horiz-adv-x="1554" arabic-form="isolated" 
d="M784 1383l-0.000976562 -50.001c72 0 122 -11.667 150 -35c26.667 -18.667 40 -71 40 -157v-1163c0 -166 -43 -278.333 -129 -337c-43.333 -23.333 -93 -35 -149 -35c-145.333 0 -245.666 54.667 -300.999 164l-15 39l-6 41c0 17.333 5.66699 35.333 17 54
c11.333 13.333 31 24.333 59 33c24 10 54 15 90 15v48h-421v-48c58.667 -11.333 99 -26.666 121 -45.999l50 -105c36 -70.667 68.333 -124 97 -160c78 -88 202 -132 372 -132c348 0 522 156.333 522 469v1163c0 79.333 8 129.666 24 150.999
c14.667 14.667 58 28.334 130 41.001v50h-651zM353.999 288.999c0 -62.667 11.002 -108.665 33.002 -137.998c22.667 -24.667 73.667 -41.334 153 -50.001v-53h-421v53c59.333 7.33301 99.666 21.333 120.999 42c18.667 15.333 28 55.333 28 120v880
c0 78 -9.33301 126.333 -28 145l-45 25l-33 9l-43 11v50h421v-50c-58.667 0 -108.334 -16.667 -149.001 -50c-24.667 -24.667 -37 -71.334 -37 -140.001v-854z" />
    <glyph glyph-name="uniFEFC" unicode="&#xfee0;&#xfe8e;" horiz-adv-x="1513" arabic-form="final" 
d="M784 1383l-0.000976562 -50.001c72 0 122 -11.667 150 -35c26.667 -18.667 40 -71 40 -157v-1163c0 -166 -43 -278.333 -129 -337c-43.333 -23.333 -93 -35 -149 -35c-145.333 0 -245.666 54.667 -300.999 164l-15 39l-6 41c0 17.333 5.66699 35.333 17 54
c11.333 13.333 31 24.333 59 33c24 10 54 15 90 15v48h-421v-48c58.667 -11.333 99 -26.666 121 -45.999l50 -105c36 -70.667 68.333 -124 97 -160c78 -88 202 -132 372 -132c348 0 522 156.333 522 469v22h268v48h-268v1093c0 79.333 8 129.666 24 150.999
c14.667 14.667 58 28.334 130 41.001v50h-651zM353.999 288.999c0 -62.667 11.002 -108.665 33.002 -137.998c22.667 -24.667 73.667 -41.334 153 -50.001v-53h-421v53c59.333 7.33301 99.666 21.333 120.999 42c18.667 15.333 28 55.333 28 120v880
c0 78 -9.33301 126.333 -28 145l-45 25l-33 9l-43 11v50h421v-50c-58.667 0 -108.334 -16.667 -149.001 -50c-24.667 -24.667 -37 -71.334 -37 -140.001v-854z" />
    <glyph glyph-name="afii57410" unicode="&#x622;" horiz-adv-x="873" arabic-form="isolated" 
d="M104 48c56 0 98.334 8.33301 127.001 25c34.667 19.333 52 56.333 52 111v1011c0 47.333 -19.333 86 -58 116l-47 15l-33 5l-41 2v50h674v-50l-74 -6l-28 -5c-12.667 -2.66699 -20.334 -5.66699 -23.001 -9c-37.333 -18.667 -56 -58 -56 -118v-1011
c0 -90.667 60.333 -136 181 -136v-48h-674v48zM488.001 1488l-44.998 1l-49 12l-48 11l-35 4c-48.667 0 -82.334 -25 -101.001 -75l-22 7c17.333 72 54 128 110 168c7.33301 4 20.833 9 40.5 15s40.167 9 61.5 9h15l19 -2c12 0 23.667 -2.33301 35 -7l87 -21l21 -1
c22 0 42.333 11 61 33l13 13l2 15l15 30l24 -8c-10.667 -48 -26 -87.667 -46 -119c-38.667 -56.667 -91.334 -85 -158.001 -85z" />
    <glyph glyph-name="afii57411" unicode="&#x623;" horiz-adv-x="873" arabic-form="isolated" 
d="M104 48c56 0 98.334 8.33301 127.001 25c34.667 19.333 52 56.333 52 111v1011c0 47.333 -19.333 86 -58 116l-47 15l-33 5l-41 2v50h674v-50l-74 -6l-28 -5c-12.667 -2.66699 -20.334 -5.66699 -23.001 -9c-37.333 -18.667 -56 -58 -56 -118v-1011
c0 -90.667 60.333 -136 181 -136v-48h-674v48zM586.001 1754l-7.00098 -11l-2 -8l-4 -11l-2 -9c0 -11.333 5.66699 -24.333 17 -39c12.667 -12.667 27.667 -19 45 -19c10 0 25.333 5.66699 46 17c7.33301 8.66699 13.666 24.667 18.999 48c0 30 -16.667 58 -50 84
c-40 23.333 -83.667 35 -131 35c-34.667 0 -58.667 -2.33301 -72 -7c-79.333 -10 -119 -57.333 -119 -142v-121h-134v-22h134v-30l-6 -18l-11 -6l-10 2l-14 13l-15 -21c17.333 -20.667 36.833 -35 58.5 -43s38.834 -12 51.501 -12c26 0 47 8.66699 63 26l13 41v48h102
c18.667 0 37.334 -3.66699 56.001 -11l8 -15l13 -24h18v113h-18l-10 -20l-9 -15l-47 -6h-113v155l5 33l6 19l8 11l27 15l38 6c38 0 57 -10.667 57 -32v-11z" />
    <glyph glyph-name="afii57412" unicode="&#x624;" horiz-adv-x="1124" arabic-form="isolated" 
d="M454 847c-158.667 0 -237.999 -95.667 -237.999 -287v-404c0 -42 -7 -68 -21 -78c-6 -11.333 -31.333 -22.333 -76 -33v-45h523v-206c0 -105.333 -34 -158 -102 -158c-51.333 0 -103 36 -155 108l-9 -77c73.333 -106.667 164.666 -160 273.999 -160
c174.667 0 262 95.667 262 287v897c0 42 7 70 21 84l29 13l43 13v46h-551zM642.001 45h-71.001c-30.667 7.33301 -53 17 -67 29c-13.333 8 -20 35.333 -20 82v404c0 40 3.66699 73 11 99c14.667 40 44.334 60 89.001 60l23 -2l28 -8l5 -41l2 -46v-577zM700 1101l-3 -3.00293
l-2 -7c-2 -3.33301 -3 -7 -3 -11c0 -8 3 -15 9 -21c2.66699 -2 10.667 -4.66699 24 -8c23.333 0 35 11.333 35 34c0 20.667 -15.667 39.334 -47 56.001l-16 5l-16 2l-18 2c-25.333 0 -48.833 -5.83301 -70.5 -17.5s-32.5 -32.834 -32.5 -63.501v-66h-72v-12h72v-15
c0 -5.33301 -0.666992 -8.66602 -2 -9.99902l-7 -3l-4 1l-8 6l-9 -11c16 -19.333 35.667 -29 59 -29c14 0 25.333 4.66699 34 14l8 22v25h54c14 0 24 -1.66699 30 -5c1.33301 -2 2.33301 -3.66699 3 -5c3.33301 -5.33301 6 -10.666 8 -15.999h10v60h-10l-10 -17l-25 -5h-60
v84c0 10.667 3 20.834 9 30.501s17.667 14.5 35 14.5h5l10 -1l8 -4c4 -2 7 -6.33301 9 -13l-1 -6z" />
    <glyph glyph-name="afii57413" unicode="&#x625;" horiz-adv-x="873" arabic-form="isolated" 
d="M104 48c56 0 98.334 8.33301 127.001 25c34.667 19.333 52 56.333 52 111v1011c0 47.333 -19.333 86 -58 116l-47 15l-33 5l-41 2v50h674v-50l-74 -6l-28 -5c-12.667 -2.66699 -20.334 -5.66699 -23.001 -9c-37.333 -18.667 -56 -58 -56 -118v-1011
c0 -90.667 60.333 -136 181 -136v-48h-674v48zM365.001 -89l-3 -3.00293l-2 -7c-2 -3.33301 -3 -7 -3 -11c0 -8 3 -15 9 -21c2.66699 -2 10.667 -4.66699 24 -8c23.333 0 35 11.333 35 34c0 20.667 -15.667 39.334 -47 56.001l-16 5l-16 2l-18 2
c-25.333 0 -48.833 -5.83301 -70.5 -17.5s-32.5 -32.834 -32.5 -63.501v-66h-72v-12h72v-15c0 -5.33301 -0.666992 -8.66602 -2 -9.99902l-7 -3l-4 1l-8 6l-9 -11c16 -19.333 35.667 -29 59 -29c14 0 25.333 4.66699 34 14l8 22v25h54c14 0 24 -1.66699 30 -5
c1.33301 -2 2.33301 -3.66699 3 -5c3.33301 -5.33301 6 -10.666 8 -15.999h10v60h-10l-10 -17l-25 -5h-60v84c0 10.667 3 20.834 9 30.501s17.667 14.5 35 14.5h5l10 -1l8 -4c4 -2 7 -6.33301 9 -13l-1 -6z" />
    <glyph glyph-name="afii57414" unicode="&#x626;" horiz-adv-x="1887" arabic-form="isolated" 
d="M923 -491c402.667 0 669.671 125.333 801.004 376c32 60.667 48 119 48 175c0 39.333 -5.33301 80.666 -16 123.999c-40 134 -135.667 201 -287 201h-255c-114.667 0 -172 33.667 -172 101c0 70.667 19.333 126.834 58 168.501s95.667 73.5 171 95.5l60 10l58 3
c62 0 109.667 -22.333 143 -67s60 -108 80 -190h28v313h-32c-3.33301 -33.333 -15 -50 -35 -50l-69 24c-42 17.333 -86.667 26 -134 26c-126.667 0 -226 -21 -298 -63c-120 -76 -180 -181 -180 -315c0 -48 11 -99.333 33 -154c41.333 -88 135 -132 281 -132h354
c37.333 0 72.666 -15 105.999 -45c24.667 -27.333 37 -51 37 -71c0 -100 -52.333 -174.167 -157 -222.5s-310.334 -72.5 -617.001 -72.5l-261 5l-89 6c-24 0 -52.667 5 -86 15c-204.667 36.667 -307 114.667 -307 234c0 79.333 51.667 152 155 218l54 26l81 29l84 23l60 5
l71 2v49l-572 3v-52h67c16 -6 24 -22 24 -48c0 -8.66699 -15.167 -43.5 -45.5 -104.5s-45.5 -116.833 -45.5 -167.5c0 -130 61.333 -241.667 184 -335c63.333 -48 162.666 -85 297.999 -111c115.333 -21.333 222.666 -32 321.999 -32zM655.004 892l-7 -5.99902l-8 -19
c-3.33301 -6 -5 -12.667 -5 -20c0 -12.667 1 -21.334 3 -26.001l13 -17c11.333 -7.33301 26.333 -11 45 -11l8 -4c38 0 57 22.333 57 67c0 41.333 -21 72 -63 92l-54 22l-30 4l-33 3c-47.333 0 -93.333 -11 -138 -33c-34.667 -21.333 -52 -60.333 -52 -117v-123h-136v-23
h136v-28l-8 -18l-11 -6l-9 2l-15 11l-15 -20c30 -36 66 -54 108 -54c26 0 47 8.66699 63 26l8 13l9 28v46h101c19.333 0 37.333 -3 54 -9c10 -7.33301 17.333 -20.333 22 -39h19v112h-19c-2.66699 -8.66699 -9 -20 -19 -34l-48 -7h-110v156l2 37
c2.66699 8.66699 9 18.667 19 30s30.333 17 61 17h8c12 0 23 -3 33 -9c11.333 -4 17 -12.333 17 -25v-9z" />
    <glyph glyph-name="afii57415" unicode="&#x627;" horiz-adv-x="873" arabic-form="isolated" 
d="M104 48c56 0 98.334 8.33301 127.001 25c34.667 19.333 52 56.333 52 111v1011c0 47.333 -19.333 86 -58 116l-47 15l-33 5l-41 2v50h674v-50l-74 -6l-28 -5c-12.667 -2.66699 -20.334 -5.66699 -23.001 -9c-37.333 -18.667 -56 -58 -56 -118v-1011
c0 -90.667 60.333 -136 181 -136v-48h-674v48z" />
    <glyph glyph-name="afii57416" unicode="&#x628;" horiz-adv-x="2170" arabic-form="isolated" 
d="M119 0l-0.000976562 45c38.667 6 63 16.333 73 31c13.333 11.333 20 38 20 80v404c0 194 87 291 261 291c58 0 111.333 -16.333 160 -49c38.667 -24.667 77 -61.667 115 -111l-9 -78c-49.333 72 -102 108 -158 108c-37.333 0 -66.666 -20 -87.999 -60
c-7.33301 -30 -11 -63.667 -11 -101l2 -432l2 -26c0 -7.33301 4.33301 -16 13 -26c20.667 -18.667 44.667 -28 72 -28h989c50 0 84 15 102 45c8 14.667 12 35.667 12 63v691h381v-46h-29l-34 -6c-11.333 -4 -21.333 -10.667 -30 -20c-17.333 -20 -26 -48 -26 -84v-756
c-68 43.333 -193.333 65 -376 65h-1441zM898.999 -242c0 32.667 13.001 65 39.001 97c27.333 27.333 60.333 41 99 41c37.333 0 69 -13 95 -39s39 -59 39 -99c0 -36 -12.5 -67.333 -37.5 -94s-57.167 -40 -96.5 -40c-34.667 0 -66.334 12.833 -95.001 38.5
s-43 57.5 -43 95.5z" />
    <glyph glyph-name="afii57417" unicode="&#x629;" horiz-adv-x="1124" arabic-form="isolated" 
d="M1005 801c-36 -8 -60.5 -18.167 -73.5 -30.5s-19.5 -38.833 -19.5 -79.5l-4 -419c0 -30 -5.16699 -63.833 -15.5 -101.5s-26.833 -67.167 -49.5 -88.5c-44.667 -54.667 -113 -82 -205 -82h-519v48c64.667 0 97 36 97 108v404c0 99.333 22.333 172 67 218
s101.667 69 171 69h551v-46zM638 145v574.001h-67c-36 -6.66699 -58.333 -15.334 -67 -26.001c-13.333 -10 -20 -37.333 -20 -82v-406c0 -32.667 1.33301 -52 4 -58c0 -66 25.333 -99 76 -99c21.333 0 39.333 11.333 54 34c11.333 20 18 41 20 63zM502 1205l-3 -3.00293
l-2 -7c-2 -3.33301 -3 -7 -3 -11c0 -8 3 -15 9 -21c2.66699 -2 10.667 -4.66699 24 -8c23.333 0 35 11.333 35 34c0 20.667 -15.667 39.334 -47 56.001l-16 5l-16 2l-18 2c-25.333 0 -48.833 -5.83301 -70.5 -17.5s-32.5 -32.834 -32.5 -63.501v-66h-72v-12h72v-15
c0 -5.33301 -0.666992 -8.66602 -2 -9.99902l-7 -3l-4 1l-8 6l-9 -11c16 -19.333 35.667 -29 59 -29c14 0 25.333 4.66699 34 14l8 22v25h54c14 0 24 -1.66699 30 -5c1.33301 -2 2.33301 -3.66699 3 -5c3.33301 -5.33301 6 -10.666 8 -15.999h10v60h-10l-10 -17l-25 -5h-60
v84c0 10.667 3 20.834 9 30.501s17.667 14.5 35 14.5h5l10 -1l8 -4c4 -2 7 -6.33301 9 -13l-1 -6z" />
    <glyph glyph-name="afii57418" unicode="&#x62a;" horiz-adv-x="2170" arabic-form="isolated" 
d="M119 0l-0.000976562 45c38.667 6 63 16.333 73 31c13.333 11.333 20 38 20 80v404c0 194 87 291 261 291c58 0 111.333 -16.333 160 -49c38.667 -24.667 77 -61.667 115 -111l-9 -78c-49.333 72 -102 108 -158 108c-37.333 0 -66.666 -20 -87.999 -60
c-7.33301 -30 -11 -63.667 -11 -101l2 -432l2 -26c0 -7.33301 4.33301 -16 13 -26c20.667 -18.667 44.667 -28 72 -28h989c50 0 84 15 102 45c8 14.667 12 35.667 12 63v691h381v-46h-29l-34 -6c-11.333 -4 -21.333 -10.667 -30 -20c-17.333 -20 -26 -48 -26 -84v-756
c-68 43.333 -193.333 65 -376 65h-1441zM1216 715c0 59.333 27.334 101 82.001 125l55 13c37.333 0 69.666 -13.667 96.999 -41c11.333 -11.333 21 -25.333 29 -42s12 -35 12 -55c0 -36 -13.667 -68.333 -41 -97c-11.333 -11.333 -25 -21 -41 -29s-34.667 -12 -56 -12
c-32 0 -64 13 -96 39c-27.333 27.333 -41 60.333 -41 99zM936 715c0 37.333 13.667 69.667 41 97s59 41 95 41c37.333 0 69 -13.667 95 -41c11.333 -11.333 21 -25 29 -41s12 -34.667 12 -56c0 -34.667 -12.667 -66.334 -38 -95.001s-58 -43 -98 -43
c-34.667 0 -66 13.333 -94 40s-42 59.334 -42 98.001z" />
    <glyph glyph-name="afii57419" unicode="&#x62b;" horiz-adv-x="2170" arabic-form="isolated" 
d="M119 0l-0.000976562 45c38.667 6 63 16.333 73 31c13.333 11.333 20 38 20 80v404c0 194 87 291 261 291c58 0 111.333 -16.333 160 -49c38.667 -24.667 77 -61.667 115 -111l-9 -78c-49.333 72 -102 108 -158 108c-37.333 0 -66.666 -20 -87.999 -60
c-7.33301 -30 -11 -63.667 -11 -101l2 -432l2 -26c0 -7.33301 4.33301 -16 13 -26c20.667 -18.667 44.667 -28 72 -28h989c50 0 84 15 102 45c8 14.667 12 35.667 12 63v691h381v-46h-29l-34 -6c-11.333 -4 -21.333 -10.667 -30 -20c-17.333 -20 -26 -48 -26 -84v-756
c-68 43.333 -193.333 65 -376 65h-1441zM1216 715c0 59.333 27.334 101 82.001 125l55 13c37.333 0 69.666 -13.667 96.999 -41c11.333 -11.333 21 -25.333 29 -42s12 -35 12 -55c0 -36 -13.667 -68.333 -41 -97c-11.333 -11.333 -25 -21 -41 -29s-34.667 -12 -56 -12
c-32 0 -64 13 -96 39c-27.333 27.333 -41 60.333 -41 99zM1216 715c0 59.333 27.334 101 82.001 125l55 13c37.333 0 69.666 -13.667 96.999 -41c11.333 -11.333 21 -25.333 29 -42s12 -35 12 -55c0 -36 -13.667 -68.333 -41 -97c-11.333 -11.333 -25 -21 -41 -29
s-34.667 -12 -56 -12c-32 0 -64 13 -96 39c-27.333 27.333 -41 60.333 -41 99zM936.001 715c0 37.333 13.667 69.667 41 97s59 41 95 41c37.333 0 69 -13.667 95 -41c11.333 -11.333 21 -25 29 -41s12 -34.667 12 -56c0 -34.667 -12.667 -66.334 -38 -95.001
s-58 -43 -98 -43c-34.667 0 -66 13.333 -94 40s-42 59.334 -42 98.001zM1082 961.001c0 37.333 14.5 69.333 43.5 96s60.833 40 95.5 40c63.333 0 105 -29.333 125 -88l9 -48c0 -41.333 -12.667 -75 -38 -101s-57.333 -39 -96 -39c-32 0 -64.333 13 -97 39
c-28 26 -42 59.667 -42 101zM1216 715.001c0 59.333 27.334 101 82.001 125l55 13c37.333 0 69.666 -13.667 96.999 -41c11.333 -11.333 21 -25.333 29 -42s12 -35 12 -55c0 -36 -13.667 -68.333 -41 -97c-11.333 -11.333 -25 -21 -41 -29s-34.667 -12 -56 -12
c-32 0 -64 13 -96 39c-27.333 27.333 -41 60.333 -41 99z" />
    <glyph glyph-name="afii57420" unicode="&#x62c;" horiz-adv-x="1301" arabic-form="isolated" 
d="M383 -167c0 23.333 11.334 48.001 34.001 74.001l35 25l41 9c27.333 0 52.166 -10.833 74.499 -32.5s33.5 -46.834 33.5 -75.501c0 -30 -10.333 -55.333 -31 -76c-20 -24 -45.667 -36 -77 -36c-29.333 0 -55 11.833 -77 35.5s-33 49.167 -33 76.5zM719.001 48.001
l-194.002 -0.00195312c-270.667 0 -406 -88.333 -406 -265c0 -184 124 -276 372 -276h512c53.333 0 90 -5 110 -15c6.66699 -4.66699 17.334 -28.334 32.001 -71.001h39v350h-39c0 -23.333 -2.66699 -40.666 -8 -51.999c-0.666992 -7.33301 -6 -16 -16 -26l-41 -15l-77 -7
h-512c-199.333 0 -299 49 -299 147c0 74.667 44 127.334 132 158.001l84 19c26 3.33301 65 5 117 5h194v-94c10.667 -58.667 35.334 -99 74.001 -121c22 -9.33301 43 -14 63 -14c68.667 0 132 36.667 190 110l-24 41c-11.333 -14.667 -19.333 -22.667 -24 -24l-19 -2l-9 4
l-11 9c-4 4 -7.66699 16 -11 36v55h46c47.333 0 81.833 -5.5 103.5 -16.5s37.5 -38.833 47.5 -83.5h39v230h-39c-7.33301 -34.667 -21.333 -57 -42 -67s-49.667 -15 -87 -15h-68v501c0 108 -31.667 186.333 -95 235c-54.667 39.333 -139.334 59 -254.001 59
c-37.333 0 -87.333 -13 -150 -39l-23 -5l-17 -6c-7.33301 0 -15.333 4.33301 -24 13l-11 36h-33v-311h31c14 72 39 133.333 75 184s80 76 132 76c40.667 0 77.334 -16 110.001 -48c20 -33.333 30 -75.666 30 -126.999v-568z" />
    <glyph glyph-name="afii57421" unicode="&#x62d;" horiz-adv-x="1301" arabic-form="isolated" 
d="M719 48l-194.002 -0.00195312c-270.667 0 -406 -88.333 -406 -265c0 -184 124 -276 372 -276h512c53.333 0 90 -5 110 -15c6.66699 -4.66699 17.334 -28.334 32.001 -71.001h39v350h-39c0 -23.333 -2.66699 -40.666 -8 -51.999c-0.666992 -7.33301 -6 -16 -16 -26
l-41 -15l-77 -7h-512c-199.333 0 -299 49 -299 147c0 74.667 44 127.334 132 158.001l84 19c26 3.33301 65 5 117 5h194v-94c10.667 -58.667 35.334 -99 74.001 -121c22 -9.33301 43 -14 63 -14c68.667 0 132 36.667 190 110l-24 41
c-11.333 -14.667 -19.333 -22.667 -24 -24l-19 -2l-9 4l-11 9c-4 4 -7.66699 16 -11 36v55h46c47.333 0 81.833 -5.5 103.5 -16.5s37.5 -38.833 47.5 -83.5h39v230h-39c-7.33301 -34.667 -21.333 -57 -42 -67s-49.667 -15 -87 -15h-68v501c0 108 -31.667 186.333 -95 235
c-54.667 39.333 -139.334 59 -254.001 59c-37.333 0 -87.333 -13 -150 -39l-23 -5l-17 -6c-7.33301 0 -15.333 4.33301 -24 13l-11 36h-33v-311h31c14 72 39 133.333 75 184s80 76 132 76c40.667 0 77.334 -16 110.001 -48c20 -33.333 30 -75.666 30 -126.999v-568z" />
    <glyph glyph-name="afii57422" unicode="&#x62e;" horiz-adv-x="1301" arabic-form="isolated" 
d="M532 1125c0 29.333 13.168 59.5 39.501 90.5s59.166 46.5 98.499 46.5c33.333 0 64 -13.333 92 -40s42 -59 42 -97c0 -36 -13.667 -68 -41 -96s-58.333 -42 -93 -42c-32 0 -64.333 13 -97 39c-27.333 27.333 -41 60.333 -41 99zM719.001 48l-194.002 -0.00195312
c-270.667 0 -406 -88.333 -406 -265c0 -184 124 -276 372 -276h512c53.333 0 90 -5 110 -15c6.66699 -4.66699 17.334 -28.334 32.001 -71.001h39v350h-39c0 -23.333 -2.66699 -40.666 -8 -51.999c-0.666992 -7.33301 -6 -16 -16 -26l-41 -15l-77 -7h-512
c-199.333 0 -299 49 -299 147c0 74.667 44 127.334 132 158.001l84 19c26 3.33301 65 5 117 5h194v-94c10.667 -58.667 35.334 -99 74.001 -121c22 -9.33301 43 -14 63 -14c68.667 0 132 36.667 190 110l-24 41c-11.333 -14.667 -19.333 -22.667 -24 -24l-19 -2l-9 4l-11 9
c-4 4 -7.66699 16 -11 36v55h46c47.333 0 81.833 -5.5 103.5 -16.5s37.5 -38.833 47.5 -83.5h39v230h-39c-7.33301 -34.667 -21.333 -57 -42 -67s-49.667 -15 -87 -15h-68v501c0 108 -31.667 186.333 -95 235c-54.667 39.333 -139.334 59 -254.001 59
c-37.333 0 -87.333 -13 -150 -39l-23 -5l-17 -6c-7.33301 0 -15.333 4.33301 -24 13l-11 36h-33v-311h31c14 72 39 133.333 75 184s80 76 132 76c40.667 0 77.334 -16 110.001 -48c20 -33.333 30 -75.666 30 -126.999v-568z" />
    <glyph glyph-name="afii57423" unicode="&#x62f;" horiz-adv-x="934" arabic-form="isolated" 
d="M119 48l0.00195312 -47.999h698v45c-30.667 3.33301 -55.334 12.666 -74.001 27.999c-15.333 7.33301 -23 35 -23 83v404c0 194 -86 291 -258 291c-107.333 0 -199.333 -54 -276 -162l9 -78c15.333 22 37.166 45.5 65.499 70.5s58.833 37.5 91.5 37.5
c39.333 0 69 -20 89 -60c7.33301 -14.667 11 -47.667 11 -99v-404c0 -40.667 -6 -68 -18 -82c-20 -17.333 -43 -26 -69 -26h-246z" />
    <glyph glyph-name="afii57424" unicode="&#x630;" horiz-adv-x="934" arabic-form="isolated" 
d="M119 48l0.00195312 -47.999h698v45c-30.667 3.33301 -55.334 12.666 -74.001 27.999c-15.333 7.33301 -23 35 -23 83v404c0 194 -86 291 -258 291c-107.333 0 -199.333 -54 -276 -162l9 -78c15.333 22 37.166 45.5 65.499 70.5s58.833 37.5 91.5 37.5
c39.333 0 69 -20 89 -60c7.33301 -14.667 11 -47.667 11 -99v-404c0 -40.667 -6 -68 -18 -82c-20 -17.333 -43 -26 -69 -26h-246zM352.002 1125c0 32 13 64 39 96c11.333 11.333 25.333 21 42 29s35 12 55 12c36 0 67.833 -13.333 95.5 -40s41.5 -59 41.5 -97
c0 -37.333 -13.667 -69.666 -41 -96.999c-18 -22.667 -50 -36.334 -96 -41.001c-34 0 -65.667 13 -95 39c-27.333 27.333 -41 60.333 -41 99z" />
    <glyph glyph-name="afii57425" unicode="&#x631;" horiz-adv-x="709" arabic-form="isolated" 
d="M473 694c0 37.333 7.66797 65.334 23.001 84.001l74 24v49h-450v-49c28 -3.33301 49.5 -11.833 64.5 -25.5s22.5 -41.167 22.5 -82.5v-896c0 -47.333 -5 -81 -15 -101c-14.667 -38.667 -43.667 -58 -87 -58c-30 0 -61 13 -93 39l-35 36l-11 13l-17 22l-10 -78
c21.333 -34.667 60.333 -73 117 -115c26 -15.333 50 -26.666 72 -33.999s50.333 -11 85 -11c58 0 95 5 111 15c25.333 7.33301 52.666 22.666 81.999 45.999c44.667 41.333 67 116.666 67 225.999v896z" />
    <glyph glyph-name="afii57426" unicode="&#x632;" horiz-adv-x="709" arabic-form="isolated" 
d="M473 694c0 37.333 7.66797 65.334 23.001 84.001l74 24v49h-450v-49c28 -3.33301 49.5 -11.833 64.5 -25.5s22.5 -41.167 22.5 -82.5v-896c0 -47.333 -5 -81 -15 -101c-14.667 -38.667 -43.667 -58 -87 -58c-30 0 -61 13 -93 39l-35 36l-11 13l-17 22l-10 -78
c21.333 -34.667 60.333 -73 117 -115c26 -15.333 50 -26.666 72 -33.999s50.333 -11 85 -11c58 0 95 5 111 15c25.333 7.33301 52.666 22.666 81.999 45.999c44.667 41.333 67 116.666 67 225.999v896zM211.001 1125c0 36 12.333 67.999 37 95.999
c31.333 27.333 64.333 41 99 41c36 0 68.333 -14.333 97 -43c28 -26 42 -57.333 42 -94c0 -37.333 -13.667 -69.666 -41 -96.999s-60 -41 -98 -41c-34 0 -67 13 -99 39c-24.667 27.333 -37 60.333 -37 99z" />
    <glyph glyph-name="afii57427" unicode="&#x633;" horiz-adv-x="2519" arabic-form="isolated" 
d="M1862 48c-28.667 0 -51.666 8.66699 -68.999 26c-14 8 -21 35.333 -21 82v695h-368v-49c32 -7.33301 57.333 -17.666 76 -30.999l15 -30l5 -50v-529c0 -43.333 -9.83301 -73.166 -29.5 -89.499s-41.834 -24.5 -66.501 -24.5h-276v587c0 58 10 97.667 30 119l18 11l25 13
l39 11l41 10v48h-425v-48l49 -2c10.667 0 24.667 -4.33301 42 -13c63.333 -22.667 95 -81 95 -175v-589c0 -112 -13.667 -195.333 -41 -250c-54.667 -109.333 -155 -164 -301 -164c-70.667 0 -137.667 35.333 -201 106c-73.333 86.667 -110 200 -110 340
c0 156.667 21 269 63 337c24 38.667 57 58 99 58c23.333 0 43.666 -10.667 60.999 -32c20 -20 30 -43 30 -69v-16l-4 -10l-5 -26l-11 -20l-15 -52l-4 -15l-4 -15l-2 -30c0 -28.667 6.33301 -63.334 19 -104.001c18.667 -42 44 -63 76 -63c26 0 50.167 17.667 72.5 53
s33.5 80.666 33.5 135.999c0 104.667 -27.167 189.834 -81.5 255.501s-121.5 98.5 -201.5 98.5c-85.333 0 -164.666 -27.333 -237.999 -82c-106.667 -78 -160 -212.667 -160 -404c0 -194.667 59 -339.667 177 -435c90.667 -72 204.667 -108 342 -108c164 0 287 45 369 135
s123 208.667 123 356h840c94 0 200 -19.667 318 -59v750c0 33.333 7.33301 60.666 22 81.999l10 5l28 15l24 6l33 2v46h-381v-709c0 -60 -31.667 -90 -95 -90h-65z" />
    <glyph glyph-name="afii57428" unicode="&#x634;" horiz-adv-x="2519" arabic-form="isolated" 
d="M1862 48c-28.667 0 -51.666 8.66699 -68.999 26c-14 8 -21 35.333 -21 82v695h-368v-49c32 -7.33301 57.333 -17.666 76 -30.999l15 -30l5 -50v-529c0 -43.333 -9.83301 -73.166 -29.5 -89.499s-41.834 -24.5 -66.501 -24.5h-276v587c0 58 10 97.667 30 119l18 11l25 13
l39 11l41 10v48h-425v-48l49 -2c10.667 0 24.667 -4.33301 42 -13c63.333 -22.667 95 -81 95 -175v-589c0 -112 -13.667 -195.333 -41 -250c-54.667 -109.333 -155 -164 -301 -164c-70.667 0 -137.667 35.333 -201 106c-73.333 86.667 -110 200 -110 340
c0 156.667 21 269 63 337c24 38.667 57 58 99 58c23.333 0 43.666 -10.667 60.999 -32c20 -20 30 -43 30 -69v-16l-4 -10l-5 -26l-11 -20l-15 -52l-4 -15l-4 -15l-2 -30c0 -28.667 6.33301 -63.334 19 -104.001c18.667 -42 44 -63 76 -63c26 0 50.167 17.667 72.5 53
s33.5 80.666 33.5 135.999c0 104.667 -27.167 189.834 -81.5 255.501s-121.5 98.5 -201.5 98.5c-85.333 0 -164.666 -27.333 -237.999 -82c-106.667 -78 -160 -212.667 -160 -404c0 -194.667 59 -339.667 177 -435c90.667 -72 204.667 -108 342 -108c164 0 287 45 369 135
s123 208.667 123 356h840c94 0 200 -19.667 318 -59v750c0 33.333 7.33301 60.666 22 81.999l10 5l28 15l24 6l33 2v46h-381v-709c0 -60 -31.667 -90 -95 -90h-65zM1573 1125c0 33.333 13 64.499 39 93.499s57.667 43.5 95 43.5c36 0 68 -13.333 96 -40s42 -59 42 -97
c0 -37.333 -13.667 -69.666 -41 -96.999c-10 -10 -23 -19.333 -39 -28s-35.333 -13 -58 -13c-33.333 0 -65 13 -95 39l-32 46zM1290 1125l5.99902 45.998c3.33301 16 15 32.667 35 50c11.333 11.333 25.333 21 42 29s35 12 55 12c50.667 0 92.667 -27.667 126 -83l10 -54
c0 -36 -14 -68 -42 -96s-59.333 -42 -94 -42c-37.333 0 -69.666 13.667 -96.999 41c-10 10.667 -19.333 23.834 -28 39.501s-13 34.834 -13 57.501zM1437 1370c0 37.333 13.668 69.001 41.001 95.001c23.333 27.333 55.666 41 96.999 41c38.667 0 71 -12.333 97 -37
s39 -57.667 39 -99c0 -32 -13 -64.667 -39 -98c-10 -10 -23.167 -19.333 -39.5 -28s-35.5 -13 -57.5 -13c-34.667 0 -67 13 -97 39c-27.333 27.333 -41 60.666 -41 99.999z" />
    <glyph glyph-name="afii57429" unicode="&#x635;" horiz-adv-x="2526" arabic-form="isolated" 
d="M2411 371c0 -139.333 -64.6621 -245.667 -193.995 -319l-91 -39l-82 -13h-635h-31c-15.333 4 -28.833 7.16699 -40.5 9.5s-34.834 10.833 -69.501 25.5c-52 22.667 -92.333 50 -121 82l-17 21v-138c0 -158.667 -42.167 -280.167 -126.5 -364.5
s-206.166 -126.5 -365.499 -126.5c-138.667 0 -252 36 -340 108c-119.333 96.667 -179 241.667 -179 435c0 186 53.333 321.333 160 406c68.667 54.667 148 82 238 82c89.333 0 161 -38 215 -114c20.667 -30.667 37.334 -67.667 50.001 -111
c4.66699 -18.667 8.83398 -39.5 12.501 -62.5s5.5 -45.833 5.5 -68.5c0 -26 -1.16699 -47.667 -3.5 -65s-7.83301 -35.333 -16.5 -54c-18.667 -46.667 -47.334 -70 -86.001 -70c-8.66699 0 -18.834 3.33301 -30.501 10s-23.167 17.334 -34.5 32.001l-22 54l-8 71l2 30l8 31
c3.33301 26.667 8.66602 43.667 15.999 51l8 20l5 19l2 7l2 8l4 18c0 22.667 -9 45.167 -27 67.5s-40 33.5 -66 33.5c-34.667 0 -67.667 -19.333 -99 -58c-18.667 -22 -33.834 -63.5 -45.501 -124.5s-17.5 -131.833 -17.5 -212.5c0 -108.667 19.667 -198.334 59 -269.001
c63.333 -118 147.333 -177 252 -177c145.333 0 245.666 55.667 300.999 167c10 25.333 19.333 59.666 28 102.999c4 20 7.16699 42.333 9.5 67s3.5 50.334 3.5 77.001v591c0 126.667 -62.667 190 -188 190v46h425v-46c-54.667 -11.333 -94.334 -26.333 -119.001 -45
c-21.333 -18.667 -32 -59 -32 -121v-24l41 46l43 41c120 102 288.667 153 506 153c177.333 0 328.333 -36.667 452.999 -110c64 -36 122.667 -90 176 -162c16.667 -26 33 -60 49 -102l9 -51zM2292 353.999c0 89.333 -56.001 154.331 -168.001 194.998l-89 24l-34 6
c-18.667 0 -42.667 4.33301 -72 13l-127 11l-127 4c-393.333 0 -590 -89.333 -590 -268c0 -93.333 36.667 -166.666 110 -219.999c64.667 -47.333 145.334 -71 242.001 -71h419l62 6c26 4 53 12.667 81 26l40 8l39 18l55 30c106 64.667 159 137.334 159 218.001z" />
    <glyph glyph-name="afii57430" unicode="&#x636;" horiz-adv-x="2526" arabic-form="isolated" 
d="M2411 371c0 -139.333 -64.6621 -245.667 -193.995 -319l-91 -39l-82 -13h-635h-31c-15.333 4 -28.833 7.16699 -40.5 9.5s-34.834 10.833 -69.501 25.5c-52 22.667 -92.333 50 -121 82l-17 21v-138c0 -158.667 -42.167 -280.167 -126.5 -364.5
s-206.166 -126.5 -365.499 -126.5c-138.667 0 -252 36 -340 108c-119.333 96.667 -179 241.667 -179 435c0 186 53.333 321.333 160 406c68.667 54.667 148 82 238 82c89.333 0 161 -38 215 -114c20.667 -30.667 37.334 -67.667 50.001 -111
c4.66699 -18.667 8.83398 -39.5 12.501 -62.5s5.5 -45.833 5.5 -68.5c0 -26 -1.16699 -47.667 -3.5 -65s-7.83301 -35.333 -16.5 -54c-18.667 -46.667 -47.334 -70 -86.001 -70c-8.66699 0 -18.834 3.33301 -30.501 10s-23.167 17.334 -34.5 32.001l-22 54l-8 71l2 30l8 31
c3.33301 26.667 8.66602 43.667 15.999 51l8 20l5 19l2 7l2 8l4 18c0 22.667 -9 45.167 -27 67.5s-40 33.5 -66 33.5c-34.667 0 -67.667 -19.333 -99 -58c-18.667 -22 -33.834 -63.5 -45.501 -124.5s-17.5 -131.833 -17.5 -212.5c0 -108.667 19.667 -198.334 59 -269.001
c63.333 -118 147.333 -177 252 -177c145.333 0 245.666 55.667 300.999 167c10 25.333 19.333 59.666 28 102.999c4 20 7.16699 42.333 9.5 67s3.5 50.334 3.5 77.001v591c0 126.667 -62.667 190 -188 190v46h425v-46c-54.667 -11.333 -94.334 -26.333 -119.001 -45
c-21.333 -18.667 -32 -59 -32 -121v-24l41 46l43 41c120 102 288.667 153 506 153c177.333 0 328.333 -36.667 452.999 -110c64 -36 122.667 -90 176 -162c16.667 -26 33 -60 49 -102l9 -51zM2292 353.999c0 89.333 -56.001 154.331 -168.001 194.998l-89 24l-34 6
c-18.667 0 -42.667 4.33301 -72 13l-127 11l-127 4c-393.333 0 -590 -89.333 -590 -268c0 -93.333 36.667 -166.666 110 -219.999c64.667 -47.333 145.334 -71 242.001 -71h419l62 6c26 4 53 12.667 81 26l40 8l39 18l55 30c106 64.667 159 137.334 159 218.001zM1581 1125
c0 36.667 13.5 68.666 40.5 95.999s59.833 41 98.5 41c33.333 0 64.333 -13.333 93 -40s43 -59 43 -97c0 -37.333 -13.667 -69.666 -41 -96.999s-59 -41 -95 -41c-30.667 0 -63 13 -97 39c-28 26 -42 59 -42 99z" />
    <glyph glyph-name="afii57431" unicode="&#x637;" horiz-adv-x="1835" arabic-form="isolated" 
d="M1286 0l-1167 -0.000976562v48h233v1095c0 67.333 -13 114 -39 140s-75 42.667 -147 50v50h422v-50c-59.333 -11.333 -100.333 -26.333 -123 -45c-10 -10 -17.333 -24 -22 -42l-7 -77v-558l46 48l43 39c28.667 22.667 60.334 43.334 95.001 62.001l54 24l69 30l132 26
l73 9l78 4c176 0 327.333 -36.667 454 -110c158.667 -88 238 -212 238 -372c0 -56 -15.5 -114.833 -46.5 -176.5s-103.5 -113.5 -217.5 -155.5c-70.667 -26 -126.667 -39 -168 -39zM1653 353.999c0 84 -55.334 148.333 -166.001 193l-41 13l-52 13l-104 21l-113 11l-138 4
c-139.333 0 -253.666 -12 -342.999 -36c-164.667 -40.667 -247 -118.667 -247 -234c0 -74.667 27 -141 81 -199c25.333 -28.667 61 -51.667 107 -69c44.667 -15.333 99 -23 163 -23h419c25.333 0 73.333 10.667 144 32c18.667 4 44.667 13.333 78 28
c13.333 4 32 13.333 56 28c104 59.333 156 132 156 218z" />
    <glyph glyph-name="afii57432" unicode="&#x638;" horiz-adv-x="1835" arabic-form="isolated" 
d="M1286 0l-1167 -0.000976562v48h233v1095c0 67.333 -13 114 -39 140s-75 42.667 -147 50v50h422v-50c-59.333 -11.333 -100.333 -26.333 -123 -45c-10 -10 -17.333 -24 -22 -42l-7 -77v-558l46 48l43 39c28.667 22.667 60.334 43.334 95.001 62.001l54 24l69 30l132 26
l73 9l78 4c176 0 327.333 -36.667 454 -110c158.667 -88 238 -212 238 -372c0 -56 -15.5 -114.833 -46.5 -176.5s-103.5 -113.5 -217.5 -155.5c-70.667 -26 -126.667 -39 -168 -39zM1653 353.999c0 84 -55.334 148.333 -166.001 193l-41 13l-52 13l-104 21l-113 11l-138 4
c-139.333 0 -253.666 -12 -342.999 -36c-164.667 -40.667 -247 -118.667 -247 -234c0 -74.667 27 -141 81 -199c25.333 -28.667 61 -51.667 107 -69c44.667 -15.333 99 -23 163 -23h419c25.333 0 73.333 10.667 144 32c18.667 4 44.667 13.333 78 28
c13.333 4 32 13.333 56 28c104 59.333 156 132 156 218zM872.998 1125c0 34.667 12.667 66.166 38 94.499s57.333 42.5 96 42.5c33.333 0 66.333 -13.667 99 -41l26 -42c2.66699 -5.33301 4.83398 -10.833 6.50098 -16.5s4.5 -18.167 8.5 -37.5
c0 -34 -13.667 -66.333 -41 -97c-18.667 -15.333 -34.334 -24.666 -47.001 -27.999l-52 -13c-32 0 -64.333 13 -97 39c-24.667 27.333 -37 60.333 -37 99z" />
    <glyph glyph-name="afii57433" unicode="&#x639;" horiz-adv-x="1390" arabic-form="isolated" 
d="M1061 681l-11.002 -11.002l-21 -37l-7 -20v-21c0 -76 39.667 -114 119 -114h28l9 4l12 6c56.667 13.333 85 53 85 119c0 78 -42 140 -126 186c-72 36 -150.333 54 -235 54c-256 0 -384 -99.333 -384 -298v-501c-274 0 -411 -88.333 -411 -265c0 -184 124 -276 372 -276
h605c50 0 86.667 -5 110 -15c7.33301 -7.33301 17.333 -31 30 -71h39v350h-39c0 -22 -2.33301 -38 -7 -48l-6 -22l-17 -11l-35 -13c-18.667 -4 -43.667 -6 -75 -6h-605c-199.333 0 -299 49 -299 147c0 74.667 44 127.334 132 158.001l84 19c26 3.33301 65 5 117 5l5 -55
c0 -16.667 -2.33301 -28 -7 -34c-1.33301 -3.33301 -10.666 -8.33301 -27.999 -15l-20 2l-26 24l-32 -41c70.667 -73.333 143.334 -110 218.001 -110c46.667 0 88.667 17 126 51l17 39l15 45v94h339l26 -3l30 -11c20.667 -11.333 36.667 -40 48 -86h39v230h-39
c-7.33301 -33.333 -20.666 -55.333 -39.999 -66s-49.333 -16 -90 -16h-313v568v39l7 36c21.333 60.667 74.333 91 159 91h24c12.667 0 20.667 -1.33301 24 -4c16 -2 27.333 -7 34 -15c17.333 -7.33301 29.666 -22.666 36.999 -45.999c0 -8.66699 -5.66699 -20.667 -17 -36z
" />
    <glyph glyph-name="afii57434" unicode="&#x63a;" horiz-adv-x="1390" arabic-form="isolated" 
d="M1061 681l-11.002 -11.002l-21 -37l-7 -20v-21c0 -76 39.667 -114 119 -114h28l9 4l12 6c56.667 13.333 85 53 85 119c0 78 -42 140 -126 186c-72 36 -150.333 54 -235 54c-256 0 -384 -99.333 -384 -298v-501c-274 0 -411 -88.333 -411 -265c0 -184 124 -276 372 -276
h605c50 0 86.667 -5 110 -15c7.33301 -7.33301 17.333 -31 30 -71h39v350h-39c0 -22 -2.33301 -38 -7 -48l-6 -22l-17 -11l-35 -13c-18.667 -4 -43.667 -6 -75 -6h-605c-199.333 0 -299 49 -299 147c0 74.667 44 127.334 132 158.001l84 19c26 3.33301 65 5 117 5l5 -55
c0 -16.667 -2.33301 -28 -7 -34c-1.33301 -3.33301 -10.666 -8.33301 -27.999 -15l-20 2l-26 24l-32 -41c70.667 -73.333 143.334 -110 218.001 -110c46.667 0 88.667 17 126 51l17 39l15 45v94h339l26 -3l30 -11c20.667 -11.333 36.667 -40 48 -86h39v230h-39
c-7.33301 -33.333 -20.666 -55.333 -39.999 -66s-49.333 -16 -90 -16h-313v568v39l7 36c21.333 60.667 74.333 91 159 91h24c12.667 0 20.667 -1.33301 24 -4c16 -2 27.333 -7 34 -15c17.333 -7.33301 29.666 -22.666 36.999 -45.999c0 -8.66699 -5.66699 -20.667 -17 -36z
M714.998 1125c0 32 13 63.998 39 95.998c30.667 27.333 63.667 41 99 41c36.667 0 68.167 -13 94.5 -39s39.5 -58.667 39.5 -98c0 -32.667 -13 -65.667 -39 -99c-26.667 -26 -58.334 -39 -95.001 -39c-37.333 0 -69.666 13.667 -96.999 41
c-10 10.667 -19.333 23.834 -28 39.501s-13 34.834 -13 57.501z" />
    <glyph glyph-name="afii57441" unicode="&#x641;" horiz-adv-x="2148" arabic-form="isolated" 
d="M1666 145v574.001h-69c-24.667 -4 -48 -13.333 -70 -28c-12.667 -8.66699 -19 -35.334 -19 -80.001v-406c0 -104.667 28 -157 84 -157c24.667 0 45 13.667 61 41zM1538 1125c0 22 3.66699 38.666 11 49.999c3.33301 10 12.666 25.333 27.999 46
c30.667 27.333 63.334 41 98.001 41c37.333 0 69.666 -13.667 96.999 -41c11.333 -10.667 21 -24.5 29 -41.5s12 -35.167 12 -54.5c0 -37.333 -13.667 -69.666 -41 -96.999c-17.333 -17.333 -49.666 -31 -96.999 -41c-32 0 -64.667 13 -98 39c-26 26 -39 59 -39 99z
M1482 847l548.999 0.000976562v-46c-34.667 -4 -59 -12.667 -73 -26c-14.667 -11.333 -22 -39.333 -22 -84v-419c0 -100.667 -34 -175.334 -102 -224.001c-47.333 -32 -109 -48 -185 -48h-1530v45c38.667 6 63 16.333 73 31c13.333 11.333 20 38 20 80v404
c0 194 87 291 261 291c58 0 111.333 -16.333 160 -49c38.667 -24.667 77 -61.667 115 -111l-9 -78c-49.333 72 -102 108 -158 108c-37.333 0 -66.666 -20 -87.999 -60c-7.33301 -30 -11 -63.667 -11 -101l2 -432l2 -26c0 -7.33301 4.33301 -16 13 -26
c20.667 -18.667 44.667 -28 72 -28h572c32 0 58 8.33301 78 25c14 10 21 37.667 21 83v404c0 191.333 80 287 240 287z" />
    <glyph glyph-name="afii57442" unicode="&#x642;" horiz-adv-x="1554" arabic-form="isolated" 
d="M784 847c-159.333 0 -238.999 -95.6641 -238.999 -286.997v-404c0 -42 -6.66699 -69.667 -20 -83l-28 -15l-47 -10v-48h524v-22c0 -166 -43 -278.333 -129 -337c-43.333 -23.333 -93 -35 -149 -35c-126.667 0 -218.334 39.667 -275.001 119
c-44.667 63.333 -67 161.666 -67 294.999v591c0 65.333 12.333 112.333 37 141c10 10 29.333 20.667 58 32l41 13l50 4v46h-421v-46c64.667 -14 103.667 -28.333 117 -43c21.333 -18.667 32 -59 32 -121v-617c0 -340.667 163.667 -511 491 -511c348 0 522 156.333 522 469
v644l5 84c4 23.333 11.833 41.166 23.5 53.499s53.5 26.166 125.5 41.499v46h-651zM903.001 48.0029c-26 0 -49.667 8.66699 -71 26c-12.667 10 -19 37.333 -19 82v404c0 37.333 4 70.333 12 99c18.667 40 49 60 91 60c20 0 36 -3.33301 48 -10l10 -87v-574h-71zM1026 1125
c0 33.333 12.998 64.498 38.998 93.498s58.667 43.5 98 43.5c34 0 67 -13.667 99 -41c26 -29.333 39 -61.333 39 -96c0 -37.333 -13.667 -69.666 -41 -96.999c-10.667 -11.333 -24.167 -21 -40.5 -29s-35.166 -12 -56.499 -12c-36.667 0 -68.667 13.667 -96 41
c-15.333 14.667 -24.666 29.334 -27.999 44.001zM744.999 1125c0 28 13.001 60 39.001 96c30.667 27.333 63.334 41 98.001 41c37.333 0 69.666 -13.667 96.999 -41c11.333 -10.667 21 -24.5 29 -41.5s12 -35.167 12 -54.5c0 -34 -13.333 -64.667 -40 -92
s-59.334 -42.666 -98.001 -45.999c-33.333 0 -66 13.667 -98 41c-26 29.333 -39 61.666 -39 96.999z" />
    <glyph glyph-name="afii57443" unicode="&#x643;" horiz-adv-x="2105" arabic-form="isolated" 
d="M1867 815v-873.999c-134 39.333 -239.333 59 -316 59h-1432v45c36 7.33301 60.5 18.666 73.5 33.999s19.5 41 19.5 77v404c0 106 23.667 181 71 225s110.666 66 189.999 66c56.667 0 110 -16.333 160 -49l26 -18l39 -32l11 -15l10 -7l9 -9l20 -30l-9 -78
c-49.333 72 -102 108 -158 108c-38.667 0 -68 -20 -88 -60c-4.66699 -5.33301 -7 -19.666 -7 -42.999l-4 -58v-404c0 -38 5.66699 -64.667 17 -80c18.667 -18.667 42.334 -28 71.001 -28h940c27.333 0 49.666 9.66699 66.999 29s26 39.666 26 60.999v756h-562
c-66 0 -122.333 9.33301 -169 28s-84.667 54.667 -114 108c-6.66699 12 -15 36 -25 72c0 8.66699 -3 21 -9 37l-2 41c0 133.333 61 238.333 183 315l124 48l101 13l74 4c41.333 0 88 -9.33301 140 -28l41 -16l21 -6c7.33301 0 16 4.33301 26 13l9 35h33v-311h-29
c-15.333 66 -41.666 128.333 -78.999 187l-26 26l-35 28c-4 2 -15 5.16699 -33 9.5s-35 7.83301 -51 10.5l-58 -2c-12 0 -31 -4.33301 -57 -13l-51 -13c-14.667 -3.33301 -33 -13.333 -55 -30c-82 -48 -123 -122.333 -123 -223c0 -37.333 12 -63.5 36 -78.5
s69 -22.5 135 -22.5h464c236.667 0 355 -103.667 355 -311z" />
    <glyph glyph-name="afii57444" unicode="&#x644;" horiz-adv-x="1554" arabic-form="isolated" 
d="M784 1383v-50c46 0 77 -3 93 -9c27.333 -4 46 -12.667 56 -26c27.333 -21.333 41 -69.333 41 -144v-1176c0 -94 -12 -169 -36 -225c-40.667 -98 -121.334 -147 -242.001 -147c-69.333 0 -131.333 13 -186 39c-104 52 -156 177 -156 375v589c0 62 13 109 39 141
c8.66699 8.66699 27.334 19.334 56.001 32.001l41 13l50 4v48h-421v-48c62 -11.333 101 -26.333 117 -45c21.333 -18.667 32 -58.334 32 -119.001v-615c0 -340.667 163.667 -511 491 -511c216 0 367.667 66.333 455 199c44.667 67.333 67 157.333 67 270v1176
c0 72 8.66699 117 26 135s60 32.667 128 44v50h-651z" />
    <glyph glyph-name="afii57445" unicode="&#x645;" horiz-adv-x="1597" arabic-form="isolated" 
d="M786 61c20.667 -19.333 60.3359 -42 119.003 -68c33.333 -14.667 64.333 -24 93 -28l43 -5l46 -4c58.667 0 111.5 10.667 158.5 32s95.5 59 145.5 113c29.333 36 51.5 79 66.5 129s22.5 105.667 22.5 167c0 136 -40.333 245 -121 327s-181.334 123 -302.001 123
c-52 7.33301 -116.333 11 -193 11c-296.667 0 -486.667 -68.333 -570 -205c-32 -54 -48 -145 -48 -273v-646c0 -66.667 -8.33301 -112.667 -25 -138c-13.333 -14.667 -47.333 -27.667 -102 -39v-48h519v48c-30.667 0 -56.834 4.16699 -78.501 12.5
s-36.834 18.5 -45.501 30.5c-16 28.667 -24 73.334 -24 134.001v646c0 49.333 11.667 125.666 35 228.999c18.667 100.667 124 162.667 316 186l-22 -15l-22 -17l-25 -18l-18 -17c-80.667 -80.667 -121 -191 -121 -331c0 -123.333 51 -235.333 153 -336zM1057 58
c-59.333 0 -102.002 36.999 -128.002 110.999l-8 47l-5 35v71l-4 104v97l4 56l5 56l8 45c21.333 75.333 64 113 128 113c70.667 0 115.334 -50.333 134.001 -151l10 -89l3 -127c0 -63.333 -3.66699 -126.666 -11 -189.999c-13.333 -118.667 -58.666 -178 -135.999 -178z" />
    <glyph glyph-name="afii57446" unicode="&#x646;" horiz-adv-x="1396" arabic-form="isolated" 
d="M1128 637c0 56 10.668 96.333 32.001 121c10 7.33301 50.333 21.666 121 42.999v46h-425v-46c36 0 66.667 -5.66699 92 -17c24.667 -4 43 -14.667 55 -32c26 -26 39 -73 39 -141v-591c0 -112 -13.333 -195.333 -40 -250c-54.667 -109.333 -155.334 -164 -302.001 -164
c-92 0 -171 52 -237 156c-49.333 93.333 -74 190 -74 290c0 152.667 22.333 266.334 67 341.001c10 14.667 23.667 27.667 41 39c4.66699 2.66699 9.83398 4.83398 15.501 6.50098s18.5 4.5 38.5 8.5c28.667 0 55.334 -16.667 80.001 -50c7.33301 -11.333 11 -28.333 11 -51
v-7l-2 -19l-2 -9l-5 -17l-11 -17l-6 -11l-5 -26l-10 -45v-16l-2 -15c0 -50 9.66699 -90.667 29 -122s40.666 -47 63.999 -47c15.333 0 28.666 3.66699 39.999 11c6 0.666992 18.333 13.667 37 39c20 39.333 30 85.666 30 138.999c0 96 -23 176.667 -69 242
c-51.333 76 -122.666 114 -213.999 114c-87.333 0 -166.333 -27.333 -237 -82c-106.667 -82 -160 -217.333 -160 -406c0 -193.333 58.333 -338.333 175 -435c17.333 -14 38.666 -27.5 63.999 -40.5s56 -26.833 92 -41.5l38 -7l59 -15l90 -4
c158.667 0 280.167 42.167 364.5 126.5s126.5 205.833 126.5 364.5v637zM380.001 801c0 36.667 13.667 68.667 41 96c10.667 11.333 24.667 21.333 42 30l53 11c36.667 0 68.667 -13.667 96 -41c11.333 -10.667 21 -24.5 29 -41.5s12 -35.167 12 -54.5
c0 -37.333 -13.667 -69.666 -41 -96.999c-10.667 -11.333 -24.167 -21 -40.5 -29s-34.833 -12 -55.5 -12c-35.333 0 -67 13.667 -95 41c-10 11.333 -19.333 24.666 -28 39.999s-13 34.333 -13 57z" />
    <glyph glyph-name="afii57470" unicode="&#x647;" horiz-adv-x="1124" arabic-form="isolated" 
d="M1005 801c-36 -8 -60.5 -18.167 -73.5 -30.5s-19.5 -38.833 -19.5 -79.5l-4 -419c0 -30 -5.16699 -63.833 -15.5 -101.5s-26.833 -67.167 -49.5 -88.5c-44.667 -54.667 -113 -82 -205 -82h-519v48c64.667 0 97 36 97 108v404c0 99.333 22.333 172 67 218
s101.667 69 171 69h551v-46zM638 145v574.001h-67c-36 -6.66699 -58.333 -15.334 -67 -26.001c-13.333 -10 -20 -37.333 -20 -82v-406c0 -32.667 1.33301 -52 4 -58c0 -66 25.333 -99 76 -99c21.333 0 39.333 11.333 54 34c11.333 20 18 41 20 63z" />
    <glyph glyph-name="afii57448" unicode="&#x648;" horiz-adv-x="1124" arabic-form="isolated" 
d="M454 847c-158.667 0 -237.999 -95.667 -237.999 -287v-404c0 -42 -7 -68 -21 -78c-6 -11.333 -31.333 -22.333 -76 -33v-45h523v-206c0 -105.333 -34 -158 -102 -158c-51.333 0 -103 36 -155 108l-9 -77c73.333 -106.667 164.666 -160 273.999 -160
c174.667 0 262 95.667 262 287v897c0 42 7 70 21 84l29 13l43 13v46h-551zM642.001 45h-71.001c-30.667 7.33301 -53 17 -67 29c-13.333 8 -20 35.333 -20 82v404c0 40 3.66699 73 11 99c14.667 40 44.334 60 89.001 60l23 -2l28 -8l5 -41l2 -46v-577z" />
    <glyph glyph-name="afii57449" unicode="&#x649;" horiz-adv-x="1887" arabic-form="isolated" 
d="M923 -491c402.667 0 669.671 125.333 801.004 376c32 60.667 48 119 48 175c0 39.333 -5.33301 80.666 -16 123.999c-40 134 -135.667 201 -287 201h-255c-114.667 0 -172 33.667 -172 101c0 70.667 19.333 126.834 58 168.501s95.667 73.5 171 95.5l60 10l58 3
c62 0 109.667 -22.333 143 -67s60 -108 80 -190h28v313h-32c-3.33301 -33.333 -15 -50 -35 -50l-69 24c-42 17.333 -86.667 26 -134 26c-126.667 0 -226 -21 -298 -63c-120 -76 -180 -181 -180 -315c0 -48 11 -99.333 33 -154c41.333 -88 135 -132 281 -132h354
c37.333 0 72.666 -15 105.999 -45c24.667 -27.333 37 -51 37 -71c0 -100 -52.333 -174.167 -157 -222.5s-310.334 -72.5 -617.001 -72.5l-261 5l-89 6c-24 0 -52.667 5 -86 15c-204.667 36.667 -307 114.667 -307 234c0 79.333 51.667 152 155 218l54 26l81 29l84 23l60 5
l71 2v49l-572 3v-52h67c16 -6 24 -22 24 -48c0 -8.66699 -15.167 -43.5 -45.5 -104.5s-45.5 -116.833 -45.5 -167.5c0 -130 61.333 -241.667 184 -335c63.333 -48 162.666 -85 297.999 -111c115.333 -21.333 222.666 -32 321.999 -32z" />
    <glyph glyph-name="afii57450" unicode="&#x64a;" horiz-adv-x="1887" arabic-form="isolated" 
d="M923 -491c402.667 0 669.671 125.333 801.004 376c32 60.667 48 119 48 175c0 39.333 -5.33301 80.666 -16 123.999c-40 134 -135.667 201 -287 201h-255c-114.667 0 -172 33.667 -172 101c0 70.667 19.333 126.834 58 168.501s95.667 73.5 171 95.5l60 10l58 3
c62 0 109.667 -22.333 143 -67s60 -108 80 -190h28v313h-32c-3.33301 -33.333 -15 -50 -35 -50l-69 24c-42 17.333 -86.667 26 -134 26c-126.667 0 -226 -21 -298 -63c-120 -76 -180 -181 -180 -315c0 -48 11 -99.333 33 -154c41.333 -88 135 -132 281 -132h354
c37.333 0 72.666 -15 105.999 -45c24.667 -27.333 37 -51 37 -71c0 -100 -52.333 -174.167 -157 -222.5s-310.334 -72.5 -617.001 -72.5l-261 5l-89 6c-24 0 -52.667 5 -86 15c-204.667 36.667 -307 114.667 -307 234c0 79.333 51.667 152 155 218l54 26l81 29l84 23l60 5
l71 2v49l-572 3v-52h67c16 -6 24 -22 24 -48c0 -8.66699 -15.167 -43.5 -45.5 -104.5s-45.5 -116.833 -45.5 -167.5c0 -130 61.333 -241.667 184 -335c63.333 -48 162.666 -85 297.999 -111c115.333 -21.333 222.666 -32 321.999 -32z" />
    <glyph glyph-name="afii57506" unicode="&#x67e;" horiz-adv-x="2170" arabic-form="isolated" 
d="M1417 -290c0 -37.333 -13.6689 -69.667 -41.002 -97s-59 -41 -95 -41c-37.333 0 -69.666 13.667 -96.999 41c-11.333 11.333 -21 25 -29 41s-12 34.667 -12 56c0 34.667 13.333 66 40 94s59.334 42 98.001 42c37.333 0 69 -13 95 -39c12 -12.667 21.833 -27 29.5 -43
s11.5 -34 11.5 -54zM1134 -290.001c0 -36 -13.335 -68 -40.002 -96s-58 -42 -94 -42c-37.333 0 -69.666 13.667 -96.999 41c-10 10 -19.333 23.167 -28 39.5s-13 35.5 -13 57.5c0 34.667 13.333 66 40 94s59.334 42 98.001 42c36.667 0 68.167 -13 94.5 -39
s39.5 -58.333 39.5 -97zM1283 -536.001c0 -10.667 -4 -27.333 -12 -50c-18 -57.333 -59.333 -86 -124 -86c-37.333 0 -70 13.667 -98 41s-42 59 -42 95c0 37.333 14.333 70.333 43 99c30.667 27.333 63 41 97 41c34.667 0 66 -13.333 94 -40s42 -60 42 -100zM2055 801
h-29.001l-34 -6c-11.333 -4 -21.333 -10.667 -30 -20c-17.333 -20 -26 -48 -26 -84v-756c-68 43.333 -193.333 65 -376 65h-1441v45c38.667 6 63 16.333 73 31c13.333 11.333 20 38 20 80v404c0 194 87 291 261 291c58 0 111.333 -16.333 160 -49
c38.667 -24.667 77 -61.667 115 -111l-9 -78c-49.333 72 -102 108 -158 108c-37.333 0 -66.666 -20 -87.999 -60c-7.33301 -30 -11 -63.667 -11 -101l2 -432l2 -26c0 -7.33301 4.33301 -16 13 -26c20.667 -18.667 44.667 -28 72 -28h989c50 0 84 15 102 45
c8 14.667 12 35.667 12 63v691h381v-46zM1417 -290c0 34.667 -13 66.332 -39 94.999c-12.667 12.667 -27 22.667 -43 30s-34 11 -54 11c-32.667 0 -65 -13 -97 -39c-10 -11.333 -19.333 -24.666 -28 -39.999s-13 -34.333 -13 -57c0 -59.333 27.333 -101 82 -125l56 -13
c36 0 67.667 13.667 95 41c10.667 11.333 20.167 25.333 28.5 42s12.5 35 12.5 55zM1417 -290.002c0 -37.333 -13.6689 -69.667 -41.002 -97s-59 -41 -95 -41c-37.333 0 -69.666 13.667 -96.999 41c-11.333 11.333 -21 25 -29 41s-12 34.667 -12 56
c0 34.667 13.333 66 40 94s59.334 42 98.001 42c37.333 0 69 -13 95 -39c12 -12.667 21.833 -27 29.5 -43s11.5 -34 11.5 -54z" />
    <glyph glyph-name="afii57507" unicode="&#x686;" horiz-adv-x="1301" arabic-form="isolated" 
d="M719 48l-194.002 -0.00195312c-270.667 0 -406 -88.333 -406 -265c0 -184 124 -276 372 -276h512c53.333 0 90 -5 110 -15c6.66699 -4.66699 17.334 -28.334 32.001 -71.001h39v350h-39c0 -23.333 -2.66699 -40.666 -8 -51.999c-0.666992 -7.33301 -6 -16 -16 -26
l-41 -15l-77 -7h-512c-199.333 0 -299 49 -299 147c0 74.667 44 127.334 132 158.001l84 19c26 3.33301 65 5 117 5h194v-94c10.667 -58.667 35.334 -99 74.001 -121c22 -9.33301 43 -14 63 -14c68.667 0 132 36.667 190 110l-24 41
c-11.333 -14.667 -19.333 -22.667 -24 -24l-19 -2l-9 4l-11 9c-4 4 -7.66699 16 -11 36v55h46c47.333 0 81.833 -5.5 103.5 -16.5s37.5 -38.833 47.5 -83.5h39v230h-39c-7.33301 -34.667 -21.333 -57 -42 -67s-49.667 -15 -87 -15h-68v501c0 108 -31.667 186.333 -95 235
c-54.667 39.333 -139.334 59 -254.001 59c-37.333 0 -87.333 -13 -150 -39l-23 -5l-17 -6c-7.33301 0 -15.333 4.33301 -24 13l-11 36h-33v-311h31c14 72 39 133.333 75 184s80 76 132 76c40.667 0 77.334 -16 110.001 -48c20 -33.333 30 -75.666 30 -126.999v-568z
M626.998 -754.002c0 -40.667 -15.167 -75.834 -45.5 -105.501s-65.833 -44.5 -106.5 -44.5c-41.333 0 -76.833 14.833 -106.5 44.5s-44.5 64.834 -44.5 105.501c0 41.333 14.333 78 43 110c29.333 30 65.333 45 108 45c38 0 72.833 -15.167 104.5 -45.5
s47.5 -66.833 47.5 -109.5zM790.998 -1025c0 -24 -4.33301 -42.665 -13 -55.998c-4 -18.667 -15 -35.334 -33 -50.001c-35.333 -31.333 -71 -47 -107 -47c-40.667 0 -76.167 15.167 -106.5 45.5s-45.5 66.166 -45.5 107.499c0 36.667 14.667 72 44 106
c31.333 30.667 67.333 46 108 46c44 0 80.5 -14.5 109.5 -43.5s43.5 -65.167 43.5 -108.5zM939.998 -754c0 -40.667 -15.167 -75.833 -45.5 -105.5s-66.5 -44.5 -108.5 -44.5c-36 0 -70.167 14.5 -102.5 43.5s-48.5 64.5 -48.5 106.5c0 40 14.667 76.667 44 110
c30 30 65.667 45 107 45c38 0 73.167 -14.833 105.5 -44.5s48.5 -66.5 48.5 -110.5z" />
    <glyph glyph-name="afii57508" unicode="&#x698;" horiz-adv-x="709" arabic-form="isolated" 
d="M485 1555c0 -38.667 -14.666 -74.168 -43.999 -106.501s-65.666 -48.5 -108.999 -48.5c-38.667 0 -73.834 15.167 -105.501 45.5s-47.5 66.833 -47.5 109.5c0 40.667 15 75.834 45 105.501s66 44.5 108 44.5c37.333 0 72.666 -14.667 105.999 -44
c4 -4 8.66699 -10 14 -18l18 -27l7 -26zM633.001 1283c0 -36 -14.668 -72.667 -44.001 -110c-30 -30 -66.667 -45 -110 -45c-41.333 0 -76.666 15 -105.999 45c-15.333 14.667 -27.333 30.667 -36 48l-7 30c-1.33301 6 -2 16.667 -2 32c0 59.333 31 105.333 93 138l58 13
c40 0 75.667 -15.333 107 -46s47 -65.667 47 -105zM321 1283c0 -38.667 -14.6689 -74.168 -44.002 -106.501s-65.666 -48.5 -108.999 -48.5c-36 0 -72 15 -108 45c-28.667 30.667 -43 67.334 -43 110.001c0 40.667 15 76 45 106s65.333 45 106 45
s76.334 -15.5 107.001 -46.5s46 -65.833 46 -104.5zM569.998 801.998c-39.333 -7.33301 -64 -15.332 -74 -23.999c-15.333 -17.333 -23 -45.333 -23 -84v-896c0 -103.333 -22.333 -178.666 -67 -225.999c-23.333 -20 -48.333 -35.167 -75 -45.5s-66 -15.5 -118 -15.5
c-14 0 -27.833 0.666992 -41.5 2s-29.167 4.16602 -46.5 8.49902s-40.333 15.833 -69 34.5c-52.667 34.667 -91.667 73 -117 115l10 78l17 -22l11 -13l35 -36c26 -26 57 -39 93 -39c44.667 0 75 21.333 91 64c7.33301 22 11 53.667 11 95v896
c0 41.333 -6.66699 68.666 -20 81.999l-25 13l-42 13v49h450v-49zM632.998 1283c0 40.667 -15.166 76 -45.499 106s-66.5 45 -108.5 45c-36 0 -70.167 -14.667 -102.5 -44s-48.5 -65 -48.5 -107c0 -40 15 -76.667 45 -110c29.333 -30 64.666 -45 105.999 -45
c38.667 0 74 15 106 45s48 66.667 48 110zM632.999 1283c0 -36 -14.668 -72.667 -44.001 -110c-30 -30 -66.667 -45 -110 -45c-41.333 0 -76.666 15 -105.999 45c-15.333 14.667 -27.333 30.667 -36 48l-7 30c-1.33301 6 -2 16.667 -2 32c0 59.333 31 105.333 93 138l58 13
c40 0 75.667 -15.333 107 -46s47 -65.667 47 -105z" />
    <glyph glyph-name="afii57509" unicode="&#x6af;" horiz-adv-x="2105" arabic-form="isolated" 
d="M1867 815v-873.999c-134 39.333 -239.333 59 -316 59h-1432v45c36 7.33301 60.5 18.666 73.5 33.999s19.5 41 19.5 77v404c0 106 23.667 181 71 225s110.666 66 189.999 66c56.667 0 110 -16.333 160 -49l26 -18l39 -32l11 -15l10 -7l9 -9l20 -30l-9 -78
c-49.333 72 -102 108 -158 108c-38.667 0 -68 -20 -88 -60c-4.66699 -5.33301 -7 -19.666 -7 -42.999l-4 -58v-404c0 -38 5.66699 -64.667 17 -80c18.667 -18.667 42.334 -28 71.001 -28h940c27.333 0 49.666 9.66699 66.999 29s26 39.666 26 60.999v756h-562
c-66 0 -122.333 9.33301 -169 28s-84.667 54.667 -114 108c-6.66699 12 -15 36 -25 72c0 8.66699 -3 21 -9 37l-2 41c0 133.333 61 238.333 183 315l124 48l101 13l74 4c41.333 0 88 -9.33301 140 -28l41 -16l21 -6c7.33301 0 16 4.33301 26 13l9 35h33v-311h-29
c-15.333 66 -41.666 128.333 -78.999 187l-26 26l-35 28c-4 2 -15 5.16699 -33 9.5s-35 7.83301 -51 10.5l-58 -2c-12 0 -31 -4.33301 -57 -13l-51 -13c-14.667 -3.33301 -33 -13.333 -55 -30c-82 -48 -123 -122.333 -123 -223c0 -37.333 12 -63.5 36 -78.5
s69 -22.5 135 -22.5h464c236.667 0 355 -103.667 355 -311zM1469 1653h-360v67h360v-67z" />
    <glyph glyph-name="uniFB57" unicode="&#x67e;" horiz-adv-x="2170" arabic-form="final" 
d="M119 0l-0.000976562 45c38.667 6 63 16.333 73 31c13.333 11.333 20 38 20 80v404c0 194 87 291 261 291c58 0 111.333 -16.333 160 -49c38.667 -24.667 77 -61.667 115 -111l-9 -78c-49.333 72 -102 108 -158 108c-37.333 0 -66.666 -20 -87.999 -60
c-7.33301 -30 -11 -63.667 -11 -101l2 -432l2 -26c0 -7.33301 4.33301 -16 13 -26c20.667 -18.667 44.667 -28 72 -28h989c50 0 84 15 102 45c8 14.667 12 35.667 12 63v691h381v-46h-29l-34 -6c-11.333 -4 -21.333 -10.667 -30 -20c-17.333 -20 -26 -48 -26 -84v-643h272
v-48h-272v-65c-68 43.333 -193.333 65 -376 65h-1441zM1417 -290c0 -37.333 -13.6689 -69.667 -41.002 -97s-59 -41 -95 -41c-37.333 0 -69.666 13.667 -96.999 41c-11.333 11.333 -21 25 -29 41s-12 34.667 -12 56c0 34.667 13.333 66 40 94s59.334 42 98.001 42
c37.333 0 69 -13 95 -39c12 -12.667 21.833 -27 29.5 -43s11.5 -34 11.5 -54zM1134 -290.001c0 -36 -13.335 -68 -40.002 -96s-58 -42 -94 -42c-37.333 0 -69.666 13.667 -96.999 41c-10 10 -19.333 23.167 -28 39.5s-13 35.5 -13 57.5c0 34.667 13.333 66 40 94
s59.334 42 98.001 42c36.667 0 68.167 -13 94.5 -39s39.5 -58.333 39.5 -97zM1283 -536.001c0 -10.667 -4 -27.333 -12 -50c-18 -57.333 -59.333 -86 -124 -86c-37.333 0 -70 13.667 -98 41s-42 59 -42 95c0 37.333 14.333 70.333 43 99c30.667 27.333 63 41 97 41
c34.667 0 66 -13.333 94 -40s42 -60 42 -100zM1417 -290c0 34.667 -13 66.332 -39 94.999c-12.667 12.667 -27 22.667 -43 30s-34 11 -54 11c-32.667 0 -65 -13 -97 -39c-10 -11.333 -19.333 -24.666 -28 -39.999s-13 -34.333 -13 -57c0 -59.333 27.333 -101 82 -125l56 -13
c36 0 67.667 13.667 95 41c10.667 11.333 20.167 25.333 28.5 42s12.5 35 12.5 55zM1417 -290.002c0 -37.333 -13.6689 -69.667 -41.002 -97s-59 -41 -95 -41c-37.333 0 -69.666 13.667 -96.999 41c-11.333 11.333 -21 25 -29 41s-12 34.667 -12 56
c0 34.667 13.333 66 40 94s59.334 42 98.001 42c37.333 0 69 -13 95 -39c12 -12.667 21.833 -27 29.5 -43s11.5 -34 11.5 -54z" />
    <glyph glyph-name="uniFB58" unicode="&#x67e;" horiz-adv-x="735" arabic-form="initial" 
d="M497 691c0 37.333 9.33398 65.333 28.001 84c7.33301 7.33301 19.333 13.333 36 18l57 8v46h-385v-709c0 -17.333 -7.33301 -37.333 -22 -60c-16.667 -20 -40.334 -30 -71.001 -30h-177v-48h220c94 -0 198.667 -19.667 314 -59v750zM306.001 -290
c0 -32 -13.334 -64.334 -40.001 -97.001c-10.667 -11.333 -24.5 -21 -41.5 -29s-35.167 -12 -54.5 -12c-36 0 -67.667 13.667 -95 41c-10 10 -19.333 23.167 -28 39.5s-13 35.5 -13 57.5c0 34.667 13 66.334 39 95.001c12 12.667 26.167 22.667 42.5 30s34.5 11 54.5 11
c34.667 0 66.334 -13 95.001 -39c12 -12.667 21.833 -27 29.5 -43s11.5 -34 11.5 -54zM453 -536.001c0 -19.333 -3.33301 -36 -10 -50c-18.667 -57.333 -60 -86 -124 -86c-37.333 0 -70 13.667 -98 41s-42 59 -42 95c0 37.333 14.333 70.333 43 99
c30.667 27.333 63 41 97 41c36.667 0 68.167 -13 94.5 -39s39.5 -59.667 39.5 -101zM589 -290.001c0 -37.333 -13.6689 -69.667 -41.002 -97c-11.333 -11.333 -25.333 -21 -42 -29s-35 -12 -55 -12c-37.333 0 -69.666 13.667 -96.999 41c-11.333 11.333 -21 25 -29 41
s-12 34.667 -12 56c0 34.667 13.333 66 40 94s59.334 42 98.001 42c36 0 68.333 -13 97 -39c12 -12.667 21.833 -27 29.5 -43s11.5 -34 11.5 -54z" />
    <glyph glyph-name="uniFB59" unicode="&#x67e;" horiz-adv-x="742" arabic-form="medial" 
d="M-37 48h173.001c26 0 50.333 12 73 36l17 33l7 38v536c0 36 -5 59.5 -15 70.5s-36.667 24.167 -80 39.5v46h369v-691c0 -32 5.33301 -59.333 16 -82c11.333 -17.333 35.666 -26 72.999 -26h182v-48h-815v48zM361.001 -290c0 -37.333 -13.501 -69.667 -40.501 -97
s-58.5 -41 -94.5 -41c-37.333 0 -69.666 13.667 -96.999 41c-10 10 -19.333 23.167 -28 39.5s-13 35.5 -13 57.5c0 34.667 13.333 66 40 94s59.334 42 98.001 42c33.333 0 64.666 -13 93.999 -39c11.333 -11.333 21 -25 29 -41s12 -34.667 12 -56zM509 -536.001
c0 -10.667 -4 -27.333 -12 -50c-18.667 -57.333 -60 -86 -124 -86c-37.333 0 -70 13.667 -98 41s-42 59 -42 95c0 37.333 14.333 70.333 43 99c30.667 27.333 63 41 97 41c34.667 0 66 -13.333 94 -40s42 -60 42 -100zM643 -290c0 -37.333 -13.6689 -69.667 -41.002 -97
s-59 -41 -95 -41c-37.333 0 -69.666 13.667 -96.999 41c-11.333 11.333 -21 25 -29 41s-12 34.667 -12 56c0 34.667 13.333 66 40 94s59.334 42 98.001 42c37.333 0 69 -13 95 -39c12 -12.667 21.833 -27 29.5 -43s11.5 -34 11.5 -54z" />
    <glyph glyph-name="uniFB7B" unicode="&#x686;" horiz-adv-x="1184" arabic-form="final" 
d="M718 48h-193.002c-123.333 0 -224 -22 -302 -66c-70.667 -41.333 -106 -107.666 -106 -198.999c0 -184 124 -276 372 -276h514c53.333 0 90 -5 110 -15c6 -4.66699 16.667 -28.334 32 -71.001h39v350h-39c0 -23.333 -2.16699 -40.833 -6.5 -52.5
s-11.5 -20.834 -21.5 -27.501c-10 -13.333 -48 -20 -114 -20h-514c-198.667 0 -298 49 -298 147c0 121.333 111.333 182 334 182h193v-94c11.333 -58.667 36.333 -99 75 -121c22 -9.33301 43 -14 63 -14c68.667 0 132 36.667 190 110l-24 41
c-11.333 -14.667 -19.333 -22.667 -24 -24l-19 -2l-9 4l-11 9c-4 4 -8 16 -12 36v55h274v48h-274v501c0 108 -31.667 186.333 -95 235c-54.667 39.333 -139 59 -253 59c-37.333 0 -87.666 -13 -150.999 -39l-22 -5l-17 -6c-7.33301 0 -15.333 4.33301 -24 13l-11 36h-34
v-311h32c14 72 39 133.333 75 184s80 76 132 76c40.667 0 77.334 -16 110.001 -48c19.333 -33.333 29 -75.666 29 -126.999v-568zM626.998 -754c0 -40.667 -15.168 -75.834 -45.501 -105.501s-66.166 -44.5 -107.499 -44.5c-40.667 0 -75.834 14.833 -105.501 44.5
s-44.5 64.834 -44.5 105.501c0 41.333 14 78 42 110c30 30 66 45 108 45c38.667 0 73.834 -15.167 105.501 -45.5s47.5 -66.833 47.5 -109.5zM790.997 -1025c0 -24 -4.33203 -42.665 -12.999 -55.998c-4 -18.667 -15.333 -35.334 -34 -50.001
c-34.667 -31.333 -70 -47 -106 -47c-40.667 0 -76.167 15.167 -106.5 45.5s-45.5 66.166 -45.5 107.499c0 36.667 14.667 72 44 106c31.333 30.667 67.333 46 108 46c43.333 0 79.666 -14.5 108.999 -43.5s44 -65.167 44 -108.5zM939.998 -753.998
c0 -40.667 -15.167 -75.833 -45.5 -105.5s-66.833 -44.5 -109.5 -44.5c-36 0 -70 14.5 -102 43.5s-48 64.5 -48 106.5c0 40 14.667 76.667 44 110c30 30 65.333 45 106 45c38.667 0 74.167 -14.833 106.5 -44.5s48.5 -66.5 48.5 -110.5z" />
    <glyph glyph-name="uniFB7C" unicode="&#x686;" horiz-adv-x="1174" arabic-form="initial" 
d="M-37 0h650v-94c3.33301 -30 12.666 -58 27.999 -84c22 -34 58.667 -51 110 -51c64 0 127 36.667 189 110l-26 41l-13 -15l-9 -7l-9 -4h-10c-7.33301 0 -15.333 4.33301 -24 13l-7 36v55h24c53.333 0 89.333 -4.83301 108 -14.5s33.667 -38.167 45 -85.5h39v230h-39
c-6.66699 -19.333 -18 -41 -34 -65c-32 -11.333 -56 -17 -72 -17h-71v501c0 196 -115.667 294 -347 294l-63 -5c-7.33301 -1.33301 -17.5 -3.83301 -30.5 -7.5s-24.5 -8.16699 -34.5 -13.5l-63 -24c-7.33301 0 -15.333 4.33301 -24 13l-14 36h-33v-311h33
c8 64 33.667 126 77 186c34.667 49.333 77.334 74 128.001 74c44.667 0 80.667 -16 108 -48c22.667 -30 34 -72.333 34 -127v-568h-650v-48zM546 -508c0 -40.667 -15.1689 -76 -45.502 -106s-66.166 -45 -107.499 -45c-40.667 0 -76 15 -106 45s-45 65.333 -45 106
c0 41.333 14.333 78 43 110c30 30 66 45 108 45c38.667 0 73.834 -15.167 105.501 -45.5s47.5 -66.833 47.5 -109.5zM709.998 -780c0 -23.333 -4.33301 -41.667 -13 -55c-4 -18.667 -15.333 -35.667 -34 -51c-34.667 -30.667 -70 -46 -106 -46
c-41.333 0 -77.166 15.167 -107.499 45.5s-45.5 65.833 -45.5 106.5c0 37.333 15 73 45 107c30.667 30.667 66.667 46 108 46c43.333 0 79.666 -14.5 108.999 -43.5s44 -65.5 44 -109.5zM858.998 -508.001c0 -40.667 -15.333 -76 -46 -106s-67 -45 -109 -45
c-36 0 -70.167 14.667 -102.5 44s-48.5 65 -48.5 107c0 40 15 76.667 45 110c30 30 65.333 45 106 45c38.667 0 74.167 -15 106.5 -45s48.5 -66.667 48.5 -110z" />
    <glyph glyph-name="uniFB7D" unicode="&#x686;" horiz-adv-x="1077" arabic-form="medial" 
d="M-37 0h650v-94c3.33301 -30 12.666 -58 27.999 -84c22 -34 58.667 -51 110 -51c64 0 127 36.667 189 110l-26 41l-13 -15l-9 -7l-9 -4h-10c-7.33301 0 -15.333 4.33301 -24 13l-7 36v55h272v48h-272v501c0 196 -115.667 294 -347 294l-63 -5
c-7.33301 -1.33301 -17.5 -3.83301 -30.5 -7.5s-24.5 -8.16699 -34.5 -13.5l-63 -24c-7.33301 0 -15.333 4.33301 -24 13l-14 36h-33v-311h33c8 64 33.667 126 77 186c34.667 49.333 77.334 74 128.001 74c44.667 0 80.667 -16 108 -48c22.667 -30 34 -72.333 34 -127v-568
h-650v-48zM546 -508c0 -40.667 -15.1689 -76 -45.502 -106s-66.166 -45 -107.499 -45c-40.667 0 -76 15 -106 45s-45 65.333 -45 106c0 41.333 14.333 78 43 110c30 30 66 45 108 45c38.667 0 73.834 -15.167 105.501 -45.5s47.5 -66.833 47.5 -109.5zM709.998 -780
c0 -23.333 -4.33301 -41.667 -13 -55c-4 -18.667 -15.333 -35.667 -34 -51c-34.667 -30.667 -70 -46 -106 -46c-41.333 0 -77.166 15.167 -107.499 45.5s-45.5 65.833 -45.5 106.5c0 37.333 15 73 45 107c30.667 30.667 66.667 46 108 46
c43.333 0 79.666 -14.5 108.999 -43.5s44 -65.5 44 -109.5zM858.998 -508.001c0 -40.667 -15.333 -76 -46 -106s-67 -45 -109 -45c-36 0 -70.167 14.667 -102.5 44s-48.5 65 -48.5 107c0 40 15 76.667 45 110c30 30 65.333 45 106 45c38.667 0 74.167 -15 106.5 -45
s48.5 -66.667 48.5 -110z" />
    <glyph glyph-name="uniFB8B" unicode="&#x698;" horiz-adv-x="709" arabic-form="final" 
d="M743 48l-269.999 0.000976562v646c0 37.333 7.66699 65.333 23 84l74 24v49h-450v-49c28 -3.33301 49.5 -11.833 64.5 -25.5s22.5 -41.167 22.5 -82.5v-896c0 -47.333 -5 -81 -15 -101c-14.667 -38.667 -43.667 -58 -87 -58c-30 0 -61 13 -93 39l-35 36l-11 13l-17 22
l-10 -78c21.333 -34.667 60.333 -73 117 -115c26 -15.333 50 -26.666 72 -33.999s50.333 -11 85 -11c58 0 95 5 111 15c25.333 7.33301 52.666 22.666 81.999 45.999c44.667 41.333 67 116.666 67 225.999v202h270v48zM485.001 1555
c0 -38.667 -14.666 -74.168 -43.999 -106.501s-65.666 -48.5 -108.999 -48.5c-38.667 0 -73.834 15.167 -105.501 45.5s-47.5 66.833 -47.5 109.5c0 40.667 15 75.834 45 105.501s66 44.5 108 44.5c37.333 0 72.666 -14.667 105.999 -44c4 -4 8.66699 -10 14 -18l18 -27
l7 -26zM633.002 1283c0 -36 -14.668 -72.667 -44.001 -110c-30 -30 -66.667 -45 -110 -45c-41.333 0 -76.666 15 -105.999 45c-15.333 14.667 -27.333 30.667 -36 48l-7 30c-1.33301 6 -2 16.667 -2 32c0 59.333 31 105.333 93 138l58 13c40 0 75.667 -15.333 107 -46
s47 -65.667 47 -105zM321.001 1283c0 -38.667 -14.6689 -74.168 -44.002 -106.501s-65.666 -48.5 -108.999 -48.5c-36 0 -72 15 -108 45c-28.667 30.667 -43 67.334 -43 110.001c0 40.667 15 76 45 106s65.333 45 106 45s76.334 -15.5 107.001 -46.5s46 -65.833 46 -104.5z
M632.999 1283c0 40.667 -15.166 76 -45.499 106s-66.5 45 -108.5 45c-36 0 -70.167 -14.667 -102.5 -44s-48.5 -65 -48.5 -107c0 -40 15 -76.667 45 -110c29.333 -30 64.666 -45 105.999 -45c38.667 0 74 15 106 45s48 66.667 48 110zM633 1283
c0 -36 -14.668 -72.667 -44.001 -110c-30 -30 -66.667 -45 -110 -45c-41.333 0 -76.666 15 -105.999 45c-15.333 14.667 -27.333 30.667 -36 48l-7 30c-1.33301 6 -2 16.667 -2 32c0 59.333 31 105.333 93 138l58 13c40 0 75.667 -15.333 107 -46s47 -65.667 47 -105z" />
    <glyph glyph-name="uniFB8F" unicode="&#x6a9;" horiz-adv-x="2226" arabic-form="final" 
d="M1990 827l-0.00195312 -645c0 -52 18 -88.333 54 -109c30 -16.667 72.333 -25 127 -25h93v-48h-2145v45c38.667 6 63 16.333 73 31c13.333 11.333 20 38 20 80v404c0 194 87 291 261 291c58 0 111.333 -16.333 160 -49c38.667 -24.667 77 -61.667 115 -111l-9 -78
c-49.333 72 -102 108 -158 108c-37.333 0 -66.666 -20 -87.999 -60c-7.33301 -30 -11 -63.667 -11 -101l2 -432l2 -26c0 -7.33301 4.33301 -16 13 -26c20.667 -18.667 44.334 -28 71.001 -28h929c52 0 94.167 8.5 126.5 25.5s48.5 53.167 48.5 108.5l-2 712h-564
c-66 0 -122.333 9.33301 -169 28s-84.667 54.667 -114 108c-6.66699 12 -15 36 -25 72l-7 37l-2 41c0 133.333 61 238.333 183 315l124 48l88 12l85 5c41.333 0 88 -9.33301 140 -28l41 -16l21 -6c7.33301 0 16 4.33301 26 13l11 35h31v-311h-29
c-15.333 66 -41.666 128.333 -78.999 187l-24 26l-37 28c-4 2 -15 5.16699 -33 9.5s-35 7.83301 -51 10.5l-57 -2c-12.667 0 -32 -4.33301 -58 -13l-50 -13c-15.333 -3.33301 -34 -13.333 -56 -30c-82 -48 -123 -122.333 -123 -223c0 -37.333 12.333 -64 37 -80
c24.667 -14 70 -21 136 -21h462c109.333 0 191.666 -11.667 246.999 -35c109.333 -44.667 164 -132.667 164 -264z" />
    <glyph glyph-name="uniFB90" unicode="&#x6a9;" horiz-adv-x="1444" arabic-form="initial" 
d="M732 1078l-58 -2c-12.667 0 -32 -4.33301 -58 -13l-50 -13c-14.667 -4 -33.334 -14 -56.001 -30c-82 -48 -123 -122.333 -123 -223c0 -37.333 12.667 -64 38 -80c24.667 -14 69.334 -21 134.001 -21h463c106.667 0 184 -31.833 232 -95.5s72 -140.167 72 -229.5
c0 -149.333 -76.333 -255.666 -229 -318.999c-42.667 -17.333 -88.667 -30.333 -138 -39l-80 -9l-93 -4h-812v48h851c102.667 0 195.667 25.667 279 77c104.667 59.333 157 133.666 157 222.999c0 20 -12.667 44.333 -38 73c-34.667 28.667 -71.334 43 -110.001 43h-562
c-66 0 -122.167 9.16699 -168.5 27.5s-84.5 54.5 -114.5 108.5c-6 12 -14 36 -24 72l-7 37l-4 41c0 133.333 60.667 238.333 182 315l125 48l101 13l74 4c40.667 0 87.334 -9.33301 140.001 -28l41 -17l20 -5c7.33301 0 16 4.33301 26 13l11 35h32v-311h-30
c-14.667 66 -40.667 128.333 -78 187l-26 26l-35 28c-4 2 -15 5.16699 -33 9.5s-35 7.83301 -51 10.5z" />
    <glyph glyph-name="uniFB91" unicode="&#x6a9;" horiz-adv-x="1558" arabic-form="medial" 
d="M732 1078l-58 -1.99805c-12 0 -31.333 -4.33301 -58 -13l-50 -13c-14.667 -4 -33.334 -14 -56.001 -30c-82 -48 -123 -122.333 -123 -223c0 -37.333 12.667 -64 38 -80c24.667 -14 69.334 -21 134.001 -21h463c106.667 0 184 -31.833 232 -95.5s72 -140.167 72 -229.5
c0 -52.667 -15 -110.667 -45 -174l-46 -96c0 -18.667 8.66699 -36.334 26 -53.001h316v-48h-1614v48h862c103.333 0 196.333 25.667 279 77c104.667 59.333 157 133.666 157 222.999c0 20 -12.667 44.333 -38 73c-34.667 28.667 -71 43 -109 43h-563
c-65.333 0 -121.333 9.16699 -168 27.5s-85 54.5 -115 108.5c-6 12 -14 36 -24 72l-7 37l-4 41c0 133.333 60.667 238.333 182 315l125 48l101 13l74 4c41.333 0 88 -9.33301 140 -28l41 -17l20 -5c7.33301 0 16 4.33301 26 13l11 35h32v-311h-30
c-14.667 66 -40.667 128.333 -78 187l-26 26l-35 28c-4 2 -15 5.16699 -33 9.5s-35 7.83301 -51 10.5z" />
    <glyph glyph-name="uniFB93" unicode="&#x6af;" horiz-adv-x="2226" arabic-form="final" 
d="M1990 827l-0.00195312 -645c0 -52 18 -88.333 54 -109c30 -16.667 72.333 -25 127 -25h93v-48h-2145v45c38.667 6 63 16.333 73 31c13.333 11.333 20 38 20 80v404c0 194 87 291 261 291c58 0 111.333 -16.333 160 -49c38.667 -24.667 77 -61.667 115 -111l-9 -78
c-49.333 72 -102 108 -158 108c-37.333 0 -66.666 -20 -87.999 -60c-7.33301 -30 -11 -63.667 -11 -101l2 -432l2 -26c0 -7.33301 4.33301 -16 13 -26c20.667 -18.667 44.334 -28 71.001 -28h929c52 0 94.167 8.5 126.5 25.5s48.5 53.167 48.5 108.5l-2 712h-564
c-66 0 -122.333 9.33301 -169 28s-84.667 54.667 -114 108c-6.66699 12 -15 36 -25 72l-7 37l-2 41c0 133.333 61 238.333 183 315l124 48l88 12l85 5c41.333 0 88 -9.33301 140 -28l41 -16l21 -6c7.33301 0 16 4.33301 26 13l11 35h31v-311h-29
c-15.333 66 -41.666 128.333 -78.999 187l-24 26l-37 28c-4 2 -15 5.16699 -33 9.5s-35 7.83301 -51 10.5l-57 -2c-12.667 0 -32 -4.33301 -58 -13l-50 -13c-15.333 -3.33301 -34 -13.333 -56 -30c-82 -48 -123 -122.333 -123 -223c0 -37.333 12.333 -64 37 -80
c24.667 -14 70 -21 136 -21h462c109.333 0 191.666 -11.667 246.999 -35c109.333 -44.667 164 -132.667 164 -264zM1541 1653h-357v67h357v-67z" />
    <glyph glyph-name="uniFB94" unicode="&#x6af;" horiz-adv-x="1444" arabic-form="initial" 
d="M732 1078l-58 -2c-12.667 0 -32 -4.33301 -58 -13l-50 -13c-14.667 -4 -33.334 -14 -56.001 -30c-82 -48 -123 -122.333 -123 -223c0 -37.333 12.667 -64 38 -80c24.667 -14 69.334 -21 134.001 -21h463c106.667 0 184 -31.833 232 -95.5s72 -140.167 72 -229.5
c0 -149.333 -76.333 -255.666 -229 -318.999c-42.667 -17.333 -88.667 -30.333 -138 -39l-80 -9l-93 -4h-812v48h851c102.667 0 195.667 25.667 279 77c104.667 59.333 157 133.666 157 222.999c0 20 -12.667 44.333 -38 73c-34.667 28.667 -71.334 43 -110.001 43h-562
c-66 0 -122.167 9.16699 -168.5 27.5s-84.5 54.5 -114.5 108.5c-6 12 -14 36 -24 72l-7 37l-4 41c0 133.333 60.667 238.333 182 315l125 48l101 13l74 4c40.667 0 87.334 -9.33301 140.001 -28l41 -17l20 -5c7.33301 0 16 4.33301 26 13l11 35h32v-311h-30
c-14.667 66 -40.667 128.333 -78 187l-26 26l-35 28c-4 2 -15 5.16699 -33 9.5s-35 7.83301 -51 10.5zM983 1203h-357v67h357v-67z" />
    <glyph glyph-name="uniFB95" unicode="&#x6af;" horiz-adv-x="1558" arabic-form="medial" 
d="M732 1078l-58 -1.99805c-12 0 -31.333 -4.33301 -58 -13l-50 -13c-14.667 -4 -33.334 -14 -56.001 -30c-82 -48 -123 -122.333 -123 -223c0 -37.333 12.667 -64 38 -80c24.667 -14 69.334 -21 134.001 -21h463c106.667 0 184 -31.833 232 -95.5s72 -140.167 72 -229.5
c0 -52.667 -15 -110.667 -45 -174l-46 -96c0 -18.667 8.66699 -36.334 26 -53.001h316v-48h-1614v48h862c103.333 0 196.333 25.667 279 77c104.667 59.333 157 133.666 157 222.999c0 20 -12.667 44.333 -38 73c-34.667 28.667 -71 43 -109 43h-563
c-65.333 0 -121.333 9.16699 -168 27.5s-85 54.5 -115 108.5c-6 12 -14 36 -24 72l-7 37l-4 41c0 133.333 60.667 238.333 182 315l125 48l101 13l74 4c41.333 0 88 -9.33301 140 -28l41 -17l20 -5c7.33301 0 16 4.33301 26 13l11 35h32v-311h-30
c-14.667 66 -40.667 128.333 -78 187l-26 26l-35 28c-4 2 -15 5.16699 -33 9.5s-35 7.83301 -51 10.5zM983 1203h-357v67h357v-67z" />
    <glyph glyph-name="uniFBA5" unicode="&#x6c0;" horiz-adv-x="1131" arabic-form="final" 
d="M577 162l56.001 54v337c-56 -10 -108.333 -44 -157 -102c-54.667 -66 -82 -128.667 -82 -188c0 -41.333 9.33301 -72.833 28 -94.5s41 -32.5 67 -32.5c31.333 0 60.666 8.66699 87.999 26zM793.001 0c-43.333 0 -80.001 9.33105 -110.001 27.998
c-17.333 13.333 -33.333 47.333 -48 102c-37.333 -37.333 -85.333 -69.333 -144 -96l-76 -27l-39 -7l-23 -1h-20c-34.667 0 -75.667 9.66699 -123 29l-24 19c-46 34.667 -69 87.334 -69 158.001c0 73.333 45.333 149 136 227c42 32 100.333 68 175 108l33 15l116 45l58 18
v17c0 38.667 -3.33301 63.334 -10 74.001c-10 62 -62 93 -156 93l45 64c106.667 0 196.834 -20.833 270.501 -62.5s110.5 -119.5 110.5 -233.5v-469c0 -14 3.33301 -26 10 -36l24 -17h238v-48h-374zM502 1205l-3 -3.00293l-2 -7c-2 -3.33301 -3 -7 -3 -11c0 -8 3 -15 9 -21
c2.66699 -2 10.667 -4.66699 24 -8c23.333 0 35 11.333 35 34c0 20.667 -15.667 39.334 -47 56.001l-16 5l-16 2l-18 2c-25.333 0 -48.833 -5.83301 -70.5 -17.5s-32.5 -32.834 -32.5 -63.501v-66h-72v-12h72v-15c0 -5.33301 -0.666992 -8.66602 -2 -9.99902l-7 -3l-4 1
l-8 6l-9 -11c16 -19.333 35.667 -29 59 -29c14 0 25.333 4.66699 34 14l8 22v25h54c14 0 24 -1.66699 30 -5c1.33301 -2 2.33301 -3.66699 3 -5c3.33301 -5.33301 6 -10.666 8 -15.999h10v60h-10l-10 -17l-25 -5h-60v84c0 10.667 3 20.834 9 30.501s17.667 14.5 35 14.5h5
l10 -1l8 -4c4 -2 7 -6.33301 9 -13l-1 -6z" />
    <glyph glyph-name="uniFBFD" unicode="&#x6cc;" horiz-adv-x="2479" arabic-form="final" 
d="M2109 84c-69.333 52 -116.334 128.332 -141.001 228.999l-8 46l-7 64l-4 80l-2 70c0 74.667 -25.333 133.667 -76 177c-31.333 31.333 -72.333 47 -123 47c-49.333 0 -101.333 -3.5 -156 -10.5s-92 -15.833 -112 -26.5c-23.333 -10 -57.333 -33.667 -102 -71
s-77 -76 -97 -116l-10 -39l-1 -50c0 -66.667 57 -100 171 -100h28c202 0 303 -108.667 303 -326c0 -17.333 -0.5 -31 -1.5 -41s-4.33301 -24.5 -10 -43.5s-10.334 -33.5 -14.001 -43.5s-11.167 -25.667 -22.5 -47c-128 -250.667 -395 -376 -801 -376h-98l-64 8h-33
c-17.333 3.33301 -30.333 5.66602 -39 6.99902l-88 17c-128 22 -227.333 59 -298 111c-122.667 92 -184 203.333 -184 334c0 52.667 15.667 110 47 172l44 101c0 22 -8 37.333 -24 46h-67v51h572v-49l-71 -2c-36 0 -72.667 -6.66699 -110 -20l-35 -11l-43 -11l-37 -15
l-25 -13c-59.333 -22.667 -107.666 -60.667 -144.999 -114l-30 -58l-7 -29l-2 -32c0 -89.333 55.333 -154.333 166 -195c38 -13.333 77.667 -24.666 119 -33.999l65 -9l76 -4l77 -5l85 -6l155 -5c150 0 275.333 5.16699 376 15.5s183.667 29.833 249 58.5
c99.333 44.667 149 117.667 149 219c0 22.667 -13.667 47.334 -41 74.001s-61.333 40 -102 40h-127c-63.333 0 -122.666 11 -177.999 33c-63.333 26.667 -106.333 85.667 -129 177l-9 77c0 128.667 60.333 234 181 316c102.667 63.333 251 95 445 95
c78 0 163 -16.667 255 -50c63.333 -26 106 -50.333 128 -73c50 -47.333 86.667 -121 110 -221l7 -67l2 -41v-177c0 -58.667 31 -104 93 -136l71 -22c28.667 -8 62.334 -12 101 -12v-48h-95l-38 4c-124 13.333 -213.333 40 -268 80z" />
    <glyph glyph-name="uniFBFE" unicode="&#x6cc;" horiz-adv-x="733" arabic-form="initial" 
d="M495 691c0 34.667 8.33203 62.667 24.999 84c7.33301 7.33301 19 13.333 35 18l61 8v46h-385v-709c0 -24 -6.66699 -43.333 -20 -58c-17.333 -21.333 -41.666 -32 -72.999 -32h-175v-48h216c90.667 -0 196 -19.667 316 -59v750zM321.999 -242c0 32.667 13 65 39 97
c11.333 10 24.833 19.333 40.5 28s34.5 13 56.5 13c34 0 65.5 -13 94.5 -39s43.5 -59 43.5 -99c0 -36.667 -13 -68.167 -39 -94.5s-59 -39.5 -99 -39.5c-33.333 0 -64.333 12.833 -93 38.5s-43 57.5 -43 95.5zM46.999 -242c0 36 13.667 68.335 41 97.002
c14.667 15.333 30 24.666 46 27.999l52 13c35.333 0 66.833 -13.333 94.5 -40s41.5 -59.334 41.5 -98.001c0 -36.667 -12.667 -68.167 -38 -94.5s-58 -39.5 -98 -39.5c-22 0 -40.5 2.5 -55.5 7.5s-30.5 15.167 -46.5 30.5c-24.667 24.667 -37 56.667 -37 96z" />
    <glyph glyph-name="uniFBFF" unicode="&#x6cc;" horiz-adv-x="742" arabic-form="medial" 
d="M-37 48h173.001c26 0 50.333 12 73 36l17 33l7 38v536c0 36 -5 59.5 -15 70.5s-36.667 24.167 -80 39.5v46h369v-691c0 -32 5.33301 -59.333 16 -82c11.333 -17.333 35.666 -26 72.999 -26h182v-48h-815v48zM360.001 -242c0 32.667 13.001 65.667 39.001 99
c26 26 58 39 96 39c35.333 0 67.166 -13 95.499 -39s42.5 -59 42.5 -99c0 -14.667 -3.66699 -31.334 -11 -50.001c-22 -56 -64.333 -84 -127 -84c-33.333 0 -66 12 -98 36c-24.667 30.667 -37 63.334 -37 98.001zM84.002 -242c0 32.667 13 65.001 39 97.001
c27.333 27.333 60.333 41 99 41c34.667 0 64.334 -12.333 89.001 -37c24.667 -22.667 41 -56.334 49 -101.001c0 -36.667 -13.333 -68.167 -40 -94.5s-59.334 -39.5 -98.001 -39.5c-37.333 0 -70.333 12.667 -99 38c-26 37.333 -39 69.333 -39 96z" />
    <glyph glyph-name="uniFE82" unicode="&#x622;" horiz-adv-x="659" arabic-form="final" 
d="M63 1335c27.333 0 46.6641 -2.66699 57.9971 -8c14.667 -3.33301 27 -10 37 -20c16 -16 24 -43.333 24 -82v-1284l175 45c26.667 4.66699 50.834 8.16699 72.501 10.5s44.834 3.5 69.501 3.5h195v48h-154c-26 0 -49.667 10.667 -71 32
c-11.333 14 -18.666 33.333 -21.999 58v1245h-384v-48zM442.998 1527c-30 -26 -69.667 -39 -119 -39c-20 0 -51 4.33301 -93 13l-47 11l-35 4c-52 0 -84.333 -25 -97 -75l-26 7c7.33301 32.667 26 70.667 56 114c37.333 52 89.333 78 156 78l37 -2
c12.667 0 24 -2.33301 34 -7l86 -21l18 -1c38.667 0 69.667 30.333 93 91l25 -8c-22.667 -78 -52 -133 -88 -165z" />
    <glyph glyph-name="uniFE84" unicode="&#x623;" horiz-adv-x="659" arabic-form="final" 
d="M63 1335c27.333 0 46.666 -2.66699 57.999 -8c14.667 -3.33301 27 -10 37 -20c16 -16 24 -43.333 24 -82v-1284l175 45c26 4.66699 50 8.16699 72 10.5s45.333 3.5 70 3.5h190v48h-149c-26 0 -49.667 10.667 -71 32c-11.333 14 -18.666 33.333 -21.999 58v1245h-384v-48z
M450 1733l-3.00098 -9l-6 -7l-7 -12l-2 -18c0 -14 5.66699 -28.333 17 -43c8.66699 -8.66699 22.667 -13 42 -13c17.333 0 33 6.33301 47 19c13.333 7.33301 20 22 20 44c0 40 -19.167 70.167 -57.5 90.5s-79.833 30.5 -124.5 30.5c-126.667 0 -190 -49.667 -190 -149v-124
h-134v-23h134v-26l-6 -18l-11 -6l-13 2l-11 11l-15 -20c12.667 -14 33.334 -29.667 62.001 -47l26 -6l22 -1c23.333 0 43.666 8 60.999 24c8 10 13.667 24.333 17 43v44h99c27.333 0 44 -2.33301 50 -7c6 -2.66699 14.667 -16.334 26 -41.001h19v112h-19l-18 -32
c-4 -6 -19.667 -9 -47 -9h-110v175l2 20c0 7.33301 4.33301 15.333 13 24s17.334 14.334 26.001 17.001l41 6c12.667 0 27 -3.33301 43 -10l15 -26l-2 -7z" />
    <glyph glyph-name="uniFE86" unicode="&#x624;" horiz-adv-x="1145" arabic-form="final" 
d="M464 847c-158.667 0 -237.999 -95.667 -237.999 -287v-404c0 -42 -7 -68 -21 -78c-6 -11.333 -31.333 -22.333 -76 -33v-45h523v-206c0 -105.333 -34 -158 -102 -158c-51.333 0 -103 36 -155 108l-9 -77c73.333 -106.667 164.666 -160 273.999 -160
c174.667 0 262 95.667 262 287v206h270v48h-270v643c0 42 7 70 21 84l29 13l43 13v46h-551zM642.001 45h-71.001c-30.667 7.33301 -53 17 -67 29c-13.333 8 -20 35.333 -20 82v404c0 40 3.66699 73 11 99c14.667 40 44.334 60 89.001 60l23 -2l28 -8l5 -41l2 -46v-577z
M691 1101l-3 -3.00293l-2 -7c-2 -3.33301 -3 -7 -3 -11c0 -8 3 -15 9 -21c2.66699 -2 10.667 -4.66699 24 -8c23.333 0 35 11.333 35 34c0 20.667 -15.667 39.334 -47 56.001l-16 5l-16 2l-18 2c-25.333 0 -48.833 -5.83301 -70.5 -17.5s-32.5 -32.834 -32.5 -63.501v-66
h-72v-12h72v-15c0 -5.33301 -0.666992 -8.66602 -2 -9.99902l-7 -3l-4 1l-8 6l-9 -11c16 -19.333 35.667 -29 59 -29c14 0 25.333 4.66699 34 14l8 22v25h54c14 0 24 -1.66699 30 -5c1.33301 -2 2.33301 -3.66699 3 -5c3.33301 -5.33301 6 -10.666 8 -15.999h10v60h-10
l-10 -17l-25 -5h-60v84c0 10.667 3 20.834 9 30.501s17.667 14.5 35 14.5h5l10 -1l8 -4c4 -2 7 -6.33301 9 -13l-1 -6z" />
    <glyph glyph-name="uniFE88" unicode="&#x625;" horiz-adv-x="659" arabic-form="final" 
d="M-68 1355c27.333 0 46.666 -2.66602 57.999 -7.99902c14.667 -3.33301 27 -10 37 -20c16 -16 24 -43.333 24 -82v-1284l175 44c26 5.33301 49.833 9.16602 71.5 11.499s45.167 3.5 70.5 3.5h178v48h-137c-26 0 -49.667 10.667 -71 32
c-11.333 14 -18.666 33.333 -21.999 58v1245h-384v-48zM234 -119.999l-3 -3.00293l-2 -7c-2 -3.33301 -3 -7 -3 -11c0 -8 3 -15 9 -21c2.66699 -2 10.667 -4.66699 24 -8c23.333 0 35 11.333 35 34c0 20.667 -15.667 39.334 -47 56.001l-16 5l-16 2l-18 2
c-25.333 0 -48.833 -5.83301 -70.5 -17.5s-32.5 -32.834 -32.5 -63.501v-66h-72v-12h72v-15c0 -5.33301 -0.666992 -8.66602 -2 -9.99902l-7 -3l-4 1l-8 6l-9 -11c16 -19.333 35.667 -29 59 -29c14 0 25.333 4.66699 34 14l8 22v25h54c14 0 24 -1.66699 30 -5
c1.33301 -2 2.33301 -3.66699 3 -5c3.33301 -5.33301 6 -10.666 8 -15.999h10v60h-10l-10 -17l-25 -5h-60v84c0 10.667 3 20.834 9 30.501s17.667 14.5 35 14.5h5l10 -1l8 -4c4 -2 7 -6.33301 9 -13l-1 -6z" />
    <glyph glyph-name="uniFE8A" unicode="&#x626;" horiz-adv-x="2479" arabic-form="final" 
d="M2109 84c-69.333 52 -116.334 128.332 -141.001 228.999l-8 46l-7 64l-4 80l-2 70c0 74.667 -25.333 133.667 -76 177c-31.333 31.333 -72.333 47 -123 47c-49.333 0 -101.333 -3.5 -156 -10.5s-92 -15.833 -112 -26.5c-23.333 -10 -57.333 -33.667 -102 -71
s-77 -76 -97 -116l-10 -39l-1 -50c0 -66.667 57 -100 171 -100h28c202 0 303 -108.667 303 -326c0 -17.333 -0.5 -31 -1.5 -41s-4.33301 -24.5 -10 -43.5s-10.334 -33.5 -14.001 -43.5s-11.167 -25.667 -22.5 -47c-128 -250.667 -395 -376 -801 -376h-98l-64 8h-33
c-17.333 3.33301 -30.333 5.66602 -39 6.99902l-88 17c-128 22 -227.333 59 -298 111c-122.667 92 -184 203.333 -184 334c0 52.667 15.667 110 47 172l44 101c0 22 -8 37.333 -24 46h-67v51h572v-49l-71 -2c-36 0 -72.667 -6.66699 -110 -20l-35 -11l-43 -11l-37 -15
l-25 -13c-59.333 -22.667 -107.666 -60.667 -144.999 -114l-30 -58l-7 -29l-2 -32c0 -89.333 55.333 -154.333 166 -195c38 -13.333 77.667 -24.666 119 -33.999l65 -9l76 -4l77 -5l85 -6l155 -5c150 0 275.333 5.16699 376 15.5s183.667 29.833 249 58.5
c99.333 44.667 149 117.667 149 219c0 22.667 -13.667 47.334 -41 74.001s-61.333 40 -102 40h-127c-63.333 0 -122.666 11 -177.999 33c-63.333 26.667 -106.333 85.667 -129 177l-9 77c0 128.667 60.333 234 181 316c102.667 63.333 251 95 445 95
c78 0 163 -16.667 255 -50c63.333 -26 106 -50.333 128 -73c50 -47.333 86.667 -121 110 -221l7 -67l2 -41v-177c0 -58.667 31 -104 93 -136l71 -22c28.667 -8 62.334 -12 101 -12v-48h-95l-38 4c-124 13.333 -213.333 40 -268 80zM806.999 869.999l-7 -5.99902l-8 -19
c-3.33301 -6 -5 -12.667 -5 -20c0 -12.667 1 -21.334 3 -26.001l13 -17c11.333 -7.33301 26.333 -11 45 -11l8 -4c38 0 57 22.333 57 67c0 41.333 -21 72 -63 92l-54 22l-30 4l-33 3c-47.333 0 -93.333 -11 -138 -33c-34.667 -21.333 -52 -60.333 -52 -117v-123h-136v-23
h136v-28l-8 -18l-11 -6l-9 2l-15 11l-15 -20c30 -36 66 -54 108 -54c26 0 47 8.66699 63 26l8 13l9 28v46h101c19.333 0 37.333 -3 54 -9c10 -7.33301 17.333 -20.333 22 -39h19v112h-19c-2.66699 -8.66699 -9 -20 -19 -34l-48 -7h-110v156l2 37
c2.66699 8.66699 9 18.667 19 30s30.333 17 61 17h8c12 0 23 -3 33 -9c11.333 -4 17 -12.333 17 -25v-9z" />
    <glyph glyph-name="uniFE8B" unicode="&#x626;" horiz-adv-x="733" arabic-form="initial" 
d="M495 691c0 34.667 8.33203 62.667 24.999 84c7.33301 7.33301 19 13.333 35 18l61 8v46h-385v-709c0 -24 -6.66699 -43.333 -20 -58c-17.333 -21.333 -41.666 -32 -72.999 -32h-175v-48h216c90.667 -0 196 -19.667 316 -59v750zM565.999 1292l-4.99902 -4.99902l-4 -14
c-4 -6 -6 -12.667 -6 -20c0 -14.667 5.66699 -27.667 17 -39c5.33301 -4 20.333 -9 45 -15c43.333 0 65 21 65 63c0 38.667 -29.333 73.667 -88 105l-29 9l-30 4l-34 3c-46.667 0 -90.167 -10.833 -130.5 -32.5s-60.5 -60.834 -60.5 -117.501v-123h-134v-23h134v-28
c0 -10 -1.33301 -16 -4 -18l-13 -6l-8 2l-15 11l-16 -20c29.333 -36 66 -54 110 -54c26 0 47 8.66699 63 26l15 41v46h100c26 0 44.667 -3 56 -9l6 -9c6 -10 11 -20 15 -30h18v112h-18l-19 -32l-47 -9h-111v156c0 20 5.5 39 16.5 57s32.833 27 65.5 27h9l19 -2l15 -7
c7.33301 -4 12.666 -12.333 15.999 -25l-2 -11z" />
    <glyph glyph-name="uniFE8C" unicode="&#x626;" horiz-adv-x="742" arabic-form="medial" 
d="M-37 48h173.001c26 0 50.333 12 73 36l17 33l7 38v536c0 36 -5 59.5 -15 70.5s-36.667 24.167 -80 39.5v46h369v-691c0 -32 5.33301 -59.333 16 -82c11.333 -17.333 35.666 -26 72.999 -26h182v-48h-815v48zM482.001 1298l-7.00098 -5.99902l-7 -19
c-4 -6 -6 -12.667 -6 -20c0 -12.667 1.33301 -21.334 4 -26.001l13 -17c10.667 -7.33301 25.334 -11 44.001 -11l8 -4c38.667 0 58 22.333 58 67c0 41.333 -21.333 72 -64 92l-54 22l-30 4l-33 3c-47.333 0 -93.333 -11 -138 -33c-34.667 -21.333 -52 -60.333 -52 -117v-123
h-136v-23h136v-28l-7 -18l-12 -6l-9 2l-15 11l-15 -20c30 -36 66 -54 108 -54c26 0 47.333 8.66699 64 26l7 13l9 28v46h101c20 0 38 -3 54 -9c10 -7.33301 17.333 -20.333 22 -39h19v112h-19c-2 -8.66699 -8 -20 -18 -34l-49 -7h-110v156l2 37
c2.66699 8.66699 9 18.667 19 30s30.333 17 61 17h8c12 0 23 -3 33 -9c11.333 -4 17 -12.333 17 -25v-9z" />
    <glyph glyph-name="uniFE8E" unicode="&#x627;" horiz-adv-x="659" arabic-form="final" 
d="M63 1335c27.333 0 46.666 -2.66699 57.999 -8c14.667 -3.33301 27 -10 37 -20c16 -16 24 -43.333 24 -82v-1284l175 45c26 4.66699 49.833 8.16699 71.5 10.5s45.167 3.5 70.5 3.5h178v48h-137c-26 0 -49.667 10.667 -71 32c-11.333 14 -18.666 33.333 -21.999 58v1245
h-384v-48z" />
    <glyph glyph-name="uniFE90" unicode="&#x628;" horiz-adv-x="2170" arabic-form="final" 
d="M119 0l-0.000976562 45c38.667 6 63 16.333 73 31c13.333 11.333 20 38 20 80v404c0 194 87 291 261 291c58 0 111.333 -16.333 160 -49c38.667 -24.667 77 -61.667 115 -111l-9 -78c-49.333 72 -102 108 -158 108c-37.333 0 -66.666 -20 -87.999 -60
c-7.33301 -30 -11 -63.667 -11 -101l2 -432l2 -26c0 -7.33301 4.33301 -16 13 -26c20.667 -18.667 44.667 -28 72 -28h989c50 0 84 15 102 45c8 14.667 12 35.667 12 63v691h381v-46h-29l-34 -6c-11.333 -4 -21.333 -10.667 -30 -20c-17.333 -20 -26 -48 -26 -84v-643h272
v-48h-272v-65c-68 43.333 -193.333 65 -376 65h-1441zM898.999 -242c0 32.667 13.001 65 39.001 97c27.333 27.333 60.333 41 99 41c37.333 0 69 -13 95 -39s39 -59 39 -99c0 -36 -12.5 -67.333 -37.5 -94s-57.167 -40 -96.5 -40c-34.667 0 -66.334 12.833 -95.001 38.5
s-43 57.5 -43 95.5z" />
    <glyph glyph-name="uniFE91" unicode="&#x628;" horiz-adv-x="735" arabic-form="initial" 
d="M497 691c0 37.333 9.33398 65.333 28.001 84c7.33301 7.33301 19.333 13.333 36 18l57 8v46h-385v-709c0 -17.333 -7.33301 -37.333 -22 -60c-16.667 -20 -40.334 -30 -71.001 -30h-177v-48h220c94 -0 198.667 -19.667 314 -59v750zM119.001 -242
c0 34 13.668 66.334 41.001 97.001l45 32l54 9c37.333 0 69.333 -13.333 96 -40s40 -59.334 40 -98.001c0 -33.333 -11.667 -65.333 -35 -96c-22.667 -25.333 -53.334 -38 -92.001 -38c-32 0 -66.667 13.333 -104 40c-30 26 -45 57.333 -45 94z" />
    <glyph glyph-name="uniFE92" unicode="&#x628;" horiz-adv-x="742" arabic-form="medial" 
d="M-37 48h173.001c26 0 50.333 12 73 36l17 33l7 38v536c0 36 -5 59.5 -15 70.5s-36.667 24.167 -80 39.5v46h369v-691c0 -32 5.33301 -59.333 16 -82c11.333 -17.333 35.666 -26 72.999 -26h182v-48h-815v48zM233.001 -242c0 36 13.667 68.334 41 97.001
c14.667 15.333 30 24.666 46 27.999l53 13c34.667 0 66.667 -13 96 -39c12.667 -12 22.5 -26.5 29.5 -43.5s10.5 -35.5 10.5 -55.5c0 -36.667 -13.167 -68.167 -39.5 -94.5s-58.5 -39.5 -96.5 -39.5c-22.667 0 -41.5 2.5 -56.5 7.5s-30.5 15.167 -46.5 30.5
c-24.667 24.667 -37 56.667 -37 96z" />
    <glyph glyph-name="uniFE96" unicode="&#x62a;" horiz-adv-x="2170" arabic-form="final" 
d="M119 0l-0.000976562 45c38.667 6 63 16.333 73 31c13.333 11.333 20 38 20 80v404c0 194 87 291 261 291c58 0 111.333 -16.333 160 -49c38.667 -24.667 77 -61.667 115 -111l-9 -78c-49.333 72 -102 108 -158 108c-37.333 0 -66.666 -20 -87.999 -60
c-7.33301 -30 -11 -63.667 -11 -101l2 -432l2 -26c0 -7.33301 4.33301 -16 13 -26c20.667 -18.667 44.667 -28 72 -28h989c50 0 84 15 102 45c8 14.667 12 35.667 12 63v691h381v-46h-29l-34 -6c-11.333 -4 -21.333 -10.667 -30 -20c-17.333 -20 -26 -48 -26 -84v-643h272
v-48h-272v-65c-68 43.333 -193.333 65 -376 65h-1441zM1216 715c0 59.333 27.334 101 82.001 125l55 13c37.333 0 69.666 -13.667 96.999 -41c11.333 -11.333 21 -25.333 29 -42s12 -35 12 -55c0 -36 -13.667 -68.333 -41 -97c-11.333 -11.333 -25 -21 -41 -29
s-34.667 -12 -56 -12c-32 0 -64 13 -96 39c-27.333 27.333 -41 60.333 -41 99zM936 715c0 37.333 13.667 69.667 41 97s59 41 95 41c37.333 0 69 -13.667 95 -41c11.333 -11.333 21 -25 29 -41s12 -34.667 12 -56c0 -34.667 -12.667 -66.334 -38 -95.001s-58 -43 -98 -43
c-34.667 0 -66 13.333 -94 40s-42 59.334 -42 98.001z" />
    <glyph glyph-name="uniFE97" unicode="&#x62a;" horiz-adv-x="733" arabic-form="initial" 
d="M495 691c0 34.667 8.33203 62.667 24.999 84c7.33301 7.33301 19 13.333 35 18l61 8v46h-385v-709c0 -24 -6.66699 -43.333 -20 -58c-17.333 -21.333 -41.666 -32 -72.999 -32h-175v-48h216c90.667 -0 196 -19.667 316 -59v750zM405.999 1125
c0 34.667 12.667 66.167 38 94.5s58.666 42.5 99.999 42.5c38.667 0 72 -12.333 100 -37c31.333 -23.333 47 -54.333 47 -93c0 -30 -15.167 -61.667 -45.5 -95s-64.166 -50 -101.499 -50c-32.667 0 -65 13 -97 39c-27.333 27.333 -41 60.333 -41 99zM122.999 1125
c0 32 13.667 64.001 41 96.001l47 30c14.667 7.33301 32 11 52 11c28.667 0 61 -13 97 -39c24.667 -30.667 37 -63.334 37 -98.001c0 -34 -12.833 -65.5 -38.5 -94.5s-57.5 -43.5 -95.5 -43.5c-32.667 0 -65.667 13 -99 39c-27.333 30.667 -41 63.667 -41 99z" />
    <glyph glyph-name="uniFE98" unicode="&#x62a;" horiz-adv-x="742" arabic-form="medial" 
d="M-37 48l173.001 0.000976562c26 0 50.333 12 73 36l17 33l7 38v536c0 39.333 -5 64.666 -15 75.999c-7.33301 11.333 -34 23 -80 35v49h369v-695c0 -32 5.33301 -59.333 16 -82c11.333 -17.333 35.666 -26 72.999 -26h182v-48h-815v48zM352.001 1125c0 32 13 64 39 96
c11.333 11.333 25.333 21 42 29s35 12 55 12c36 0 68 -13.333 96 -40s42 -59 42 -97c0 -37.333 -13.667 -69.666 -41 -96.999c-18.667 -22.667 -51 -36.334 -97 -41.001c-33.333 0 -65 13 -95 39c-27.333 27.333 -41 60.333 -41 99zM73.001 1125l4.99902 45.998
c4 12.667 16 29.334 36 50.001c24.667 27.333 56.334 41 95.001 41c33.333 0 64.333 -13.333 93 -40s43 -59 43 -97c0 -37.333 -13.667 -69.666 -41 -96.999s-59 -41 -95 -41c-34 0 -65.667 13 -95 39c-27.333 27.333 -41 60.333 -41 99z" />
    </font>
</defs>
</svg>
