<?xml version="1.0" standalone="no"?>
<!DOCTYPE svg PUBLIC "-//W3C//DTD SVG 1.1//EN" "http://www.w3.org/Graphics/SVG/1.1/DTD/svg11.dtd" >
<svg>
<metadata>
Created by FontForge 20090914 at Wed Oct 19 00:43:50 2011
 By www-data
(c) by Abolfazl Seilsepour - +98 912 591 3420  -  seilsepor@yahoo.com
</metadata>
<defs>
<font id="FarAbdoullah-Bold" horiz-adv-x="0" >
  <font-face 
    font-family="Far.Abdoullah"
    font-weight="700"
    font-stretch="normal"
    units-per-em="2048"
    panose-1="0 0 4 0 0 0 0 0 0 0"
    ascent="1638"
    descent="-410"
    bbox="-200 -1323 3872 2644"
    underline-thickness="100"
    underline-position="-700"
    unicode-range="U+0020-U+FEFC"
  />
<missing-glyph horiz-adv-x="1411" 
d="M300 1663l-0.00195312 -1363c6.66699 -40.667 25.667 -61 57 -61h247c34 9.33301 51 26 51 50v1381c-9.33301 36 -29.666 54 -60.999 54h-231h1c-33.333 0 -54.666 -20.333 -63.999 -61zM162.998 6c-24.667 6.66699 -45.333 25.667 -62 57
c-7.33301 8.66699 -11 23 -11 43v1728c0 58 30 95.333 90 112l36 4h1008c64.667 -16.667 97 -48 97 -94v-1723c0 -84.667 -44 -130 -132 -136z" />
    <glyph glyph-name=".notdef" unicode="&#x652;&#x64d;" horiz-adv-x="1411" 
d="M300 1663l-0.00195312 -1363c6.66699 -40.667 25.667 -61 57 -61h247c34 9.33301 51 26 51 50v1381c-9.33301 36 -29.666 54 -60.999 54h-231h1c-33.333 0 -54.666 -20.333 -63.999 -61zM162.998 6c-24.667 6.66699 -45.333 25.667 -62 57
c-7.33301 8.66699 -11 23 -11 43v1728c0 58 30 95.333 90 112l36 4h1008c64.667 -16.667 97 -48 97 -94v-1723c0 -84.667 -44 -130 -132 -136z" />
    <glyph glyph-name="copyright" unicode="&#x652;&#x64e;" horiz-adv-x="2201" 
d="M862 1495c125.333 0 247.5 -32 366.5 -96s211.833 -155.5 278.5 -274.5s100 -243.167 100 -372.5s-32.833 -253.333 -98.5 -372s-157.667 -210.5 -276 -275.5s-241.833 -97.5 -370.5 -97.5c-129.333 0 -252.833 32.5 -370.5 97.5s-209.5 156.833 -275.5 275.5
s-99 242.667 -99 372s33.5 253.5 100.5 372.5s160 210.5 279 274.5s240.833 96 365.5 96zM862 1431c-114 0 -225.169 -29.333 -333.502 -88s-193.166 -142.334 -254.499 -251.001s-92 -222 -92 -340s30 -230.833 90 -338.5s144 -191.667 252 -252s220.667 -90.5 338 -90.5
s230 30.167 338 90.5s192.167 144.333 252.5 252s90.5 220.5 90.5 338.5s-30.667 231.333 -92 340s-146.166 192.334 -254.499 251.001s-219.833 88 -334.5 88zM1230 1230l22 -293.999h-41c-26 83.333 -66.167 145.5 -120.5 186.5s-120.166 61.5 -197.499 61.5
c-58 0 -109.333 -12 -154 -36s-81.334 -55.667 -110.001 -95c-21.333 -30.667 -39 -71 -53 -121s-21 -102 -21 -156c0 -148.667 32 -258.167 96 -328.5s148 -105.5 252 -105.5c136 0 245 56.667 327 170l39 -20c-97.333 -142 -231 -213 -401 -213
c-140.667 0 -257 45.333 -349 136s-138 200.667 -138 330c0 134 49 248.333 147 343s223 142 375 142c33.333 0 60.333 -2 81 -6s59 -15 115 -33c16.667 -6 29 -9 37 -9c11.333 0 21 3.16699 29 9.5s16 19.166 24 38.499h41z" />
    <glyph glyph-name="uniE818" unicode="&#x651;&#x64b;" 
d="M796 2386l-3 -137l-560 5v132h563zM802 2588l3 -135l-572 3v140zM827 2181l-0.000976562 -135.999c0 -43.333 -13 -81 -39 -113c-34 -40.667 -82 -61 -144 -61c-66.667 3.33301 -107.667 20 -123 50c-14.667 -27.333 -58.334 -41 -131.001 -41
c-64 -4.66699 -112.667 13.666 -146 54.999c-26 31.333 -39 68 -39 110v136h152v-109c6.66699 -48 23.334 -71.333 50.001 -70c20 2 30 39.667 30 113v66h154v-66c8 -75.333 27.667 -113 59 -113c22.667 0 30.334 24.333 23.001 73l3 106h151z" />
    <glyph glyph-name="uniFC5E" unicode="&#x651;&#x64c;" horiz-adv-x="3" arabic-form="isolated" 
d="M917 1999l-0.00292969 -137c0 -44.667 -12.333 -82.667 -37 -114c-35.333 -40 -83.666 -60 -144.999 -60c-67.333 2 -108.666 19 -123.999 51c-14.667 -28 -57.667 -42 -129 -42c-65.333 -5.33301 -114.666 12.667 -147.999 54c-24.667 31.333 -37 68.333 -37 111v137
h151v-111c7.33301 -47.333 24.333 -70 51 -68c18.667 0.666992 28 38 28 112v67h155v-67c7.33301 -74.667 26.666 -112 57.999 -112c22.667 0 30.334 23.667 23.001 71l5 108h149zM770.997 2493c-47.333 0 -71 -28 -71 -84c0 -58 23.667 -87 71 -87c48.667 0 73 29 73 87
c0 56 -24.333 84 -73 84zM486.997 2493c-48 0 -72 -28 -72 -84c0 -58 24 -87 72 -87c47.333 0 71 29 71 87c0 56 -23.667 84 -71 84zM632.997 2255c4 9.33301 3.99805 12.666 -0.00195312 10l-11 -11l-5 -11l-270 -193l-50 98l101 71c-13.333 2.66699 -35 19.334 -65 50
c-38.667 38.667 -58 84.334 -58 137c0 130 69.333 195 208 195c66.667 0 114.334 -12 143.001 -36c29.333 24 77.333 36 144 36c140.667 0 211 -65 211 -195c0 -52.667 -19.667 -98.334 -59 -137l-291 -219l-48 98l99 71c-12 2.66699 -32 18 -60 46
c-1.33301 2 2.33398 -1.33301 11.001 -10z" />
    <glyph glyph-name="uniFC5F" unicode="&#x651;&#x64d;" arabic-form="isolated" 
d="M843 2583l-0.00195312 -138c0 -43.333 -13 -80.666 -39 -112c-33.333 -41.333 -82 -62 -146 -62c-65.333 4 -105.666 21 -120.999 51c-14.667 -28 -58.334 -42 -131.001 -42c-64 -5.33301 -112.667 13.334 -146 56c-26 32 -39 68.333 -39 109v138h152v-110
c6.66699 -48.667 23.334 -71.334 50.001 -68c20 0 30 37.333 30 112v66h154v-66c8 -74.667 27.667 -112 59 -112c22.667 0 30.334 23.667 23.001 71l3 107h151zM799.998 2038l3 -137l-566 4v133h563zM797.998 2230v-136l-555 -4l-10 140h565z" />
    <glyph glyph-name="uniFC60" unicode="&#x651;&#x64e;" horiz-adv-x="1" arabic-form="isolated" 
d="M826 2328l-0.00195312 -135c0 -45.333 -13 -83.666 -39 -115c-33.333 -41.333 -82 -62 -146 -62c-65.333 4 -105.666 21.667 -120.999 53c-14.667 -28 -58.334 -42 -131.001 -42c-64 -5.33301 -112.667 12.667 -146 54c-26 33.333 -39 70.666 -39 112v135h152v-110
c6.66699 -48 23.334 -70.667 50.001 -68c20 0.666992 30 37.667 30 111v67h154v-67c8 -74 27.667 -111 59 -111c22.667 0 30.334 23.667 23.001 71l3 107h151zM800.998 2513l3 -119h-569l3 119h563z" />
    <glyph glyph-name="uniFC61" unicode="&#x651;&#x64f;" arabic-form="isolated" 
d="M500 2448c0 -59.333 24.333 -89 73 -89c46.667 0 70 29.667 70 89c0 57.333 -23.333 86 -70 86c-48.667 0 -73 -28.667 -73 -86zM710 2294l-6 -12l-271 -192l-53 97l103 71c-12.667 2 -33 17 -61 45c-41.333 42 -62 89.333 -62 142c0 130.667 70 196 210 196
s210 -65.333 210 -196c0 -52.667 -18.667 -97.667 -56 -135zM856 2050l-0.000976562 -137c0 -44.667 -13 -83 -39 -115c-34 -39.333 -82 -59 -144 -59c-66.667 2 -107.667 18.667 -123 50c-14.667 -27.333 -58.334 -41 -131.001 -41c-64 -5.33301 -112.667 13 -146 55
c-26 32 -39 68.667 -39 110v137h152v-110c6.66699 -48 23.334 -71.333 50.001 -70c20 2 30 39.667 30 113v67h154v-68c8 -74.667 27.667 -112 59 -112c22.667 0 30.334 24.333 23.001 73l3 107h151z" />
    <glyph glyph-name="uniFC62" unicode="&#x651;&#x650;" horiz-adv-x="2" arabic-form="isolated" 
d="M854 2529l-0.00195312 -138c0 -44.667 -13 -82.667 -39 -114c-33.333 -41.333 -82 -62 -146 -62c-65.333 4 -105.666 21.667 -120.999 53c-14.667 -28 -58.334 -42 -131.001 -42c-64 -5.33301 -112.667 13.334 -146 56c-26 32 -39 68.333 -39 109v138h152v-112
c6.66699 -48 23.334 -70.667 50.001 -68c20 0.666992 30 38 30 112v68h154v-68c8 -74.667 27.667 -112 59 -112c22.667 0 30.334 23.667 23.001 71l3 109h151zM830.998 2173l3 -120h-568l5 120h560z" />
    <glyph glyph-name="uniFD3F" unicode="&#x652;&#x64b;" horiz-adv-x="945" 
d="M283 275c45.333 30.667 87.3311 99.334 125.998 206.001c-65.333 0 -140.666 -7.66699 -225.999 -23c75.333 56.667 138 111 188 163c16 17.333 30.667 35 44 53c-13.333 9.33301 -24.666 20.333 -33.999 33c-20.667 -14 -39 -28.333 -55 -43
c-51.333 -48.667 -105.333 -111.334 -162 -188.001c14.667 86.667 22 169 22 247v154c0 79.333 -7.33301 161.666 -22 246.999c58 -78 112 -140.667 162 -188c13.333 -12 31.666 -26.333 54.999 -43c10 12.667 21.333 24 34 34c-13.333 18 -28 36 -44 54
c-50 51.333 -112.667 105.333 -188 162c88.667 -16 164 -24 226 -24c-38.667 106.667 -80.667 175.667 -126 207c-36 25.333 -98.333 38 -187 38c39.333 46 64.333 84.333 75 115c6.66699 18 9.66699 44.333 9 79c-9.33301 96 -19 182 -29 258l254 -314
c90 -110.667 152.667 -238.334 188 -383.001c68.667 0 148 8 238 24c-74 -54.667 -136.667 -108.667 -188 -162c-16 -16.667 -30.667 -34.667 -44 -54c12.667 -10 24 -21.333 34 -34c21.333 15.333 39 29.666 53 42.999c52 50 106.333 112.667 163 188
c-16 -88.667 -24 -171 -24 -247v-154c0 -74.667 8 -157 24 -247c-56.667 76.667 -111 139.334 -163 188.001c-14 13.333 -31.667 27.666 -53 42.999c-8 -10.667 -19 -21.667 -33 -33c12 -17.333 26.333 -35 43 -53c51.333 -53.333 114 -107.666 188 -162.999
c-86.667 15.333 -166 23 -238 23c-35.333 -143.333 -98 -270.666 -188 -381.999l-254 -312c16.667 151.333 26.334 237 29.001 257c0.666992 34.667 -2.33301 61 -9 79c-10.667 30.667 -35.667 68.334 -75 113.001c88.667 0 151 13 187 39zM426.498 720.5
c22.333 -22.333 48.833 -33.5 79.5 -33.5c32 0 59.167 11.167 81.5 33.5s33.5 49.166 33.5 80.499c0 30.667 -11.333 57.167 -34 79.5s-49.667 33.5 -81 33.5c-30.667 0 -57.167 -11.167 -79.5 -33.5s-33.5 -48.833 -33.5 -79.5c0 -31.333 11.167 -58.166 33.5 -80.499z" />
    <glyph glyph-name="uniFDF2" unicode="&#xfedf;&#xfee0;&#xfeea;" horiz-adv-x="3278" arabic-form="isolated" 
d="M956 456c0 -61.333 17.333 -92 52 -92l32 -4h672c56 0 84 18.667 84 56v140c0 29.333 -22.667 44 -68 44h-700c-48 0 -72 -21.333 -72 -64v-80zM1960 352l8.00098 8h146c66.667 0 100 22.667 100 68v1428l8 8h348l8 -8v-1496h136c66.667 0 100 22.667 100 68v1428l8 8
h348l8 -8v-1848l-8 -8h-2942c-72.667 0 -115.334 34.667 -128.001 104v740c0 62 36 100.667 108 116h1588v116c-4 34.667 -20 52 -48 52h-832l-8 8v344l8 8h896c98.667 0 148 -38.667 148 -116v-1020z" />
    <glyph glyph-name="uniFEF5" unicode="&#xfedf;&#xfe82;" horiz-adv-x="1836" arabic-form="isolated" 
d="M500 1860h344l8 -8v-844l-8 -8h-344l-8 8v844zM1028 1860h344l8 -8v-1744c-8.66699 -72 -40.667 -108 -96 -108h-1168c-61.333 0 -100 30.667 -116 92v756c-0 74.667 41.333 112 124 112h724l8 -8v-592h164v1492zM984 2169l2 -0.999023
c-55.333 -199.333 -177 -258 -365 -176c-117.333 23.333 -200.333 -1.33398 -249 -74.001l-4 1c26 138.667 74.333 216.834 145 234.5c70.667 17.667 131 8.16699 181 -28.5c116 -57.333 212.667 -42.666 290 44z" />
    <glyph glyph-name="uniFEF6" unicode="&#xfee0;&#xfe82;" horiz-adv-x="1703" arabic-form="final" 
d="M1044 2169l2 -0.999023c-55.333 -199.333 -177 -258 -365 -176c-117.333 23.333 -200.333 -1.33398 -249 -74.001l-4 1c26 138.667 74.333 216.834 145 234.5c70.667 17.667 131 8.16699 181 -28.5c116 -57.333 212.667 -42.666 290 44zM570 1860h344l8 -8v-844l-8 -8
h-344l-8 8v844zM186 0.000976562c-61.333 0 -100 30.667 -116 92v756c0 74.667 41.333 112 124 112h724l8 -8v-592h164v1492l8 8h344l8 -8v-1496h298l4 -8v-340l-4 -8h-1562z" />
    <glyph glyph-name="uniFEF7" unicode="&#xfedf;&#xfe84;" horiz-adv-x="1728" arabic-form="isolated" 
d="M500 1860h344l8 -8v-844l-8 -8h-344l-8 8v844zM1028 1860h344l8 -8v-1744c-8.66699 -72 -40.667 -108 -96 -108h-1168c-61.333 0 -100 30.667 -116 92v756c-0 74.667 41.333 112 124 112h724l8 -8v-592h164v1492zM408 2464h508l8 -8v-324l-8 -8h-180l-8 8v80h-128v-132
h276c22.667 0 38.667 -8 48 -24v-100c0 -24 -28 -36 -84 -36h-432l-8 8v36l8 8h292c14.667 0 24 5.33301 28 16v28c-3.33301 10.667 -15.333 16 -36 16h-284l-8 8v416z" />
    <glyph glyph-name="uniFEF8" unicode="&#xfee0;&#xfe84;" horiz-adv-x="1677" arabic-form="final" 
d="M408 2464h508l8 -8v-324l-8 -8h-180l-8 8v80h-128v-132h276c22.667 0 38.667 -8 48 -24v-100c0 -24 -28 -36 -84 -36h-432l-8 8v36l8 8h292c14.667 0 24 5.33301 28 16v28c-3.33301 10.667 -15.333 16 -36 16h-284l-8 8v416zM570 1860h344l8 -8v-844l-8 -8h-344l-8 8v844
zM186 0c-61.333 0 -100 30.667 -116 92v756c0 74.667 41.333 112 124 112h724l8 -8v-592h164v1492l8 8h344l8 -8v-1496h298l4 -8v-340l-4 -8h-1562z" />
    <glyph glyph-name="uniFEF9" unicode="&#xfedf;&#xfe88;" horiz-adv-x="1728" arabic-form="isolated" 
d="M500 1860h344l8 -8v-844l-8 -8h-344l-8 8v844zM1028 1860h344l8 -8v-1744c-8.66699 -72 -40.667 -108 -96 -108h-1168c-61.333 0 -100 30.667 -116 92v756c-0 74.667 41.333 112 124 112h724l8 -8v-592h164v1492zM341 -68h508l8 -8v-324l-8 -8h-180l-8 8v80h-128v-132
h276c22.667 0 38.667 -8 48 -24v-100c0 -24 -28 -36 -84 -36h-432l-8 8v36l8 8h292c14.667 0 24 5.33301 28 16v28c-3.33301 10.667 -15.333 16 -36 16h-284l-8 8v416z" />
    <glyph glyph-name="uniFEFA" unicode="&#xfee0;&#xfe88;" horiz-adv-x="1684" arabic-form="final" 
d="M341 -68h508l8 -8v-324l-8 -8h-180l-8 8v80h-128v-132h276c22.667 0 38.667 -8 48 -24v-100c0 -24 -28 -36 -84 -36h-432l-8 8v36l8 8h292c14.667 0 24 5.33301 28 16v28c-3.33301 10.667 -15.333 16 -36 16h-284l-8 8v416zM570 1860h344l8 -8v-844l-8 -8h-344l-8 8v844z
M186 0c-61.333 0 -100 30.667 -116 92v756c0 74.667 41.333 112 124 112h724l8 -8v-592h164v1492l8 8h344l8 -8v-1496h298l4 -8v-340l-4 -8h-1562z" />
    <glyph glyph-name="uniFEFB" unicode="&#xfedf;&#xfe8e;" horiz-adv-x="1728" arabic-form="isolated" 
d="M500 1860h344l8 -8v-844l-8 -8h-344l-8 8v844zM1028 1860h344l8 -8v-1744c-8.66699 -72 -40.667 -108 -96 -108h-1168c-61.333 0 -100 30.667 -116 92v756c-0 74.667 41.333 112 124 112h724l8 -8v-592h164v1492z" />
    <glyph glyph-name="uniFEFC" unicode="&#xfee0;&#xfe8e;" horiz-adv-x="1674" arabic-form="final" 
d="M570 1860h344l8 -8v-844l-8 -8h-344l-8 8v844zM186 0c-61.333 0 -100 30.667 -116 92v756c0 74.667 41.333 112 124 112h724l8 -8v-592h164v1492l8 8h344l8 -8v-1496h298l4 -8v-340l-4 -8h-1562z" />
    <glyph glyph-name="afii57410" unicode="&#x622;" horiz-adv-x="818" arabic-form="isolated" 
d="M227 1860h340l8 -8v-1844l-8 -8h-340l-8 8v1844zM716 2169l2 -0.999023c-55.333 -199.333 -177 -258 -365 -176c-117.333 23.333 -200.333 -1.33398 -249 -74.001l-4 1c26 138.667 74.333 216.834 145 234.5c70.667 17.667 131 8.16699 181 -28.5
c116 -57.333 212.667 -42.666 290 44z" />
    <glyph glyph-name="afii57411" unicode="&#x623;" horiz-adv-x="724" arabic-form="isolated" 
d="M108 2464h508l8 -8v-324l-8 -8h-180l-8 8v80h-128v-132h276c22.667 0 38.667 -8 48 -24v-100c0 -24 -28 -36 -84 -36h-432l-8 8v36l8 8h292c14.667 0 24 5.33301 28 16v28c-3.33301 10.667 -15.333 16 -36 16h-284l-8 8v416zM188 1864h348l8 -8v-1848l-8 -8h-348l-8 8
v1848z" />
    <glyph glyph-name="afii57412" unicode="&#x624;" horiz-adv-x="1468" arabic-form="isolated" 
d="M435 1603h516l8 -8v-324l-8 -8h-184l-8 8v80h-128v-132h276c22.667 0 38.667 -8 48 -24v-32l4 -64c0 -26.667 -26.667 -40 -80 -40h-444l-8 8v36l8 8h296c14.667 0 24 5.33301 28 16v20c0 16 -13.333 24 -40 24h-284l-8 8v416zM236 958l1024 0.000976562
c46.667 0 78.667 -18.667 96 -56c8 -12.667 12 -30 12 -52v-1332c-8.66699 -72 -40.667 -108 -96 -108h-1164l-8 8v344l8 8h996c66.667 0 100 21.333 100 64v164h-964c-64.667 0 -107.334 28 -128.001 84l-4 40v720c0 55.333 28 92.666 84 111.999zM964.001 654.001v-216
c0 -50.667 14.667 -76 44 -76h144c34.667 0 52 17.333 52 52v264c0 24 -16 37.333 -48 40h-148c-29.333 0 -44 -21.333 -44 -64z" />
    <glyph glyph-name="afii57413" unicode="&#x625;" horiz-adv-x="880" arabic-form="isolated" 
d="M189 1864h348l8 -8v-1848l-8 -8h-348l-8 8v1848zM108 -94h508l8 -8v-324l-8 -8h-180l-8 8v80h-128v-132h276c22.667 0 38.667 -8 48 -24v-100c0 -24 -28 -36 -84 -36h-432l-8 8v36l8 8h292c14.667 0 24 5.33301 28 16v28c-3.33301 10.667 -15.333 16 -36 16h-284l-8 8
v416z" />
    <glyph glyph-name="afii57414" unicode="&#x626;" horiz-adv-x="2820" arabic-form="isolated" 
d="M488 1860h515.999l8 -8v-324l-8 -8h-184l-8 8v80h-132v-132h284c20.667 0 35.334 -8 44.001 -24v-4l4 -96c0 -24 -26.667 -36 -80 -36h-444l-8 8v36l8 8h296c18.667 0 28 9.33301 28 28v16c-3.33301 10.667 -15.333 16 -36 16h-288l-8 8v416zM1876 1860
l724.001 0.000976562c52.667 0 88.667 -22.667 108 -68c8 -12.667 12 -32.667 12 -60v-820l-8 -8h-344l-8 8v256c0 48 -17.333 72 -52 72h-148c-26.667 0 -40 -16 -40 -48v-344c0 -53.333 22.667 -80 68 -80h396c82.667 -3.33301 124 -19.333 124 -48
c6.66699 0 10.667 -16 12 -48v-564c-8.66699 -72 -40.667 -108 -96 -108h-2408c-61.333 0 -100 30.667 -116 92v756c0 74.667 41.333 112 124 112h1352l8 -8v-344l-8 -8h-548c-45.333 0 -68 -17.333 -68 -52v-140c0 -32 30.667 -48 92 -48h1308v132
c0 72 -21.333 108 -64 108l-24 4h-424c-58.667 0 -88 28 -88 84v1048c0 53.333 21.333 90.666 64 111.999c13.333 8 30.666 12 51.999 12z" />
    <glyph glyph-name="afii57415" unicode="&#x627;" horiz-adv-x="564" arabic-form="isolated" 
d="M108 1864h348l8 -8v-1848l-8 -8h-348l-8 8v1848z" />
    <glyph glyph-name="afii57416" unicode="&#x628;" horiz-adv-x="3255" arabic-form="isolated" 
d="M1660 -110h204c58.667 0 88 -29.333 88 -88v-152c0 -77.333 -26.667 -116 -80 -116h-220c-42.667 0 -64 37.333 -64 112v152c0 61.333 24 92 72 92zM212 960l1364 0.000976562l8 -8v-344l-8 -8h-564c-34.667 0 -52 -18.667 -52 -56l-4 -36v-52
c0 -58.667 14.667 -88 44 -88l16 -4h1916c36.667 0 58 20 64 60v528l8 8h148l8 -8v-844c0 -72 -41.333 -108 -124 -108h-2804c-57.333 0 -97.333 20 -120 60c-8 13.333 -12 30.666 -12 51.999v740c9.33301 69.333 46.666 105.333 111.999 108z" />
    <glyph glyph-name="afii57417" unicode="&#x629;" horiz-adv-x="1992" arabic-form="isolated" 
d="M232 960h1608c68 0 108 -33.333 120 -100v-740c0 -52.667 -22.667 -88.667 -68 -108c-12.667 -8 -32.667 -12 -60 -12h-1604c-72.667 0 -115.334 34.667 -128.001 104v740c0 58 30.667 95.333 92 112zM956.001 456c0 -61.333 17.333 -92 52 -92l32 -4h660
c64 0 96 17.333 96 52v140c0 32 -18.667 48 -56 48h-716c-45.333 0 -68 -22.667 -68 -68v-76zM109.001 1707h508l8 -8v-324l-8 -8h-180l-8 8v80h-128v-132h276c22.667 0 38.667 -8 48 -24v-100c0 -24 -28 -36 -84 -36h-432l-8 8v36l8 8h292c14.667 0 24 5.33301 28 16v28
c-3.33301 10.667 -15.333 16 -36 16h-284l-8 8v416z" />
    <glyph glyph-name="afii57418" unicode="&#x62a;" horiz-adv-x="3255" arabic-form="isolated" 
d="M212 960l1364 0.000976562l8 -8v-344l-8 -8h-564c-34.667 0 -52 -18.667 -52 -56l-4 -36v-52c0 -58.667 14.667 -88 44 -88l16 -4h1916c36.667 0 58 20 64 60v528l8 8h148l8 -8v-844c0 -72 -41.333 -108 -124 -108h-2804c-57.333 0 -97.333 20 -120 60
c-8 13.333 -12 30.666 -12 51.999v740c9.33301 69.333 46.666 105.333 111.999 108zM2384 954.001h204c58.667 0 88 -29.333 88 -88v-152c0 -77.333 -26.667 -116 -80 -116h-220c-42.667 0 -64 37.333 -64 112v152c0 61.333 24 92 72 92zM1924 954.001h204
c58.667 0 88 -29.333 88 -88v-152c0 -77.333 -26.667 -116 -80 -116h-220c-42.667 0 -64 37.333 -64 112v152c0 61.333 24 92 72 92z" />
    <glyph glyph-name="afii57419" unicode="&#x62b;" horiz-adv-x="3255" arabic-form="isolated" 
d="M212 960l1364 0.000976562l8 -8v-344l-8 -8h-564c-34.667 0 -52 -18.667 -52 -56l-4 -36v-52c0 -58.667 14.667 -88 44 -88l16 -4h1916c36.667 0 58 20 64 60v528l8 8h148l8 -8v-844c0 -72 -41.333 -108 -124 -108h-2804c-57.333 0 -97.333 20 -120 60
c-8 13.333 -12 30.666 -12 51.999v740c9.33301 69.333 46.666 105.333 111.999 108zM2384 954.001h204c58.667 0 88 -29.333 88 -88v-152c0 -77.333 -26.667 -116 -80 -116h-220c-42.667 0 -64 37.333 -64 112v152c0 61.333 24 92 72 92zM1924 954.001h204
c58.667 0 88 -29.333 88 -88v-152c0 -77.333 -26.667 -116 -80 -116h-220c-42.667 0 -64 37.333 -64 112v152c0 61.333 24 92 72 92zM2152 1347h204c58.667 0 88 -29.333 88 -88v-152c0 -77.333 -26.667 -116 -80 -116h-220c-42.667 0 -64 37.333 -64 112v152
c0 61.333 24 92 72 92z" />
    <glyph glyph-name="afii57420" unicode="&#x62c;" horiz-adv-x="1713" arabic-form="isolated" 
d="M920 -724h208c56 0 84 -30.667 84 -92v-148c0 -77.333 -26.667 -116 -80 -116h-220c-42.667 0 -64 37.333 -64 112v152c0 61.333 24 92 72 92zM1613 -604h-1365c-98.667 0 -148 38.667 -148 116v736c0 58.667 32 96 96 112h12l476 4c24 0 37.333 22.667 40 68v90
c0 45.333 -22.667 68 -68 68h-548l-8 8v344l8 8h1356c80 0 120 -46.667 120 -140v-666c0 -96 -42.667 -144 -128 -144h-416c-56 -0 -84 -22.667 -84 -68v-76c0 -64 20 -96 60 -96h597v-364z" />
    <glyph glyph-name="afii57421" unicode="&#x62d;" horiz-adv-x="1713" arabic-form="isolated" 
d="M1613 -604h-1365c-98.667 0 -148 38.667 -148 116v736c0 58.667 32 96 96 112h12l476 4c24 0 37.333 22.667 40 68v90c0 45.333 -22.667 68 -68 68h-548l-8 8v344l8 8h1356c80 0 120 -46.667 120 -140v-666c0 -96 -42.667 -144 -128 -144h-416
c-56 -0 -84 -22.667 -84 -68v-76c0 -64 20 -96 60 -96h597v-364z" />
    <glyph glyph-name="afii57422" unicode="&#x62e;" horiz-adv-x="1713" arabic-form="isolated" 
d="M1613 -604h-1365c-98.667 0 -148 38.667 -148 116v736c0 58.667 32 96 96 112h12l476 4c24 0 37.333 22.667 40 68v90c0 45.333 -22.667 68 -68 68h-548l-8 8v344l8 8h1356c80 0 120 -46.667 120 -140v-666c0 -96 -42.667 -144 -128 -144h-416
c-56 -0 -84 -22.667 -84 -68v-76c0 -64 20 -96 60 -96h597v-364zM727 1432h204c58.667 0 88 -29.333 88 -88v-152c0 -77.333 -26.667 -116 -80 -116h-220c-42.667 0 -64 37.333 -64 112v152c0 61.333 24 92 72 92z" />
    <glyph glyph-name="afii57423" unicode="&#x62f;" horiz-adv-x="1420" arabic-form="isolated" 
d="M108 956h1100c74.667 -7.33301 112 -42 112 -104v-740c-8.66699 -74.667 -44.667 -112 -108 -112h-1104l-8 8v344l8 8h292c40 3.33301 60 19.333 60 48v144c-5.33301 29.333 -20 44 -44 44h-308l-8 8v344z" />
    <glyph glyph-name="afii57424" unicode="&#x630;" horiz-adv-x="1420" arabic-form="isolated" 
d="M588 1368h232c48 0 72 -28 72 -84v-164c0 -72 -32 -108 -96 -108h-184c-56 0 -84 37.333 -84 112v160c4.66699 56 24.667 84 60 84zM108 960h1088c82.667 0 124 -37.333 124 -112v-736c-8.66699 -74.667 -44.667 -112 -108 -112h-1104l-8 8v344l8 8h260
c61.333 0 92 16 92 48v140c0 34.667 -22.667 52 -68 52h-284l-8 8v344z" />
    <glyph glyph-name="afii57425" unicode="&#x631;" horiz-adv-x="1156" arabic-form="isolated" 
d="M468 950h580l8 -8v-1384c0 -98.667 -38.667 -148 -116 -148h-832l-8 8v148l8 8h304c32 0 48 24 48 72v1296z" />
    <glyph glyph-name="afii57426" unicode="&#x632;" horiz-adv-x="1156" arabic-form="isolated" 
d="M650 1416h208c56 0 84 -30.667 84 -92v-148c0 -77.333 -26.667 -116 -80 -116h-220c-42.667 0 -64 37.333 -64 112v152c0 61.333 24 92 72 92zM468 950h580l8 -8v-1384c0 -98.667 -38.667 -148 -116 -148h-832l-8 8v148l8 8h304c32 0 48 24 48 72v1296z" />
    <glyph glyph-name="afii57427" unicode="&#x633;" horiz-adv-x="2956" arabic-form="isolated" 
d="M212 956h1364l8 -8v-344l-8 -8h-564c-34.667 0 -52 -14.667 -52 -44v-144c0 -27.333 20 -43.333 60 -48h700c53.333 0 80 30.667 80 92v496l8 8h148l8 -8v-588h204c53.333 0 80 30.667 80 92v496l8 8h148l8 -8v-588h200c53.333 0 80 21.333 80 64v524l8 8h148l8 -8v-840
c0 -59.333 -30.667 -95.333 -92 -108h-2548c-61.333 0 -100 30.667 -116 92v756c9.33301 69.333 38.666 104 87.999 104z" />
    <glyph glyph-name="afii57428" unicode="&#x634;" horiz-adv-x="2956" arabic-form="isolated" 
d="M212 956h1364l8 -8v-344l-8 -8h-564c-34.667 0 -52 -14.667 -52 -44v-144c0 -27.333 20 -43.333 60 -48h700c53.333 0 80 30.667 80 92v496l8 8h148l8 -8v-588h204c53.333 0 80 30.667 80 92v496l8 8h148l8 -8v-588h200c53.333 0 80 21.333 80 64v524l8 8h148l8 -8v-840
c0 -59.333 -30.667 -95.333 -92 -108h-2548c-61.333 0 -100 30.667 -116 92v756c9.33301 69.333 38.666 104 87.999 104zM2224 1880h228.001c45.333 -7.33301 68 -30 68 -68v-196c0 -61.333 -30.667 -92 -92 -92h-196c-42 0 -66 25.333 -72 76v216
c5.33301 42.667 26.666 64 63.999 64zM2012 1448h180c64 0 96 -22.667 96 -68v-200c0 -61.333 -34.667 -92 -104 -92h-168c-58.667 0 -88 30.667 -88 92v188c0 53.333 28 80 84 80zM2656 1448c64 0 96 -28 96 -84v-180c0 -64 -33.333 -96 -100 -96h-176
c-58.667 0 -88 38.667 -88 116v136c0 72 26.667 108 80 108h188z" />
    <glyph glyph-name="afii57429" unicode="&#x635;" horiz-adv-x="3684" arabic-form="isolated" 
d="M240 960h1336l8 -8v-344l-8 -8h-544c-50.667 0 -76 -24 -76 -72v-64c0 -64 12 -96 36 -96c0 -5.33301 13.333 -8 40 -8h716v592l8 8h148l8 -8v-592h48v416c0 94 18.667 150 56 168c22 10.667 47.333 16 76 16h1332c80 0 130.667 -26.667 152 -80l8 -48v-824l-8 -8h-3360
c-61.333 0 -100 30.667 -116 92v756c0 74.667 46.667 112 140 112zM2124 444v-84.001h604v108c0 62.667 -12 101.334 -36 116.001c-24 10.667 -56 16 -96 16h-364c-44 0 -74.667 -12 -92 -36c-10.667 -24 -16 -64 -16 -120z" />
    <glyph glyph-name="afii57430" unicode="&#x636;" horiz-adv-x="3684" arabic-form="isolated" 
d="M2668 1398c48 0 72 -37.333 72 -112v-100c0 -88 -16 -132 -48 -132c0 -6.66699 -16 -10.667 -48 -12h-196c-45.333 7.33301 -68 30 -68 68l-4 24v184c0 40 16 66.667 48 80h244zM1756 964l148 -0.000976562l8 -8v-596h48v416c0 100.667 22.667 159.334 68 176.001l40 8
h1380c57.333 0 98.666 -24 124 -72c8 -17.333 12 -36 12 -56v-824l-8 -8h-3360c-65.333 -0 -104 33.333 -116 100v748c0 74.667 41.333 112 124 112h1352l8 -8v-344l-8 -8h-548c-48 0 -72 -25.333 -72 -76v-60c0 -66.667 16 -100 48 -100l48 -4h696v596zM2124 359.999h604
v108c0 64 -10.667 101.333 -32 112c-18.667 13.333 -44 20 -76 20h-400c-64 0 -96 -41.333 -96 -124v-116z" />
    <glyph glyph-name="afii57431" unicode="&#x637;" horiz-adv-x="2060" arabic-form="isolated" 
d="M108 1860h344l8 -8v-824l-8 -8h-344l-8 8v824zM204 960h1620c57.333 0 98.666 -24 123.999 -72c8 -17.333 12 -36 12 -56v-824l-8 -8h-1844l-8 8v824c7.33301 85.333 42 128 104 128zM264.001 508v-148h840v100c0 73.333 -13.333 116 -40 128c-26 8 -48.667 12 -68 12
h-640c-61.333 0 -92 -30.667 -92 -92z" />
    <glyph glyph-name="afii57432" unicode="&#x638;" horiz-adv-x="2060" arabic-form="isolated" 
d="M108 1860h344l8 -8v-824l-8 -8h-344l-8 8v824zM204 960h1620c57.333 0 98.666 -24 123.999 -72c8 -17.333 12 -36 12 -56v-824l-8 -8h-1844l-8 8v824c7.33301 85.333 42 128 104 128zM264.001 508v-148h840v100c0 73.333 -13.333 116 -40 128c-26 8 -48.667 12 -68 12
h-640c-61.333 0 -92 -30.667 -92 -92zM826.001 1378c48 0 72 -37.333 72 -112v-100c0 -88 -16 -132 -48 -132c0 -6.66699 -16 -10.667 -48 -12h-196c-45.333 7.33301 -68 30 -68 68l-4 24v184c0 40 16 66.667 48 80h244z" />
    <glyph glyph-name="afii57433" unicode="&#x639;" horiz-adv-x="1702" arabic-form="isolated" 
d="M1602 -590h-1386c-61.333 0 -100 30.667 -116 92v760c0 72 40 108 120 108h132v484c0 74.667 54.667 112 164 112h1048l8 -8v-348l-8 -8h-300c-37.333 0 -56 -30.667 -56 -92v-44c0 -61.333 9.33301 -92 28 -92l4 -4h336l8 -8v-344l-20 -16h-580
c-16 0 -25.333 -24 -28 -72v-64c0 -58.667 12 -88 36 -88c0 -5.33301 22.667 -8 68 -8h542v-360z" />
    <glyph glyph-name="afii57434" unicode="&#x63a;" horiz-adv-x="1702" arabic-form="isolated" 
d="M1602 -590h-1386c-61.333 0 -100 30.667 -116 92v760c0 72 40 108 120 108h132v484c0 74.667 54.667 112 164 112h1048l8 -8v-348l-8 -8h-300c-37.333 0 -56 -30.667 -56 -92v-44c0 -61.333 9.33301 -92 28 -92l4 -4h336l8 -8v-344l-20 -16h-580
c-16 0 -25.333 -24 -28 -72v-64c0 -58.667 12 -88 36 -88c0 -5.33301 22.667 -8 68 -8h542v-360zM1038 1440c48 0 72 -37.333 72 -112v-100c0 -88 -16 -132 -48 -132c0 -6.66699 -16 -10.667 -48 -12h-196c-45.333 7.33301 -68 30 -68 68l-4 24v184c0 40 16 66.667 48 80
h244z" />
    <glyph glyph-name="afii57441" unicode="&#x641;" horiz-adv-x="3260" arabic-form="isolated" 
d="M2620 1844c48 0 72 -30.667 72 -92v-144c0 -80 -32 -120 -96 -120h-184c-56 0 -84 33.333 -84 100v176c0 39.333 16 66 48 80h244zM2032 1428h1016c74.667 0 112 -38.667 112 -116v-1204c-8.66699 -72 -40.667 -108 -96 -108h-2848c-61.333 0 -100 30.667 -116 92v756
c0 74.667 42.667 112 128 112h1348l8 -8v-344l-8 -8h-544c-48 0 -72 -16 -72 -48v-144c0 -32 26.667 -48 80 -48h1856c66.667 0 100 22.667 100 68v40h-968c-88 0 -132 50.667 -132 152v660c0 98.667 45.333 148 136 148zM2756 1016v-115.999c0 -48 21.333 -72 64 -72h84
c58.667 0 88 13.333 88 40l4 16v144c0 23.333 -17.333 36.666 -52 39.999h-136c-34.667 0 -52 -17.333 -52 -52z" />
    <glyph glyph-name="afii57442" unicode="&#x642;" horiz-adv-x="3260" arabic-form="isolated" 
d="M2400 1872c48 0 72 -37.333 72 -112v-112c0 -65.333 -13.333 -105.333 -40 -120c-20.667 -8 -39.334 -12 -56 -12h-196c-45.333 7.33301 -68 30 -68 68l-4 24v184c0 40 16 66.667 48 80h244zM2636 1872h228c42.667 0 65.334 -26.667 68 -80v-184
c0 -61.333 -30.667 -92 -92 -92h-188c-40.667 0 -66 17.333 -76 52l-4 24v216c5.33301 42.667 26.666 64 64 64zM2020 1428h1032c59.333 0 95.333 -30.667 108 -92v-1228c-8.66699 -72 -40.667 -108 -96 -108h-2848c-61.333 0 -100 30.667 -116 92v756
c0 74.667 41.333 112 124 112h1352l8 -8v-344l-8 -8h-548c-45.333 0 -68 -17.333 -68 -52v-140c0 -32 30.667 -48 92 -48h1836c72 0 108 20 108 60v48h-972c-85.333 0 -128 50.667 -128 152v660c0 98.667 41.333 148 124 148zM2756 1016v-116c0 -45.333 14.667 -68 44 -68
h144c34.667 0 52 17.333 52 52v144c0 24 -16 37.333 -48 40h-144c-32 0 -48 -17.333 -48 -52z" />
    <glyph glyph-name="afii57443" unicode="&#x643;" horiz-adv-x="3570" arabic-form="isolated" 
d="M216 0c-61.333 0 -100 30.666 -116 91.999v756c0 74.667 41.333 112 124 112h922l8 -8v-344l-8 -8h-428c-45.333 0 -68 -17.333 -68 -52v-140c0 -32 30.667 -48 92 -48h1852v100c0 90.667 -24 136 -72 136l-24 4l-904 -8l-4 4v236c7.33301 85.333 42 128 104 128h140
c400 162 600 371.333 600 628c0 77.333 -20 164 -60 260l4 4h640c5.33301 0 8 -4 8 -12c0 -381.333 -177.333 -674.666 -532 -879.999h820c57.333 0 98.666 -24 124 -72c8 -17.333 12 -36 12 -56v-824l-8 -8h-3226z" />
    <glyph glyph-name="afii57444" unicode="&#x644;" horiz-adv-x="2180" arabic-form="isolated" 
d="M1728 1860h344l8 -8v-1744c-8.66699 -72 -40.667 -108 -96 -108h-1768c-61.333 0 -100 30.667 -116 92v756c0 74.667 41.333 112 124 112h1352l8 -8v-344l-8 -8h-548c-48 0 -72 -25.333 -72 -76v-68c0 -64 20 -96 60 -96h704v1492z" />
    <glyph glyph-name="afii57445" unicode="&#x645;" horiz-adv-x="2060" arabic-form="isolated" 
d="M584 964l1240 -0.000976562c63.333 0 106 -26.667 128 -80l8 -48v-824l-8 -8h-1492v-586l-8 -8h-344l-8 8v758c0 82.667 48 141.334 144 176.001c37.333 10.667 86.666 16 147.999 16h84v440c0 104 36 156 108 156zM640.001 503.999v-136.001h464v108
c0 80 -18.667 120 -56 120c0 4.66699 -16 7.33398 -48 8.00098h-272c-58.667 0 -88 -33.333 -88 -100z" />
    <glyph glyph-name="afii57446" unicode="&#x646;" horiz-adv-x="2060" arabic-form="isolated" 
d="M1608 978h344l8 -8v-1452c-8.66699 -72 -40.667 -108 -96 -108h-1648c-61.333 0 -100 30.667 -116 92v1356c0 74.667 50.667 112 152 112h696l8 -8v-1192h644v1200zM1332 442c88 0 132 -21.333 132 -64v-216c0 -46 -28 -72.667 -84 -80h-192c-56 0 -84 30.667 -84 92v184
c0 56 34.667 84 104 84h124z" />
    <glyph glyph-name="afii57470" unicode="&#x647;" horiz-adv-x="2046" arabic-form="isolated" 
d="M232 960h1608c68 0 108 -33.333 120 -100v-740c0 -52.667 -22.667 -88.667 -68 -108c-12.667 -8 -32.667 -12 -60 -12h-1604c-72.667 0 -115.334 34.667 -128.001 104v740c0 58 30.667 95.333 92 112zM956.001 456c0 -61.333 17.333 -92 52 -92l32 -4h660
c64 0 96 17.333 96 52v140c0 32 -18.667 48 -56 48h-716c-45.333 0 -68 -22.667 -68 -68v-76z" />
    <glyph glyph-name="afii57448" unicode="&#x648;" horiz-adv-x="1468" arabic-form="isolated" 
d="M236 958l1024 0.000976562c46.667 0 78.667 -18.667 96 -56c8 -12.667 12 -30 12 -52v-1332c-8.66699 -72 -40.667 -108 -96 -108h-1164l-8 8v344l8 8h996c66.667 0 100 21.333 100 64v164h-964c-64.667 0 -107.334 28 -128.001 84l-4 40v720
c0 55.333 28 92.666 84 111.999zM964.001 654.001v-216c0 -50.667 14.667 -76 44 -76h144c34.667 0 52 17.333 52 52v264c0 24 -16 37.333 -48 40h-148c-29.333 0 -44 -21.333 -44 -64z" />
    <glyph glyph-name="afii57449" unicode="&#x649;" horiz-adv-x="3404" arabic-form="isolated" 
d="M1876 1860l724.001 0.000976562c52.667 0 88.667 -22.667 108 -68c8 -12.667 12 -32.667 12 -60v-820l-8 -8h-344l-8 8v256c0 48 -17.333 72 -52 72h-148c-26.667 0 -40 -16 -40 -48v-344c0 -53.333 22.667 -80 68 -80h396c82.667 -3.33301 124 -19.333 124 -48
c6.66699 0 10.667 -16 12 -48v-564c-8.66699 -72 -40.667 -108 -96 -108h-2408c-61.333 0 -100 30.667 -116 92v756c0 74.667 41.333 112 124 112h1352l8 -8v-344l-8 -8h-548c-45.333 0 -68 -17.333 -68 -52v-140c0 -32 30.667 -48 92 -48h1308v132
c0 72 -21.333 108 -64 108l-24 4h-424c-58.667 0 -88 28 -88 84v1048c0 53.333 21.333 90.666 64 111.999c13.333 8 30.666 12 51.999 12z" />
    <glyph glyph-name="afii57450" unicode="&#x64a;" horiz-adv-x="3404" arabic-form="isolated" 
d="M1876 1860l724.001 0.000976562c52.667 0 88.667 -22.667 108 -68c8 -12.667 12 -32.667 12 -60v-820l-8 -8h-344l-8 8v256c0 48 -17.333 72 -52 72h-148c-26.667 0 -40 -16 -40 -48v-344c0 -53.333 22.667 -80 68 -80h396c82.667 -3.33301 124 -19.333 124 -48
c6.66699 0 10.667 -16 12 -48v-564c-8.66699 -72 -40.667 -108 -96 -108h-2408c-61.333 0 -100 30.667 -116 92v756c0 74.667 41.333 112 124 112h1352l8 -8v-344l-8 -8h-548c-45.333 0 -68 -17.333 -68 -52v-140c0 -32 30.667 -48 92 -48h1308v132
c0 72 -21.333 108 -64 108l-24 4h-424c-58.667 0 -88 28 -88 84v1048c0 53.333 21.333 90.666 64 111.999c13.333 8 30.666 12 51.999 12z" />
    <glyph glyph-name="afii57506" unicode="&#x67e;" horiz-adv-x="3255" arabic-form="isolated" 
d="M212 960l1364 0.000976562l8 -8v-344l-8 -8h-564c-34.667 0 -52 -18.667 -52 -56l-4 -36v-52c0 -58.667 14.667 -88 44 -88l16 -4h1916c36.667 0 58 20 64 60v528l8 8h148l8 -8v-844c0 -72 -41.333 -108 -124 -108h-2804c-57.333 0 -97.333 20 -120 60
c-8 13.333 -12 30.666 -12 51.999v740c9.33301 69.333 46.666 105.333 111.999 108zM2060 -371.999v152c0 74.667 21.333 112 64 112h220c53.333 0 80 -38.667 80 -116v-152c0 -58.667 -29.333 -88 -88 -88h-204c-48 0 -72 30.667 -72 92zM1600 -371.999v152
c0 74.667 21.333 112 64 112h220c53.333 0 80 -38.667 80 -116v-152c0 -58.667 -29.333 -88 -88 -88h-204c-48 0 -72 30.667 -72 92zM1828 -764.999v152c0 74.667 21.333 112 64 112h220c53.333 0 80 -38.667 80 -116v-152c0 -58.667 -29.333 -88 -88 -88h-204
c-48 0 -72 30.667 -72 92z" />
    <glyph glyph-name="afii57507" unicode="&#x686;" horiz-adv-x="1713" arabic-form="isolated" 
d="M1613 -604h-1365c-98.667 0 -148 38.667 -148 116v736c0 58.667 32 96 96 112h12l476 4c24 0 37.333 22.667 40 68v90c0 45.333 -22.667 68 -68 68h-548l-8 8v344l8 8h1356c80 0 120 -46.667 120 -140v-666c0 -96 -42.667 -144 -128 -144h-416
c-56 -0 -84 -22.667 -84 -68v-76c0 -64 20 -96 60 -96h597v-364zM971 -920v127c0 62 17.667 93 53 93h183c44 0 66 -32.333 66 -97v-126c0 -48.667 -24.333 -73 -73 -73h-169c-40 0 -60 25.333 -60 76zM589 -920v127c0 62 17.667 93 53 93h183c44 0 66 -32.333 66 -97v-126
c0 -48.667 -24.333 -73 -73 -73h-169c-40 0 -60 25.333 -60 76zM778 -1246v126c0 62 18 93 54 93h182c44.667 0 67 -32 67 -96v-126c0 -49.333 -24.333 -74 -73 -74h-170c-40 0 -60 25.667 -60 77z" />
    <glyph glyph-name="afii57508" unicode="&#x698;" horiz-adv-x="1156" arabic-form="isolated" 
d="M468 950h580l8 -8v-1384c0 -98.667 -38.667 -148 -116 -148h-832l-8 8v148l8 8h304c32 0 48 24 48 72v1296zM832 1359h169c48.667 0 73 -24.333 73 -73v-127c0 -64 -22 -96 -66 -96h-183c-35.333 0 -53 31 -53 93v126c0 51.333 20 77 60 77zM450 1359h169
c48.667 0 73 -24.333 73 -73v-127c0 -64 -22 -96 -66 -96h-183c-35.333 0 -53 31 -53 93v126c0 51.333 20 77 60 77zM639 1685h170c48.667 0 73 -24.333 73 -73v-126c0 -64.667 -22.333 -97 -67 -97h-182c-36 0 -54 31 -54 93v127c0 50.667 20 76 60 76z" />
    <glyph glyph-name="afii57509" unicode="&#x6af;" horiz-adv-x="3570" arabic-form="isolated" 
d="M216 0c-61.333 0 -100 30.666 -116 91.999v756c0 74.667 41.333 112 124 112h922l8 -8v-344l-8 -8h-428c-45.333 0 -68 -17.333 -68 -52v-140c0 -32 30.667 -48 92 -48h1852v100c0 90.667 -24 136 -72 136l-24 4l-904 -8l-4 4v236c7.33301 85.333 42 128 104 128h140
c400 162 600 371.333 600 628c0 77.333 -20 164 -60 260l4 4h640c5.33301 0 8 -4 8 -12c0 -381.333 -177.333 -674.666 -532 -879.999h820c57.333 0 98.666 -24 124 -72c8 -17.333 12 -36 12 -56v-824l-8 -8h-3226zM1744 1171l0.999023 143
c220.667 148.667 308.667 300.667 264.001 456h232c132 -298 -33.667 -536.333 -497 -715v116z" />
    <glyph glyph-name="uniFB57" unicode="&#x67e;" horiz-adv-x="3418" arabic-form="final" 
d="M3160 356l341.001 0.000976562l18 -8v-340l-18 -8h-3269c-57.333 0 -97.333 20 -120 60c-8 13.333 -12 30.666 -12 51.999v740c9.33301 69.333 46.666 105.333 111.999 108h1364l8 -8v-344l-8 -8h-564c-34.667 0 -52 -18.667 -52 -56l-4 -36v-52
c0 -58.667 14.667 -88 44 -88l16 -4h1916c36.667 0 58 20 64 60v528l8 8h148l8 -8v-596zM2068 -371.999v152c0 74.667 21.333 112 64 112h220c53.333 0 80 -38.667 80 -116v-152c0 -58.667 -29.333 -88 -88 -88h-204c-48 0 -72 30.667 -72 92zM1608 -371.999v152
c0 74.667 21.333 112 64 112h220c53.333 0 80 -38.667 80 -116v-152c0 -58.667 -29.333 -88 -88 -88h-204c-48 0 -72 30.667 -72 92zM1836 -764.999v152c0 74.667 21.333 112 64 112h220c53.333 0 80 -38.667 80 -116v-152c0 -58.667 -29.333 -88 -88 -88h-204
c-48 0 -72 30.667 -72 92z" />
    <glyph glyph-name="uniFB58" unicode="&#x67e;" horiz-adv-x="1054" arabic-form="initial" 
d="M763 956h148l8 -8v-840c0 -59.333 -30.667 -95.333 -92 -108h-628l-238 8v344l8 8h706c53.333 0 80 21.333 80 64v524zM535 -372v152c0 74.667 21.333 112 64 112h220c53.333 0 80 -38.667 80 -116v-152c0 -58.667 -29.333 -88 -88 -88h-204c-48 0 -72 30.667 -72 92z
M75 -372v152c0 74.667 21.333 112 64 112h220c53.333 0 80 -38.667 80 -116v-152c0 -58.667 -29.333 -88 -88 -88h-204c-48 0 -72 30.667 -72 92zM303 -765v152c0 74.667 21.333 112 64 112h220c53.333 0 80 -38.667 80 -116v-152c0 -58.667 -29.333 -88 -88 -88h-204
c-48 0 -72 30.667 -72 92z" />
    <glyph glyph-name="uniFB59" unicode="&#x67e;" horiz-adv-x="1022" arabic-form="medial" 
d="M508 956h152l8 -8v-524c0 -42.667 26.667 -64 80 -64h272l8 -8v-344l-8 -8h-1062l-8 8v344l8 8h462c53.333 0 80 21.333 80 64v524zM566 -371v152c0 74.667 21.333 112 64 112h220c53.333 0 80 -38.667 80 -116v-152c0 -58.667 -29.333 -88 -88 -88h-204
c-48 0 -72 30.667 -72 92zM106 -371v152c0 74.667 21.333 112 64 112h220c53.333 0 80 -38.667 80 -116v-152c0 -58.667 -29.333 -88 -88 -88h-204c-48 0 -72 30.667 -72 92zM334 -764v152c0 74.667 21.333 112 64 112h220c53.333 0 80 -38.667 80 -116v-152
c0 -58.667 -29.333 -88 -88 -88h-204c-48 0 -72 30.667 -72 92z" />
    <glyph glyph-name="uniFB7B" unicode="&#x686;" horiz-adv-x="1795" arabic-form="final" 
d="M1572 69c-18 -46 -56.667 -69 -116 -69h-416c-56 -0 -84 -22.667 -84 -68v-76c0 -64 20 -96 60 -96h597v-364h-1365c-98.667 0 -148 38.667 -148 116v736c0 58.667 32 96 96 112h12l476 4c24 0 37.333 22.667 40 68v90c0 45.333 -22.667 68 -68 68h-548l-8 8v344l8 8
h1356c80 0 120 -46.667 120 -140v-454h308l5 -8v-340l-5 -8h-315l-5 8v61zM971 -920v127c0 62 17.667 93 53 93h183c44 0 66 -32.333 66 -97v-126c0 -48.667 -24.333 -73 -73 -73h-169c-40 0 -60 25.333 -60 76zM589 -920v127c0 62 17.667 93 53 93h183
c44 0 66 -32.333 66 -97v-126c0 -48.667 -24.333 -73 -73 -73h-169c-40 0 -60 25.333 -60 76zM778 -1246v126c0 62 18 93 54 93h182c44.667 0 67 -32 67 -96v-126c0 -49.333 -24.333 -74 -73 -74h-170c-40 0 -60 25.667 -60 77z" />
    <glyph glyph-name="uniFB7C" unicode="&#x686;" horiz-adv-x="1704" arabic-form="initial" 
d="M8 956h1336c56.667 0 94 -22.667 112 -68l8 -48v-480h144l8 -8v-344l-8 -8h-1600l-8 8v344l8 8h524c48 0 72 20 72 60v120c-3.33301 37.333 -19.333 56 -48 56h-548l-8 8v344zM874 -371v152c0 74.667 21.333 112 64 112h220c53.333 0 80 -38.667 80 -116v-152
c0 -58.667 -29.333 -88 -88 -88h-204c-48 0 -72 30.667 -72 92zM414 -371v152c0 74.667 21.333 112 64 112h220c53.333 0 80 -38.667 80 -116v-152c0 -58.667 -29.333 -88 -88 -88h-204c-48 0 -72 30.667 -72 92zM642 -764v152c0 74.667 21.333 112 64 112h220
c53.333 0 80 -38.667 80 -116v-152c0 -58.667 -29.333 -88 -88 -88h-204c-48 0 -72 30.667 -72 92z" />
    <glyph glyph-name="uniFB7D" unicode="&#x686;" horiz-adv-x="1765" arabic-form="medial" 
d="M88 956h1336c56.667 0 94 -22.667 112 -68l8 -48v-480h244l8 -8v-344l-8 -8h-1800l-8 8v344l8 8h624c48 0 72 20 72 60v120c-3.33301 37.333 -19.333 56 -48 56h-548l-8 8v344zM966 -372v152c0 74.667 21.333 112 64 112h220c53.333 0 80 -38.667 80 -116v-152
c0 -58.667 -29.333 -88 -88 -88h-204c-48 0 -72 30.667 -72 92zM506 -372v152c0 74.667 21.333 112 64 112h220c53.333 0 80 -38.667 80 -116v-152c0 -58.667 -29.333 -88 -88 -88h-204c-48 0 -72 30.667 -72 92zM734 -765v152c0 74.667 21.333 112 64 112h220
c53.333 0 80 -38.667 80 -116v-152c0 -58.667 -29.333 -88 -88 -88h-204c-48 0 -72 30.667 -72 92z" />
    <glyph glyph-name="uniFB8B" unicode="&#x698;" horiz-adv-x="1268" arabic-form="final" 
d="M1056 356h225l7 -8v-340l-7 -8h-225v-442c0 -98.667 -38.667 -148 -116 -148h-832l-8 8v148l8 8h304c32 0 48 24 48 72v1296l8 8h580l8 -8v-586zM832 1359h169c48.667 0 73 -24.333 73 -73v-127c0 -64 -22 -96 -66 -96h-183c-35.333 0 -53 31 -53 93v126
c0 51.333 20 77 60 77zM450 1359h169c48.667 0 73 -24.333 73 -73v-127c0 -64 -22 -96 -66 -96h-183c-35.333 0 -53 31 -53 93v126c0 51.333 20 77 60 77zM639 1685h170c48.667 0 73 -24.333 73 -73v-126c0 -64.667 -22.333 -97 -67 -97h-182c-36 0 -54 31 -54 93v127
c0 50.667 20 76 60 76z" />
    <glyph glyph-name="uniFB8F" unicode="&#x6a9;" horiz-adv-x="3708" arabic-form="final" 
d="M216 0c-61.333 0 -100 30.666 -116 91.999v756c0 74.667 41.333 112 124 112h922l8 -8v-344l-8 -8h-428c-45.333 0 -68 -17.333 -68 -52v-140c0 -32 30.667 -48 92 -48h1852v100c0 90.667 -24 136 -72 136l-24 4l-904 -8l-4 4v236c7.33301 85.333 42 128 104 128h140
c400 162 600 371.333 600 628c0 77.333 -20 164 -60 260l4 4h640c5.33301 0 8 -4 8 -12c0 -381.333 -177.333 -674.666 -532 -879.999h820c57.333 0 98.666 -24 124 -72c8 -17.333 12 -36 12 -56v-476h298l35 -8v-340l-35 -8h-3532z" />
    <glyph glyph-name="uniFB90" unicode="&#x6a9;" horiz-adv-x="1980" arabic-form="initial" 
d="M784 1848l4.00098 3.99902h640c5.33301 0 8 -4 8 -12c0 -381.333 -177.333 -674.666 -532 -879.999h820c57.333 0 98.666 -24 123.999 -72c8 -17.333 12 -36 12 -56v-824l-8 -8h-1944l-8 8v344l8 8h1096v100c0 90.667 -24 136 -72 136l-24 4l-904 -8l-4 4v236
c7.33301 85.333 42 128 104 128h140c400 162 600 371.333 600 628c0 77.333 -20 164 -60 260z" />
    <glyph glyph-name="uniFB91" unicode="&#x6a9;" horiz-adv-x="2338" arabic-form="medial" 
d="M2080 356l298.001 -0.000976562l35 -8v-340l-35 -8h-2425l-36 8v340l36 8h171l4 4h1096v100c0 90.667 -24 136 -72 136l-24 4l-904 -8l-4 4v236c7.33301 85.333 42 128 104 128h140c400 162 600 371.333 600 628c0 77.333 -20 164 -60 260l4 4h640c5.33301 0 8 -4 8 -12
c0 -381.333 -177.333 -674.666 -532 -879.999h820c57.333 0 98.666 -24 123.999 -72c8 -17.333 12 -36 12 -56v-476z" />
    <glyph glyph-name="uniFB93" unicode="&#x6af;" horiz-adv-x="3708" arabic-form="final" 
d="M216 0c-61.333 0 -100 30.666 -116 91.999v756c0 74.667 41.333 112 124 112h922l8 -8v-344l-8 -8h-428c-45.333 0 -68 -17.333 -68 -52v-140c0 -32 30.667 -48 92 -48h1852v100c0 90.667 -24 136 -72 136l-24 4l-904 -8l-4 4v236c7.33301 85.333 42 128 104 128h140
c400 162 600 371.333 600 628c0 77.333 -20 164 -60 260l4 4h640c5.33301 0 8 -4 8 -12c0 -381.333 -177.333 -674.666 -532 -879.999h820c57.333 0 98.666 -24 124 -72c8 -17.333 12 -36 12 -56v-476h298l35 -8v-340l-35 -8h-3532zM1744 1171l0.999023 143
c220.667 148.667 308.667 300.667 264.001 456h232c132 -298 -33.667 -536.333 -497 -715v116z" />
    <glyph glyph-name="uniFB94" unicode="&#x6af;" horiz-adv-x="1980" arabic-form="initial" 
d="M784 1848l4.00098 3.99902h640c5.33301 0 8 -4 8 -12c0 -381.333 -177.333 -674.666 -532 -879.999h820c57.333 0 98.666 -24 123.999 -72c8 -17.333 12 -36 12 -56v-824l-8 -8h-1944l-8 8v344l8 8h1096v100c0 90.667 -24 136 -72 136l-24 4l-904 -8l-4 4v236
c7.33301 85.333 42 128 104 128h140c400 162 600 371.333 600 628c0 77.333 -20 164 -60 260zM144.001 1171l1 143c220.667 148.667 308.667 300.667 264 456h232c132 -298 -33.667 -536.333 -497 -715v116z" />
    <glyph glyph-name="uniFB95" unicode="&#x6af;" horiz-adv-x="2338" arabic-form="medial" 
d="M2080 356l298.001 -0.000976562l35 -8v-340l-35 -8h-2425l-36 8v340l36 8h171l4 4h1096v100c0 90.667 -24 136 -72 136l-24 4l-904 -8l-4 4v236c7.33301 85.333 42 128 104 128h140c400 162 600 371.333 600 628c0 77.333 -20 164 -60 260l4 4h640c5.33301 0 8 -4 8 -12
c0 -381.333 -177.333 -674.666 -532 -879.999h820c57.333 0 98.666 -24 123.999 -72c8 -17.333 12 -36 12 -56v-476zM364.001 1171l1 143c220.667 148.667 308.667 300.667 264 456h232c132 -298 -33.667 -536.333 -497 -715v116z" />
    <glyph glyph-name="uniFBA5" unicode="&#x6c0;" horiz-adv-x="1950" arabic-form="final" 
d="M856 456c0 -61.333 17.333 -92 52 -92l32 -4h672c56 0 84 18.667 84 56v140c0 29.333 -22.667 44 -68 44h-700c-48 0 -72 -21.333 -72 -64v-80zM128 0c-72.667 0 -115.333 34.667 -128 104v740c0 62 36 100.667 108 116h1588v116c-4 34.667 -20 52 -48 52h-832l-8 8v344
l8 8h896c98.667 0 148 -38.667 148 -116v-1012h130l8 -8v-344l-8 -8h-1862zM109.001 1707h508l8 -8v-324l-8 -8h-180l-8 8v80h-128v-132h276c22.667 0 38.667 -8 48 -24v-100c0 -24 -28 -36 -84 -36h-432l-8 8v36l8 8h292c14.667 0 24 5.33301 28 16v28
c-3.33301 10.667 -15.333 16 -36 16h-284l-8 8v416z" />
    <glyph glyph-name="uniFBFD" unicode="&#x6cc;" horiz-adv-x="2850" arabic-form="final" 
d="M2910 360l8 -7.99902v-344l-8 -8h-578c-48 0 -74.667 32 -80 96v544c0 34.667 -22.667 52 -68 52h-112c-34.667 0 -52 -20 -52 -60v-524c0 -49.333 -24 -84 -72 -104l-44 -4h-1788c-61.333 0 -100 30.667 -116 92v756c0 58.667 32 96 96 112h1380l8 -8v-344l-8 -8h-556
c-42.667 0 -64 -28 -64 -84v-60c0 -61.333 17.333 -92 52 -92l32 -4h720v820c0 69.333 29.333 110.666 88 123.999l28 4h724c72.667 0 112.667 -42.667 120 -128v-820h290z" />
    <glyph glyph-name="uniFBFE" unicode="&#x6cc;" horiz-adv-x="892" arabic-form="initial" 
d="M672 956h148l8 -8v-840c0 -59.333 -30.667 -95.333 -92 -108h-628l-108 8v344l8 8h576c53.333 0 80 21.333 80 64v524zM92 -44h196c56 0 84 -22.667 84 -68v-200c0 -58.667 -25.333 -88 -76 -88h-216c-45.333 0 -68 29.333 -68 88v188c0 53.333 26.667 80 80 80zM544 -44
h208c56 0 84 -24 84 -72v-192c0 -52 -24 -82.667 -72 -92h-220c-38 0 -60.667 24 -68 72v220c0 38 22.667 59.333 68 64z" />
    <glyph glyph-name="uniFBFF" unicode="&#x6cc;" horiz-adv-x="872" arabic-form="medial" 
d="M92 -44h196c56 0 84 -22.667 84 -68v-200c0 -58.667 -25.333 -88 -76 -88h-216c-45.333 0 -68 29.333 -68 88v188c0 53.333 26.667 80 80 80zM544 -44h208c56 0 84 -24 84 -72v-192c0 -52 -24 -82.667 -72 -92h-220c-38 0 -60.667 24 -68 72v220
c0 38 22.667 59.333 68 64zM348 956h152l8 -8v-524c0 -42.667 26.667 -64 80 -64h272l8 -8v-344l-8 -8h-852l-8 8v344l8 8h252c53.333 0 80 21.333 80 64v524z" />
    <glyph glyph-name="uniFE82" unicode="&#x622;" horiz-adv-x="808" arabic-form="final" 
d="M196 1864h348l8 -8v-1428c0 -45.333 33.333 -68 100 -68h196l8 -8v-344l-8 -8h-652l-8 8v1848zM716 2169l2 -0.999023c-55.333 -199.333 -177 -258 -365 -176c-117.333 23.333 -200.333 -1.33398 -249 -74.001l-4 1c26 138.667 74.333 216.834 145 234.5
c70.667 17.667 131 8.16699 181 -28.5c116 -57.333 212.667 -42.666 290 44z" />
    <glyph glyph-name="uniFE84" unicode="&#x623;" horiz-adv-x="744" arabic-form="final" 
d="M108 2464h512l8 -8v-324l-8 -8h-184l-8 8v80h-128v-132h268c40 0 60 -13.333 60 -40v-80c0 -26.667 -25.333 -40 -76 -40h-444l-8 8v36l8 8h296c14 0 22 4 24 12v36c0 8 -14.667 12 -44 12h-276l-8 8v416zM184 1864h348l8 -8v-1428c0 -45.333 33.333 -68 100 -68h146
l8 -8v-344l-8 -8h-602l-8 8v1848z" />
    <glyph glyph-name="uniFE86" unicode="&#x624;" horiz-adv-x="1567" arabic-form="final" 
d="M964 654v-216c0 -50.667 14.667 -76 44 -76h144c34.667 0 52 17.333 52 52v264c0 24 -16 37.333 -48 40h-148c-29.333 0 -44 -21.333 -44 -64zM1368 356l237.001 0.000976562l4 -8v-340l-4 -8h-237v-482c-8.66699 -72 -40.667 -108 -96 -108h-1164l-8 8v344l8 8h996
c66.667 0 100 21.333 100 64v164h-964c-64.667 0 -107.334 28 -128.001 84l-4 40v720c0 55.333 28 92.666 84 111.999l44 4h1024c46.667 0 78.667 -18.667 96 -56c8 -12.667 12 -30 12 -52v-494zM435.001 1603h516l8 -8v-324l-8 -8h-184l-8 8v80h-128v-132h276
c22.667 0 38.667 -8 48 -24v-32l4 -64c0 -26.667 -26.667 -40 -80 -40h-444l-8 8v36l8 8h296c14.667 0 24 5.33301 28 16v20c0 16 -13.333 24 -40 24h-284l-8 8v416z" />
    <glyph glyph-name="uniFE88" unicode="&#x625;" horiz-adv-x="985" arabic-form="final" 
d="M184 1864h348l8 -8v-1428c0 -45.333 33.333 -68 100 -68h146l8 -8v-344l-8 -8h-602l-8 8v1848zM178 -94h508l8 -8v-324l-8 -8h-180l-8 8v80h-128v-132h276c22.667 0 38.667 -8 48 -24v-100c0 -24 -28 -36 -84 -36h-432l-8 8v36l8 8h292c14.667 0 24 5.33301 28 16v28
c-3.33301 10.667 -15.333 16 -36 16h-284l-8 8v416z" />
    <glyph glyph-name="uniFE8A" unicode="&#x626;" horiz-adv-x="2850" arabic-form="final" 
d="M1876 1308l724 0.000976562c72.667 0 112.667 -42.667 120 -128v-820h150l8 -8v-344l-8 -8h-438c-48 0 -74.667 32 -80 96v544c0 34.667 -22.667 52 -68 52h-112c-34.667 0 -52 -20 -52 -60v-524c0 -49.333 -24 -84 -72 -104l-44 -4h-1788c-61.333 0 -100 30.667 -116 92
v756c0 58.667 32 96 96 112h1380l8 -8v-344l-8 -8h-556c-42.667 0 -64 -28 -64 -84v-60c0 -61.333 17.333 -92 52 -92l32 -4h720v820c0 69.333 29.333 110.666 88 123.999zM588 1860h515.999l8 -8v-324l-8 -8h-184l-8 8v80h-132v-132h284c20.667 0 35.334 -8 44.001 -24v-4
l4 -96c0 -24 -26.667 -36 -80 -36h-444l-8 8v36l8 8h296c18.667 0 28 9.33301 28 28v16c-3.33301 10.667 -15.333 16 -36 16h-288l-8 8v416z" />
    <glyph glyph-name="uniFE8B" unicode="&#x626;" horiz-adv-x="943" arabic-form="initial" 
d="M672 956h148l8 -8v-840c0 -59.333 -30.667 -95.333 -92 -108h-628l-108 8v344l8 8h576c53.333 0 80 21.333 80 64v524zM306 1566h515.999l8 -8v-324l-8 -8h-184l-8 8v80h-132v-132h284c20.667 0 35.334 -8 44.001 -24v-4l4 -96c0 -24 -26.667 -36 -80 -36h-444l-8 8v36
l8 8h296c18.667 0 28 9.33301 28 28v16c-3.33301 10.667 -15.333 16 -36 16h-288l-8 8v416z" />
    <glyph glyph-name="uniFE8C" unicode="&#x626;" horiz-adv-x="862" arabic-form="medial" 
d="M348 956h152l8 -8v-524c0 -42.667 26.667 -64 80 -64h272l8 -8v-344l-8 -8h-852l-8 8v344l8 8h252c53.333 0 80 21.333 80 64v524zM156 1566h515.999l8 -8v-324l-8 -8h-184l-8 8v80h-132v-132h284c20.667 0 35.334 -8 44.001 -24v-4l4 -96c0 -24 -26.667 -36 -80 -36
h-444l-8 8v36l8 8h296c18.667 0 28 9.33301 28 28v16c-3.33301 10.667 -15.333 16 -36 16h-288l-8 8v416z" />
    <glyph glyph-name="uniFE8E" unicode="&#x627;" horiz-adv-x="702" arabic-form="final" 
d="M108 1864h348l8 -8v-1428c0 -45.333 33.333 -68 100 -68h146l8 -8v-344l-8 -8h-602l-8 8v1848z" />
    <glyph glyph-name="uniFE90" unicode="&#x628;" horiz-adv-x="3418" arabic-form="final" 
d="M1660 -110h204c58.667 0 88 -29.333 88 -88v-152c0 -77.333 -26.667 -116 -80 -116h-220c-42.667 0 -64 37.333 -64 112v152c0 61.333 24 92 72 92zM3160 356l341.001 0.000976562l18 -8v-340l-18 -8h-3269c-57.333 0 -97.333 20 -120 60
c-8 13.333 -12 30.666 -12 51.999v740c9.33301 69.333 46.666 105.333 111.999 108h1364l8 -8v-344l-8 -8h-564c-34.667 0 -52 -18.667 -52 -56l-4 -36v-52c0 -58.667 14.667 -88 44 -88l16 -4h1916c36.667 0 58 20 64 60v528l8 8h148l8 -8v-596z" />
    <glyph glyph-name="uniFE91" unicode="&#x628;" horiz-adv-x="963" arabic-form="initial" 
d="M672 956h148l8 -8v-840c0 -59.333 -30.667 -95.333 -92 -108h-628l-108 8v344l8 8h576c53.333 0 80 21.333 80 64v524zM530 -110h204c58.667 0 88 -29.333 88 -88v-152c0 -77.333 -26.667 -116 -80 -116h-220c-42.667 0 -64 37.333 -64 112v152c0 61.333 24 92 72 92z
" />
    <glyph glyph-name="uniFE92" unicode="&#x628;" horiz-adv-x="862" arabic-form="medial" 
d="M348 956h152l8 -8v-524c0 -42.667 26.667 -64 80 -64h272l8 -8v-344l-8 -8h-852l-8 8v344l8 8h252c53.333 0 80 21.333 80 64v524zM310 -110h204c58.667 0 88 -29.333 88 -88v-152c0 -77.333 -26.667 -116 -80 -116h-220c-42.667 0 -64 37.333 -64 112v152
c0 61.333 24 92 72 92z" />
    <glyph glyph-name="uniFE96" unicode="&#x62a;" horiz-adv-x="3387" arabic-form="final" 
d="M2384 954h204c58.667 0 88 -29.333 88 -88v-152c0 -77.333 -26.667 -116 -80 -116h-220c-42.667 0 -64 37.333 -64 112v152c0 61.333 24 92 72 92zM1924 954h204c58.667 0 88 -29.333 88 -88v-152c0 -77.333 -26.667 -116 -80 -116h-220c-42.667 0 -64 37.333 -64 112
v152c0 61.333 24 92 72 92zM3160 356l341.001 0.000976562l18 -8v-340l-18 -8h-3269c-57.333 0 -97.333 20 -120 60c-8 13.333 -12 30.666 -12 51.999v740c9.33301 69.333 46.666 105.333 111.999 108h1364l8 -8v-344l-8 -8h-564c-34.667 0 -52 -18.667 -52 -56l-4 -36v-52
c0 -58.667 14.667 -88 44 -88l16 -4h1916c36.667 0 58 20 64 60v528l8 8h148l8 -8v-596z" />
    <glyph glyph-name="uniFE97" unicode="&#x62a;" horiz-adv-x="1014" arabic-form="initial" 
d="M672 956h148l8 -8v-840c0 -59.333 -30.667 -95.333 -92 -108h-628l-108 8v344l8 8h576c53.333 0 80 21.333 80 64v524zM556 1401h204c58.667 0 88 -29.333 88 -88v-152c0 -77.333 -26.667 -116 -80 -116h-220c-42.667 0 -64 37.333 -64 112v152c0 61.333 24 92 72 92z
M96 1401h204c58.667 0 88 -29.333 88 -88v-152c0 -77.333 -26.667 -116 -80 -116h-220c-42.667 0 -64 37.333 -64 112v152c0 61.333 24 92 72 92z" />
    <glyph glyph-name="uniFE98" unicode="&#x62a;" horiz-adv-x="872" arabic-form="medial" 
d="M348 956h152l8 -8v-524c0 -42.667 26.667 -64 80 -64h272l8 -8v-344l-8 -8h-852l-8 8v344l8 8h252c53.333 0 80 21.333 80 64v524zM556 1401h204c58.667 0 88 -29.333 88 -88v-152c0 -77.333 -26.667 -116 -80 -116h-220c-42.667 0 -64 37.333 -64 112v152
c0 61.333 24 92 72 92zM96 1401h204c58.667 0 88 -29.333 88 -88v-152c0 -77.333 -26.667 -116 -80 -116h-220c-42.667 0 -64 37.333 -64 112v152c0 61.333 24 92 72 92z" />
    <glyph glyph-name="uniFE9A" unicode="&#x62b;" horiz-adv-x="3408" arabic-form="final" 
d="M2384 954h204c58.667 0 88 -29.333 88 -88v-152c0 -77.333 -26.667 -116 -80 -116h-220c-42.667 0 -64 37.333 -64 112v152c0 61.333 24 92 72 92zM1924 954h204c58.667 0 88 -29.333 88 -88v-152c0 -77.333 -26.667 -116 -80 -116h-220c-42.667 0 -64 37.333 -64 112
v152c0 61.333 24 92 72 92zM2152 1347h204c58.667 0 88 -29.333 88 -88v-152c0 -77.333 -26.667 -116 -80 -116h-220c-42.667 0 -64 37.333 -64 112v152c0 61.333 24 92 72 92zM3160 356l341.001 0.000976562l18 -8v-340l-18 -8h-3269c-57.333 0 -97.333 20 -120 60
c-8 13.333 -12 30.666 -12 51.999v740c9.33301 69.333 46.666 105.333 111.999 108h1364l8 -8v-344l-8 -8h-564c-34.667 0 -52 -18.667 -52 -56l-4 -36v-52c0 -58.667 14.667 -88 44 -88l16 -4h1916c36.667 0 58 20 64 60v528l8 8h148l8 -8v-596z" />
    <glyph glyph-name="uniFE9B" unicode="&#x62b;" horiz-adv-x="1012" arabic-form="initial" 
d="M672 956h148l8 -8v-840c0 -59.333 -30.667 -95.333 -92 -108h-628l-108 8v344l8 8h576c53.333 0 80 21.333 80 64v524zM556 1401h204c58.667 0 88 -29.333 88 -88v-152c0 -77.333 -26.667 -116 -80 -116h-220c-42.667 0 -64 37.333 -64 112v152c0 61.333 24 92 72 92z
M96 1401h204c58.667 0 88 -29.333 88 -88v-152c0 -77.333 -26.667 -116 -80 -116h-220c-42.667 0 -64 37.333 -64 112v152c0 61.333 24 92 72 92zM301 1838h204c58.667 0 88 -29.333 88 -88v-152c0 -77.333 -26.667 -116 -80 -116h-220c-42.667 0 -64 37.333 -64 112v152
c0 61.333 24 92 72 92z" />
    <glyph glyph-name="uniFE9C" unicode="&#x62b;" horiz-adv-x="870" arabic-form="medial" 
d="M348 956h152l8 -8v-524c0 -42.667 26.667 -64 80 -64h272l8 -8v-344l-8 -8h-852l-8 8v344l8 8h252c53.333 0 80 21.333 80 64v524zM556 1401h204c58.667 0 88 -29.333 88 -88v-152c0 -77.333 -26.667 -116 -80 -116h-220c-42.667 0 -64 37.333 -64 112v152
c0 61.333 24 92 72 92zM96 1401h204c58.667 0 88 -29.333 88 -88v-152c0 -77.333 -26.667 -116 -80 -116h-220c-42.667 0 -64 37.333 -64 112v152c0 61.333 24 92 72 92zM301 1838h204c58.667 0 88 -29.333 88 -88v-152c0 -77.333 -26.667 -116 -80 -116h-220
c-42.667 0 -64 37.333 -64 112v152c0 61.333 24 92 72 92z" />
    <glyph glyph-name="uniFE9E" unicode="&#x62c;" horiz-adv-x="1820" arabic-form="final" 
d="M830 -724h208c56 0 84 -30.667 84 -92v-148c0 -77.333 -26.667 -116 -80 -116h-220c-42.667 0 -64 37.333 -64 112v152c0 61.333 24 92 72 92zM1565 77c-18 -46 -56.667 -69 -116 -69h-416c-56 0 -84 -22.667 -84 -68v-76c0 -64 20 -96 60 -96h597v-364h-1365
c-98.667 0 -148 38.667 -148 116v736c0 58.667 32 96 96 112h12l476 4c24 0 37.333 22.667 40 68v80c0 45.333 -22.667 68 -68 68h-548l-8 8v344l8 8h1356c80 0 120 -46.667 120 -140v-444h288l5 -8v-340l-5 -8h-295l-5 8v61z" />
    <glyph glyph-name="uniFE9F" unicode="&#x62c;" horiz-adv-x="1714" arabic-form="initial" 
d="M8 956h1336c56.667 0 94 -22.667 112 -68l8 -48v-480h144l8 -8v-344l-8 -8h-1600l-8 8v344l8 8h524c48 0 72 20 72 60v120c-3.33301 37.333 -19.333 56 -48 56h-548l-8 8v344zM949 -89h204c58.667 0 88 -29.333 88 -88v-152c0 -77.333 -26.667 -116 -80 -116h-220
c-42.667 0 -64 37.333 -64 112v152c0 61.333 24 92 72 92z" />
    <glyph glyph-name="uniFEA0" unicode="&#x62c;" horiz-adv-x="1785" arabic-form="medial" 
d="M88 956h1336c56.667 0 94 -22.667 112 -68l8 -48v-480h264l8 -8v-344l-8 -8h-1820l-8 8v344l8 8h624c48 0 72 20 72 60v120c-3.33301 37.333 -19.333 56 -48 56h-548l-8 8v344zM1029 -89h204c58.667 0 88 -29.333 88 -88v-152c0 -77.333 -26.667 -116 -80 -116h-220
c-42.667 0 -64 37.333 -64 112v152c0 61.333 24 92 72 92z" />
    <glyph glyph-name="uniFEA2" unicode="&#x62d;" horiz-adv-x="1795" arabic-form="final" 
d="M1572 69c-18 -46 -56.667 -69 -116 -69h-416c-56 -0 -84 -22.667 -84 -68v-76c0 -64 20 -96 60 -96h597v-364h-1365c-98.667 0 -148 38.667 -148 116v736c0 58.667 32 96 96 112h12l476 4c24 0 37.333 22.667 40 68v90c0 45.333 -22.667 68 -68 68h-548l-8 8v344l8 8
h1356c80 0 120 -46.667 120 -140v-454h308l5 -8v-340l-5 -8h-315l-5 8v61z" />
    <glyph glyph-name="uniFEA3" unicode="&#x62d;" horiz-adv-x="1704" arabic-form="initial" 
d="M8 956h1336c56.667 0 94 -22.667 112 -68l8 -48v-480h144l8 -8v-344l-8 -8h-1600l-8 8v344l8 8h524c48 0 72 20 72 60v120c-3.33301 37.333 -19.333 56 -48 56h-548l-8 8v344z" />
    <glyph glyph-name="uniFEA4" unicode="&#x62d;" horiz-adv-x="1765" arabic-form="medial" 
d="M88 956h1336c56.667 0 94 -22.667 112 -68l8 -48v-480h244l8 -8v-344l-8 -8h-1800l-8 8v344l8 8h624c48 0 72 20 72 60v120c-3.33301 37.333 -19.333 56 -48 56h-548l-8 8v344z" />
    <glyph glyph-name="uniFEA6" unicode="&#x62e;" horiz-adv-x="1907" arabic-form="final" 
d="M1572 69c-18 -46 -56.667 -69 -116 -69h-416c-56 -0 -84 -22.667 -84 -68v-76c0 -64 20 -96 60 -96h597v-364h-1365c-98.667 0 -148 38.667 -148 116v736c0 58.667 32 96 96 112h12l476 4c24 0 37.333 22.667 40 68v90c0 45.333 -22.667 68 -68 68h-548l-8 8v344l8 8
h1356c80 0 120 -46.667 120 -140v-454h358l5 -8v-340l-5 -8h-365l-5 8v61zM727 1432h204c58.667 0 88 -29.333 88 -88v-152c0 -77.333 -26.667 -116 -80 -116h-220c-42.667 0 -64 37.333 -64 112v152c0 61.333 24 92 72 92z" />
    <glyph glyph-name="uniFEA7" unicode="&#x62e;" horiz-adv-x="1704" arabic-form="initial" 
d="M8 956h1336c56.667 0 94 -22.667 112 -68l8 -48v-480h144l8 -8v-344l-8 -8h-1600l-8 8v344l8 8h524c48 0 72 20 72 60v120c-3.33301 37.333 -19.333 56 -48 56h-548l-8 8v344zM686 1493h204c58.667 0 88 -29.333 88 -88v-152c0 -77.333 -26.667 -116 -80 -116h-220
c-42.667 0 -64 37.333 -64 112v152c0 61.333 24 92 72 92z" />
    <glyph glyph-name="uniFEA8" unicode="&#x62e;" horiz-adv-x="1785" arabic-form="medial" 
d="M88 956h1336c56.667 0 94 -22.667 112 -68l8 -48v-480h294l8 -8v-344l-8 -8h-1900l-8 8v344l8 8h674c48 0 72 20 72 60v120c-3.33301 37.333 -19.333 56 -48 56h-548l-8 8v344zM686 1493h204c58.667 0 88 -29.333 88 -88v-152c0 -77.333 -26.667 -116 -80 -116h-220
c-42.667 0 -64 37.333 -64 112v152c0 61.333 24 92 72 92z" />
    <glyph glyph-name="uniFEAA" unicode="&#x62f;" horiz-adv-x="1521" arabic-form="final" 
d="M1298 43c-18 -28.667 -46.667 -43 -86 -43h-1104l-8 8v344l8 8h292c40 3.33301 60 19.333 60 48v144c-5.33301 29.333 -20 44 -44 44h-308l-8 8v344l8 8h1100c74.667 -7.33301 112 -42 112 -104v-496h259l4 -8v-340l-4 -8h-277l-4 8v35z" />
    <glyph glyph-name="uniFEAC" unicode="&#x630;" horiz-adv-x="1542" arabic-form="final" 
d="M1298 43c-18 -28.667 -46.667 -43 -86 -43h-1104l-8 8v344l8 8h292c40 3.33301 60 19.333 60 48v144c-5.33301 29.333 -20 44 -44 44h-308l-8 8v344l8 8h1100c74.667 -7.33301 112 -42 112 -104v-496h249l4 -8v-340l-4 -8h-267l-4 8v35zM588 1368h232c48 0 72 -28 72 -84
v-164c0 -72 -32 -108 -96 -108h-184c-56 0 -84 37.333 -84 112v160c4.66699 56 24.667 84 60 84z" />
    <glyph glyph-name="uniFEAE" unicode="&#x631;" horiz-adv-x="1268" arabic-form="final" 
d="M1056 356h225l7 -8v-340l-7 -8h-225v-442c0 -98.667 -38.667 -148 -116 -148h-832l-8 8v148l8 8h304c32 0 48 24 48 72v1296l8 8h580l8 -8v-586z" />
    <glyph glyph-name="uniFEB0" unicode="&#x632;" horiz-adv-x="1288" arabic-form="final" 
d="M650 1416h208c56 0 84 -30.667 84 -92v-148c0 -77.333 -26.667 -116 -80 -116h-220c-42.667 0 -64 37.333 -64 112v152c0 61.333 24 92 72 92zM1056 356h265l7 -8v-340l-7 -8h-265v-442c0 -98.667 -38.667 -148 -116 -148h-832l-8 8v148l8 8h304c32 0 48 24 48 72v1296
l8 8h580l8 -8v-586z" />
    <glyph glyph-name="uniFEB2" unicode="&#x633;" horiz-adv-x="3093" arabic-form="final" 
d="M2842 49c-14.667 -24.667 -40.666 -41 -77.999 -49h-2548c-61.333 0 -100 30.667 -116 92v756c9.33301 69.333 38.666 104 87.999 104l24 4h1364l8 -8v-344l-8 -8h-564c-34.667 0 -52 -14.667 -52 -44v-144c0 -27.333 20 -43.333 60 -48h700c53.333 0 80 30.667 80 92
v496l8 8h148l8 -8v-588h204c53.333 0 80 30.667 80 92v496l8 8h148l8 -8v-588h200c53.333 0 80 21.333 80 64v524l8 8h148l8 -8v-592h292l4 -8v-340l-4 -8h-302l-4 8v41z" />
    <glyph glyph-name="uniFEB3" unicode="&#x633;" horiz-adv-x="1308" arabic-form="initial" 
d="M0 360h87c53.333 0 80 30.667 80 92v496l8 8h148l8 -8v-588h204c53.333 0 80 30.667 80 92v496l8 8h148l8 -8v-588h200c53.333 0 80 21.333 80 64v524l8 8h148l8 -8v-840c0 -59.333 -30.667 -95.333 -92 -108h-1131v360z" />
    <glyph glyph-name="uniFEB4" unicode="&#x633;" horiz-adv-x="1369" arabic-form="medial" 
d="M10 356v4h87c53.333 0 80 30.667 80 92v496l8 8h148l8 -8v-588h204c53.333 0 80 30.667 80 92v496l8 8h148l8 -8v-588h200c53.333 0 80 21.333 80 64v524l8 8h148l8 -8v-592h157l20 -8v-340l-20 -8h-1410l-20 8v340l20 8h30z" />
    <glyph glyph-name="uniFEB6" unicode="&#x634;" horiz-adv-x="3085" arabic-form="final" 
d="M2842 49c-14.667 -24.667 -40.666 -41 -77.999 -49h-2548c-61.333 0 -100 30.667 -116 92v756c9.33301 69.333 38.666 104 87.999 104l24 4h1364l8 -8v-344l-8 -8h-564c-34.667 0 -52 -14.667 -52 -44v-144c0 -27.333 20 -43.333 60 -48h700c53.333 0 80 30.667 80 92
v496l8 8h148l8 -8v-588h204c53.333 0 80 30.667 80 92v496l8 8h148l8 -8v-588h200c53.333 0 80 21.333 80 64v524l8 8h148l8 -8v-592h292l4 -8v-340l-4 -8h-302l-4 8v41zM2224 1880h228.001c45.333 -7.33301 68 -30 68 -68v-196c0 -61.333 -30.667 -92 -92 -92h-196
c-42 0 -66 25.333 -72 76v216c5.33301 42.667 26.666 64 63.999 64zM2012 1448h180c64 0 96 -22.667 96 -68v-200c0 -61.333 -34.667 -92 -104 -92h-168c-58.667 0 -88 30.667 -88 92v188c0 53.333 28 80 84 80zM2656 1448c64 0 96 -28 96 -84v-180
c0 -64 -33.333 -96 -100 -96h-176c-58.667 0 -88 38.667 -88 116v136c0 72 26.667 108 80 108h188z" />
    <glyph glyph-name="uniFEB7" unicode="&#x634;" horiz-adv-x="1332" arabic-form="initial" 
d="M0 360h87c53.333 0 80 30.667 80 92v496l8 8h148l8 -8v-588h204c53.333 0 80 30.667 80 92v496l8 8h148l8 -8v-588h200c53.333 0 80 21.333 80 64v524l8 8h148l8 -8v-840c0 -59.333 -30.667 -95.333 -92 -108h-1131v360zM545 1869h228.001c45.333 -7.33301 68 -30 68 -68
v-196c0 -61.333 -30.667 -92 -92 -92h-196c-42 0 -66 25.333 -72 76v216c5.33301 42.667 26.666 64 63.999 64zM333.001 1437h180c64 0 96 -22.667 96 -68v-200c0 -61.333 -34.667 -92 -104 -92h-168c-58.667 0 -88 30.667 -88 92v188c0 53.333 28 80 84 80zM977.001 1437
c64 0 96 -28 96 -84v-180c0 -64 -33.333 -96 -100 -96h-176c-58.667 0 -88 38.667 -88 116v136c0 72 26.667 108 80 108h188z" />
    <glyph glyph-name="uniFEB8" unicode="&#x634;" horiz-adv-x="1390" arabic-form="medial" 
d="M10 356v4h87c53.333 0 80 30.667 80 92v496l8 8h148l8 -8v-588h204c53.333 0 80 30.667 80 92v496l8 8h148l8 -8v-588h200c53.333 0 80 21.333 80 64v524l8 8h148l8 -8v-592h157l20 -8v-340l-20 -8h-1410l-20 8v340l20 8h30zM545 1869h228.001
c45.333 -7.33301 68 -30 68 -68v-196c0 -61.333 -30.667 -92 -92 -92h-196c-42 0 -66 25.333 -72 76v216c5.33301 42.667 26.666 64 63.999 64zM333.001 1437h180c64 0 96 -22.667 96 -68v-200c0 -61.333 -34.667 -92 -104 -92h-168c-58.667 0 -88 30.667 -88 92v188
c0 53.333 28 80 84 80zM977.001 1437c64 0 96 -28 96 -84v-180c0 -64 -33.333 -96 -100 -96h-176c-58.667 0 -88 38.667 -88 116v136c0 72 26.667 108 80 108h188z" />
    <glyph glyph-name="uniFEBA" unicode="&#x635;" horiz-adv-x="3825" arabic-form="final" 
d="M2124 444v-84.001h604v108c0 62.667 -12 101.334 -36 116.001c-24 10.667 -56 16 -96 16h-364c-44 0 -74.667 -12 -92 -36c-10.667 -24 -16 -64 -16 -120zM216 -0.000976562c-61.333 0 -100 30.667 -116 92v756c0 74.667 46.667 112 140 112h1336l8 -8v-344l-8 -8h-544
c-50.667 0 -76 -24 -76 -72v-64c0 -64 12 -96 36 -96c0 -5.33301 13.333 -8 40 -8h716v592l8 8h148l8 -8v-592h48v416c0 94 18.667 150 56 168c22 10.667 47.333 16 76 16h1332c80 0 130.667 -26.667 152 -80l8 -48v-476h282l6 -8v-340l-6 -8h-3650z" />
    <glyph glyph-name="uniFEBB" unicode="&#x635;" horiz-adv-x="2081" arabic-form="initial" 
d="M524 444v-84.001h604v108c0 62.667 -12 101.334 -36 116.001c-24 10.667 -56 16 -96 16h-364c-44 0 -74.667 -12 -92 -36c-10.667 -24 -16 -64 -16 -120zM0 359.999h148v592l8 8h148l8 -8v-592h48v416c0 94 18.667 150 56 168c22 10.667 47.333 16 76 16h1332
c80 0 130.667 -26.667 152 -80l8 -48v-824l-8 -8h-1976v360z" />
    <glyph glyph-name="uniFEBC" unicode="&#x635;" horiz-adv-x="2180" arabic-form="medial" 
d="M524 444v-84.001h604v108c0 62.667 -12 101.334 -36 116.001c-24 10.667 -56 16 -96 16h-364c-44 0 -74.667 -12 -92 -36c-10.667 -24 -16 -64 -16 -120zM0 350.999v9h148v592l8 8h148l8 -8v-592h48v416c0 94 18.667 150 56 168c22 10.667 47.333 16 76 16h1332
c80 0 130.667 -26.667 152 -80l8 -48v-476h201l30 -8v-340l-30 -8h-2185v5l-11 3v340z" />
    <glyph glyph-name="uniFEBE" unicode="&#x636;" horiz-adv-x="3835" arabic-form="final" 
d="M2124 444v-84.001h604v108c0 62.667 -12 101.334 -36 116.001c-24 10.667 -56 16 -96 16h-364c-44 0 -74.667 -12 -92 -36c-10.667 -24 -16 -64 -16 -120zM216 -0.000976562c-61.333 0 -100 30.667 -116 92v756c0 74.667 46.667 112 140 112h1336l8 -8v-344l-8 -8h-544
c-50.667 0 -76 -24 -76 -72v-64c0 -64 12 -96 36 -96c0 -5.33301 13.333 -8 40 -8h716v592l8 8h148l8 -8v-592h48v416c0 94 18.667 150 56 168c22 10.667 47.333 16 76 16h1332c80 0 130.667 -26.667 152 -80l8 -48v-476h282l6 -8v-340l-6 -8h-3650zM2678 1398
c48 0 72 -37.333 72 -112v-100c0 -88 -16 -132 -48 -132c0 -6.66699 -16 -10.667 -48 -12h-196c-45.333 7.33301 -68 30 -68 68l-4 24v184c0 40 16 66.667 48 80h244z" />
    <glyph glyph-name="uniFEBF" unicode="&#x636;" horiz-adv-x="3529" arabic-form="initial" 
d="M524 444v-84.001h604v108c0 62.667 -12 101.334 -36 116.001c-24 10.667 -56 16 -96 16h-364c-44 0 -74.667 -12 -92 -36c-10.667 -24 -16 -64 -16 -120zM0 359.999h148v592l8 8h148l8 -8v-592h48v416c0 94 18.667 150 56 168c22 10.667 47.333 16 76 16h1332
c80 0 130.667 -26.667 152 -80l8 -48v-824l-8 -8h-1976v360zM1074 1368c48 0 72 -37.333 72 -112v-100c0 -88 -16 -132 -48 -132c0 -6.66699 -16 -10.667 -48 -12h-196c-45.333 7.33301 -68 30 -68 68l-4 24v184c0 40 16 66.667 48 80h244z" />
    <glyph glyph-name="uniFEC0" unicode="&#x636;" horiz-adv-x="2189" arabic-form="medial" 
d="M524 444v-84.001h604v108c0 62.667 -12 101.334 -36 116.001c-24 10.667 -56 16 -96 16h-364c-44 0 -74.667 -12 -92 -36c-10.667 -24 -16 -64 -16 -120zM0 350.999v9h148v592l8 8h148l8 -8v-592h48v416c0 94 18.667 150 56 168c22 10.667 47.333 16 76 16h1332
c80 0 130.667 -26.667 152 -80l8 -48v-476h201l30 -8v-340l-30 -8h-2185v5l-11 3v340zM1034 1398c48 0 72 -37.333 72 -112v-100c0 -88 -16 -132 -48 -132c0 -6.66699 -16 -10.667 -48 -12h-196c-45.333 7.33301 -68 30 -68 68l-4 24v184c0 40 16 66.667 48 80h244z" />
    <glyph glyph-name="uniFEC2" unicode="&#x637;" horiz-adv-x="2174" arabic-form="final" 
d="M108 1860h344l8 -8v-824l-8 -8h-344l-8 8v824zM264 508v-148h840v100c0 73.333 -13.333 116 -40 128c-26 8 -48.667 12 -68 12h-640c-61.333 0 -92 -30.667 -92 -92zM108 0l-7.99902 8v824c7.33301 85.333 42 128 104 128h1620c57.333 0 98.666 -24 123.999 -72
c8 -17.333 12 -36 12 -56v-476h235l20 -8v-340l-20 -8h-2087z" />
    <glyph glyph-name="uniFEC3" unicode="&#x637;" horiz-adv-x="2111" arabic-form="initial" 
d="M188 1860h344l8 -8v-824l-8 -8h-344l-8 8v824zM344 508v-148h840v100c0 73.333 -13.333 116 -40 128c-26 8 -48.667 12 -68 12h-640c-61.333 0 -92 -30.667 -92 -92zM180 356l0.000976562 476c7.33301 85.333 42 128 104 128h1620c57.333 0 98.666 -24 123.999 -72
c8 -17.333 12 -36 12 -56v-824l-8 -8h-2022l-10 8v340l10 8h170z" />
    <glyph glyph-name="uniFEC4" unicode="&#x637;" horiz-adv-x="2215" arabic-form="medial" 
d="M178 1860h344l8 -8v-824l-8 -8h-344l-8 8v824zM334 508v-148h840v100c0 73.333 -13.333 116 -40 128c-26 8 -48.667 12 -68 12h-640c-61.333 0 -92 -30.667 -92 -92zM0 0l-9.99902 8v340l10 8h170v476c7.33301 85.333 42 128 104 128h1620
c57.333 0 98.666 -24 123.999 -72c8 -17.333 12 -36 12 -56v-476h176l20 -8v-340l-20 -8h-2206z" />
    <glyph glyph-name="uniFEC6" unicode="&#x638;" horiz-adv-x="2174" arabic-form="final" 
d="M108 1860h344l8 -8v-824l-8 -8h-344l-8 8v824zM264 508v-148h840v100c0 73.333 -13.333 116 -40 128c-26 8 -48.667 12 -68 12h-640c-61.333 0 -92 -30.667 -92 -92zM108 0l-7.99902 8v824c7.33301 85.333 42 128 104 128h1620c57.333 0 98.666 -24 123.999 -72
c8 -17.333 12 -36 12 -56v-476h235l20 -8v-340l-20 -8h-2087zM826.001 1378c48 0 72 -37.333 72 -112v-100c0 -88 -16 -132 -48 -132c0 -6.66699 -16 -10.667 -48 -12h-196c-45.333 7.33301 -68 30 -68 68l-4 24v184c0 40 16 66.667 48 80h244z" />
    <glyph glyph-name="uniFEC7" unicode="&#x638;" horiz-adv-x="2132" arabic-form="initial" 
d="M188 1860h344l8 -8v-824l-8 -8h-344l-8 8v824zM344 508v-148h840v100c0 73.333 -13.333 116 -40 128c-26 8 -48.667 12 -68 12h-640c-61.333 0 -92 -30.667 -92 -92zM180 356l0.000976562 476c7.33301 85.333 42 128 104 128h1620c57.333 0 98.666 -24 123.999 -72
c8 -17.333 12 -36 12 -56v-824l-8 -8h-2022l-10 8v340l10 8h170zM886.001 1378c48 0 72 -37.333 72 -112v-100c0 -88 -16 -132 -48 -132c0 -6.66699 -16 -10.667 -48 -12h-196c-45.333 7.33301 -68 30 -68 68l-4 24v184c0 40 16 66.667 48 80h244z" />
    <glyph glyph-name="uniFEC8" unicode="&#x638;" horiz-adv-x="2194" arabic-form="medial" 
d="M178 1860h344l8 -8v-824l-8 -8h-344l-8 8v824zM334 508v-148h840v100c0 73.333 -13.333 116 -40 128c-26 8 -48.667 12 -68 12h-640c-61.333 0 -92 -30.667 -92 -92zM0 0l-9.99902 8v340l10 8h170v476c7.33301 85.333 42 128 104 128h1620
c57.333 0 98.666 -24 123.999 -72c8 -17.333 12 -36 12 -56v-476h176l20 -8v-340l-20 -8h-2206zM886.001 1378c48 0 72 -37.333 72 -112v-100c0 -88 -16 -132 -48 -132c0 -6.66699 -16 -10.667 -48 -12h-196c-45.333 7.33301 -68 30 -68 68l-4 24v184c0 40 16 66.667 48 80
h244z" />
    <glyph glyph-name="uniFECA" unicode="&#x639;" horiz-adv-x="1846" arabic-form="final" 
d="M1602 -590h-1386c-61.333 0 -100 30.667 -116 92v760c0 72 40 108 120 108h132v484c0 74.667 54.667 112 164 112h1048l8 -8v-348l-8 -8h-300c-37.333 0 -56 -30.667 -56 -92v-44c0 -61.333 9.33301 -92 28 -92l4 -4h646l8 -8v-344l-20 -16h-890
c-16 0 -25.333 -24 -28 -72v-64c0 -58.667 12 -88 36 -88c0 -5.33301 22.667 -8 68 -8h542v-360z" />
    <glyph glyph-name="uniFECB" unicode="&#x639;" horiz-adv-x="1633" arabic-form="initial" 
d="M-104 1l7 369h412v484c0 74.667 54.667 112 164 112h1048l8 -8v-348l-8 -8h-300c-37.333 0 -56 -30.667 -56 -92v-44c0 -61.333 9.33301 -92 28 -92l4 -4h336l8 -8v-344l-13 -17h-1638z" />
    <glyph glyph-name="uniFECC" unicode="&#x639;" horiz-adv-x="1866" arabic-form="medial" 
d="M-57 1l-3 261v108h372v484c0 74.667 54.667 112 164 112h1048l8 -8v-348l-8 -8h-300c-37.333 0 -56 -30.667 -56 -92v-44c0 -61.333 9.33301 -92 28 -92l4 -4h686l8 -8v-344l-13 -17h-1938z" />
    <glyph glyph-name="uniFECE" unicode="&#x63a;" horiz-adv-x="1837" arabic-form="final" 
d="M1602 -590h-1386c-61.333 0 -100 30.667 -116 92v760c0 72 40 108 120 108h132v484c0 74.667 54.667 112 164 112h1048l8 -8v-348l-8 -8h-300c-37.333 0 -56 -30.667 -56 -92v-44c0 -61.333 9.33301 -92 28 -92l4 -4h646l8 -8v-344l-20 -16h-890
c-16 0 -25.333 -24 -28 -72v-64c0 -58.667 12 -88 36 -88c0 -5.33301 22.667 -8 68 -8h542v-360zM1038 1440c48 0 72 -37.333 72 -112v-100c0 -88 -16 -132 -48 -132c0 -6.66699 -16 -10.667 -48 -12h-196c-45.333 7.33301 -68 30 -68 68l-4 24v184c0 40 16 66.667 48 80
h244z" />
    <glyph glyph-name="uniFECF" unicode="&#x63a;" horiz-adv-x="1639" arabic-form="initial" 
d="M-104 1l7 369h412v484c0 74.667 54.667 112 164 112h1048l8 -8v-348l-8 -8h-300c-37.333 0 -56 -30.667 -56 -92v-44c0 -61.333 9.33301 -92 28 -92l4 -4h336l8 -8v-344l-13 -17h-1638zM1038 1440c48 0 72 -37.333 72 -112v-100c0 -88 -16 -132 -48 -132
c0 -6.66699 -16 -10.667 -48 -12h-196c-45.333 7.33301 -68 30 -68 68l-4 24v184c0 40 16 66.667 48 80h244z" />
    <glyph glyph-name="uniFED0" unicode="&#x63a;" horiz-adv-x="1837" arabic-form="medial" 
d="M-57 1l-3 261v108h372v484c0 74.667 54.667 112 164 112h1048l8 -8v-348l-8 -8h-300c-37.333 0 -56 -30.667 -56 -92v-44c0 -61.333 9.33301 -92 28 -92l4 -4h686l8 -8v-344l-13 -17h-1938zM1038 1440c48 0 72 -37.333 72 -112v-100c0 -88 -16 -132 -48 -132
c0 -6.66699 -16 -10.667 -48 -12h-196c-45.333 7.33301 -68 30 -68 68l-4 24v184c0 40 16 66.667 48 80h244z" />
    <glyph glyph-name="uniFED2" unicode="&#x641;" horiz-adv-x="3365" arabic-form="final" 
d="M2620 1844c48 0 72 -30.667 72 -92v-144c0 -80 -32 -120 -96 -120h-184c-56 0 -84 33.333 -84 100v176c0 39.333 16 66 48 80h244zM2756 1016v-115.999c0 -48 21.333 -72 64 -72h84c58.667 0 88 13.333 88 40l4 16v144c0 23.333 -17.333 36.666 -52 39.999h-136
c-34.667 0 -52 -17.333 -52 -52zM3144 49.001c-16 -32.667 -42.667 -49 -80 -49h-2848c-61.333 0 -100 30.667 -116 92v756c0 74.667 42.667 112 128 112h1348l8 -8v-344l-8 -8h-544c-48 0 -72 -16 -72 -48v-144c0 -32 26.667 -48 80 -48h1856c66.667 0 100 22.667 100 68
v40h-968c-88 0 -132 50.667 -132 152v660c0 98.667 45.333 148 136 148h1016c74.667 0 112 -38.667 112 -116v-956h262l4 -8v-340l-4 -8h-274l-4 8v41z" />
    <glyph glyph-name="uniFED3" unicode="&#x641;" horiz-adv-x="1473" arabic-form="initial" 
d="M634 1752h228.001c45.333 -6 68 -28.667 68 -68v-196c0 -61.333 -30.667 -92 -92 -92h-196c-48 0 -72 29.333 -72 88v200c5.33301 45.333 26.666 68 63.999 68zM256.001 1308l1024 0.000976562c46.667 0 78.667 -18.667 96 -56c8 -12.667 12 -30 12 -52v-1092
c-8.66699 -72 -40.667 -108 -96 -108h-1324l-8 8v344l8 8h1156c66.667 0 100 21.333 100 64v44h-964c-64.667 0 -107.334 28 -128.001 84l-4 40v600c0 55.333 28 92.666 84 111.999zM984.002 1004v-96c0 -50.667 14.667 -76 44 -76h144c34.667 0 52 17.333 52 52v144
c0 24 -16 37.333 -48 40h-148c-29.333 0 -44 -21.333 -44 -64z" />
    <glyph glyph-name="uniFED4" unicode="&#x641;" horiz-adv-x="1789" arabic-form="medial" 
d="M754 1712h232c38 0 59.333 -26.667 64 -80v-180c0 -64 -30.667 -96 -92 -96h-188c-56 0 -84 40 -84 120v120c0 77.333 22.667 116 68 116zM1352 1312c76.667 0 124.667 -12 144 -36c16 -26 24 -54 24 -84v-832h312l8 -8v-344l-8 -8h-1864l-8 8v344l8 8h356v4
c-37.333 20 -56 41.333 -56 64c-8 0 -12 38.667 -12 116v584c2.66699 98.667 16 148 40 148c0 20.667 52 32.667 156 36h900zM1116 1016v-476c0 -45.333 14.667 -68 44 -68h148c32 6.66699 48 22.667 48 48v508c0 24 -16 37.333 -48 40h-144c-32 0 -48 -17.333 -48 -52z" />
    <glyph glyph-name="uniFED6" unicode="&#x642;" horiz-adv-x="3389" arabic-form="final" 
d="M2400 1872c48 0 72 -37.333 72 -112v-112c0 -65.333 -13.333 -105.333 -40 -120c-20.667 -8 -39.334 -12 -56 -12h-196c-45.333 7.33301 -68 30 -68 68l-4 24v184c0 40 16 66.667 48 80h244zM2636 1872h228c42.667 0 65.334 -26.667 68 -80v-184
c0 -61.333 -30.667 -92 -92 -92h-188c-40.667 0 -66 17.333 -76 52l-4 24v216c5.33301 42.667 26.666 64 64 64zM2756 1016v-116c0 -45.333 14.667 -68 44 -68h144c34.667 0 52 17.333 52 52v144c0 24 -16 37.333 -48 40h-144c-32 0 -48 -17.333 -48 -52zM3133 31
c-16 -20.667 -39 -31 -69 -31h-2848c-61.333 0 -100 30.667 -116 92v756c0 74.667 41.333 112 124 112h1352l8 -8v-344l-8 -8h-548c-45.333 0 -68 -17.333 -68 -52v-140c0 -32 30.667 -48 92 -48h1836c72 0 108 20 108 60v48h-972c-85.333 0 -128 50.667 -128 152v660
c0 98.667 41.333 148 124 148h1032c59.333 0 95.333 -30.667 108 -92v-980h262l4 -8v-340l-4 -8h-285l-4 8v23z" />
    <glyph glyph-name="uniFED7" unicode="&#x642;" horiz-adv-x="1484" arabic-form="initial" 
d="M404 1752h224c48 0 72 -28 72 -84v-164c0 -72 -32 -108 -96 -108h-184c-56 0 -84 38.667 -84 116v136c0 69.333 22.667 104 68 104zM864 1752h228.001c45.333 -6 68 -28.667 68 -68v-196c0 -61.333 -30.667 -92 -92 -92h-196c-48 0 -72 29.333 -72 88v200
c5.33301 45.333 26.666 68 63.999 68zM256.001 1308l1024 0.000976562c46.667 0 78.667 -18.667 96 -56c8 -12.667 12 -30 12 -52v-1092c-8.66699 -72 -40.667 -108 -96 -108h-1324l-8 8v344l8 8h1156c66.667 0 100 21.333 100 64v44h-964
c-64.667 0 -107.334 28 -128.001 84l-4 40v600c0 55.333 28 92.666 84 111.999zM984.002 1004v-96c0 -50.667 14.667 -76 44 -76h144c34.667 0 52 17.333 52 52v144c0 24 -16 37.333 -48 40h-148c-29.333 0 -44 -21.333 -44 -64z" />
    <glyph glyph-name="uniFED8" unicode="&#x642;" horiz-adv-x="1785" arabic-form="medial" 
d="M564 1712h232c38 0 59.333 -26.667 64 -80v-180c0 -64 -30.667 -96 -92 -96h-188c-56 0 -84 40 -84 120v120c0 77.333 22.667 116 68 116zM1232 1712c48 0 72 -37.333 72 -112v-100c0 -88 -16 -132 -48 -132c0 -6.66699 -16 -10.667 -48 -12h-196
c-48 0 -72 33.333 -72 100v176c0 40 16 66.667 48 80h244zM1352 1312c76.667 0 124.667 -12 144 -36c16 -26 24 -54 24 -84v-832h312l8 -8v-344l-8 -8h-1864l-8 8v344l8 8h356v4c-37.333 20 -56 41.333 -56 64c-8 0 -12 38.667 -12 116v584c2.66699 98.667 16 148 40 148
c0 20.667 52 32.667 156 36h900zM1116 1016v-476c0 -45.333 14.667 -68 44 -68h148c32 6.66699 48 22.667 48 48v508c0 24 -16 37.333 -48 40h-144c-32 0 -48 -17.333 -48 -52z" />
    <glyph glyph-name="uniFEDE" unicode="&#x644;" horiz-adv-x="2312" arabic-form="final" 
d="M2049 26c-16 -17.333 -37.667 -26 -65 -26h-1768c-61.333 0 -100 30.667 -116 92v756c0 74.667 41.333 112 124 112h1352l8 -8v-344l-8 -8h-548c-48 0 -72 -25.333 -72 -76v-68c0 -64 20 -96 60 -96h704v1492l8 8h344l8 -8v-1496h279l5 -8v-340l-5 -8h-305l-5 8v18z" />
    <glyph glyph-name="uniFEDF" unicode="&#x644;" horiz-adv-x="711" arabic-form="initial" 
d="M598 1856v-1848l-8 -8h-602l-8 8v344l8 8h146c66.667 0 100 22.667 100 68v1428l8 8h348z" />
    <glyph glyph-name="uniFEE0" unicode="&#x644;" horiz-adv-x="781" arabic-form="medial" 
d="M-27 360h237v1492l8 8h344l8 -8v-1496h279l5 -8v-340l-5 -8h-876v360z" />
    <glyph glyph-name="uniFEE2" unicode="&#x645;" horiz-adv-x="2211" arabic-form="final" 
d="M640 504v-136.001h464v108c0 80 -18.667 120 -56 120c0 4.66699 -16 7.33398 -48 8.00098h-272c-58.667 0 -88 -33.333 -88 -100zM779 3.99902l-318.999 -0.000976562v-586l-8 -8h-344l-8 8v758c0 82.667 48 141.334 144 176.001c37.333 10.667 86.666 16 147.999 16h84
v440c0 104 36 156 108 156h1240c63.333 0 106 -26.667 128 -80l8 -48v-480h312l20 -8v-340l-20 -8h-1483z" />
    <glyph glyph-name="uniFEE3" unicode="&#x645;" horiz-adv-x="1836" arabic-form="initial" 
d="M440 504v-136.001h464v108c0 80 -18.667 120 -56 120c0 4.66699 -16 7.33398 -48 8.00098h-272c-58.667 0 -88 -33.333 -88 -100zM-60 4.99902l2 363h334v440c0 104 36 156 108 156h1240c63.333 0 106 -26.667 128 -80l8 -48v-824l-8 -8h-1384v1h-428z" />
    <glyph glyph-name="uniFEE4" unicode="&#x645;" horiz-adv-x="2038" arabic-form="medial" 
d="M440 504v-136.001h464v108c0 80 -18.667 120 -56 120c0 4.66699 -16 7.33398 -48 8.00098h-272c-58.667 0 -88 -33.333 -88 -100zM778 3.99902h-410v1h-428l2 363h334v440c0 104 36 156 108 156h1240c63.333 0 106 -26.667 128 -80l8 -48v-480h311l18 -8v-340l-18 -8
h-1284z" />
    <glyph glyph-name="uniFEE6" unicode="&#x646;" horiz-adv-x="2272" arabic-form="final" 
d="M1332 442c88 0 132 -21.333 132 -64v-216c0 -46 -28 -72.667 -84 -80h-192c-56 0 -84 30.667 -84 92v184c0 56 34.667 84 104 84h124zM1960 0v-482c-8.66699 -72 -40.667 -108 -96 -108h-1648c-61.333 0 -100 30.667 -116 92v1356c0 74.667 50.667 112 152 112h696l8 -8
v-1192h644v1200l8 8h344l8 -8v-614h365l8 -8v-340l-8 -8h-365z" />
    <glyph glyph-name="uniFEE7" unicode="&#x646;" horiz-adv-x="928" arabic-form="initial" 
d="M672 956h148l8 -8v-840c0 -59.333 -30.667 -95.333 -92 -108h-628l-108 8v344l8 8h576c53.333 0 80 21.333 80 64v524zM301 1415l208 0.00195312c56 0 84 -24 84 -72v-192c0 -52.667 -24 -83.334 -72 -92.001h-220c-38 0 -60.667 24 -68 72v220
c0 37.333 22.667 58.666 68 63.999z" />
    <glyph glyph-name="uniFEE8" unicode="&#x646;" horiz-adv-x="872" arabic-form="medial" 
d="M348 956h152l8 -8v-524c0 -42.667 26.667 -64 80 -64h272l8 -8v-344l-8 -8h-852l-8 8v344l8 8h252c53.333 0 80 21.333 80 64v524zM301 1415l208 0.00195312c56 0 84 -24 84 -72v-192c0 -52.667 -24 -83.334 -72 -92.001h-220c-38 0 -60.667 24 -68 72v220
c0 37.333 22.667 58.666 68 63.999z" />
    <glyph glyph-name="uniFEEA" unicode="&#x647;" horiz-adv-x="1950" arabic-form="final" 
d="M856 456c0 -61.333 17.333 -92 52 -92l32 -4h672c56 0 84 18.667 84 56v140c0 29.333 -22.667 44 -68 44h-700c-48 0 -72 -21.333 -72 -64v-80zM128 0c-72.667 0 -115.333 34.667 -128 104v740c0 62 36 100.667 108 116h1588v116c-4 34.667 -20 52 -48 52h-832l-8 8v344
l8 8h896c98.667 0 148 -38.667 148 -116v-1012h130l8 -8v-344l-8 -8h-1862z" />
    <glyph glyph-name="uniFEEB" unicode="&#x647;" horiz-adv-x="2677" arabic-form="initial" 
d="M12 1316h2444c74.667 -7.33301 112 -42 112 -104v-1100c-8.66699 -74.667 -44.667 -112 -108 -112h-2652l-8 8v344l8 8h436l-4 60v424c0 50 10.667 86 32 108v4h-260l-8 8v344zM1480 956c18.667 -20.667 28 -66 28 -136v-460h128c48 0 72 16 72 48v504
c0 29.333 -17.333 44 -52 44h-176zM768 792v-252.001c0 -99.333 20 -156.666 60 -171.999c17.333 -8 36 -12 56 -12h264c93.333 0 140 53.333 140 160v296c0 85.333 -45.333 128 -136 128h-244c-74 0 -118 -21.333 -132 -64z" />
    <glyph glyph-name="uniFEEC" unicode="&#x647;" horiz-adv-x="3042" arabic-form="medial" 
d="M1660 956c18.667 -20.667 28 -66 28 -136v-460h128c48 0 72 16 72 48v504c0 29.333 -17.333 44 -52 44h-176zM948 792v-252.001c0 -99.333 20 -156.666 60 -171.999c17.333 -8 36 -12 56 -12h264c93.333 0 140 53.333 140 160v296c0 85.333 -45.333 128 -136 128h-244
c-74 0 -118 -21.333 -132 -64zM-12 -0.000976562l-8 8v344l8 8h436l-4 60v424c0 50 10.667 86 32 108v4h-260l-8 8v344l8 8h2444c74.667 -7.33301 112 -42 112 -104v-856h326l29 -8v-340l-29 -8h-3086z" />
    <glyph glyph-name="uniFEEE" unicode="&#x648;" horiz-adv-x="1582" arabic-form="final" 
d="M964 654v-216c0 -50.667 14.667 -76 44 -76h144c34.667 0 52 17.333 52 52v264c0 24 -16 37.333 -48 40h-148c-29.333 0 -44 -21.333 -44 -64zM1368 356l237.001 0.000976562l4 -8v-340l-4 -8h-237v-482c-8.66699 -72 -40.667 -108 -96 -108h-1164l-8 8v344l8 8h996
c66.667 0 100 21.333 100 64v164h-964c-64.667 0 -107.334 28 -128.001 84l-4 40v720c0 55.333 28 92.666 84 111.999l44 4h1024c46.667 0 78.667 -18.667 96 -56c8 -12.667 12 -30 12 -52v-494z" />
    <glyph glyph-name="uniFEF0" unicode="&#x649;" horiz-adv-x="2850" arabic-form="final" 
d="M1776 1308l724 0.000976562c72.667 0 112.667 -42.667 120 -128v-820h290l8 -8v-344l-8 -8h-578c-48 0 -74.667 32 -80 96v544c0 34.667 -22.667 52 -68 52h-112c-34.667 0 -52 -20 -52 -60v-524c0 -49.333 -24 -84 -72 -104l-44 -4h-1788c-61.333 0 -100 30.667 -116 92
v756c0 58.667 32 96 96 112h1380l8 -8v-344l-8 -8h-556c-42.667 0 -64 -28 -64 -84v-60c0 -61.333 17.333 -92 52 -92l32 -4h720v820c0 69.333 29.333 110.666 88 123.999z" />
    <glyph glyph-name="space" unicode=" " horiz-adv-x="400" 
 />
    <glyph glyph-name="exclam" unicode="!" horiz-adv-x="564" 
d="M464 362v-354l-8 -8h-348l-8 8v354h364zM100 455v1401l8 8h348l8 -8v-1401h-364z" />
    <glyph glyph-name="percent" unicode="%" horiz-adv-x="1521" 
d="M1070 1610l320 -215.001c26.667 -18.667 39.667 -50.667 39 -96c1.33301 -10.667 -3.66699 -24.667 -15 -42l-805 -1194c-29.333 -43.333 -74 -53.666 -134 -30.999l-313 210c-48 32.667 -61.333 77.667 -40 135l819 1216c48.667 36 91.667 41.667 129 17zM378 1658h32
c42 0 89 -22.667 141 -68c28.667 -44.667 43 -76 43 -94l4 -40v-7c0 -52 -17 -96.333 -51 -133c-44.667 -43.333 -86.667 -65 -126 -65h-57c-32.667 3.33301 -68.667 20.333 -108 51c-43.333 44 -65 95.333 -65 154c0 84 45.667 147.667 137 191zM1190 415.999h32
c41.333 0 88.333 -22.667 141 -68c28.667 -44.667 43 -76 43 -94l3 -40v-7c0 -52 -16.667 -96.333 -50 -133c-44.667 -43.333 -86.667 -65 -126 -65h-58c-32 3.33301 -68 20.333 -108 51c-42.667 44 -64 95.333 -64 154c0 84 45.333 147.667 136 191z" />
    <glyph glyph-name="parenleft" unicode="(" horiz-adv-x="1039" 
d="M621 514c0 -23.333 8.83203 -43.5 26.499 -60.5s102.5 -28.167 254.5 -33.5l-9 -431c-273.333 4 -460.833 57 -562.5 159s-152.5 224 -152.5 366l-2 1086c0 142.667 50.833 265.167 152.5 367.5s288.834 154.833 561.501 157.5l12 -429
c-152.667 -5.33301 -238 -16.833 -256 -34.5s-27 -38.167 -27 -61.5z" />
    <glyph glyph-name="parenright" unicode=")" horiz-adv-x="1039" 
d="M459 1600c0 23.333 -8.83398 43.833 -26.501 61.5s-103.167 29.167 -256.5 34.5l13 429c272.667 -2.66699 459.667 -55.167 561 -157.5s152 -224.833 152 -367.5l-2 -1086c0 -142 -50.667 -264 -152 -366s-288.666 -155 -561.999 -159l-10 431
c152 5.33301 236.833 16.5 254.5 33.5s26.5 37.167 26.5 60.5z" />
    <glyph glyph-name="asterisk" unicode="*" horiz-adv-x="1315" 
d="M1050 1655c18.667 -16.667 28 -36 28 -58c0 -26.667 -11.333 -50 -34 -70c-102.667 -90 -188 -141.333 -256 -154c-22.667 -3.33301 -41 1.5 -55 14.5s-18 25.833 -12 38.5c16.667 60 73 134 169 222c26.667 23.333 56 35 88 35c26.667 0 50.667 -9.33301 72 -28z
M774 1700c0 -124 -19.333 -213 -58 -267c-10.667 -15.333 -28 -23 -52 -23c-21.333 2 -37.333 10.333 -48 25c-33.333 53.333 -50 140.333 -50 261c0 68 35 102 105 102c68.667 0 103 -32.667 103 -98zM1205 1315c0 -57.333 -38 -86 -114 -86c-142 0 -243.333 18 -304 54
c-15.333 10 -23 22.667 -23 38c2 15.333 10 27.333 24 36c62 32.667 161.333 49 298 49c79.333 0 119 -30.333 119 -91zM614 1423c3.33301 -15.333 -2.16699 -29.333 -16.5 -42s-32.5 -16 -54.5 -10c-67.333 16 -148.333 67 -243 153c-27.333 24 -41 48.667 -41 74
c0 21.333 10.667 41.666 32 60.999c18 16 41.667 24 71 24c32.667 0 61 -11.333 85 -34c97.333 -91.333 153 -166.666 167 -225.999zM548 1279c-60.667 -32.667 -159.332 -49 -295.999 -49c-79.333 0 -119 30.333 -119 91c0 57.333 37.667 86 113 86
c141.333 0 242.666 -18 303.999 -54c16 -10 24 -22.667 24 -38c-2 -15.333 -10.667 -27.333 -26 -36zM772.002 940c0 -68 -35.334 -102 -106.001 -102c-68 0 -102 32.667 -102 98c0 124 19 213 57 267c11.333 15.333 28.333 23 51 23c22.667 -2 39.334 -10.333 50.001 -25
c33.333 -53.333 50 -140.333 50 -261zM617.001 1210c-16.667 -60 -73.333 -134 -170 -222c-26.667 -23.333 -55.667 -35 -87 -35c-28 0 -52 9.33301 -72 28c-19.333 16.667 -29 36 -29 58c0 26.667 11.667 50 35 70c102 90 186.667 141.333 254 154
c24 3.33301 43 -1.5 57 -14.5s18 -25.833 12 -38.5zM976.002 953c-32.667 0 -61.335 11.334 -86.002 34.001c-98 91.333 -151 166.666 -159 225.999c-5.33301 15.333 -1.66602 29.333 11.001 42s29.667 16 51 10c68.667 -16 150.334 -67 245.001 -153
c26.667 -24 40 -48.667 40 -74c0 -21.333 -10 -40.833 -30 -58.5s-44 -26.5 -72 -26.5z" />
    <glyph glyph-name="plus" unicode="+" horiz-adv-x="1102" 
d="M966 250l-250 10l10 -250h-368l10 250l-250 -10v360l250 -10l-10 250h369l-10 -251l249 11v-360z" />
    <glyph glyph-name="comma" unicode="," horiz-adv-x="685" 
d="M325 236h-101v304h141c170.667 0 256 -82.667 256 -248c0 -103.333 -55.667 -197.333 -167 -282h-385c154.667 120 240 195.333 256 226z" />
    <glyph glyph-name="hyphen" unicode="-" horiz-adv-x="1205" 
d="M86 94l-0.000976562 239c0 33.333 19 62.333 57 87c8.66699 7.33301 23 11 43 11h819c52.667 0 86.334 -31.333 101.001 -94v-232c0 -57.333 -30 -93.333 -90 -108h-844c-57.333 20.667 -86 53 -86 97z" />
    <glyph glyph-name="period" unicode="." horiz-adv-x="682" 
d="M352 463c87.333 0 156.999 -44.333 208.999 -133c12.667 -28.667 19 -62.667 19 -102c0 -90.667 -43.333 -160 -130 -208c-23.333 -13.333 -57 -20 -101 -20c-88 0 -154.667 37.667 -200 113c-20.667 32.667 -31 72.334 -31 119.001c0 87.333 41.333 155.666 124 204.999
c32.667 17.333 69.334 26 110.001 26z" />
    <glyph glyph-name="slash" unicode="/" horiz-adv-x="1125" 
d="M1058 1867l-606 -1870h-357l606 1870h357z" />
    <glyph glyph-name="zero" unicode="0" horiz-adv-x="839" 
d="M217 583h330c94.667 0 142 -48.667 142 -146v-251c0 -127.333 -43 -191 -129 -191h-356c-69.333 0 -104 61.333 -104 184v252c0 101.333 39 152 117 152z" />
    <glyph glyph-name="zero" unicode="&#x6f0;" horiz-adv-x="839" 
d="M217 583h330c94.667 0 142 -48.667 142 -146v-251c0 -127.333 -43 -191 -129 -191h-356c-69.333 0 -104 61.333 -104 184v252c0 101.333 39 152 117 152z" />
    <glyph glyph-name="zero" unicode="&#x660;" horiz-adv-x="839" 
d="M217 583h330c94.667 0 142 -48.667 142 -146v-251c0 -127.333 -43 -191 -129 -191h-356c-69.333 0 -104 61.333 -104 184v252c0 101.333 39 152 117 152z" />
    <glyph glyph-name="one" unicode="1" horiz-adv-x="846" 
d="M108 1860h580l8 -8v-1844l-8 -8h-580l-8 8v1844z" />
    <glyph glyph-name="one" unicode="&#x6f1;" horiz-adv-x="846" 
d="M108 1860h580l8 -8v-1844l-8 -8h-580l-8 8v1844z" />
    <glyph glyph-name="one" unicode="&#x661;" horiz-adv-x="846" 
d="M108 1860h580l8 -8v-1844l-8 -8h-580l-8 8v1844z" />
    <glyph glyph-name="two" unicode="2" horiz-adv-x="1324" 
d="M696 1258h234c53.333 0 80 21.333 80 64v524l8 8h148l8 -8v-840c0 -59.333 -30.667 -95.333 -92 -108h-386v-890l-8 -8h-580l-8 8v1844l8 8h580l8 -8v-594z" />
    <glyph glyph-name="two" unicode="&#x6f2;" horiz-adv-x="1324" 
d="M696 1258h234c53.333 0 80 21.333 80 64v524l8 8h148l8 -8v-840c0 -59.333 -30.667 -95.333 -92 -108h-386v-890l-8 -8h-580l-8 8v1844l8 8h580l8 -8v-594z" />
    <glyph glyph-name="two" unicode="&#x662;" horiz-adv-x="1324" 
d="M696 1258h234c53.333 0 80 21.333 80 64v524l8 8h148l8 -8v-840c0 -59.333 -30.667 -95.333 -92 -108h-386v-890l-8 -8h-580l-8 8v1844l8 8h580l8 -8v-594z" />
    <glyph glyph-name="three" unicode="3" horiz-adv-x="1734" 
d="M696 1258h200c53.333 0 80 30.667 80 92v496l8 8h148l8 -8v-588h200c53.333 0 80 21.333 80 64v524l8 8h148l8 -8v-840c0 -59.333 -30.667 -95.333 -92 -108h-796v-890l-8 -8h-580l-8 8v1844l8 8h580l8 -8v-594z" />
    <glyph glyph-name="three" unicode="&#x6f3;" horiz-adv-x="1734" 
d="M696 1258h200c53.333 0 80 30.667 80 92v496l8 8h148l8 -8v-588h200c53.333 0 80 21.333 80 64v524l8 8h148l8 -8v-840c0 -59.333 -30.667 -95.333 -92 -108h-796v-890l-8 -8h-580l-8 8v1844l8 8h580l8 -8v-594z" />
    <glyph glyph-name="three" unicode="&#x663;" horiz-adv-x="1734" 
d="M696 1258h200c53.333 0 80 30.667 80 92v496l8 8h148l8 -8v-588h200c53.333 0 80 21.333 80 64v524l8 8h148l8 -8v-840c0 -59.333 -30.667 -95.333 -92 -108h-796v-890l-8 -8h-580l-8 8v1844l8 8h580l8 -8v-594z" />
    <glyph glyph-name="four" unicode="4" horiz-adv-x="1936" 
d="M824 1258v510c12.667 61.333 48.667 92 108 92h840l8 -8v-98l-8 -8h-524c-42.667 0 -64 -26.667 -64 -80v-263h594l8 -8v-490l-8 -8l-1082 1v-890l-8 -8h-580l-8 8v1844l8 8h580l8 -8v-594h128z" />
    <glyph glyph-name="four" unicode="&#x6f4;" horiz-adv-x="1936" 
d="M824 1258v510c12.667 61.333 48.667 92 108 92h840l8 -8v-98l-8 -8h-524c-42.667 0 -64 -26.667 -64 -80v-263h594l8 -8v-490l-8 -8l-1082 1v-890l-8 -8h-580l-8 8v1844l8 8h580l8 -8v-594h128z" />
    <glyph glyph-name="four" unicode="&#x664;" horiz-adv-x="1936" 
d="M824 1258v510c12.667 61.333 48.667 92 108 92h840l8 -8v-98l-8 -8h-524c-42.667 0 -64 -26.667 -64 -80v-263h594l8 -8v-490l-8 -8l-1082 1v-890l-8 -8h-580l-8 8v1844l8 8h580l8 -8v-594h128z" />
    <glyph glyph-name="five" unicode="5" horiz-adv-x="1450" 
d="M100 122v1608c0 68 33.333 108 100 120h980c52.667 0 88.667 -22.667 108 -68c8 -12.667 12 -32.667 12 -60v-1604c0 -72.667 -34.667 -115.334 -104 -128.001h-980c-58 0 -95.333 30.667 -112 92zM844 846.001c61.333 0 92 17.333 92 52l4 32v660
c0 64 -17.333 96 -52 96h-140c-32 0 -48 -18.667 -48 -56v-716c0 -45.333 22.667 -68 68 -68h76z" />
    <glyph glyph-name="five" unicode="&#x6f5;" horiz-adv-x="1450" 
d="M100 122v1608c0 68 33.333 108 100 120h980c52.667 0 88.667 -22.667 108 -68c8 -12.667 12 -32.667 12 -60v-1604c0 -72.667 -34.667 -115.334 -104 -128.001h-980c-58 0 -95.333 30.667 -112 92zM844 846.001c61.333 0 92 17.333 92 52l4 32v660
c0 64 -17.333 96 -52 96h-140c-32 0 -48 -18.667 -48 -56v-716c0 -45.333 22.667 -68 68 -68h76z" />
    <glyph glyph-name="five" unicode="&#x665;" horiz-adv-x="1450" 
d="M100 122v1608c0 68 33.333 108 100 120h980c52.667 0 88.667 -22.667 108 -68c8 -12.667 12 -32.667 12 -60v-1604c0 -72.667 -34.667 -115.334 -104 -128.001h-980c-58 0 -95.333 30.667 -112 92zM844 846.001c61.333 0 92 17.333 92 52l4 32v660
c0 64 -17.333 96 -52 96h-140c-32 0 -48 -18.667 -48 -56v-716c0 -45.333 22.667 -68 68 -68h76z" />
    <glyph glyph-name="six" unicode="6" horiz-adv-x="1306" 
d="M560 8v1626c0 48 -16 72 -48 72h-404l-8 8v148l8 8h932c77.333 0 116 -49.333 116 -148v-1714l-8 -8h-580z" />
    <glyph glyph-name="six" unicode="&#x6f6;" horiz-adv-x="1306" 
d="M560 8v1626c0 48 -16 72 -48 72h-404l-8 8v148l8 8h932c77.333 0 116 -49.333 116 -148v-1714l-8 -8h-580z" />
    <glyph glyph-name="six" unicode="&#x666;" horiz-adv-x="1306" 
d="M560 8v1626c0 48 -16 72 -48 72h-404l-8 8v148l8 8h932c77.333 0 116 -49.333 116 -148v-1714l-8 -8h-580z" />
    <glyph glyph-name="seven" unicode="7" horiz-adv-x="1616" 
d="M216 0c-77.333 0 -116 49.333 -116 148v1714l8 8h330l8 -8v-1626c0 -48 16 -72 48 -72h328c32 0 48 24 48 72v1626l8 8h580l8 -8v-1714c0 -98.667 -38.667 -148 -116 -148h-1134z" />
    <glyph glyph-name="seven" unicode="&#x6f7;" horiz-adv-x="1616" 
d="M216 0c-77.333 0 -116 49.333 -116 148v1714l8 8h330l8 -8v-1626c0 -48 16 -72 48 -72h328c32 0 48 24 48 72v1626l8 8h580l8 -8v-1714c0 -98.667 -38.667 -148 -116 -148h-1134z" />
    <glyph glyph-name="seven" unicode="&#x667;" horiz-adv-x="1616" 
d="M216 0c-77.333 0 -116 49.333 -116 148v1714l8 8h330l8 -8v-1626c0 -48 16 -72 48 -72h328c32 0 48 24 48 72v1626l8 8h580l8 -8v-1714c0 -98.667 -38.667 -148 -116 -148h-1134z" />
    <glyph glyph-name="eight" unicode="8" horiz-adv-x="1616" 
d="M1350 1870c77.333 0 116 -49.333 116 -148v-1714l-8 -8h-580l-8 8v1626c0 48 -16 72 -48 72h-328c-32 0 -48 -24 -48 -72v-1626l-8 -8h-330l-8 8v1714c0 98.667 38.667 148 116 148h1134z" />
    <glyph glyph-name="eight" unicode="&#x6f8;" horiz-adv-x="1616" 
d="M1350 1870c77.333 0 116 -49.333 116 -148v-1714l-8 -8h-580l-8 8v1626c0 48 -16 72 -48 72h-328c-32 0 -48 -24 -48 -72v-1626l-8 -8h-330l-8 8v1714c0 98.667 38.667 148 116 148h1134z" />
    <glyph glyph-name="eight" unicode="&#x668;" horiz-adv-x="1616" 
d="M1350 1870c77.333 0 116 -49.333 116 -148v-1714l-8 -8h-580l-8 8v1626c0 48 -16 72 -48 72h-328c-32 0 -48 -24 -48 -72v-1626l-8 -8h-330l-8 8v1714c0 98.667 38.667 148 116 148h1134z" />
    <glyph glyph-name="nine" unicode="9" horiz-adv-x="1359" 
d="M245 1567v-216c0 -50.667 14.667 -76 44 -76h274c34.667 0 52 17.333 52 52v264c0 24 -16 37.333 -48 40h-278c-29.333 0 -44 -21.333 -44 -64zM1209 9l-11.998 -8.99902h-580l-8 8v910h-428c-36.667 12 -62.334 37.667 -77.001 77l-4 40v720
c0 55.333 28 92.666 84 111.999l44 4h923c25.333 -2.66699 41.666 -9.66699 48.999 -21c6 -10.667 9 -35.667 9 -75v-1766z" />
    <glyph glyph-name="nine" unicode="&#x6f9;" horiz-adv-x="1359" 
d="M245 1567v-216c0 -50.667 14.667 -76 44 -76h274c34.667 0 52 17.333 52 52v264c0 24 -16 37.333 -48 40h-278c-29.333 0 -44 -21.333 -44 -64zM1209 9l-11.998 -8.99902h-580l-8 8v910h-428c-36.667 12 -62.334 37.667 -77.001 77l-4 40v720
c0 55.333 28 92.666 84 111.999l44 4h923c25.333 -2.66699 41.666 -9.66699 48.999 -21c6 -10.667 9 -35.667 9 -75v-1766z" />
    <glyph glyph-name="nine" unicode="&#x669;" horiz-adv-x="1359" 
d="M245 1567v-216c0 -50.667 14.667 -76 44 -76h274c34.667 0 52 17.333 52 52v264c0 24 -16 37.333 -48 40h-278c-29.333 0 -44 -21.333 -44 -64zM1209 9l-11.998 -8.99902h-580l-8 8v910h-428c-36.667 12 -62.334 37.667 -77.001 77l-4 40v720
c0 55.333 28 92.666 84 111.999l44 4h923c25.333 -2.66699 41.666 -9.66699 48.999 -21c6 -10.667 9 -35.667 9 -75v-1766z" />
    <glyph glyph-name="colon" unicode=":" horiz-adv-x="660" 
d="M566 780c0 -96.667 -52.332 -169 -156.999 -217l-63 -11h-27c-68.667 0 -130.334 36.333 -185.001 109c-20.667 31.333 -31 72 -31 122c0 92 39.333 159.333 118 202c30.667 19.333 60.667 29 90 29h44c48.667 0 97.667 -24 147 -72c42.667 -44 64 -98 64 -162z
M566.001 230c0 -87.333 -44.333 -156.999 -133 -208.999c-28.667 -12.667 -62.667 -19 -102 -19c-90.667 0 -160 43.333 -208 130c-13.333 23.333 -20 57 -20 101c0 88 37.667 154.667 113 200c32.667 20.667 72.334 31 119.001 31c87.333 0 155.666 -41.333 204.999 -124
c17.333 -32.667 26 -69.334 26 -110.001z" />
    <glyph glyph-name="equal" unicode="=" horiz-adv-x="1292" 
d="M104 311h1083v-313h-1083v313zM104 760h1083v-320h-1083v320z" />
    <glyph glyph-name="bracketleft" unicode="[" horiz-adv-x="1169" 
d="M122 1912c0 50 26.333 84.667 79 104h759c44 0 75 -36 93 -108v-338c0 -74 -28.667 -119.667 -86 -137h-394c-118.667 0 -178 -59 -178 -177v-856c0 -118 59.333 -177 178 -177h340c51.333 0 86 -10.667 104 -32c24 -22.667 36 -58.667 36 -108v-310
c0 -73.333 -28.667 -119 -86 -137h-759c-30.667 0 -58 24 -82 72l-4 33v2171z" />
    <glyph glyph-name="bracketright" unicode="]" horiz-adv-x="1169" 
d="M1053 -259l-4 -33c-24 -48 -51.333 -72 -82 -72h-759c-57.333 18 -86 63.667 -86 137v310c0 49.333 12 85.333 36 108c18 21.333 52.667 32 104 32h340c118.667 0 178 59 178 177v856c0 118 -59.333 177 -178 177h-394c-57.333 17.333 -86 63 -86 137v338
c18 72 49 108 93 108h759c52.667 -19.333 79 -54 79 -104v-2171z" />
    <glyph glyph-name="braceleft" unicode="{" horiz-adv-x="1386" 
d="M1271 -389l-354.998 -0.000976562c-151.333 0 -279.333 52.333 -384 157c-98 96.667 -147 212.334 -147 347.001v273c-2.66699 40 -14.334 67.333 -35.001 82c-25.333 6 -101 15.667 -227 29v357c156 22 235.333 34.667 238 38c12 12.667 20 29.667 24 51v279
c0 134 51.667 252.667 155 356c99.333 99.333 224.666 149 375.999 149h347l-6 -396h-313c-42 -6 -65.667 -16 -71 -30c-19.333 -56 -29 -94.333 -29 -115l1 -141c0 -101.333 -12 -185.666 -36 -252.999c-34 -90 -45.667 -131.333 -35 -124
c14.667 -10 34.667 -82.667 60 -218l4 -43l3 -65c0 -30 -0.666992 -60.667 -2 -92c-0.666992 -39.333 -2.66699 -78.333 -6 -117c0 -18.667 10.667 -54.334 32 -107.001c5.33301 -12 30.333 -19.667 75 -23h304z" />
    <glyph glyph-name="braceright" unicode="}" horiz-adv-x="1386" 
d="M151 5l304.001 0.000976562c44 3.33301 68.667 11 74 23c22 52.667 33 88.334 33 107.001c-4 38.667 -6.33301 77.667 -7 117c-1.33301 31.333 -2 62 -2 92l3 65l5 43c25.333 135.333 45.333 208 60 218c10 -7.33301 -1.66699 34 -35 124
c-24 67.333 -36 151.666 -36 252.999l1 141c0 20.667 -10 59 -30 115c-5.33301 14 -29 24 -71 30h-312l-7 396h348c150.667 0 275.667 -49.667 375 -149c104 -103.333 156 -222 156 -356v-279c3.33301 -21.333 11.333 -38.333 24 -51c2 -3.33301 81 -16 237 -38v-357
c-126 -13.333 -201.333 -23 -226 -29c-21.333 -14.667 -33 -42 -35 -82v-273c0 -134.667 -49.333 -250.334 -148 -347.001c-104.667 -104.667 -232.334 -157 -383.001 -157h-356z" />
    <glyph glyph-name="guillemotleft" unicode="&#xab;" horiz-adv-x="1626" 
d="M1522 -8h-504l-258 398l259 396h504l-279 -396zM856 -8h-503l-258 398l259 396h503l-279 -396z" />
    <glyph glyph-name="periodcentered" unicode="&#xb7;" horiz-adv-x="324" 
d="M264 449c-27.333 -27.333 -60.666 -41.001 -99.999 -41.001c-38 0 -71.667 13.667 -101 41c-26 28.667 -39 60.334 -39 95.001c0 37.333 12.667 69 38 95c27.333 28 60.666 42 99.999 42s73.333 -13.333 102 -40c27.333 -26 41 -58.333 41 -97
c0 -37.333 -13.667 -69 -41 -95z" />
    <glyph glyph-name="periodcentered" unicode="&#x2219;" horiz-adv-x="324" 
d="M264 449c-27.333 -27.333 -60.666 -41.001 -99.999 -41.001c-38 0 -71.667 13.667 -101 41c-26 28.667 -39 60.334 -39 95.001c0 37.333 12.667 69 38 95c27.333 28 60.666 42 99.999 42s73.333 -13.333 102 -40c27.333 -26 41 -58.333 41 -97
c0 -37.333 -13.667 -69 -41 -95z" />
    <glyph glyph-name="periodcentered" unicode="&#x2d9;" horiz-adv-x="324" 
d="M264 449c-27.333 -27.333 -60.666 -41.001 -99.999 -41.001c-38 0 -71.667 13.667 -101 41c-26 28.667 -39 60.334 -39 95.001c0 37.333 12.667 69 38 95c27.333 28 60.666 42 99.999 42s73.333 -13.333 102 -40c27.333 -26 41 -58.333 41 -97
c0 -37.333 -13.667 -69 -41 -95z" />
    <glyph glyph-name="guillemotright" unicode="&#xbb;" horiz-adv-x="1626" 
d="M373 390l-278 396h504l259 -396l-258 -398h-504zM1039 390l-278 396h503l259 -396l-258 -398h-503z" />
    <glyph glyph-name="multiply" unicode="&#xd7;" horiz-adv-x="1102" 
d="M707 0l-166 187l-173 -181l-256 265l187 166l-181 173l259 250l166 -187l173 181l257 -265l-188 -167l181 -172z" />
    <glyph glyph-name="divide" unicode="&#xf7;" horiz-adv-x="1325" 
d="M1169 438h-1046v336h1046v-336zM633 395c33.333 0 65.833 -8.33301 97.5 -25s56.5 -41 74.5 -73s27 -65.333 27 -100c0 -34 -9 -66.833 -27 -98.5s-42.667 -56 -74 -73s-64 -25.5 -98 -25.5c-32 0 -64.333 8.5 -97 25.5s-57.5 41.667 -74.5 74s-25.5 64.833 -25.5 97.5
c0 34 8.66699 67.167 26 99.5s42 56.833 74 73.5s64.333 25 97 25zM633 1220c33.333 0 65.666 -8.33398 96.999 -25.001s56.166 -40.834 74.499 -72.501s27.5 -65.167 27.5 -100.5c0 -34.667 -9 -67.667 -27 -99s-42.5 -55.666 -73.5 -72.999s-63.833 -26 -98.5 -26
c-32.667 0 -65.167 8.66699 -97.5 26s-57 42 -74 74s-25.5 64.667 -25.5 98c0 34.667 8.83301 67.834 26.5 99.501s42.334 56 74.001 73s63.834 25.5 96.501 25.5z" />
    <glyph glyph-name="afii57388" unicode="&#x60c;" horiz-adv-x="451" 
d="M362 51c-32 -36.667 -74.333 -55.001 -127 -55.001c-59.333 0 -105.333 21.333 -138 64c-24 30.667 -36 69 -36 115c0 107.333 47 186 141 236c18 10 40.333 15.667 67 17c60.667 2.66699 91 -21.666 91 -72.999c-12 -13.333 -25.333 -27 -40 -41
c-34 -30 -51 -46 -51 -48c-0.666992 -2 0 -3.33301 2 -4c83.333 0.666992 125 -43.333 125 -132c0 -28 -11.333 -54.333 -34 -79z" />
    <glyph glyph-name="afii57403" unicode="&#x61b;" horiz-adv-x="908" 
d="M790 1216c-188.667 -142.667 -297 -231 -325 -265c-18 -23.333 -29.333 -65.333 -34 -126c0 -14 0.666992 -21.667 2 -23c3.33301 -2 14 -2.66699 32 -2l214 19v-345h-194c-248 0 -372 115 -372 345c0 144 79.333 276.333 238 397h439zM587 300
c37.333 -38 54.999 -79.333 52.999 -124c0 -44 -17.667 -83.667 -53 -119c-40 -39.333 -89 -59 -147 -59c-57.333 0 -106.666 19.667 -147.999 59c-34 35.333 -51 75 -51 119c-2 44.667 15.667 86 53 124c43.333 41.333 92 61 146 59c54.667 2 103.667 -17.667 147 -59z" />
    <glyph glyph-name="afii57407" unicode="&#x61f;" horiz-adv-x="996" 
d="M724 1315c50.667 -13.333 90.1641 -32.0029 118.497 -56.0029s47.166 -50.167 56.499 -78.5s10.333 -56.166 3 -83.499s-20 -51.833 -38 -73.5s-41.5 -38.667 -70.5 -51s-59.5 -13.166 -91.5 -2.49902l-56 15.5c-20 5.66699 -39.167 10.167 -57.5 13.5
s-34.833 4.83301 -49.5 4.5s-26.667 -2.5 -36 -6.5s-17.666 -10.5 -24.999 -19.5s-13 -21.5 -17 -37.5c2 -17.333 5.83301 -32 11.5 -44s11.667 -21.167 18 -27.5s13.833 -11.666 22.5 -15.999s18.167 -8.5 28.5 -12.5l40 -15.5
c16.333 -6.33301 29.166 -13.833 38.499 -22.5c24.667 -10 46.334 -26.333 65.001 -49s30.334 -46.5 35.001 -71.5s3.33398 -50.333 -3.99902 -76s-21.5 -49.167 -42.5 -70.5s-48.667 -37.666 -83 -48.999s-75.833 -14.666 -124.5 -9.99902
c-23.333 6.66699 -48.666 14.667 -75.999 24s-55.333 21.833 -84 37.5s-57.5 35 -86.5 58s-54.833 50.667 -77.5 83s-41.167 69.666 -55.5 111.999s-22.833 91.166 -25.5 146.499c9.33301 84 31.5 155.333 66.5 214s82 104 141 136s126.833 50 203.5 54
s160.667 -4.66699 252 -26zM698.997 186.997c0 -25.333 -4.83594 -49.666 -14.5029 -72.999s-23.5 -44 -41.5 -62s-40 -32.833 -66 -44.5s-54.333 -17.5 -85 -17.5s-58.5 5.83301 -83.5 17.5s-46.5 26.5 -64.5 44.5s-32 38.667 -42 62s-15 47.666 -15 72.999
s4.83301 49.833 14.5 73.5s23.834 44.5 42.501 62.5s40.334 32.667 65.001 44s52.334 17 83.001 17c30 0 58 -5.66699 84 -17s48.167 -26 66.5 -44s32.333 -38.833 42 -62.5s14.5 -48.167 14.5 -73.5z" />
    </font>
</defs>
</svg>
