<?xml version="1.0" standalone="no"?>
<!DOCTYPE svg PUBLIC "-//W3C//DTD SVG 1.1//EN" "http://www.w3.org/Graphics/SVG/1.1/DTD/svg11.dtd" >
<svg>
<metadata>
Created by FontForge 20090914 at Wed Oct 19 00:53:21 2011
 By www-data
(c) by Abolfazl Seilsepour - +98 912 591 3420  -  seilsepor@yahoo.com
</metadata>
<defs>
<font id="FarBamshadBold" horiz-adv-x="0" >
  <font-face 
    font-family="Far.Bamshad"
    font-weight="700"
    font-stretch="normal"
    units-per-em="2048"
    panose-1="0 0 4 0 0 0 0 0 0 0"
    ascent="1638"
    descent="-410"
    bbox="-163 -1045 2062 2018"
    underline-thickness="60"
    underline-position="-770"
    unicode-range="U+0020-U+FEFC"
  />
<missing-glyph horiz-adv-x="1024" 
d="M128 0l285 1343h768l-285 -1343h-768zM283 128h512l231 1087h-512z" />
    <glyph glyph-name=".notdef" unicode="&#x652;&#x64b;" horiz-adv-x="1024" 
d="M128 0l285 1343h768l-285 -1343h-768zM283 128h512l231 1087h-512z" />
    <glyph glyph-name="copyright" unicode="&#x652;&#x64e;" horiz-adv-x="1584" 
d="M862 1495c125.333 0 247.5 -32 366.5 -96s211.833 -155.5 278.5 -274.5s100 -243.167 100 -372.5s-32.833 -253.333 -98.5 -372s-157.667 -210.5 -276 -275.5s-241.833 -97.5 -370.5 -97.5c-129.333 0 -252.833 32.5 -370.5 97.5s-209.5 156.833 -275.5 275.5
s-99 242.667 -99 372s33.5 253.5 100.5 372.5s160 210.5 279 274.5s240.833 96 365.5 96zM862 1431c-114 0 -225.169 -29.333 -333.502 -88s-193.166 -142.334 -254.499 -251.001s-92 -222 -92 -340s30 -230.833 90 -338.5s144 -191.667 252 -252s220.667 -90.5 338 -90.5
s230 30.167 338 90.5s192.167 144.333 252.5 252s90.5 220.5 90.5 338.5s-30.667 231.333 -92 340s-146.166 192.334 -254.499 251.001s-219.833 88 -334.5 88zM1230 1230l22 -293.999h-41c-26 83.333 -66.167 145.5 -120.5 186.5s-120.166 61.5 -197.499 61.5
c-58 0 -109.333 -12 -154 -36s-81.334 -55.667 -110.001 -95c-21.333 -30.667 -39 -71 -53 -121s-21 -102 -21 -156c0 -148.667 32 -258.167 96 -328.5s148 -105.5 252 -105.5c136 0 245 56.667 327 170l39 -20c-97.333 -142 -231 -213 -401 -213
c-140.667 0 -257 45.333 -349 136s-138 200.667 -138 330c0 134 49 248.333 147 343s223 142 375 142c33.333 0 60.333 -2 81 -6s59 -15 115 -33c16.667 -6 29 -9 37 -9c11.333 0 21 3.16699 29 9.5s16 19.166 24 38.499h41z" />
    <glyph glyph-name="uniE818" unicode="&#x651;&#x64b;" 
d="M708 1721l-328 -124l16 79l328 120zM676 1426c-7.33301 -34 -23.002 -63.0029 -47.002 -87.0029c-26.667 -25.333 -56.667 -38 -90 -38c-34 0 -57.333 17.667 -70 53c-38.667 -36.667 -79 -55 -121 -55c-27.333 0 -47.333 13.667 -60 41c-10 22 -12.667 43.333 -8 64
c4 18.667 13.667 39.334 29 62.001c18 27.333 35 41 51 41c8 0 11 -6 9 -18c-1.33301 -5.33301 -3.83301 -13.666 -7.5 -24.999s-6.16699 -19.666 -7.5 -24.999c-6.66699 -30 4 -45 32 -45s49.667 11 65 33c4 5.33301 14.333 27 31 65c5.33301 12 13.333 18 24 18
s15.334 -6.66699 14.001 -20c-7.33301 -67.333 5 -101 37 -101c30.667 0 49.667 16 57 48c2.66699 13.333 3.33398 29 2.00098 47l59 41c10 -22.667 10.333 -55.667 1 -99zM746.998 1906l-328 -124l17 79l327 119z" />
    <glyph glyph-name="uniFC5E" unicode="&#x651;&#x64c;" arabic-form="isolated" 
d="M743 1499c-7.33301 -34 -23.334 -63.001 -48.001 -87.001c-26.667 -25.333 -56.667 -38 -90 -38c-34.667 0 -58 17.667 -70 53c-38.667 -37.333 -78.667 -56 -120 -56c-24.667 0 -43.667 11.333 -57 34s-17.333 46.667 -12 72c4 18.667 13.667 39.334 29 62.001
c18.667 27.333 36 41 52 41c8 0 10.667 -6 8 -18c-1.33301 -6 -3.83301 -14.5 -7.5 -25.5s-6.16699 -19.5 -7.5 -25.5c-6 -30 5 -45 33 -45s49.667 11 65 33c4.66699 7.33301 15 29 31 65c5.33301 12.667 13.333 19 24 19s15 -7 13 -21c-6.66699 -67.333 6 -101 38 -101
c30.667 0 49.334 16 56.001 48c2.66699 13.333 3.33398 29 2.00098 47l60 42c9.33301 -24 9.66602 -57 0.999023 -99zM773.999 1931c-6 -28 -35.6631 -66.001 -88.9961 -114.001c6 -4 18.667 -9 38 -15l-48 -60c-28.667 5.33301 -52 15.666 -70 30.999
c-81.333 -42.667 -149.333 -64 -204 -64c-18.667 0 -33.334 22 -44.001 66c27.333 0 46 1.66699 56 5c18 16.667 29 33.334 33 50.001c3.33301 17.333 -4 26 -22 26c-14.667 0 -31.667 -8.66699 -51 -26v47c29.333 27.333 56.666 41 81.999 41c8.66699 0 17 -2 25 -6
c21.333 -10.667 28.666 -31 21.999 -61c-4.66699 -23.333 -16.334 -45.666 -35.001 -66.999c46 4 80.333 13.667 103 29c-14 37.333 -19.667 63 -17 77c6.66699 30 33.667 60 81 90c40 25.333 69 38 87 38c48 0 65.667 -29 53 -87zM701.003 1921
c4 19.333 -4.33203 29 -24.999 29c-28 0 -45 -13.667 -51 -41c-4.66699 -22 2.66602 -42.333 21.999 -61c29.333 16 47.333 40.333 54 73z" />
    <glyph glyph-name="uniFC5F" unicode="&#x651;&#x64d;" arabic-form="isolated" 
d="M756 1861c-7.33301 -34 -23.3359 -63.001 -48.0029 -87.001c-26.667 -25.333 -56.667 -38 -90 -38c-34.667 0 -58 17.667 -70 53c-39.333 -37.333 -79.666 -56 -120.999 -56c-24.667 0 -43.5 11.333 -56.5 34s-16.833 46.667 -11.5 72c4 18.667 13.667 39.334 29 62.001
c18.667 27.333 36 41 52 41c8 0 10.667 -6 8 -18c-1.33301 -6 -3.83301 -14.5 -7.5 -25.5s-6.16699 -19.5 -7.5 -25.5c-6 -30 5 -45 33 -45s49.667 11 65 33c4.66699 7.33301 14.667 29 30 65c5.33301 12.667 13.333 19 24 19s15.334 -7 14.001 -21
c-6.66699 -67.333 6 -101 38 -101c30.667 0 49.334 16 56.001 48c2.66699 13.333 3.33398 29 2.00098 47l60 42c9.33301 -24 9.66602 -57 0.999023 -99zM651.997 1600l-328 -123l17 78l327 120zM617.997 1440l-328 -123l17 78l327 120z" />
    <glyph glyph-name="uniFC60" unicode="&#x651;&#x64e;" arabic-form="isolated" 
d="M762 1468c-7.33301 -34 -23.334 -63.001 -48.001 -87.001c-26.667 -25.333 -56.667 -38 -90 -38c-34.667 0 -58 17.667 -70 53c-38.667 -37.333 -78.667 -56 -120 -56c-24.667 0 -43.667 11.333 -57 34s-17.333 46.667 -12 72c4 18.667 13.667 39.334 29 62.001
c18.667 27.333 36 41 52 41c8 0 10.667 -6 8 -18c-1.33301 -6 -3.83301 -14.5 -7.5 -25.5s-6.16699 -19.5 -7.5 -25.5c-6 -30 5 -45 33 -45s49.667 11 65 33c4.66699 7.33301 15 29 31 65c5.33301 12.667 13.333 19 24 19s15 -7 13 -21c-6.66699 -67.333 6 -101 38 -101
c30.667 0 49.334 16 56.001 48c2.66699 13.333 3.33398 29 2.00098 47l60 42c9.33301 -24 9.66602 -57 0.999023 -99zM733.999 1797l-328 -124l17 79l327 119z" />
    <glyph glyph-name="uniFC61" unicode="&#x651;&#x64f;" arabic-form="isolated" 
d="M647 1445c-7.33301 -34 -23.002 -63.0029 -47.002 -87.0029c-26.667 -25.333 -56.667 -38 -90 -38c-34 0 -57.333 17.667 -70 53c-38.667 -36.667 -79 -55 -121 -55c-27.333 0 -47.333 13.667 -60 41c-10 22 -12.667 43.333 -8 64c4 18.667 13.667 39.334 29 62.001
c18 27.333 35 41 51 41c8 0 11 -6 9 -18c-1.33301 -5.33301 -3.83301 -13.666 -7.5 -24.999s-6.16699 -19.666 -7.5 -24.999c-6.66699 -30 4 -45 32 -45s49.667 11 65 33c4 5.33301 14.333 27 31 65c5.33301 12 13.333 18 24 18s15.334 -6.66699 14.001 -20
c-7.33301 -67.333 5 -101 37 -101c30.667 0 49.667 16 57 48c2.66699 13.333 3.33398 29 2.00098 47l59 41c10 -22.667 10.333 -55.667 1 -99zM723.998 1839c-6 -28 -35.332 -65.667 -87.999 -113c5.33301 -4.66699 17.666 -9.66699 36.999 -15l-47 -61
c-30 6 -53.667 16.333 -71 31c-84 -42.667 -151.667 -64 -203 -64c-20 0 -34.667 22.333 -44 67c57.333 1.33301 96.333 3.33301 117 6c41.333 5.33301 73 16 95 32c-13.333 38 -18.333 63.667 -15 77c6 29.333 32.333 59 79 89c40.667 26 69.667 39 87 39
c22 0 38 -9.33301 48 -28c8 -17.333 9.66699 -37.333 5 -60zM650.999 1829c4 20 -4 30 -24 30c-10 0 -20.667 -4.33301 -32 -13s-18 -18 -20 -28c-5.33301 -22.667 2 -43 22 -61c29.333 16 47.333 40 54 72z" />
    <glyph glyph-name="uniFC62" unicode="&#x651;&#x650;" arabic-form="isolated" 
d="M722 1673c-7.33301 -34 -23.3359 -63.001 -48.0029 -87.001c-26.667 -25.333 -56.667 -38 -90 -38c-34.667 0 -58 17.667 -70 53c-39.333 -37.333 -79.666 -56 -120.999 -56c-24.667 0 -43.5 11.333 -56.5 34s-16.833 46.667 -11.5 72c4 18.667 13.667 39.334 29 62.001
c18.667 27.333 36 41 52 41c8 0 10.667 -6 8 -18c-1.33301 -6 -3.83301 -14.5 -7.5 -25.5s-6.16699 -19.5 -7.5 -25.5c-6 -30 5 -45 33 -45s49.667 11 65 33c4.66699 7.33301 14.667 29 30 65c5.33301 12.667 13.333 19 24 19s15.334 -7 14.001 -21
c-6.66699 -67.333 6 -101 38 -101c30.667 0 49.334 16 56.001 48c2.66699 13.333 3.33398 29 2.00098 47l60 42c9.33301 -24 9.66602 -57 0.999023 -99zM617.997 1412l-328 -123l17 78l327 120z" />
    <glyph glyph-name="uniFDF2" unicode="&#xfedf;&#xfee0;&#xfeea;" horiz-adv-x="1092" arabic-form="isolated" 
d="M703 1382c0.666992 -18 1.33203 -32.332 1.99902 -42.999c0.666992 -29.333 -1.33301 -54 -6 -74c-2 -7.33301 -3.33301 -13 -4 -17l-37 112c-15.333 38.667 -41.666 80.667 -78.999 126v118c34 -30 64 -70.333 90 -121c22.667 -44.667 34 -78.334 34 -101.001z
M862.998 1144c0 -10.667 -1.00293 -21.3311 -3.00293 -31.998c-5.33301 -24.667 -16 -44.334 -32 -59.001s-33.667 -22 -53 -22c-16.667 0 -32.667 6 -48 18c-4 -18.667 -12.667 -35.667 -26 -51c-19.333 -21.333 -41.333 -32 -66 -32c-24 0 -42.5 8.66699 -55.5 26
s-19.833 39 -20.5 65c1.33301 8.66699 2.5 16.667 3.5 24s2.83301 17.333 5.5 30c2.66699 15.333 5.33398 27.166 8.00098 35.499s6.66699 16.833 12 25.5l18 3c-3.33301 -33.333 -2.33301 -60.333 3 -81s14.666 -31 27.999 -31c16 0 28.333 6.33301 37 19
s15.334 30 20.001 52c3.33301 14 5.83301 28 7.5 42s3.5 27 5.5 39l19 2c3.33301 -34 10 -60 20 -78c8.66699 -14.667 19 -22 31 -22c11.333 0 20 2.5 26 7.5s10 12.167 12 21.5c2.66699 11.333 2.33398 28.333 -0.999023 51c-4.66699 31.333 -7 49 -7 53h17
c16 -27.333 26.333 -47.833 31 -61.5s7.33398 -28.5 8.00098 -44.5zM1210 0.00390625l-221.996 0.000976562c-22.667 0 -42.834 6.16699 -60.501 18.5s-36.834 37.833 -57.501 76.5c-25.333 -35.333 -44 -58 -56 -68c-22.667 -18 -52.334 -27 -89.001 -27h-125
c-33.333 0 -62.666 14.333 -87.999 43c-12.667 14 -26.334 35.333 -41.001 64c-8.66699 -23.333 -33 -50.333 -73 -81c-44.667 -34.667 -83 -52 -115 -52c-44.667 0 -91.334 26.667 -140.001 80c-55.333 60 -82.666 127 -81.999 201c0 10 1 20.333 3 31
c9.33301 44 39.666 92.333 90.999 145c36.667 37.333 82 75.333 136 114c43.333 30.667 67 46 71 46v94l122 133l18 -119c13.333 -82.667 26 -148.334 38 -197.001c16 -68 28.333 -110 37 -126c30.667 -57.333 80 -86 148 -86h35v508l150 221v-517
c0.666992 -60.667 13 -112.667 37 -156c20.667 -37.333 41 -56 61 -56h52l1 606l150 225zM424.999 348.005l-34.999 124c-24.667 -10 -52.334 -29 -83.001 -57s-46.334 -47 -47.001 -57c0.666992 -9.33301 7 -22.333 19 -39c14.667 -19.333 29.334 -29 44.001 -29
c20.667 0 43 7.83301 67 23.5s35.667 27.167 35 34.5z" />
    <glyph glyph-name="uniFEF5" unicode="&#xfedf;&#xfe82;" horiz-adv-x="1000" arabic-form="isolated" 
d="M1050 762c-0.666992 -64.667 -7 -125.003 -19 -181.003c-7.33301 -36 -17 -68.667 -29 -98c-3.33301 -9.33301 -8.33301 -20.333 -15 -33c14 -24.667 24.333 -45.334 31 -62.001c20.667 -52 31 -103.333 31 -154l1 -234h-586l-1 290c59.333 8.66699 128.333 38 207 88
c66 42 106 74 120 96c-13.333 26.667 -32.166 54.5 -56.499 83.5s-55.5 61.167 -93.5 96.5c-32.667 30 -73.667 62 -123 96c-20.667 14 -55.334 36 -104.001 66c-3.33301 -17.333 -11.666 -30.666 -24.999 -39.999s-28.666 -14 -45.999 -14c-24.667 0 -47.5 17.667 -68.5 53
s-31.5 75.666 -31.5 120.999c-0.666992 14 0.166016 29.833 2.49902 47.5s5.83301 37.5 10.5 59.5c6 27.333 12 50.5 18 69.5s12.333 33.167 19 42.5c43.333 -8.66699 102.333 -43 177 -103c71.333 -57.333 138.666 -123 201.999 -197c111.333 -128 187 -226.667 227 -296
c1.33301 4.66699 2.5 9.33398 3.5 14.001s2.16699 9.33398 3.5 14.001c2.66699 12 4.83398 28.833 6.50098 50.5s2.5 53.834 2.5 96.501c-0.666992 52.667 -11.334 119 -32.001 199c-7.33301 26.667 -18.333 62 -33 106l79 88c57.333 60.667 98 93.334 122 98.001v-463z
M886 289.997c2.66699 13.333 1.99902 31.667 -2.00098 55c-1.33301 7.33301 -3.66602 17.666 -6.99902 30.999c-6 -9.33301 -24.667 -24.666 -56 -45.999c-38 -26 -57.333 -39.333 -58 -40h123zM870.999 1498c-8 -22.667 -18.001 -58.002 -30.001 -106.002
s-22 -91.667 -30 -131h-19c0 18.667 -1 40.5 -3 65.5s-3.33301 43.167 -4 54.5c-44.667 -35.333 -88 -61.666 -130 -78.999c-35.333 -14.667 -69 -22 -101 -22c-14 0 -28.167 1.66699 -42.5 5s-24.5 7.33301 -30.5 12c-3.33301 -15.333 -7.83301 -33.5 -13.5 -54.5
s-10.167 -35.167 -13.5 -42.5h-24l-1 243c26.667 -19.333 50 -32.166 70 -38.499s42.333 -9.5 67 -9.5c46.667 0 101.334 12.333 164.001 37c26.667 10.667 73.667 32.667 141 66z" />
    <glyph glyph-name="uniFEF6" unicode="&#xfee0;&#xfe82;" horiz-adv-x="1262" arabic-form="final" 
d="M859 1498c-8 -22.667 -18.001 -58.002 -30.001 -106.002s-22 -91.667 -30 -131h-19c0 18.667 -1 40.5 -3 65.5s-3.33301 43.167 -4 54.5c-44.667 -35.333 -88 -61.666 -130 -78.999c-35.333 -14.667 -69 -22 -101 -22c-14 0 -28.167 1.66699 -42.5 5
s-24.5 7.33301 -30.5 12c-3.33301 -15.333 -7.83301 -33.5 -13.5 -54.5s-10.167 -35.167 -13.5 -42.5h-24l-1 243c26.667 -19.333 50 -32.166 70 -38.499s42.333 -9.5 67 -9.5c46.667 0 101.334 12.333 164.001 37c26.667 10.667 73.667 32.667 141 66zM1289 289.998
l101 -0.000976562l-61 -290h-75c-48 0 -97 14.333 -147 43c-58 32.667 -93.667 73 -107 121c-10.667 -52.667 -23.667 -92.5 -39 -119.5s-33 -47.833 -53 -62.5c-59.333 -42 -128.5 -72.167 -207.5 -90.5s-188.5 -27.5 -328.5 -27.5v44c29.333 0 81.666 20.667 156.999 62
c71.333 38.667 139 82.334 203 131.001c68 51.333 107 89.666 117 114.999c0 38 -24 86.333 -72 145c-42.667 53.333 -102.334 112 -179.001 176c-43.333 36 -97.166 74.333 -161.499 115s-103.166 66.667 -116.499 78c-30 26 -45 53 -45 81v240l322 -164l1 -36h-130
c67.333 -50.667 106.666 -80.667 117.999 -90c56 -44 94 -76 114 -96c54 -54.667 100 -114.667 138 -180c28 -47.333 49.667 -93.666 65 -138.999l16 -56c2.66699 6.66699 5.83398 15.834 9.50098 27.501s6.83398 23.834 9.50098 36.501
c5.33301 25.333 8.83301 46.666 10.5 63.999s2.16699 37.333 1.5 60l1 573l149 149v-663c-0.666992 -64.667 22 -123.334 68 -176.001c41.333 -47.333 81.666 -71 120.999 -71z" />
    <glyph glyph-name="uniFEF7" unicode="&#xfedf;&#xfe84;" horiz-adv-x="1000" arabic-form="isolated" 
d="M1050 762c-0.666992 -64.667 -7 -125.003 -19 -181.003c-7.33301 -36 -17 -68.667 -29 -98c-3.33301 -9.33301 -8.33301 -20.333 -15 -33c14 -24.667 24.333 -45.334 31 -62.001c20.667 -52 31 -103.333 31 -154l1 -234h-586l-1 290c59.333 8.66699 128.333 38 207 88
c66 42 106 74 120 96c-13.333 26.667 -32.166 54.5 -56.499 83.5s-55.5 61.167 -93.5 96.5c-32.667 30 -73.667 62 -123 96c-20.667 14 -55.334 36 -104.001 66c-3.33301 -17.333 -11.666 -30.666 -24.999 -39.999s-28.666 -14 -45.999 -14c-24.667 0 -47.5 17.667 -68.5 53
s-31.5 75.666 -31.5 120.999c-0.666992 14 0.166016 29.833 2.49902 47.5s5.83301 37.5 10.5 59.5c6 27.333 12 50.5 18 69.5s12.333 33.167 19 42.5c43.333 -8.66699 102.333 -43 177 -103c71.333 -57.333 138.666 -123 201.999 -197c111.333 -128 187 -226.667 227 -296
c1.33301 4.66699 2.5 9.33398 3.5 14.001s2.16699 9.33398 3.5 14.001c2.66699 12 4.83398 28.833 6.50098 50.5s2.5 53.834 2.5 96.501c-0.666992 52.667 -11.334 119 -32.001 199c-7.33301 26.667 -18.333 62 -33 106l79 88c57.333 60.667 98 93.334 122 98.001v-463z
M886 289.997c2.66699 13.333 1.99902 31.667 -2.00098 55c-1.33301 7.33301 -3.66602 17.666 -6.99902 30.999c-6 -9.33301 -24.667 -24.666 -56 -45.999c-38 -26 -57.333 -39.333 -58 -40h123zM789.999 1361l-31.002 -95c-9.33301 -6.66699 -52 -34 -128 -82l-112 -71
l-1 33c8.66699 13.333 15.667 23.333 21 30l29 42c-16.667 10 -28 18 -34 24c-15.333 16 -20.666 36 -15.999 60c10.667 48 32.834 90 66.501 126s69.5 54 107.5 54c13.333 0 23.5 -3.83301 30.5 -11.5s10.333 -16.167 10 -25.5s-1.16602 -16.333 -2.49902 -21
c-3.33301 -18 -11.333 -33 -24 -45l-31 1c-18.667 0 -37.834 -5.16699 -57.501 -15.5s-29.167 -21.166 -28.5 -32.499c0 -8.66699 7.16699 -15.834 21.5 -21.501s30.166 -8.5 47.499 -8.5c18 0 40.333 6.16699 67 18.5s48.334 25.833 65.001 40.5z" />
    <glyph glyph-name="uniFEF8" unicode="&#xfee0;&#xfe84;" horiz-adv-x="1262" arabic-form="final" 
d="M1289 290l101 -0.000976562l-61 -290h-75c-48 0 -97 14.333 -147 43c-58 32.667 -93.667 73 -107 121c-10.667 -52.667 -23.667 -92.5 -39 -119.5s-33 -47.833 -53 -62.5c-59.333 -42 -128.5 -72.167 -207.5 -90.5s-188.5 -27.5 -328.5 -27.5v44
c29.333 0 81.666 20.667 156.999 62c71.333 38.667 139 82.334 203 131.001c68 51.333 107 89.666 117 114.999c0 38 -24 86.333 -72 145c-42.667 53.333 -102.334 112 -179.001 176c-43.333 36 -97.166 74.333 -161.499 115s-103.166 66.667 -116.499 78
c-30 26 -45 53 -45 81v240l322 -164l1 -36h-130c67.333 -50.667 106.666 -80.667 117.999 -90c56 -44 94 -76 114 -96c54 -54.667 100 -114.667 138 -180c28 -47.333 49.667 -93.666 65 -138.999l16 -56c2.66699 6.66699 5.83398 15.834 9.50098 27.501
s6.83398 23.834 9.50098 36.501c5.33301 25.333 8.83301 46.666 10.5 63.999s2.16699 37.333 1.5 60l1 573l149 149v-663c-0.666992 -64.667 22 -123.334 68 -176.001c41.333 -47.333 81.666 -71 120.999 -71zM792 1350l-32 -95c-9.33301 -6.66699 -51.666 -34 -126.999 -82
l-112 -71l-1 33l20 30c15.333 22 25.333 36 30 42c-17.333 10 -29 18 -35 24c-15.333 16 -20.333 36 -15 60c10 48 31.833 90 65.5 126s69.5 54 107.5 54c13.333 0 23.5 -3.83301 30.5 -11.5s10.333 -16.167 10 -25.5s-0.833008 -16.333 -1.5 -21
c-4 -18 -12.333 -33 -25 -45l-30 1c-18.667 0 -37.834 -5.16699 -57.501 -15.5s-29.5 -21.166 -29.5 -32.499c0.666992 -8.66699 8.16699 -15.834 22.5 -21.501s30.166 -8.5 47.499 -8.5c18 0 40.333 6.16699 67 18.5s48.334 25.833 65.001 40.5z" />
    <glyph glyph-name="uniFEF9" unicode="&#xfedf;&#xfe88;" horiz-adv-x="1000" arabic-form="isolated" 
d="M1050 762c-0.666992 -64.667 -7 -125.003 -19 -181.003c-7.33301 -36 -17 -68.667 -29 -98c-3.33301 -9.33301 -8.33301 -20.333 -15 -33c14 -24.667 24.333 -45.334 31 -62.001c20.667 -52 31 -103.333 31 -154l1 -234h-586l-1 290c59.333 8.66699 128.333 38 207 88
c66 42 106 74 120 96c-13.333 26.667 -32.166 54.5 -56.499 83.5s-55.5 61.167 -93.5 96.5c-32.667 30 -73.667 62 -123 96c-20.667 14 -55.334 36 -104.001 66c-3.33301 -17.333 -11.666 -30.666 -24.999 -39.999s-28.666 -14 -45.999 -14c-24.667 0 -47.5 17.667 -68.5 53
s-31.5 75.666 -31.5 120.999c-0.666992 14 0.166016 29.833 2.49902 47.5s5.83301 37.5 10.5 59.5c6 27.333 12 50.5 18 69.5s12.333 33.167 19 42.5c43.333 -8.66699 102.333 -43 177 -103c71.333 -57.333 138.666 -123 201.999 -197c111.333 -128 187 -226.667 227 -296
c1.33301 4.66699 2.5 9.33398 3.5 14.001s2.16699 9.33398 3.5 14.001c2.66699 12 4.83398 28.833 6.50098 50.5s2.5 53.834 2.5 96.501c-0.666992 52.667 -11.334 119 -32.001 199c-7.33301 26.667 -18.333 62 -33 106l79 88c57.333 60.667 98 93.334 122 98.001v-463z
M886 289.997c2.66699 13.333 1.99902 31.667 -2.00098 55c-1.33301 7.33301 -3.66602 17.666 -6.99902 30.999c-6 -9.33301 -24.667 -24.666 -56 -45.999c-38 -26 -57.333 -39.333 -58 -40h123zM869.999 -234.002l-31.002 -95c-9.33301 -6.66699 -52 -34 -128 -82l-112 -71
l-1 33c8.66699 13.333 15.667 23.333 21 30l29 42c-16.667 10 -28 18 -34 24c-15.333 16 -20.666 36 -15.999 60c10.667 48 32.834 90 66.501 126s69.5 54 107.5 54c13.333 0 23.5 -3.83301 30.5 -11.5s10.333 -16.167 10 -25.5s-1.16602 -16.333 -2.49902 -21
c-4 -18 -12 -33 -24 -45l-31 1c-18.667 0 -37.834 -5.16699 -57.501 -15.5s-29.167 -21.166 -28.5 -32.499c0 -8.66699 7.16699 -15.834 21.5 -21.501s30.166 -8.5 47.499 -8.5c18 0 40.333 6.16699 67 18.5s48.334 25.833 65.001 40.5z" />
    <glyph glyph-name="uniFEFA" unicode="&#xfee0;&#xfe88;" horiz-adv-x="1266" arabic-form="final" 
d="M1289 290l101 -0.000976562l-61 -290h-75c-48 0 -97 14.333 -147 43c-58 32.667 -93.667 73 -107 121c-10.667 -52.667 -23.667 -92.5 -39 -119.5s-33 -47.833 -53 -62.5c-59.333 -42 -128.5 -72.167 -207.5 -90.5s-188.5 -27.5 -328.5 -27.5v44
c29.333 0 81.666 20.667 156.999 62c71.333 38.667 139 82.334 203 131.001c68 51.333 107 89.666 117 114.999c0 38 -24 86.333 -72 145c-42.667 53.333 -102.334 112 -179.001 176c-43.333 36 -97.166 74.333 -161.499 115s-103.166 66.667 -116.499 78
c-30 26 -45 53 -45 81v240l322 -164l1 -36h-130c67.333 -50.667 106.666 -80.667 117.999 -90c56 -44 94 -76 114 -96c54 -54.667 100 -114.667 138 -180c28 -47.333 49.667 -93.666 65 -138.999l16 -56c2.66699 6.66699 5.83398 15.834 9.50098 27.501
s6.83398 23.834 9.50098 36.501c5.33301 25.333 8.83301 46.666 10.5 63.999s2.16699 37.333 1.5 60l1 573l149 149v-663c-0.666992 -64.667 22 -123.334 68 -176.001c41.333 -47.333 81.666 -71 120.999 -71zM1080 -234.001l-31.002 -95
c-9.33301 -6.66699 -52 -34 -128 -82l-112 -71l-1 33c8.66699 13.333 15.667 23.333 21 30l29 42c-16.667 10 -28 18 -34 24c-15.333 16 -20.666 36 -15.999 60c10.667 48 32.834 90 66.501 126s69.5 54 107.5 54c13.333 0 23.5 -3.83301 30.5 -11.5
s10.333 -16.167 10 -25.5s-1.16602 -16.333 -2.49902 -21c-3.33301 -18 -11.333 -33 -24 -45l-31 1c-18.667 0 -37.834 -5.16699 -57.501 -15.5s-29.167 -21.166 -28.5 -32.499c0 -8.66699 7.16699 -15.834 21.5 -21.501s30.166 -8.5 47.499 -8.5
c18 0 40.333 6.16699 67 18.5s48.334 25.833 65.001 40.5z" />
    <glyph glyph-name="uniFEFB" unicode="&#xfedf;&#xfe8e;" horiz-adv-x="1000" arabic-form="isolated" 
d="M1050 762c-0.666992 -64.667 -7 -125.003 -19 -181.003c-7.33301 -36 -17 -68.667 -29 -98c-3.33301 -9.33301 -8.33301 -20.333 -15 -33c14 -24.667 24.333 -45.334 31 -62.001c20.667 -52 31 -103.333 31 -154l1 -234h-586l-1 290c59.333 8.66699 128.333 38 207 88
c66 42 106 74 120 96c-13.333 26.667 -32.166 54.5 -56.499 83.5s-55.5 61.167 -93.5 96.5c-32.667 30 -73.667 62 -123 96c-20.667 14 -55.334 36 -104.001 66c-3.33301 -17.333 -11.666 -30.666 -24.999 -39.999s-28.666 -14 -45.999 -14c-24.667 0 -47.5 17.667 -68.5 53
s-31.5 75.666 -31.5 120.999c-0.666992 14 0.166016 29.833 2.49902 47.5s5.83301 37.5 10.5 59.5c6 27.333 12 50.5 18 69.5s12.333 33.167 19 42.5c43.333 -8.66699 102.333 -43 177 -103c71.333 -57.333 138.666 -123 201.999 -197c111.333 -128 187 -226.667 227 -296
c1.33301 4.66699 2.5 9.33398 3.5 14.001s2.16699 9.33398 3.5 14.001c2.66699 12 4.83398 28.833 6.50098 50.5s2.5 53.834 2.5 96.501c-0.666992 52.667 -11.334 119 -32.001 199c-7.33301 26.667 -18.333 62 -33 106l79 88c57.333 60.667 98 93.334 122 98.001v-463z
M886 289.997c2.66699 13.333 1.99902 31.667 -2.00098 55c-1.33301 7.33301 -3.66602 17.666 -6.99902 30.999c-6 -9.33301 -24.667 -24.666 -56 -45.999c-38 -26 -57.333 -39.333 -58 -40h123z" />
    <glyph glyph-name="uniFEFC" unicode="&#xfee0;&#xfe8e;" horiz-adv-x="1254" arabic-form="final" 
d="M1289 290l101 -0.000976562l-61 -290h-75c-48 0 -97 14.333 -147 43c-58 32.667 -93.667 73 -107 121c-10.667 -52.667 -23.667 -92.5 -39 -119.5s-33 -47.833 -53 -62.5c-59.333 -42 -128.5 -72.167 -207.5 -90.5s-188.5 -27.5 -328.5 -27.5v44
c29.333 0 81.666 20.667 156.999 62c71.333 38.667 139 82.334 203 131.001c68 51.333 107 89.666 117 114.999c0 38 -24 86.333 -72 145c-42.667 53.333 -102.334 112 -179.001 176c-43.333 36 -97.166 74.333 -161.499 115s-103.166 66.667 -116.499 78
c-30 26 -45 53 -45 81v240l322 -164l1 -36h-130c67.333 -50.667 106.666 -80.667 117.999 -90c56 -44 94 -76 114 -96c54 -54.667 100 -114.667 138 -180c28 -47.333 49.667 -93.666 65 -138.999l16 -56c2.66699 6.66699 5.83398 15.834 9.50098 27.501
s6.83398 23.834 9.50098 36.501c5.33301 25.333 8.83301 46.666 10.5 63.999s2.16699 37.333 1.5 60l1 573l149 149v-663c-0.666992 -64.667 22 -123.334 68 -176.001c41.333 -47.333 81.666 -71 120.999 -71z" />
    <glyph glyph-name="afii57410" unicode="&#x622;" horiz-adv-x="400" arabic-form="isolated" 
d="M767 1575c-8 -22.667 -18.001 -58.002 -30.001 -106.002s-22.333 -91.667 -31 -131h-19c0 18.667 -1 40.5 -3 65.5s-3 43.167 -3 54.5c-44.667 -35.333 -88 -61.666 -130 -78.999c-36 -14.667 -70 -22 -102 -22c-14 0 -28 1.66699 -42 5s-24 7.33301 -30 12
c-3.33301 -15.333 -7.83301 -33.5 -13.5 -54.5s-10.5 -35.167 -14.5 -42.5h-24v243c26.667 -19.333 50 -32.166 70 -38.499s42.333 -9.5 67 -9.5c46.667 0 101.334 12.333 164.001 37c26.667 10.667 73.667 32.667 141 66zM469.999 411.998
c0 -21.333 -1.83398 -46.668 -5.50098 -76.001s-7.5 -53.666 -11.5 -72.999c-14 -64 -35 -126.667 -63 -188c-9.33301 -20.667 -22.666 -45.667 -39.999 -75h-30v1050l150 150v-788z" />
    <glyph glyph-name="afii57411" unicode="&#x623;" horiz-adv-x="400" arabic-form="isolated" 
d="M567 1427l-31.001 -95c-9.33301 -6.66699 -51.666 -34 -126.999 -82l-113 -71l-1 33l21 30c15.333 22 25.333 36 30 42c-17.333 10 -29 18 -35 24c-15.333 16 -20.333 36 -15 60c10 48 31.833 90 65.5 126s69.5 54 107.5 54c13.333 0 23.5 -3.83301 30.5 -11.5
s10.333 -16.167 10 -25.5s-0.833008 -16.333 -1.5 -21c-4 -18 -12.333 -33 -25 -45l-31 1c-18.667 0 -37.667 -5.16699 -57 -15.5s-29 -21.166 -29 -32.499c0 -8.66699 7.33301 -15.834 22 -21.501s30.667 -8.5 48 -8.5c18 0 40.333 6.16699 67 18.5s48 25.833 64 40.5z
M468.999 412c0.666992 -21.333 -0.833984 -46.668 -4.50098 -76.001s-7.5 -53.666 -11.5 -72.999c-14 -64 -35 -126.667 -63 -188c-9.33301 -20.667 -22.666 -45.667 -39.999 -75h-30v1050l150 150z" />
    <glyph glyph-name="afii57412" unicode="&#x624;" horiz-adv-x="700" arabic-form="isolated" 
d="M526 390c-10 26 -31.332 53.334 -63.999 82.001s-58.667 43 -78 43c-13.333 0 -25 -8 -35 -24s-17 -34 -21 -54c-1.33301 -4.66699 -2.33301 -9 -3 -13v-16c0 -4.66699 5.66699 -8.83398 17 -12.501s22.666 -5.5 33.999 -5.5h150zM709.001 100.001
c0 -48 -4.6709 -94.332 -14.0039 -138.999c-22 -102.667 -64 -185.334 -126 -248.001c-65.333 -66 -143.666 -99 -234.999 -99c-60 0 -131.333 13.333 -214 40c-27.333 8.66699 -62.666 22.334 -105.999 41.001l3 23c110 22.667 210 55.667 300 99
c76.667 37.333 141.334 79.666 194.001 126.999c46 41.333 75.333 79.333 88 114c-4 9.33301 -8 16.333 -12 21c-13.333 14 -31.333 21 -54 21h-176c-46 0 -84.333 15 -115 45c-28 26.667 -41.833 55.667 -41.5 87s2.5 70 6.5 116c5.33301 64 13.333 120 24 168
c14 68 32 120.333 54 157c27.333 46 60.333 69 99 69c68.667 0 129.667 -35.667 183 -107c44.667 -59.333 80.334 -139 107.001 -239c24 -86 35.667 -166.333 35 -241v-55zM519.997 1048l-32 -95c-9.33301 -6.66699 -51.666 -34 -126.999 -82l-112 -71l-1 33l20 30
c15.333 22 25.333 36 30 42c-17.333 10 -29 18 -35 24c-15.333 16 -20.333 36 -15 60c10 48 31.833 90 65.5 126s69.5 54 107.5 54c13.333 0 23.5 -3.83301 30.5 -11.5s10.333 -16.167 10 -25.5s-0.833008 -16.333 -1.5 -21c-4 -18 -12.333 -33 -25 -45l-30 1
c-18.667 0 -37.834 -5.16699 -57.501 -15.5s-29.5 -21.166 -29.5 -32.499c0.666992 -8.66699 8.16699 -15.834 22.5 -21.501s30.166 -8.5 47.499 -8.5c18 0 40.333 6.16699 67 18.5s48.334 25.833 65.001 40.5z" />
    <glyph glyph-name="afii57413" unicode="&#x625;" horiz-adv-x="400" arabic-form="isolated" 
d="M470 412c0 -21.333 -1.83301 -46.668 -5.5 -76.001s-7.5 -53.666 -11.5 -72.999c-13.333 -64 -34.333 -126.667 -63 -188c-8.66699 -20.667 -22 -45.667 -40 -75h-30v1050l150 150v-788zM410 -245.002l-31.001 -95c-9.33301 -6.66699 -51.666 -34 -126.999 -82l-113 -71
l-1 33l21 30c15.333 22 25.333 36 30 42c-17.333 10 -29 18 -35 24c-15.333 16 -20.333 36 -15 60c10 48 31.833 90 65.5 126s69.5 54 107.5 54c13.333 0 23.5 -3.83301 30.5 -11.5s10.333 -16.167 10 -25.5s-0.833008 -16.333 -1.5 -21c-4 -18 -12.333 -33 -25 -45l-31 1
c-18.667 0 -37.667 -5.16699 -57 -15.5s-29 -21.166 -29 -32.499c0 -8.66699 7.33301 -15.834 22 -21.501s30.667 -8.5 48 -8.5c18 0 40.333 6.16699 67 18.5s48 25.833 64 40.5z" />
    <glyph glyph-name="afii57414" unicode="&#x626;" horiz-adv-x="1000" arabic-form="isolated" 
d="M971 124c-0.666992 -12.667 -2.33203 -26.6689 -4.99902 -42.002c-18.667 -86 -88.334 -155.667 -209.001 -209c-112.667 -50 -241.667 -75 -387 -75c-107.333 0 -185.666 31 -234.999 93c-42.667 53.333 -63.667 131 -63 233c0 39.333 5.33301 83.333 16 132
c12 59.333 29.667 120.333 53 183s44.666 109.667 63.999 141l43 -3c-7.33301 -18.667 -14.833 -41.5 -22.5 -68.5s-14.5 -54.5 -20.5 -82.5c-12.667 -57.333 -19 -102.666 -19 -135.999c0 -69.333 25.333 -123 76 -161c42.667 -32.667 94.667 -49 156 -49
c122.667 0 221.667 6.66699 297 20c90.667 16 142 40 154 72c-121.333 43.333 -217 81 -287 113c-74.667 34.667 -112 69.667 -112 105c0 9.33301 1.33301 20.333 4 33c14 65.333 46.667 145.666 98 240.999c61.333 113.333 127.333 205 198 275
c88 87.333 173.333 131 256 131c36 0 66.333 -23.333 91 -70c22 -42 33.333 -87.667 34 -137c-0.666992 -8 -1.66699 -15 -3 -21c-6 -30 -18 -60.333 -36 -91c-21.333 -36.667 -44 -61 -68 -73c-8 22.667 -15.667 41.334 -23 56.001c-14 28.667 -29.333 43 -46 43
c-55.333 0 -126 -32.333 -212 -97c-80 -60 -123.333 -105.333 -130 -136c26.667 -37.333 70.667 -67.333 132 -90l140 -50c43.333 -21.333 65 -52.666 65 -93.999zM540.002 925.998l-31.002 -95c-9.33301 -6.66699 -52 -34 -128 -82l-112 -71l-1 33l21 30
c15.333 22 25.333 36 30 42c-17.333 10 -29 18 -35 24c-15.333 16 -20.666 36 -15.999 60c10.667 48 32.834 90 66.501 126s69.5 54 107.5 54c13.333 0 23.5 -3.83301 30.5 -11.5s10.333 -16.167 10 -25.5s-1.16602 -16.333 -2.49902 -21c-3.33301 -18 -11.333 -33 -24 -45
l-31 1c-18.667 0 -37.834 -5.16699 -57.501 -15.5s-29.167 -21.166 -28.5 -32.499c0 -8.66699 7.16699 -15.834 21.5 -21.501s30.166 -8.5 47.499 -8.5c18 0 40.333 6.16699 67 18.5s48.334 25.833 65.001 40.5z" />
    <glyph glyph-name="afii57415" unicode="&#x627;" horiz-adv-x="382" arabic-form="isolated" 
d="M470 412c0 -21.333 -1.83398 -46.668 -5.50098 -76.001s-7.5 -53.666 -11.5 -72.999c-14 -64 -35 -126.667 -63 -188c-9.33301 -20.667 -22.666 -45.667 -39.999 -75h-30v1050l150 150v-788z" />
    <glyph glyph-name="afii57416" unicode="&#x628;" horiz-adv-x="1000" arabic-form="isolated" 
d="M736 -220l-103 -101l-119 120l101 101zM344 0c-100.667 0 -174.334 27.0029 -221.001 81.0029c-36 41.333 -53.667 94.333 -53 159c0 29.333 3 57.666 9 84.999c11.333 54 33.333 108.667 66 164c15.333 27.333 40.666 64.333 75.999 111h31
c-12 -24.667 -21.333 -53 -28 -85c-8 -38 -11.667 -76.333 -11 -115c-0.666992 -29.333 11.333 -54 36 -74c28.667 -24 69.667 -36 123 -36h579c0.666992 23.333 -12.666 57.333 -39.999 102c-24 39.333 -44.667 67.333 -62 84l74 224
c42.667 -42.667 77.834 -104.834 105.501 -186.501s41.5 -162.834 41.5 -243.501v-270h-726z" />
    <glyph glyph-name="afii57417" unicode="&#x629;" horiz-adv-x="572" arabic-form="isolated" 
d="M360 -50c-66 0 -127 13.334 -183 40.001c-64.667 30.667 -97 69.667 -97 117c0 34 4.33301 72 13 114c15.333 71.333 42.666 147.333 81.999 228c25.333 52.667 51 98 77 136l-60 52l87 174c36 -32.667 72.333 -69.334 109 -110.001
c60.667 -66.667 108.334 -130 143.001 -190c46.667 -80.667 70 -154.334 70 -221.001c0 -26.667 -1 -52.167 -3 -76.5s-5.33301 -47.166 -10 -68.499c-13.333 -62 -37 -109 -71 -141c-38 -36 -90.333 -54 -157 -54zM497 322.001c-14.667 22.667 -32.9971 46 -54.9971 70
c-36 38 -68.667 61 -98 69c-33.333 -13.333 -66 -48.333 -98 -105l-27 -53c15.333 -16.667 41.166 -32 77.499 -46s69.166 -21 98.499 -21c15.333 0 33.166 8.16699 53.499 24.5s36.5 36.833 48.5 61.5zM456.003 1067l-31.002 -95c-9.33301 -6.66699 -52 -34 -128 -82
l-112 -71l-1 33c8.66699 13.333 15.667 23.333 21 30l29 42c-16.667 10 -28 18 -34 24c-15.333 16 -20.666 36 -15.999 60c10.667 48 32.834 90 66.501 126s69.5 54 107.5 54c13.333 0 23.5 -3.83301 30.5 -11.5s10.333 -16.167 10 -25.5s-1.16602 -16.333 -2.49902 -21
c-3.33301 -18 -11.333 -33 -24 -45l-31 1c-18.667 0 -37.834 -5.16699 -57.501 -15.5s-29.167 -21.166 -28.5 -32.499c0 -8.66699 7.16699 -15.834 21.5 -21.501s30.166 -8.5 47.499 -8.5c18 0 40.333 6.16699 67 18.5s48.334 25.833 65.001 40.5z" />
    <glyph glyph-name="afii57418" unicode="&#x62a;" horiz-adv-x="1000" arabic-form="isolated" 
d="M819 661l-103 -102l-119 120l102 102zM598 640l-102 -102l-121 120l102 102zM344 0c-100.667 0 -174.334 27.0029 -221.001 81.0029c-36 41.333 -53.667 94.333 -53 159c0 29.333 3 57.666 9 84.999c11.333 54 33.333 108.667 66 164
c15.333 27.333 40.666 64.333 75.999 111h31c-12 -24.667 -21.333 -53 -28 -85c-8 -38 -11.667 -76.333 -11 -115c-0.666992 -29.333 11.333 -54 36 -74c28.667 -24 69.667 -36 123 -36h579c0.666992 23.333 -12.666 57.333 -39.999 102c-24 39.333 -44.667 67.333 -62 84
l74 224c42.667 -42.667 77.834 -104.834 105.501 -186.501s41.5 -162.834 41.5 -243.501v-270h-726z" />
    <glyph glyph-name="afii57419" unicode="&#x62b;" horiz-adv-x="1000" arabic-form="isolated" 
d="M805 617l-103 -101l-119 120l101 101zM583 596l-101 -101l-121 120l103 101zM669 790l-102 -102l-121 120l103 102zM344 0c-100.667 0 -174.334 27.0029 -221.001 81.0029c-36 41.333 -53.667 94.333 -53 159c0 29.333 3 57.666 9 84.999
c11.333 54 33.333 108.667 66 164c15.333 27.333 40.666 64.333 75.999 111h31c-12 -24.667 -21.333 -53 -28 -85c-8 -38 -11.667 -76.333 -11 -115c-0.666992 -29.333 11.333 -54 36 -74c28.667 -24 69.667 -36 123 -36h579c0.666992 23.333 -12.666 57.333 -39.999 102
c-24 39.333 -44.667 67.333 -62 84l74 224c42.667 -42.667 77.834 -104.834 105.501 -186.501s41.5 -162.834 41.5 -243.501v-270h-726z" />
    <glyph glyph-name="afii57420" unicode="&#x62c;" horiz-adv-x="912" arabic-form="isolated" 
d="M652 -149l-102 -102l-119 120l100 102zM619 95c-87.333 0 -182.5 -25.3311 -285.5 -75.998s-154.5 -93.667 -154.5 -129c0 -50.667 43.667 -102.334 131 -155.001c94 -56.667 195.333 -85 304 -85h369l-163 -174c-65.333 -64 -114.333 -96 -147 -96
c-150.667 0 -274.667 26.667 -372 80c-80 43.333 -139.667 103.333 -179 180c-30.667 59.333 -46.334 121.333 -47.001 186c0 33.333 3.66699 67.666 11 102.999c16.667 78 53 149 109 213c44 50.667 99 95.667 165 135c50.667 29.333 98.667 51.666 144 66.999l-47 57
c-36 40 -70.333 75 -103 105c-43.333 38.667 -75 58 -95 58c-21.333 0 -44.666 -6.33301 -69.999 -19c-18.667 -9.33301 -33.667 -19.333 -45 -30l-23 22l57 92c38.667 47.333 84 71 136 71c35.333 0 76 -14.667 122 -44c31.333 -20 78 -57.333 140 -112l164 -144
c25.333 -21.333 60.333 -39.666 105 -54.999c58 -20 123 -30 195 -30l-203 -257c-32 8 -57.333 14 -76 18c-60.667 12.667 -108 19 -142 19z" />
    <glyph glyph-name="afii57421" unicode="&#x62d;" horiz-adv-x="912" arabic-form="isolated" 
d="M619 95c-87.333 0 -182.5 -25.3311 -285.5 -75.998s-154.5 -93.667 -154.5 -129c0 -50.667 43.667 -102.334 131 -155.001c94 -56.667 195.333 -85 304 -85h369l-163 -174c-65.333 -64 -114.333 -96 -147 -96c-150.667 0 -274.667 26.667 -372 80
c-80 43.333 -139.667 103.333 -179 180c-30.667 59.333 -46.334 121.333 -47.001 186c0 33.333 3.66699 67.666 11 102.999c16.667 78 53 149 109 213c44 50.667 99 95.667 165 135c50.667 29.333 98.667 51.666 144 66.999l-47 57c-36 40 -70.333 75 -103 105
c-43.333 38.667 -75 58 -95 58c-21.333 0 -44.666 -6.33301 -69.999 -19c-18.667 -9.33301 -33.667 -19.333 -45 -30l-23 22l57 92c38.667 47.333 84 71 136 71c35.333 0 76 -14.667 122 -44c31.333 -20 78 -57.333 140 -112l164 -144
c25.333 -21.333 60.333 -39.666 105 -54.999c58 -20 123 -30 195 -30l-203 -257c-32 8 -57.333 14 -76 18c-60.667 12.667 -108 19 -142 19z" />
    <glyph glyph-name="afii57422" unicode="&#x62e;" horiz-adv-x="912" arabic-form="isolated" 
d="M487 966l-101 -102l-119 120l100 102zM619 95c-87.333 0 -182.5 -25.3311 -285.5 -75.998s-154.5 -93.667 -154.5 -129c0 -50.667 43.667 -102.334 131 -155.001c94 -56.667 195.333 -85 304 -85h369l-163 -174c-65.333 -64 -114.333 -96 -147 -96
c-150.667 0 -274.667 26.667 -372 80c-80 43.333 -139.667 103.333 -179 180c-30.667 59.333 -46.334 121.333 -47.001 186c0 33.333 3.66699 67.666 11 102.999c16.667 78 53 149 109 213c44 50.667 99 95.667 165 135c50.667 29.333 98.667 51.666 144 66.999l-47 57
c-36 40 -70.333 75 -103 105c-43.333 38.667 -75 58 -95 58c-21.333 0 -44.666 -6.33301 -69.999 -19c-18.667 -9.33301 -33.667 -19.333 -45 -30l-23 22l57 92c38.667 47.333 84 71 136 71c35.333 0 76 -14.667 122 -44c31.333 -20 78 -57.333 140 -112l164 -144
c25.333 -21.333 60.333 -39.666 105 -54.999c58 -20 123 -30 195 -30l-203 -257c-32 8 -57.333 14 -76 18c-60.667 12.667 -108 19 -142 19z" />
    <glyph glyph-name="afii57423" unicode="&#x62f;" horiz-adv-x="793" arabic-form="isolated" 
d="M793 234v-233.998h-466c-44.667 0 -78.667 9.33301 -102 28s-31.666 43.667 -24.999 75l37 284l30 -3c15.333 -40 33.5 -65.667 54.5 -77s56.5 -17 106.5 -17h247c0 45.333 -14 94.666 -42 147.999c-38 72.667 -96 135.667 -174 189l41 273
c5.33301 0 30.666 -28 75.999 -84c59.333 -74.667 106.333 -152 141 -232c50.667 -114.667 76 -231.334 76 -350.001z" />
    <glyph glyph-name="afii57424" unicode="&#x630;" horiz-adv-x="793" arabic-form="isolated" 
d="M793 234v-233.998h-466c-44.667 0 -78.667 9.33301 -102 28s-31.666 43.667 -24.999 75l37 284l30 -3c15.333 -40 33.5 -65.667 54.5 -77s56.5 -17 106.5 -17h247c0 45.333 -14 94.666 -42 147.999c-38 72.667 -96 135.667 -174 189l41 273
c5.33301 0 30.666 -28 75.999 -84c59.333 -74.667 106.333 -152 141 -232c50.667 -114.667 76 -231.334 76 -350.001zM531 1101l-102 -101l-120 120l102 101z" />
    <glyph glyph-name="afii57425" unicode="&#x631;" horiz-adv-x="700" arabic-form="isolated" 
d="M700 107c0 -37.333 -4.00098 -75.6689 -12.001 -115.002c-22 -101.333 -63.667 -186.666 -125 -255.999c-68 -76.667 -147 -115 -237 -115c-60 0 -130.667 12.333 -212 37c-27.333 8 -62.333 20.667 -105 38l-1 29c160.667 32.667 299.334 87 416.001 163
c96.667 63.333 155.667 123.333 177 180c-8 42 -32.333 91.333 -73 148c-13.333 18.667 -33.333 43.334 -60 74.001l93 289c17.333 -18.667 36 -50 56 -94c22 -48.667 40.667 -104.667 56 -168c18 -74.667 27 -144.667 27 -210z" />
    <glyph glyph-name="afii57426" unicode="&#x632;" horiz-adv-x="700" arabic-form="isolated" 
d="M501 748l-100 -102l-121 120l102 102zM700 107c0 -37.333 -4.00098 -75.6689 -12.001 -115.002c-22 -101.333 -63.667 -186.666 -125 -255.999c-68 -76.667 -147 -115 -237 -115c-60 0 -130.667 12.333 -212 37c-27.333 8 -62.333 20.667 -105 38l-1 29
c160.667 32.667 299.334 87 416.001 163c96.667 63.333 155.667 123.333 177 180c-8 42 -32.333 91.333 -73 148c-13.333 18.667 -33.333 43.334 -60 74.001l93 289c17.333 -18.667 36 -50 56 -94c22 -48.667 40.667 -104.667 56 -168c18 -74.667 27 -144.667 27 -210z" />
    <glyph glyph-name="afii57427" unicode="&#x633;" horiz-adv-x="1500" arabic-form="isolated" 
d="M1165 468l74.9961 75.9951c0.666992 -47.333 12.334 -98 35.001 -152c30 -68 66.667 -102 110 -102c15.333 0 27.333 1.66699 36 5c14 5.33301 22.667 14.666 26 27.999c0.666992 4.66699 1 8.33398 1 11.001c0 20.667 -8.33301 43.334 -25 68.001
c-8 12.667 -23 31.667 -45 57l86 174c25.333 -36 46 -83.333 62 -142c14 -49.333 24 -107.666 30 -174.999c5.33301 -57.333 8 -117 8 -179v-137h-129c-67.333 0 -123 19 -167 57c-33.333 28.667 -58.666 66.334 -75.999 113.001
c-11.333 -55.333 -33.666 -97.5 -66.999 -126.5s-75 -43.5 -125 -43.5h-90v-72c-0.666992 -18 -2.33398 -33 -5.00098 -45c-18 -86 -88.667 -153 -212 -201c-108.667 -42.667 -237.667 -64 -387 -64c-108 0 -186.333 29.333 -235 88c-44 52 -66 128 -66 228
c0.666992 39.333 6 83.333 16 132c12.667 59.333 30.667 120.333 54 183s44.666 109.667 63.999 141l43 -3c-6.66699 -16 -14 -38.5 -22 -67.5s-14.667 -55.833 -20 -80.5c-6.66699 -30.667 -11.667 -57.167 -15 -79.5s-5 -42.166 -5 -59.499
c0 -68.667 25.667 -120.667 77 -156c42.667 -29.333 95 -44 157 -44c118.667 0 219.334 8 302.001 24c93.333 18 146.333 43.333 159 76c0 32 -9 72.667 -27 122c-13.333 36.667 -30 75.334 -50 116.001c-17.333 34.667 -26.666 52 -27.999 52l116 220
c38.667 -78 78.334 -135.667 119.001 -173c34 -31.333 66 -47 96 -47c32.667 0 59.334 13.333 80.001 40c17.333 22 29.666 50 36.999 84c4 19.333 6.33301 37.333 7 54z" />
    <glyph glyph-name="afii57428" unicode="&#x634;" horiz-adv-x="1500" arabic-form="isolated" 
d="M1165 468l74.9961 75.9951c0.666992 -47.333 12.334 -98 35.001 -152c30 -68 66.667 -102 110 -102c15.333 0 27.333 1.66699 36 5c14 5.33301 22.667 14.666 26 27.999c0.666992 4.66699 1 8.33398 1 11.001c0 20.667 -8.33301 43.334 -25 68.001
c-8 12.667 -23 31.667 -45 57l86 174c25.333 -36 46 -83.333 62 -142c14 -49.333 24 -107.666 30 -174.999c5.33301 -57.333 8 -117 8 -179v-137h-129c-67.333 0 -123 19 -167 57c-33.333 28.667 -58.666 66.334 -75.999 113.001
c-11.333 -55.333 -33.666 -97.5 -66.999 -126.5s-75 -43.5 -125 -43.5h-90v-72c-0.666992 -18 -2.33398 -33 -5.00098 -45c-18 -86 -88.667 -153 -212 -201c-108.667 -42.667 -237.667 -64 -387 -64c-108 0 -186.333 29.333 -235 88c-44 52 -66 128 -66 228
c0.666992 39.333 6 83.333 16 132c12.667 59.333 30.667 120.333 54 183s44.666 109.667 63.999 141l43 -3c-6.66699 -16 -14 -38.5 -22 -67.5s-14.667 -55.833 -20 -80.5c-6.66699 -30.667 -11.667 -57.167 -15 -79.5s-5 -42.166 -5 -59.499
c0 -68.667 25.667 -120.667 77 -156c42.667 -29.333 95 -44 157 -44c118.667 0 219.334 8 302.001 24c93.333 18 146.333 43.333 159 76c0 32 -9 72.667 -27 122c-13.333 36.667 -30 75.334 -50 116.001c-17.333 34.667 -26.666 52 -27.999 52l116 220
c38.667 -78 78.334 -135.667 119.001 -173c34 -31.333 66 -47 96 -47c32.667 0 59.334 13.333 80.001 40c17.333 22 29.666 50 36.999 84c4 19.333 6.33301 37.333 7 54zM1337 702.995l-102 -102l-120 120l102 102zM1116 681.995l-102 -102l-120 120l102 102zM1201 874.995
l-102 -101l-120 120l103 101z" />
    <glyph glyph-name="afii57429" unicode="&#x635;" horiz-adv-x="1735" arabic-form="isolated" 
d="M1746 356c0.666992 22 -23.168 48 -71.501 78s-88.166 45 -119.499 45c-62 0 -121 -21.667 -177 -65l-153 -124h430c27.333 0 50 8.33301 68 25c15.333 14 23 27.667 23 41zM1032 290c38.667 0 91.3311 35.3301 157.998 105.997l180 198c72 70.667 133.667 106 185 106
c74.667 0 140.334 -25.667 197.001 -77c68.667 -61.333 103 -145.333 103 -252v-138c0 -23.333 -2.33301 -46.666 -7 -69.999c-12 -56.667 -41 -99 -87 -127c-40 -24 -88.667 -36 -146 -36h-711v-72c-0.666992 -18 -2.33398 -33 -5.00098 -45
c-18 -86 -88.667 -153 -212 -201c-108.667 -42.667 -237.667 -64 -387 -64c-107.333 0 -185 29.333 -233 88c-41.333 50.667 -62.333 126.667 -63 228c0.666992 39.333 6 83.333 16 132c12.667 59.333 30.667 120.333 54 183s44.666 109.667 63.999 141l43 -3
c-6.66699 -16 -14 -38.5 -22 -67.5s-14.667 -55.833 -20 -80.5c-6.66699 -30.667 -11.667 -57.167 -15 -79.5s-5 -42.166 -5 -59.499c0 -68.667 24.667 -120.667 74 -156c41.333 -29.333 93 -44 155 -44c118.667 0 219.334 8 302.001 24c93.333 18 146.333 43.333 159 76
c0 32 -9 72.667 -27 122c-13.333 36.667 -30 75.334 -50 116.001c-17.333 34.667 -26.666 52 -27.999 52l116 220c38.667 -77.333 78.334 -135 119.001 -173c33.333 -31.333 64.333 -47 93 -47z" />
    <glyph glyph-name="afii57430" unicode="&#x636;" horiz-adv-x="1735" arabic-form="isolated" 
d="M1316 807l-102 -101l-120 120l102 101zM1746 356c0.666992 22 -23.168 48 -71.501 78s-88.166 45 -119.499 45c-62 0 -121 -21.667 -177 -65l-153 -124h430c27.333 0 50 8.33301 68 25c15.333 14 23 27.667 23 41zM1032 290c38.667 0 91.3311 35.3301 157.998 105.997
l180 198c72 70.667 133.667 106 185 106c74.667 0 140.334 -25.667 197.001 -77c68.667 -61.333 103 -145.333 103 -252v-138c0 -23.333 -2.33301 -46.666 -7 -69.999c-12 -56.667 -41 -99 -87 -127c-40 -24 -88.667 -36 -146 -36h-711v-72
c-0.666992 -18 -2.33398 -33 -5.00098 -45c-18 -86 -88.667 -153 -212 -201c-108.667 -42.667 -237.667 -64 -387 -64c-107.333 0 -185 29.333 -233 88c-41.333 50.667 -62.333 126.667 -63 228c0.666992 39.333 6 83.333 16 132c12.667 59.333 30.667 120.333 54 183
s44.666 109.667 63.999 141l43 -3c-6.66699 -16 -14 -38.5 -22 -67.5s-14.667 -55.833 -20 -80.5c-6.66699 -30.667 -11.667 -57.167 -15 -79.5s-5 -42.166 -5 -59.499c0 -68.667 24.667 -120.667 74 -156c41.333 -29.333 93 -44 155 -44c118.667 0 219.334 8 302.001 24
c93.333 18 146.333 43.333 159 76c0 32 -9 72.667 -27 122c-13.333 36.667 -30 75.334 -50 116.001c-17.333 34.667 -26.666 52 -27.999 52l116 220c38.667 -77.333 78.334 -135 119.001 -173c33.333 -31.333 64.333 -47 93 -47z" />
    <glyph glyph-name="afii57431" unicode="&#x637;" horiz-adv-x="971" arabic-form="isolated" 
d="M989 297c-18.667 -88 -59.502 -163.669 -122.502 -227.002s-139.167 -95 -228.5 -95h-561l5 236h133l176 825h236l-100 -469c38 32 78 57.333 120 76c20 8 39.833 14.5 59.5 19.5s37.167 7.5 52.5 7.5c26 0 46.167 -2.33301 60.5 -7s23.333 -7.66699 27 -9
s7.83398 -3.66602 12.501 -6.99902c4.66699 -1.33301 9.83398 -3.33301 15.501 -6s11.5 -6 17.5 -10c46.667 -33.333 77.667 -80.666 93 -141.999c3.33301 -13.333 6.33301 -31.666 9 -54.999c1.33301 -14 2.33301 -27 3 -39c2.66699 -28.667 0 -61.334 -8 -98.001z
M759.998 300.998c3.33301 14 5.66797 27.167 7.00098 39.5s1.33301 24 0 35s-3.33301 20.667 -6 29s-7.33398 14.833 -14.001 19.5c-10 8 -21 12 -33 12c-26.667 0 -66 -23 -118 -69c-19.333 -19.333 -39.833 -41.5 -61.5 -66.5s-46.167 -54.833 -73.5 -89.5h227
c14 0 28.667 8.33301 44 25c5.33301 8 10.5 16.833 15.5 26.5s9.16699 22.5 12.5 38.5z" />
    <glyph glyph-name="afii57432" unicode="&#x638;" horiz-adv-x="1100" arabic-form="isolated" 
d="M886 901l-102 -101l-120 120l102 101zM1075 356c0.666992 22 -23.168 48 -71.501 78s-88.166 45 -119.499 45c-62 0 -121 -21.667 -177 -65l-153 -124h430c27.333 0 50 8.33301 68 25c16 14 23.667 27.667 23 41zM561.998 450c70.667 75.333 107.667 114.664 111 117.997
c42 42.667 77.667 74 107 94c37.333 25.333 72 38 104 38c74.667 0 140.667 -25.667 198 -77c68 -61.333 102 -145.333 102 -252v-138c0 -23.333 -2.33301 -46.666 -7 -69.999c-12 -56.667 -41 -99 -87 -127c-40 -24 -88.667 -36 -146 -36h-609
c-81.333 0 -142 27.667 -182 83c-46 63.333 -69 167 -69 311l41 40c15.333 -32 28.666 -56 39.999 -72c34.667 -48 70 -72 106 -72h39c23.333 0 44.833 5.83301 64.5 17.5s31.834 27.834 36.501 48.501c0.666992 2.66699 1 7.33398 1 14.001v680l150 150v-750z" />
    <glyph glyph-name="afii57433" unicode="&#x639;" horiz-adv-x="795" arabic-form="isolated" 
d="M104 -107c-0.666992 -51.333 41.668 -103 127.001 -155c92 -56.667 192 -85 300 -85h369l-164 -174c-66 -64 -115.333 -96 -148 -96c-150.667 0 -274 26.667 -370 80c-78 43.333 -136 103.333 -174 180c-29.333 59.333 -44.333 121.333 -45 186
c0 18 1.33301 37.833 4 59.5s5.66699 40.167 9 55.5c16 76 48 145.667 96 209c28.667 38 59.334 69 92.001 93c-21.333 28.667 -37 51.667 -47 69c-32 52.667 -47.667 95.667 -47 129c0 19.333 2.33301 39.333 7 60c14 67.333 42.667 127 86 179c47.333 58 98 87 152 87
c70.667 0 137.667 -18.667 201 -56c31.333 -18.667 71.333 -50 120 -94l1 -49c-36.667 12 -72 20 -106 24s-76 6 -126 6c-26.667 0 -67.334 -9.33301 -122.001 -28s-88.334 -35 -101.001 -49c37.333 -45.333 84.333 -87.333 141 -126c49.333 -34 90.333 -51 123 -51
c58 0 133.667 8.33301 227 25c30.667 5.33301 72 14 124 26l-149 -276c-112 0 -236.667 -27.833 -374 -83.5s-206 -104.167 -206 -145.5z" />
    <glyph glyph-name="afii57434" unicode="&#x63a;" horiz-adv-x="795" arabic-form="isolated" 
d="M474 1018l-102 -102l-120 120l102 102zM104 -107c-0.666992 -51.333 41.668 -103 127.001 -155c92 -56.667 192 -85 300 -85h369l-164 -174c-66 -64 -115.333 -96 -148 -96c-150.667 0 -274 26.667 -370 80c-78 43.333 -136 103.333 -174 180
c-29.333 59.333 -44.333 121.333 -45 186c0 18 1.33301 37.833 4 59.5s5.66699 40.167 9 55.5c16 76 48 145.667 96 209c28.667 38 59.334 69 92.001 93c-21.333 28.667 -37 51.667 -47 69c-32 52.667 -47.667 95.667 -47 129c0 19.333 2.33301 39.333 7 60
c14 67.333 42.667 127 86 179c47.333 58 98 87 152 87c70.667 0 137.667 -18.667 201 -56c31.333 -18.667 71.333 -50 120 -94l1 -49c-36.667 12 -72 20 -106 24s-76 6 -126 6c-26.667 0 -67.334 -9.33301 -122.001 -28s-88.334 -35 -101.001 -49
c37.333 -45.333 84.333 -87.333 141 -126c49.333 -34 90.333 -51 123 -51c58 0 133.667 8.33301 227 25c30.667 5.33301 72 14 124 26l-149 -276c-112 0 -236.667 -27.833 -374 -83.5s-206 -104.167 -206 -145.5z" />
    <glyph glyph-name="afii57441" unicode="&#x641;" horiz-adv-x="1200" arabic-form="isolated" 
d="M1115 340c0 66 -19 124.333 -57 175c-32 43.333 -61 65 -87 65c-12 0 -25 -5.33301 -39 -16c-16.667 -13.333 -27 -29.333 -31 -48c-0.666992 -2.66699 -1.16699 -10.5 -1.5 -23.5s26.167 -40.833 79.5 -83.5c56.667 -46 102 -69 136 -69zM825 934l-102 -102l-120 120
l103 102zM344 0c-100.667 0 -174.334 27.0039 -221.001 81.0039c-36 41.333 -53.667 94.333 -53 159c0 29.333 3 57.666 9 84.999c11.333 54 33.333 108.667 66 164c15.333 27.333 40.666 64.333 75.999 111h31c-12 -24.667 -21.333 -53 -28 -85
c-8 -38 -11.667 -76.333 -11 -115c-0.666992 -29.333 11.333 -54 36 -74c28.667 -24 69.667 -36 123 -36h497c-22 15.333 -38.333 28 -49 38c-32.667 32 -49 64 -49 96c-0.666992 45.333 4.33301 92.666 15 141.999c14 67.333 34.667 121 62 161c33.333 48.667 74 73 122 73
c70.667 0 138.334 -56.333 203.001 -169s96.667 -232.334 96 -359.001v-142c0 -12.667 -1.33301 -25.334 -4 -38.001c-6 -28 -18.667 -50.333 -38 -67s-43.666 -25 -72.999 -25h-810z" />
    <glyph glyph-name="afii57442" unicode="&#x642;" horiz-adv-x="940" arabic-form="isolated" 
d="M722 973l-101 -102l-121 120l102 102zM502 952l-103 -102l-119 120l102 102zM796 390c-10 26 -31.332 53.334 -63.999 82.001s-58.667 43 -78 43c-13.333 0 -25 -8 -35 -24s-17 -34 -21 -54c-1.33301 -4.66699 -2.33301 -9 -3 -13v-16
c0 -4.66699 5.66699 -8.83398 17 -12.501s22.666 -5.5 33.999 -5.5h150zM980.001 -16.999c0.666992 -7.33301 0.501953 -15 -0.498047 -23s-2.83301 -17.333 -5.5 -28c-20 -94 -93.333 -171 -220 -231c-116.667 -55.333 -247.667 -83 -393 -83
c-108 0 -189.333 32.667 -244 98c-48 58.667 -72 138 -72 238c0.666992 39.333 6 83.333 16 132c12.667 59.333 30.667 120.333 54 183s44.666 109.667 63.999 141l42 -3c-6.66699 -18 -13.834 -40.167 -21.501 -66.5s-14.5 -53.166 -20.5 -80.499
c-12.667 -58.667 -19.334 -105.334 -20.001 -140.001c0 -68.667 28.333 -124 85 -166c48.667 -36 103.667 -54 165 -54c104.667 0 205 16.833 301 50.5s150.667 68.5 164 104.5c-4.66699 10 -9.66699 17.333 -15 22c-15.333 15.333 -34 23 -56 23h-176
c-46 0 -84.333 15 -115 45c-28 26.667 -41.833 55.667 -41.5 87s2.5 70 6.5 116c5.33301 64 13 120 23 168c14.667 68 33 120.333 55 157c26.667 46 59.334 69 98.001 69c69.333 0 130.333 -33.333 183 -100c45.333 -57.333 81 -134 107 -230
c23.333 -85.333 35.333 -171 36 -257z" />
    <glyph glyph-name="afii57443" unicode="&#x643;" horiz-adv-x="1045" arabic-form="isolated" 
d="M1128 293l12 -3.99805v-289h-835v3c-71.333 9.33301 -125.333 35.333 -162 78c-36 41.333 -53.667 94.333 -53 159c0 29.333 3 57.666 9 84.999c11.333 54 33.333 108.667 66 164c15.333 27.333 40.666 64.333 75.999 111h31c-12 -24.667 -21.333 -53 -28 -85
c-8 -38 -11.667 -76.333 -11 -115c-0.666992 -29.333 11.333 -54 36 -74c28.667 -24 69.667 -36 123 -36h597l1 40c-14 37.333 -46.667 76.666 -98 117.999c-71.333 55.333 -138.666 83 -201.999 83c-25.333 0 -49.666 -4.33301 -72.999 -13
c-18.667 -6.66699 -32.334 -14 -41.001 -22c-22 7.33301 -47.833 36.666 -77.5 87.999s-44.834 90 -45.501 116c26.667 55.333 86 129.833 178 223.5s195 183.834 309 270.501c124.667 94.667 234 163 328 205v-289c-78 -7.33301 -166.333 -38.666 -265 -93.999
c-80 -44.667 -159 -100.334 -237 -167.001c-66 -56 -108.667 -99.667 -128 -131c44.667 0 91.334 -6.66699 140.001 -20s86.667 -30 114 -50c90.667 -62 156 -137.333 196 -226c18.667 -40 32 -83 40 -129z" />
    <glyph glyph-name="afii57444" unicode="&#x644;" horiz-adv-x="803" arabic-form="isolated" 
d="M321 -482c-108 0 -189.669 32.665 -245.002 97.998c-50.667 58.667 -76 138 -76 238c0 33.333 5 73 15 119c12.667 60 31.5 122.333 56.5 187s47.833 113.667 68.5 147h43c-6.66699 -16 -14.167 -38.5 -22.5 -67.5s-15.166 -55.833 -20.499 -80.5
c-6.66699 -30.667 -11.667 -57.167 -15 -79.5s-4.66602 -42.166 -3.99902 -59.499c0 -68.667 28 -124 84 -166c48.667 -36 103.667 -54 165 -54c91.333 0 169.333 22.667 234 68c54 38 85.667 77.667 95 119c1.33301 6 1.66602 10.333 0.999023 13l1 1050l149 150v-1200
c0.666992 -49.333 -3.66602 -95.666 -12.999 -138.999c-26.667 -124 -90.667 -214.667 -192 -272c-84 -47.333 -192 -71 -324 -71z" />
    <glyph glyph-name="afii57445" unicode="&#x645;" horiz-adv-x="700" arabic-form="isolated" 
d="M305 -422c0 -9.33301 -1.16797 -22.333 -3.50098 -39s-4.83301 -31.667 -7.5 -45c-6.66699 -30.667 -14 -57.667 -22 -81l-39 1l-1 64c0 84.667 -11 176.334 -33 275.001c-14 60.667 -37 141 -69 241c-30 95.333 -47.333 154 -52 176c-0.666992 14 0 30.667 2 50
s4.66699 35.666 8 48.999c14.667 71.333 49 127.333 103 168c24.667 18.667 69 41.334 133 68.001c37.333 16 75 29.333 113 40c12.667 3.33301 28.667 7.33301 48 12c-12.667 16 -23.334 27.667 -32.001 35c-26 23.333 -53 35 -81 35c-24 0 -54.333 -14.667 -91 -44
c-12 -9.33301 -27.667 -24.333 -47 -45l-23 36c23.333 57.333 43 100 59 128c49.333 85.333 99 128 149 128c38.667 0 82.334 -22.667 131.001 -68l131 -126c53.333 -45.333 105 -68 155 -68l-132 -266c-16.667 0 -55.667 -3.66699 -117 -11
c-91.333 -11.333 -165.666 -25.333 -222.999 -42c-82 -24.667 -126.333 -54 -133 -88c-1.33301 -4.66699 -2 -8.33398 -2 -11.001c16 -36.667 32 -113.667 48 -231c18.667 -127.333 28 -241 28 -341z" />
    <glyph glyph-name="afii57446" unicode="&#x646;" horiz-adv-x="879" arabic-form="isolated" 
d="M582 495l-102 -102l-120 120l102 102zM936 56c0 -20.667 -3.33203 -54 -9.99902 -100c-2 -7.33301 -3.33301 -15.333 -4 -24s-2.33398 -18.334 -5.00098 -29.001c-19.333 -92 -88.666 -163.667 -207.999 -215c-108.667 -46.667 -239 -70 -391 -70
c-108 0 -186.333 29.333 -235 88c-44 52 -66 128 -66 228c0.666992 39.333 6 83.333 16 132c12.667 59.333 30.667 120.333 54 183s44.666 109.667 63.999 141l43 -3c-6.66699 -16 -14 -38.5 -22 -67.5s-14.667 -55.833 -20 -80.5
c-6.66699 -30.667 -11.667 -57.167 -15 -79.5s-5 -42.166 -5 -59.499c0 -68.667 25.667 -120.667 77 -156c42.667 -29.333 95 -44 157 -44c108 0 208.5 10.333 301.5 31s146.167 43.667 159.5 69c0 32 -10 72.667 -30 122c-12.667 31.333 -31.667 70 -57 116
c-19.333 34.667 -29.333 52 -30 52l119 241c27.333 -58.667 50.333 -123 69 -193c13.333 -51.333 23.333 -107.333 30 -168c5.33301 -47.333 8 -85.333 8 -114z" />
    <glyph glyph-name="afii57470" unicode="&#x647;" horiz-adv-x="500" arabic-form="isolated" 
d="M360 -50c-66 0 -127 13.334 -183 40.001c-64.667 30.667 -97 69.667 -97 117c0 34 4.33301 72 13 114c15.333 71.333 42.666 147.333 81.999 228c25.333 52.667 51 98 77 136l-60 52l87 174c36 -32.667 72.333 -69.334 109 -110.001
c60.667 -66.667 108.334 -130 143.001 -190c46.667 -80.667 70 -154.334 70 -221.001c0 -26.667 -1 -52.167 -3 -76.5s-5.33301 -47.166 -10 -68.499c-13.333 -62 -37 -109 -71 -141c-38 -36 -90.333 -54 -157 -54zM497 322.001c-14.667 22.667 -32.9971 46 -54.9971 70
c-36 38 -68.667 61 -98 69c-33.333 -13.333 -66 -48.333 -98 -105l-27 -53c15.333 -16.667 41.166 -32 77.499 -46s69.166 -21 98.499 -21c15.333 0 33.166 8.16699 53.499 24.5s36.5 36.833 48.5 61.5z" />
    <glyph glyph-name="afii57448" unicode="&#x648;" horiz-adv-x="700" arabic-form="isolated" 
d="M526 390c-10 26 -31.332 53.334 -63.999 82.001s-58.667 43 -78 43c-13.333 0 -25 -8 -35 -24s-17 -34 -21 -54c-1.33301 -4.66699 -2.33301 -9 -3 -13v-16c0 -4.66699 5.66699 -8.83398 17 -12.501s22.666 -5.5 33.999 -5.5h150zM709.001 100.001
c0 -48 -4.6709 -94.332 -14.0039 -138.999c-22 -102.667 -64 -185.334 -126 -248.001c-65.333 -66 -143.666 -99 -234.999 -99c-60 0 -131.333 13.333 -214 40c-27.333 8.66699 -62.666 22.334 -105.999 41.001l3 23c110 22.667 210 55.667 300 99
c76.667 37.333 141.334 79.666 194.001 126.999c46 41.333 75.333 79.333 88 114c-4 9.33301 -8 16.333 -12 21c-13.333 14 -31.333 21 -54 21h-176c-46 0 -84.333 15 -115 45c-28 26.667 -41.833 55.667 -41.5 87s2.5 70 6.5 116c5.33301 64 13.333 120 24 168
c14 68 32 120.333 54 157c27.333 46 60.333 69 99 69c68.667 0 129.667 -35.667 183 -107c44.667 -59.333 80.334 -139 107.001 -239c24 -86 35.667 -166.333 35 -241v-55z" />
    <glyph glyph-name="afii57449" unicode="&#x649;" horiz-adv-x="1000" arabic-form="isolated" 
d="M961 124c-0.666992 -12.667 -2.33203 -26.6689 -4.99902 -42.002c-18.667 -86 -88.334 -155.667 -209.001 -209c-112.667 -50 -241.667 -75 -387 -75c-107.333 0 -185.666 31 -234.999 93c-42.667 53.333 -63.667 131 -63 233c0 39.333 5.33301 83.333 16 132
c12 59.333 29.667 120.333 53 183s44.666 109.667 63.999 141l43 -3c-7.33301 -18.667 -14.833 -41.5 -22.5 -68.5s-14.5 -54.5 -20.5 -82.5c-12.667 -57.333 -19 -102.666 -19 -135.999c0 -69.333 25.333 -123 76 -161c42.667 -32.667 94.667 -49 156 -49
c122.667 0 221.667 6.66699 297 20c90.667 16 142 40 154 72c-121.333 43.333 -217 81 -287 113c-74.667 34.667 -112 69.667 -112 105c0 9.33301 1.33301 20.333 4 33c14 65.333 46.667 145.666 98 240.999c61.333 113.333 127.333 205 198 275
c88 87.333 173.333 131 256 131c36 0 66.333 -23.333 91 -70c22 -42 33.333 -87.667 34 -137c-0.666992 -8 -1.66699 -15 -3 -21c-6 -30 -18 -60.333 -36 -91c-21.333 -36.667 -44 -61 -68 -73c-8 22.667 -15.667 41.334 -23 56.001c-14 28.667 -29.333 43 -46 43
c-55.333 0 -126 -32.333 -212 -97c-80 -60 -123.333 -105.333 -130 -136c26.667 -37.333 70.667 -67.333 132 -90l140 -50c43.333 -21.333 65 -52.666 65 -93.999z" />
    <glyph glyph-name="afii57450" unicode="&#x64a;" horiz-adv-x="1000" arabic-form="isolated" 
d="M961 124c-0.666992 -12.667 -2.33203 -26.6689 -4.99902 -42.002c-18.667 -86 -88.334 -155.667 -209.001 -209c-112.667 -50 -241.667 -75 -387 -75c-107.333 0 -185.666 31 -234.999 93c-42.667 53.333 -63.667 131 -63 233c0 39.333 5.33301 83.333 16 132
c12 59.333 29.667 120.333 53 183s44.666 109.667 63.999 141l43 -3c-7.33301 -18.667 -14.833 -41.5 -22.5 -68.5s-14.5 -54.5 -20.5 -82.5c-12.667 -57.333 -19 -102.666 -19 -135.999c0 -69.333 25.333 -123 76 -161c42.667 -32.667 94.667 -49 156 -49
c122.667 0 221.667 6.66699 297 20c90.667 16 142 40 154 72c-121.333 43.333 -217 81 -287 113c-74.667 34.667 -112 69.667 -112 105c0 9.33301 1.33301 20.333 4 33c14 65.333 46.667 145.666 98 240.999c61.333 113.333 127.333 205 198 275
c88 87.333 173.333 131 256 131c36 0 66.333 -23.333 91 -70c22 -42 33.333 -87.667 34 -137c-0.666992 -8 -1.66699 -15 -3 -21c-6 -30 -18 -60.333 -36 -91c-21.333 -36.667 -44 -61 -68 -73c-8 22.667 -15.667 41.334 -23 56.001c-14 28.667 -29.333 43 -46 43
c-55.333 0 -126 -32.333 -212 -97c-80 -60 -123.333 -105.333 -130 -136c26.667 -37.333 70.667 -67.333 132 -90l140 -50c43.333 -21.333 65 -52.666 65 -93.999z" />
    <glyph glyph-name="afii57506" unicode="&#x67e;" horiz-adv-x="1000" arabic-form="isolated" 
d="M344 0c-100.667 0 -174.334 27.0029 -221.001 81.0029c-36 41.333 -53.667 94.333 -53 159c0 29.333 3 57.666 9 84.999c11.333 54 33.333 108.667 66 164c15.333 27.333 40.666 64.333 75.999 111h31c-12 -24.667 -21.333 -53 -28 -85c-8 -38 -11.667 -76.333 -11 -115
c-0.666992 -29.333 11.333 -54 36 -74c28.667 -24 69.667 -36 123 -36h579c0.666992 23.333 -12.666 57.333 -39.999 102c-24 39.333 -44.667 67.333 -62 84l74 224c42.667 -42.667 77.834 -104.834 105.501 -186.501s41.5 -162.834 41.5 -243.501v-270h-726zM743 -400.997
l-102 -102l-120 120l102 102zM807 -216.997l-101 -102l-121 120l102 102zM586 -237.997l-102 -102l-119 120l102 102z" />
    <glyph glyph-name="afii57507" unicode="&#x686;" horiz-adv-x="912" arabic-form="isolated" 
d="M619 95c-87.333 0 -182.5 -25.3311 -285.5 -75.998s-154.5 -93.667 -154.5 -129c0 -50.667 43.667 -102.334 131 -155.001c94 -56.667 195.333 -85 304 -85h369l-163 -174c-65.333 -64 -114.333 -96 -147 -96c-150.667 0 -274.667 26.667 -372 80
c-80 43.333 -139.667 103.333 -179 180c-30.667 59.333 -46.334 121.333 -47.001 186c0 33.333 3.66699 67.666 11 102.999c16.667 78 53 149 109 213c44 50.667 99 95.667 165 135c50.667 29.333 98.667 51.666 144 66.999l-47 57c-36 40 -70.333 75 -103 105
c-43.333 38.667 -75 58 -95 58c-21.333 0 -44.666 -6.33301 -69.999 -19c-18.667 -9.33301 -33.667 -19.333 -45 -30l-23 22l57 92c38.667 47.333 84 71 136 71c35.333 0 76 -14.667 122 -44c31.333 -20 78 -57.333 140 -112l164 -144
c25.333 -21.333 60.333 -39.666 105 -54.999c58 -20 123 -30 195 -30l-203 -257c-32 8 -57.333 14 -76 18c-60.667 12.667 -108 19 -142 19zM837 -208.998l-103 -102l-119 120l101 102zM615 -229.998l-101 -102l-121 120l103 102zM700 -36.998l-102 -101l-119 120l102 101z
" />
    <glyph glyph-name="afii57508" unicode="&#x698;" horiz-adv-x="700" arabic-form="isolated" 
d="M700 107c0 -37.333 -4.00098 -75.6689 -12.001 -115.002c-22 -101.333 -63.667 -186.666 -125 -255.999c-68 -76.667 -147 -115 -237 -115c-60 0 -130.667 12.333 -212 37c-27.333 8 -62.333 20.667 -105 38l-1 29c160.667 32.667 299.334 87 416.001 163
c96.667 63.333 155.667 123.333 177 180c-8 42 -32.333 91.333 -73 148c-13.333 18.667 -33.333 43.334 -60 74.001l93 289c17.333 -18.667 36 -50 56 -94c22 -48.667 40.667 -104.667 56 -168c18 -74.667 27 -144.667 27 -210zM718.999 826.997l-102 -102l-120 120l102 102
zM497.999 805.997l-102 -102l-120 120l102 102zM582.999 998.997l-103 -101l-119 120l102 101z" />
    <glyph glyph-name="afii57509" unicode="&#x6af;" horiz-adv-x="1045" arabic-form="isolated" 
d="M1128 293l12 -3.99805v-289h-835v3c-71.333 9.33301 -125.333 35.333 -162 78c-36 41.333 -53.667 94.333 -53 159c0 29.333 3 57.666 9 84.999c11.333 54 33.333 108.667 66 164c15.333 27.333 40.666 64.333 75.999 111h31c-12 -24.667 -21.333 -53 -28 -85
c-8 -38 -11.667 -76.333 -11 -115c-0.666992 -29.333 11.333 -54 36 -74c28.667 -24 69.667 -36 123 -36h597l1 40c-14 37.333 -46.667 76.666 -98 117.999c-71.333 55.333 -138.666 83 -201.999 83c-25.333 0 -49.666 -4.33301 -72.999 -13
c-18.667 -6.66699 -32.334 -14 -41.001 -22c-22 7.33301 -47.833 36.666 -77.5 87.999s-44.834 90 -45.501 116c26.667 55.333 86 129.833 178 223.5s195 183.834 309 270.501c124.667 94.667 234 163 328 205v-289c-78 -7.33301 -166.333 -38.666 -265 -93.999
c-80 -44.667 -159 -100.334 -237 -167.001c-66 -56 -108.667 -99.667 -128 -131c44.667 0 91.334 -6.66699 140.001 -20s86.667 -30 114 -50c90.667 -62 156 -137.333 196 -226c18.667 -40 32 -83 40 -129zM525 1008c17.333 39.333 57.832 92.1689 121.499 158.502
s134.834 130.5 213.501 192.5c86.667 67.333 163 116 229 146l1 -157l-177 -110c-2.66699 -1.33301 -5 -2.33301 -7 -3l-53 -33c-37.333 -24.667 -74 -53.334 -110 -86.001c-14.667 -12.667 -30.667 -27.334 -48 -44.001l-145 -130c-16 28.667 -24.333 50.667 -25 66z" />
    <glyph glyph-name="uniFB57" unicode="&#x67e;" horiz-adv-x="1230" arabic-form="final" 
d="M342 0c-100.667 0 -174.333 27.002 -221 81.002c-36 41.333 -53.667 94.333 -53 159c0 29.333 3 57.666 9 84.999c11.333 54 33.333 108.667 66 164c15.333 27.333 40.666 64.333 75.999 111h31c-12 -24.667 -21.333 -53 -28 -85c-8 -38 -11.667 -76.333 -11 -115
c-0.666992 -29.333 11.333 -54 36 -74c28.667 -24 69.667 -36 123 -36h477c30 0 54.5 8.33301 73.5 25s32.167 42.667 39.5 78c4.66699 21.333 7.33398 47 8.00098 77l129 130l8 -80c10 -60.667 25 -110.334 45 -149.001c28.667 -54 66 -81 112 -81h99l-61 -290h-80
c-55.333 0 -101 10 -137 30c-21.333 12 -41 29.333 -59 52c-5.33301 -10.667 -10.333 -19 -15 -25c-30.667 -38 -73.667 -57 -129 -57h-538zM738.001 -399.998l-103 -102l-120 120l102 102zM801.001 -216.998l-101 -102l-121 120l102 102zM580.001 -237.998l-102 -102
l-119 120l102 102z" />
    <glyph glyph-name="uniFB58" unicode="&#x67e;" horiz-adv-x="423" arabic-form="initial" 
d="M0 0l62 290.002l294 -3c0 23.333 -13.333 57.333 -40 102c-24 39.333 -44.667 67.333 -62 84l74 224c42.667 -42.667 77.667 -104.834 105 -186.501s41.333 -162.834 42 -243.501l-1 -270zM366 -400.998l-103 -102l-119 120l101 102zM430 -217.998l-102 -102l-121 120
l102 102zM208 -238.998l-102 -102l-119 120l102 102z" />
    <glyph glyph-name="uniFB59" unicode="&#x67e;" horiz-adv-x="521" arabic-form="medial" 
d="M584 0l-70 0.00195312c-55.333 0 -101 10 -137 30c-21.333 12 -41 29.333 -59 52c-5.33301 -10.667 -10.333 -19 -15 -25c-30.667 -38 -73.667 -57 -129 -57h-174l62 290h80c30 0 54.333 8.33301 73 25s32 42.667 40 78c4 21.333 6.33301 47 7 77l130 130
c2 -26.667 4.66699 -53.334 8 -80.001c9.33301 -60.667 24.333 -110.334 45 -149.001c28.667 -54 66 -81 112 -81h89zM377 -400.998l-103 -102l-119 120l101 102zM441 -217.998l-102 -102l-121 120l102 102zM219 -238.998l-102 -102l-119 120l102 102z" />
    <glyph glyph-name="uniFB7B" unicode="&#x686;" horiz-adv-x="930" arabic-form="final" 
d="M600 0c-90.667 0 -185.167 -17.667 -283.5 -53s-147.5 -71 -147.5 -107c0 -50.667 43.667 -102.334 131 -155.001c94 -56.667 195.333 -85 304 -85h369l-164 -174c-65.333 -64 -114.333 -96 -147 -96c-150.667 0 -274.667 26.667 -372 80
c-79.333 43.333 -139 103.333 -179 180c-30.667 59.333 -45.667 121.333 -45 186c0 32.667 3.33301 64.667 10 96c17.333 82.667 58.333 155.334 123 218.001c48.667 47.333 110.667 88 186 122c54 24 101 40 141 48l-54 78c-46.667 64 -85 113 -115 147
c-46.667 52.667 -80.667 79 -102 79s-44.666 -6.33301 -69.999 -19c-18.667 -9.33301 -33.667 -19.333 -45 -30l-23 22l57 92c38.667 47.333 84 71 136 71c47.333 0 110.5 -34.667 189.5 -104l236.5 -210c25.333 -22 56.666 -42 93.999 -60c49.333 -24 95 -36 137 -36h95
l-62 -290h-400zM848 -289l-103 -102l-119 120l101 102zM626 -310l-101 -102l-121 120l103 102zM711 -117l-102 -101l-120 120l103 101z" />
    <glyph glyph-name="uniFB7C" unicode="&#x686;" horiz-adv-x="900" arabic-form="initial" 
d="M1062 315l-204.002 -257.002c-27.333 5.33301 -49.666 9.33301 -66.999 12c-52.667 8 -98 12 -136 12c-54 0 -111.333 -6.83301 -172 -20.5l-178 -41c-58 -13.667 -103.667 -20.5 -137 -20.5h-168l62 290h61c50 0 110 4.66699 180 14c50 6.66699 102 15.334 156 26.001
l67 14l-48 57c-35.333 40 -69.333 75 -102 105c-43.333 38.667 -75 58 -95 58c-21.333 0 -44.666 -6.33301 -69.999 -19c-18.667 -9.33301 -34 -19.333 -46 -30l-22 22l57 92c38.667 47.333 84 71 136 71c35.333 0 75.666 -14.667 120.999 -44c32 -20 79 -57.333 141 -112
l164 -144c24.667 -21.333 59.334 -39.666 104.001 -54.999c58.667 -20 124 -30 196 -30zM709.998 -400.002l-103 -102l-119 120l101 102zM773.998 -217.002l-102 -102l-120 120l101 102zM551.998 -238.002l-101 -102l-120 120l102 102z" />
    <glyph glyph-name="uniFB7D" unicode="&#x686;" horiz-adv-x="939" arabic-form="medial" 
d="M1062 290l-62.001 -290h-1000l62 290h473l-49 71c-38 52 -73 95.667 -105 131c-44 48 -76.333 72 -97 72c-21.333 0 -44.666 -6.33301 -69.999 -19c-18.667 -9.33301 -34 -19.333 -46 -30l-22 22l57 92c38.667 47.333 84 71 136 71c47.333 0 110.5 -34.667 189.5 -104
l236.5 -210c25.333 -22 56.333 -42 93 -60c50 -24 96 -36 138 -36h66zM657.999 -400l-103 -102l-119 120l101 102zM721.999 -217l-102 -102l-120 120l101 102zM499.999 -238l-101 -102l-120 120l102 102z" />
    <glyph glyph-name="uniFB8B" unicode="&#x698;" horiz-adv-x="828" arabic-form="final" 
d="M613 67c-12.667 33.333 -35.667 80.668 -69 142.001l-47 81l96 299l44 -81c38.667 -68.667 74.667 -122.167 108 -160.5s61.666 -57.5 84.999 -57.5h132l-62 -290h-211c-21.333 -102.667 -62.666 -189.334 -123.999 -260.001
c-68.667 -79.333 -148.334 -119 -239.001 -119c-60 0 -130.667 12.333 -212 37c-27.333 8 -62.333 20.667 -105 38l-1 29c104 20.667 201 52.667 291 96c79.333 37.333 148.333 80 207 128c50.667 42 86.334 81.333 107.001 118zM805 827.002l-102 -102l-120 120l102 102z
M584 806.002l-102 -102l-120 120l102 102zM669 999.002l-103 -101l-119 120l102 101z" />
    <glyph glyph-name="uniFB8F" unicode="&#x6a9;" horiz-adv-x="1300" arabic-form="final" 
d="M305 0l0.000976562 1c-81.333 6.66699 -142 33.334 -182 80.001c-36 41.333 -53.667 94.333 -53 159c0 29.333 3 57.666 9 84.999c11.333 54 33.333 108.667 66 164c15.333 27.333 40.666 64.333 75.999 111h31c-12 -24.667 -21.333 -53 -28 -85
c-8 -38 -11.667 -76.333 -11 -115c-0.666992 -29.333 11.333 -54 36 -74c28.667 -24 69.667 -36 123 -36h625c0 49.333 -35.333 101.833 -106 157.5s-137.667 83.5 -201 83.5c-25.333 0 -49.666 -4.33301 -72.999 -13c-18.667 -6.66699 -32.334 -14 -41.001 -22
c-22 7.33301 -47.833 36.666 -77.5 87.999s-44.834 90 -45.501 116c26.667 55.333 86 129.833 178 223.5s195 183.834 309 270.501c124.667 94.667 234 163 328 205v-289c-78 -7.33301 -166.333 -38.666 -265 -93.999c-80 -44.667 -159 -100.334 -237 -167.001
c-66 -56 -108.667 -99.667 -128 -131c44.667 0 91.334 -6.66699 140.001 -20s86.667 -30 114 -50c88 -60.667 152.333 -133.667 193 -219c36.667 -48 69.667 -82.667 99 -104c31.333 -23.333 66 -35 104 -35h148l-61 -290h-105c-29.333 0 -56 8 -80 24
c-14.667 10 -37 31 -67 63l-18 -87h-800z" />
    <glyph glyph-name="uniFB90" unicode="&#x6a9;" horiz-adv-x="750" arabic-form="initial" 
d="M963 1110c-77.333 -7.33301 -165.668 -38.667 -265.001 -94c-79.333 -44.667 -158.333 -100.334 -237 -167.001c-65.333 -56 -107.666 -99.667 -126.999 -131c44.667 0 91.167 -6.66699 139.5 -20s86.5 -30 114.5 -50c90 -62 155.333 -137.333 196 -226
c33.333 -73.333 50 -157.666 50 -252.999v-169h-834l62 290h631c-0.666992 49.333 -36.167 101.833 -106.5 157.5s-137.166 83.5 -200.499 83.5c-25.333 0 -50 -4.33301 -74 -13c-18.667 -6.66699 -32.334 -14 -41.001 -22c-21.333 7.33301 -47 36.666 -77 87.999
s-45 90 -45 116c26 55.333 85 129.833 177 223.5s195.333 183.834 310 270.501c124 94.667 233 163 327 205v-289z" />
    <glyph glyph-name="uniFB91" unicode="&#x6a9;" horiz-adv-x="1100" arabic-form="medial" 
d="M834 445c54 -54.667 101.999 -92.667 143.999 -114c48 -24 103 -36 165 -36h91l-63 -295h-102c-35.333 0 -69.333 10.667 -102 32c-4 2 -48.333 43.333 -133 124l-33 -156h-801l62 290h631c-0.666992 49.333 -36.167 101.833 -106.5 157.5s-137.166 83.5 -200.499 83.5
c-25.333 0 -50 -4.33301 -74 -13c-18.667 -6.66699 -32.334 -14 -41.001 -22c-21.333 7.33301 -47 36.666 -77 87.999s-45 90 -45 116c25.333 54.667 91 131.334 197 230.001c101.333 94.667 215.333 187.667 342 279c134.667 96.667 250 166.667 346 210v-289
c-76.667 -6.66699 -171 -40 -283 -100c-93.333 -49.333 -183.666 -108 -270.999 -176c-79.333 -60.667 -128 -106 -146 -136c44.667 0 91.167 -6.66699 139.5 -20s86.5 -30 114.5 -50c37.333 -26 77.333 -56.333 120 -91c50 -40.667 92 -78 126 -112z" />
    <glyph glyph-name="uniFB93" unicode="&#x6af;" horiz-adv-x="1300" arabic-form="final" 
d="M305 0l0.000976562 1c-81.333 6.66699 -142 33.334 -182 80.001c-36 41.333 -53.667 94.333 -53 159c0 29.333 3 57.666 9 84.999c11.333 54 33.333 108.667 66 164c15.333 27.333 40.666 64.333 75.999 111h31c-12 -24.667 -21.333 -53 -28 -85
c-8 -38 -11.667 -76.333 -11 -115c-0.666992 -29.333 11.333 -54 36 -74c28.667 -24 69.667 -36 123 -36h625c0 49.333 -35.333 101.833 -106 157.5s-137.667 83.5 -201 83.5c-25.333 0 -49.666 -4.33301 -72.999 -13c-18.667 -6.66699 -32.334 -14 -41.001 -22
c-22 7.33301 -47.833 36.666 -77.5 87.999s-44.834 90 -45.501 116c26.667 55.333 86 129.833 178 223.5s195 183.834 309 270.501c124.667 94.667 234 163 328 205v-289c-78 -7.33301 -166.333 -38.666 -265 -93.999c-80 -44.667 -159 -100.334 -237 -167.001
c-66 -56 -108.667 -99.667 -128 -131c44.667 0 91.334 -6.66699 140.001 -20s86.667 -30 114 -50c88 -60.667 152.333 -133.667 193 -219c36.667 -48 69.667 -82.667 99 -104c31.333 -23.333 66 -35 104 -35h148l-61 -290h-105c-29.333 0 -56 8 -80 24
c-14.667 10 -37 31 -67 63l-18 -87h-800zM525.001 1008c17.333 39.333 57.832 92.1689 121.499 158.502s134.834 130.5 213.501 192.5c86.667 67.333 163 116 229 146l1 -157l-177 -110c-2.66699 -1.33301 -5 -2.33301 -7 -3l-53 -33
c-37.333 -24.667 -74 -53.334 -110 -86.001c-14.667 -12.667 -30.667 -27.334 -48 -44.001l-145 -130c-16 28.667 -24.333 50.667 -25 66z" />
    <glyph glyph-name="uniFB94" unicode="&#x6af;" horiz-adv-x="750" arabic-form="initial" 
d="M963 1110c-77.333 -7.33301 -165.668 -38.667 -265.001 -94c-79.333 -44.667 -158.333 -100.334 -237 -167.001c-65.333 -56 -107.666 -99.667 -126.999 -131c44.667 0 91.167 -6.66699 139.5 -20s86.5 -30 114.5 -50c90 -62 155.333 -137.333 196 -226
c33.333 -73.333 50 -157.666 50 -252.999v-169h-834l62 290h631c-0.666992 49.333 -36.167 101.833 -106.5 157.5s-137.166 83.5 -200.499 83.5c-25.333 0 -50 -4.33301 -74 -13c-18.667 -6.66699 -32.334 -14 -41.001 -22c-21.333 7.33301 -47 36.666 -77 87.999
s-45 90 -45 116c26 55.333 85 129.833 177 223.5s195.333 183.834 310 270.501c124 94.667 233 163 327 205v-289zM260.998 1059c18 39.333 58.6689 92.1689 122.002 158.502s134.666 130.5 213.999 192.5c86 67.333 162 116 228 146l1 -157l-177 -110
c-2 -1.33301 -4.33301 -2.33301 -7 -3l-53 -33c-37.333 -24.667 -74 -53.334 -110 -86.001c-14.667 -12.667 -30.334 -27.334 -47.001 -44.001l-146 -130c-16 28.667 -24.333 50.667 -25 66z" />
    <glyph glyph-name="uniFB95" unicode="&#x6af;" horiz-adv-x="1100" arabic-form="medial" 
d="M834 445c54 -54.667 101.999 -92.667 143.999 -114c48 -24 103 -36 165 -36h91l-63 -295h-102c-35.333 0 -69.333 10.667 -102 32c-4 2 -48.333 43.333 -133 124l-33 -156h-801l62 290h631c-0.666992 49.333 -36.167 101.833 -106.5 157.5s-137.166 83.5 -200.499 83.5
c-25.333 0 -50 -4.33301 -74 -13c-18.667 -6.66699 -32.334 -14 -41.001 -22c-21.333 7.33301 -47 36.666 -77 87.999s-45 90 -45 116c25.333 54.667 91 131.334 197 230.001c101.333 94.667 215.333 187.667 342 279c134.667 96.667 250 166.667 346 210v-289
c-76.667 -6.66699 -171 -40 -283 -100c-93.333 -49.333 -183.666 -108 -270.999 -176c-79.333 -60.667 -128 -106 -146 -136c44.667 0 91.167 -6.66699 139.5 -20s86.5 -30 114.5 -50c37.333 -26 77.333 -56.333 120 -91c50 -40.667 92 -78 126 -112zM288.999 1059
c18 39.333 58.6689 92.1689 122.002 158.502s134.666 130.5 213.999 192.5c86 67.333 162 116 228 146l1 -157l-177 -110c-2 -1.33301 -4.33301 -2.33301 -7 -3l-53 -33c-37.333 -24.667 -74 -53.334 -110 -86.001c-14.667 -12.667 -30.334 -27.334 -47.001 -44.001
l-146 -130c-16 28.667 -24.333 50.667 -25 66z" />
    <glyph glyph-name="uniFBA5" unicode="&#x6c0;" horiz-adv-x="726" arabic-form="final" 
d="M783 0l-68 0.00195312c-47.333 0 -87.5 11.167 -120.5 33.5s-60.833 57.166 -83.5 104.499c-12 -28.667 -37.667 -61.667 -77 -99c-48.667 -46 -92 -69 -130 -69c-48.667 0 -102.334 31.667 -161.001 95c-55.333 59.333 -83 107.666 -83 144.999
c0.666992 11.333 2 22.666 4 33.999c10.667 48 43 102 97 162c40.667 46 88.334 90 143.001 132c45.333 35.333 70 53 74 53l-18 94l147 179c2 -19.333 4.33301 -38.333 7 -57c6.66699 -50.667 13 -93 19 -127c8.66699 -52 18.667 -93.333 30 -124
c18.667 -55.333 34 -96.666 46 -123.999c20 -44 41.333 -77.667 64 -101c26 -27.333 55 -41 87 -41h85zM460 329.002l-46 142.999c-32.667 -16.667 -64.667 -37.334 -96 -62.001c-38.667 -29.333 -58 -50 -58 -62c0.666992 -11.333 10.667 -28.666 30 -51.999
c22.667 -26 42.667 -39 60 -39c24 0 48.5 9.83301 73.5 29.5s37.167 33.834 36.5 42.501zM456 1067l-31.002 -95c-9.33301 -6.66699 -52 -34 -128 -82l-112 -71l-1 33c8.66699 13.333 15.667 23.333 21 30l29 42c-16.667 10 -28 18 -34 24c-15.333 16 -20.666 36 -15.999 60
c10.667 48 32.834 90 66.501 126s69.5 54 107.5 54c13.333 0 23.5 -3.83301 30.5 -11.5s10.333 -16.167 10 -25.5s-1.16602 -16.333 -2.49902 -21c-3.33301 -18 -11.333 -33 -24 -45l-31 1c-18.667 0 -37.834 -5.16699 -57.501 -15.5s-29.167 -21.166 -28.5 -32.499
c0 -8.66699 7.16699 -15.834 21.5 -21.501s30.166 -8.5 47.499 -8.5c18 0 40.333 6.16699 67 18.5s48.334 25.833 65.001 40.5z" />
    <glyph glyph-name="uniFBFD" unicode="&#x6cc;" horiz-adv-x="935" arabic-form="final" 
d="M900 -320c-34 -83.333 -122.327 -151 -264.994 -203c-116.667 -42.667 -228 -64 -334 -64c-88.667 0 -157.334 18 -206.001 54c-38.667 28.667 -65.334 70.667 -80.001 126c-10 35.333 -15 81 -15 137c0.666992 26.667 6 64 16 112
c13.333 64.667 31.666 130.667 54.999 198s45.666 114 66.999 140h40c-8.66699 -21.333 -17 -45.833 -25 -73.5s-15 -56.167 -21 -85.5c-12 -56 -18 -98.667 -18 -128c-0.666992 -70 24.666 -122.333 75.999 -157c43.333 -29.333 99.333 -44 168 -44
c106 0 205 9.66699 297 29c78 16.667 124.667 33 140 49c-23.333 22 -62.333 41.667 -117 59l-131 42c-44 18.667 -71 42.334 -81 71.001c0 9.33301 1 19 3 29c7.33301 33.333 25.666 74.666 54.999 123.999c18.667 32 39.667 63.333 63 94c19.333 26.667 49 48.667 89 66
c52 23.333 115.667 35 191 35h195l-62 -290h-95h-95c38.667 -12.667 72.667 -35.334 102 -68.001c26.667 -29.333 40 -54.666 40 -75.999c-10 -34.667 -17.333 -61 -22 -79c-15.333 -54 -25.333 -86.333 -30 -97z" />
    <glyph glyph-name="uniFBFE" unicode="&#x6cc;" horiz-adv-x="500" arabic-form="initial" 
d="M513 -230l-102 -102l-120 120l102 102zM292 -251l-102 -102l-120 120l102 102zM0 0l62 290.002h401c0 23.333 -13.667 57.333 -41 102c-23.333 39.333 -44 67.333 -62 84l75 224c42 -42.667 76.833 -104.834 104.5 -186.501s41.5 -162.834 41.5 -243.501v-270h-581z" />
    <glyph glyph-name="uniFBFF" unicode="&#x6cc;" horiz-adv-x="514" arabic-form="medial" 
d="M498 -254l-102 -102l-120 120l102 102zM277 -275l-102 -102l-120 120l102 102zM584 0l-70 0.00195312c-55.333 0 -101 10 -137 30c-21.333 12 -41 29.333 -59 52c-5.33301 -10.667 -10.333 -19 -15 -25c-30.667 -38 -73.667 -57 -129 -57h-174l62 290h80
c30 0 54.333 8.33301 73 25s32 42.667 40 78c4 21.333 6.33301 47 7 77l130 130c2 -26.667 4.66699 -53.334 8 -80.001c9.33301 -60.667 24.333 -110.334 45 -149.001c28.667 -54 66 -81 112 -81h89z" />
    <glyph glyph-name="uniFE82" unicode="&#x622;" horiz-adv-x="530" arabic-form="final" 
d="M448 412c0.666992 -81.333 41.333 -122 122 -122h91l-61 -290h-128c-54 0 -96.333 16 -127 48s-46 75.333 -46 130l1 873l149 149zM761.999 1555c-8 -22.667 -18.001 -58.002 -30.001 -106.002s-22 -91.667 -30 -131h-19c0 18.667 -1 40.5 -3 65.5
s-3.33301 43.167 -4 54.5c-44.667 -35.333 -88 -61.666 -130 -78.999c-35.333 -14.667 -69 -22 -101 -22c-14 0 -28.167 1.66699 -42.5 5s-24.5 7.33301 -30.5 12c-2.66699 -15.333 -7 -33.5 -13 -54.5s-10.667 -35.167 -14 -42.5h-24l-1 243
c26.667 -19.333 50 -32.166 70 -38.499s42.333 -9.5 67 -9.5c46.667 0 101.334 12.333 164.001 37c26.667 10.667 73.667 32.667 141 66z" />
    <glyph glyph-name="uniFE84" unicode="&#x623;" horiz-adv-x="530" arabic-form="final" 
d="M448 412c1.33301 -81.333 42.333 -122 123 -122h91l-62 -290h-128c-54 0 -96.333 16 -127 48s-45.667 75.333 -45 130v873l149 149zM567 1427l-31.001 -95c-9.33301 -6.66699 -51.666 -34 -126.999 -82l-113 -71l-1 33l21 30c15.333 22 25.333 36 30 42
c-17.333 10 -29 18 -35 24c-15.333 16 -20.333 36 -15 60c10 48 31.833 90 65.5 126s69.5 54 107.5 54c13.333 0 23.5 -3.83301 30.5 -11.5s10.333 -16.167 10 -25.5s-0.833008 -16.333 -1.5 -21c-4 -18 -12.333 -33 -25 -45l-31 1c-18.667 0 -37.667 -5.16699 -57 -15.5
s-29 -21.166 -29 -32.499c0 -8.66699 7.33301 -15.834 22 -21.501s30.667 -8.5 48 -8.5c18 0 40.333 6.16699 67 18.5s48 25.833 64 40.5z" />
    <glyph glyph-name="uniFE86" unicode="&#x624;" horiz-adv-x="765" arabic-form="final" 
d="M831 0l-122.001 0.000976562c0 -48 -5 -94.667 -15 -140c-21.333 -102 -63 -184.333 -125 -247c-65.333 -66 -143.666 -99 -234.999 -99c-60 0 -131.333 13.333 -214 40c-27.333 8.66699 -62.666 22.334 -105.999 41.001l3 23c160 32.667 294.333 83.334 403 152.001
c103.333 65.333 162.333 132.666 177 201.999c2 9.33301 3 18.666 3 27.999h-243c-46.667 0 -85 15 -115 45c-27.333 26.667 -40.833 57.167 -40.5 91.5s2.16602 71.166 5.49902 110.499c4.66699 60.667 12.334 116.667 23.001 168c14.667 68.667 33 121.334 55 158.001
c27.333 46 60.666 69 99.999 69c69.333 0 130.666 -36.667 183.999 -110c44.667 -60.667 80.334 -141.334 107.001 -242.001h217zM525.999 290.001c-10 26 -31.333 53.335 -64 82.002s-58.667 43 -78 43c-14 0 -25.667 -7.5 -35 -22.5s-16.333 -32.5 -21 -52.5
c-2 -10.667 -3 -19.834 -3 -27.501s5.5 -13.334 16.5 -17.001s22.5 -5.5 34.5 -5.5h150zM498.999 948.003l-32 -95c-9.33301 -6.66699 -51.666 -34 -126.999 -82l-112 -71l-1 33l20 30c15.333 22 25.333 36 30 42c-17.333 10 -29 18 -35 24c-15.333 16 -20.333 36 -15 60
c10 48 31.833 90 65.5 126s69.5 54 107.5 54c13.333 0 23.5 -3.83301 30.5 -11.5s10.333 -16.167 10 -25.5s-0.833008 -16.333 -1.5 -21c-4 -18 -12.333 -33 -25 -45l-30 1c-18.667 0 -37.834 -5.16699 -57.501 -15.5s-29.5 -21.166 -29.5 -32.499
c0.666992 -8.66699 8.16699 -15.834 22.5 -21.501s30.166 -8.5 47.499 -8.5c18 0 40.333 6.16699 67 18.5s48.334 25.833 65.001 40.5z" />
    <glyph glyph-name="uniFE88" unicode="&#x625;" horiz-adv-x="530" arabic-form="final" 
d="M449 412c0.666992 -81.333 41.333 -122 122 -122h91l-62 -290h-128c-54 0 -96.167 16 -126.5 48s-45.5 75.333 -45.5 130l1 873l148 149v-788zM508.999 -245l-31.001 -95c-9.33301 -6.66699 -51.666 -34 -126.999 -82l-113 -71l-1 33l21 30c15.333 22 25.333 36 30 42
c-17.333 10 -29 18 -35 24c-15.333 16 -20.333 36 -15 60c10 48 31.833 90 65.5 126s69.5 54 107.5 54c13.333 0 23.5 -3.83301 30.5 -11.5s10.333 -16.167 10 -25.5s-0.833008 -16.333 -1.5 -21c-4 -18 -12.333 -33 -25 -45l-31 1c-18.667 0 -37.667 -5.16699 -57 -15.5
s-29 -21.166 -29 -32.499c0 -8.66699 7.33301 -15.834 22 -21.501s30.667 -8.5 48 -8.5c18 0 40.333 6.16699 67 18.5s48 25.833 64 40.5z" />
    <glyph glyph-name="uniFE8A" unicode="&#x626;" horiz-adv-x="935" arabic-form="final" 
d="M900 -320c-34 -83.333 -122.327 -151 -264.994 -203c-116.667 -42.667 -228 -64 -334 -64c-88.667 0 -157.334 18 -206.001 54c-38.667 28.667 -65.334 70.667 -80.001 126c-10 35.333 -15 81 -15 137c0.666992 26.667 6 64 16 112
c13.333 64.667 31.666 130.667 54.999 198s45.666 114 66.999 140h40c-8.66699 -21.333 -17 -45.833 -25 -73.5s-15 -56.167 -21 -85.5c-12 -56 -18 -98.667 -18 -128c-0.666992 -70 24.666 -122.333 75.999 -157c43.333 -29.333 99.333 -44 168 -44
c106 0 205 9.66699 297 29c78 16.667 124.667 33 140 49c-23.333 22 -62.333 41.667 -117 59l-131 42c-44 18.667 -71 42.334 -81 71.001c0 9.33301 1 19 3 29c7.33301 33.333 25.666 74.666 54.999 123.999c18.667 32 39.667 63.333 63 94c19.333 26.667 49 48.667 89 66
c52 23.333 115.667 35 191 35h195l-62 -290h-95h-95c38.667 -12.667 72.667 -35.334 102 -68.001c26.667 -29.333 40 -54.666 40 -75.999c-10 -34.667 -17.333 -61 -22 -79c-15.333 -54 -25.333 -86.333 -30 -97zM518.006 385l-31.001 -95
c-9.33301 -6.66699 -51.666 -34 -126.999 -82l-112 -71l-1 33l20 30c15.333 22 25.333 36 30 42c-17.333 10 -29 18 -35 24c-15.333 16 -20.333 36 -15 60c10 48 31.833 90 65.5 126s69.5 54 107.5 54c13.333 0 23.5 -3.83301 30.5 -11.5s10.333 -16.167 10 -25.5
s-0.833008 -16.333 -1.5 -21c-4 -18 -12.333 -33 -25 -45l-31 1c-18.667 0 -37.667 -5.16699 -57 -15.5s-29 -21.166 -29 -32.499c0 -8.66699 7.33301 -15.834 22 -21.501s30.667 -8.5 48 -8.5c18 0 40.333 6.16699 67 18.5s48 25.833 64 40.5z" />
    <glyph glyph-name="uniFE8B" unicode="&#x626;" horiz-adv-x="456" arabic-form="initial" 
d="M0 0l62 290.002h356c0 23.333 -13.667 57.333 -41 102c-23.333 39.333 -44 67.333 -62 84l75 224c42 -42.667 76.833 -104.834 104.5 -186.501s41.5 -162.834 41.5 -243.501v-270h-536zM531 1048l-30.998 -95l-128 -82l-112 -71l-1 33l20 30c15.333 22 25.333 36 30 42
c-16.667 10 -28.334 18 -35.001 24c-14.667 16 -19.667 36 -15 60c10.667 48 32.667 90 66 126s69 54 107 54c13.333 0 23.666 -3.83301 30.999 -11.5s10.833 -16.167 10.5 -25.5s-1.16602 -16.333 -2.49902 -21c-4 -18 -12 -33 -24 -45l-31 1
c-18.667 0 -37.834 -5.16699 -57.501 -15.5s-29.167 -21.166 -28.5 -32.499c0 -8.66699 7.16699 -15.834 21.5 -21.501s30.166 -8.5 47.499 -8.5c18 0 40.333 6.16699 67 18.5s48.334 25.833 65.001 40.5z" />
    <glyph glyph-name="uniFE8C" unicode="&#x626;" horiz-adv-x="525" arabic-form="medial" 
d="M584 0l-70 0.00195312c-55.333 0 -101 10 -137 30c-21.333 12 -41 29.333 -59 52c-5.33301 -10.667 -10.333 -19 -15 -25c-30.667 -38 -73.667 -57 -129 -57h-174l62 290h80c30 0 54.333 8.33301 73 25s32 42.667 40 78c4 21.333 6.33301 47 7 77l130 130
c2 -26.667 4.66699 -53.334 8 -80.001c9.33301 -60.667 24.333 -110.334 45 -149.001c28.667 -54 66 -81 112 -81h89zM528 878.002l-32 -95c-9.33301 -6.66699 -51.666 -34 -126.999 -82l-112 -71l-1 33l20 30c15.333 22 25.333 36 30 42c-17.333 10 -29 18 -35 24
c-15.333 16 -20.333 36 -15 60c10 48 31.833 90 65.5 126s69.5 54 107.5 54c13.333 0 23.5 -3.83301 30.5 -11.5s10.5 -16.167 10.5 -25.5s-0.666992 -16.333 -2 -21c-4 -18 -12.333 -33 -25 -45l-30 1c-18.667 0 -37.834 -5.16699 -57.501 -15.5
s-29.5 -21.166 -29.5 -32.499c0.666992 -8.66699 8.16699 -15.834 22.5 -21.501s30.166 -8.5 47.499 -8.5c18 0 40.333 6.16699 67 18.5s48.334 25.833 65.001 40.5z" />
    <glyph glyph-name="uniFE8E" unicode="&#x627;" horiz-adv-x="530" arabic-form="final" 
d="M448 412c0.666992 -81.333 41.333 -122 122 -122h91l-61 -290h-128c-54 0 -96.333 16 -127 48s-46 75.333 -46 130l1 873l149 149z" />
    <glyph glyph-name="uniFE90" unicode="&#x628;" horiz-adv-x="1230" arabic-form="final" 
d="M729 -220l-103 -101l-119 120l101 101zM342 0c-100.667 0 -174.333 27.002 -221 81.002c-36 41.333 -53.667 94.333 -53 159c0 29.333 3 57.666 9 84.999c11.333 54 33.333 108.667 66 164c15.333 27.333 40.666 64.333 75.999 111h31c-12 -24.667 -21.333 -53 -28 -85
c-8 -38 -11.667 -76.333 -11 -115c-0.666992 -29.333 11.333 -54 36 -74c28.667 -24 69.667 -36 123 -36h477c30 0 54.5 8.33301 73.5 25s32.167 42.667 39.5 78c4.66699 21.333 7.33398 47 8.00098 77l129 130l8 -80c10 -60.667 25 -110.334 45 -149.001
c28.667 -54 66 -81 112 -81h99l-61 -290h-80c-55.333 0 -101 10 -137 30c-21.333 12 -41 29.333 -59 52c-5.33301 -10.667 -10.333 -19 -15 -25c-30.667 -38 -73.667 -57 -129 -57h-538z" />
    <glyph glyph-name="uniFE91" unicode="&#x628;" horiz-adv-x="318" arabic-form="initial" 
d="M272 -220l-102 -101l-120 120l102 101zM0 0l62 290.002h200c0 23.333 -13.667 57.333 -41 102c-23.333 39.333 -44 67.333 -62 84l75 224c42 -42.667 76.833 -104.834 104.5 -186.501s41.5 -162.834 41.5 -243.501v-270h-380z" />
    <glyph glyph-name="uniFE92" unicode="&#x628;" horiz-adv-x="521" arabic-form="medial" 
d="M584 0l-70 0.00195312c-55.333 0 -101 10 -137 30c-21.333 12 -41 29.333 -59 52c-5.33301 -10.667 -10.333 -19 -15 -25c-30.667 -38 -73.667 -57 -129 -57h-174l62 290h80c30 0 54.333 8.33301 73 25s32 42.667 40 78c4 21.333 6.33301 47 7 77l130 130
c2 -26.667 4.66699 -53.334 8 -80.001c9.33301 -60.667 24.333 -110.334 45 -149.001c28.667 -54 66 -81 112 -81h89zM369 -239.998l-102 -102l-120 120l102 102z" />
    <glyph glyph-name="uniFE96" unicode="&#x62a;" horiz-adv-x="1230" arabic-form="final" 
d="M863 661l-103 -102l-119 120l102 102zM642 640l-102 -102l-121 120l102 102zM342 0c-100.667 0 -174.333 27.002 -221 81.002c-36 41.333 -53.667 94.333 -53 159c0 29.333 3 57.666 9 84.999c11.333 54 33.333 108.667 66 164c15.333 27.333 40.666 64.333 75.999 111
h31c-12 -24.667 -21.333 -53 -28 -85c-8 -38 -11.667 -76.333 -11 -115c-0.666992 -29.333 11.333 -54 36 -74c28.667 -24 69.667 -36 123 -36h477c30 0 54.5 8.33301 73.5 25s32.167 42.667 39.5 78c4.66699 21.333 7.33398 47 8.00098 77l129 130l8 -80
c10 -60.667 25 -110.334 45 -149.001c28.667 -54 66 -81 112 -81h99l-61 -290h-80c-55.333 0 -101 10 -137 30c-21.333 12 -41 29.333 -59 52c-5.33301 -10.667 -10.333 -19 -15 -25c-30.667 -38 -73.667 -57 -129 -57h-538z" />
    <glyph glyph-name="uniFE97" unicode="&#x62a;" horiz-adv-x="500" arabic-form="initial" 
d="M639 923l-102 -102l-120 120l102 102zM418 902l-102 -102l-120 120l102 102zM0 0l62 290.002h401c0 23.333 -13.667 57.333 -41 102c-23.333 39.333 -44 67.333 -62 84l75 224c42 -42.667 76.833 -104.834 104.5 -186.501s41.5 -162.834 41.5 -243.501v-270h-581z" />
    <glyph glyph-name="uniFE98" unicode="&#x62a;" horiz-adv-x="525" arabic-form="medial" 
d="M618 823l-103 -102l-119 120l101 102zM396 802l-101 -102l-121 120l102 102zM584 0l-70 0.00195312c-55.333 0 -101 10 -137 30c-21.333 12 -41 29.333 -59 52c-5.33301 -10.667 -10.333 -19 -15 -25c-30.667 -38 -73.667 -57 -129 -57h-174l62 290h80
c30 0 54.333 8.33301 73 25s32 42.667 40 78c4 21.333 6.33301 47 7 77l130 130c2 -26.667 4.66699 -53.334 8 -80.001c9.33301 -60.667 24.333 -110.334 45 -149.001c28.667 -54 66 -81 112 -81h89z" />
    <glyph glyph-name="uniFE9A" unicode="&#x62b;" horiz-adv-x="1230" arabic-form="final" 
d="M853 587l-101 -101l-121 120l103 101zM633 566l-103 -101l-119 120l101 101zM717 760l-102 -102l-119 120l102 102zM342 0c-100.667 0 -174.333 27.002 -221 81.002c-36 41.333 -53.667 94.333 -53 159c0 29.333 3 57.666 9 84.999c11.333 54 33.333 108.667 66 164
c15.333 27.333 40.666 64.333 75.999 111h31c-12 -24.667 -21.333 -53 -28 -85c-8 -38 -11.667 -76.333 -11 -115c-0.666992 -29.333 11.333 -54 36 -74c28.667 -24 69.667 -36 123 -36h477c30 0 54.5 8.33301 73.5 25s32.167 42.667 39.5 78
c4.66699 21.333 7.33398 47 8.00098 77l129 130l8 -80c10 -60.667 25 -110.334 45 -149.001c28.667 -54 66 -81 112 -81h99l-61 -290h-80c-55.333 0 -101 10 -137 30c-21.333 12 -41 29.333 -59 52c-5.33301 -10.667 -10.333 -19 -15 -25c-30.667 -38 -73.667 -57 -129 -57
h-538z" />
    <glyph glyph-name="uniFE9B" unicode="&#x62b;" horiz-adv-x="500" arabic-form="initial" 
d="M638 923l-101 -102l-121 120l103 102zM418 902l-103 -102l-119 120l101 102zM503 1095l-103 -101l-119 120l101 101zM0 0l62 290.002h401c0 23.333 -13.667 57.333 -41 102c-23.333 39.333 -44 67.333 -62 84l75 224c42 -42.667 76.833 -104.834 104.5 -186.501
s41.5 -162.834 41.5 -243.501v-270h-581z" />
    <glyph glyph-name="uniFE9C" unicode="&#x62b;" horiz-adv-x="522" arabic-form="medial" 
d="M603 760l-102 -102l-121 120l103 102zM382 739l-103 -102l-119 120l102 102zM467 932l-102 -101l-120 120l102 101zM584 0l-70 0.00195312c-55.333 0 -101 10 -137 30c-21.333 12 -41 29.333 -59 52c-5.33301 -10.667 -10.333 -19 -15 -25
c-30.667 -38 -73.667 -57 -129 -57h-174l62 290h80c30 0 54.333 8.33301 73 25s32 42.667 40 78c4 21.333 6.33301 47 7 77l130 130c2 -26.667 4.66699 -53.334 8 -80.001c9.33301 -60.667 24.333 -110.334 45 -149.001c28.667 -54 66 -81 112 -81h89z" />
    <glyph glyph-name="uniFE9E" unicode="&#x62c;" horiz-adv-x="930" arabic-form="final" 
d="M680 -220l-101 -102l-120 120l101 102zM600 0c-90.667 0 -185.167 -17.667 -283.5 -53s-147.5 -71 -147.5 -107c0 -50.667 43.667 -102.334 131 -155.001c94 -56.667 195.333 -85 304 -85h369l-164 -174c-65.333 -64 -114.333 -96 -147 -96
c-150.667 0 -274.667 26.667 -372 80c-79.333 43.333 -139 103.333 -179 180c-30.667 59.333 -45.667 121.333 -45 186c0 32.667 3.33301 64.667 10 96c17.333 82.667 58.333 155.334 123 218.001c48.667 47.333 110.667 88 186 122c54 24 101 40 141 48l-54 78
c-46.667 64 -85 113 -115 147c-46.667 52.667 -80.667 79 -102 79s-44.666 -6.33301 -69.999 -19c-18.667 -9.33301 -33.667 -19.333 -45 -30l-23 22l57 92c38.667 47.333 84 71 136 71c47.333 0 110.5 -34.667 189.5 -104l236.5 -210c25.333 -22 56.666 -42 93.999 -60
c49.333 -24 95 -36 137 -36h95l-62 -290h-400z" />
    <glyph glyph-name="uniFE9F" unicode="&#x62c;" horiz-adv-x="900" arabic-form="initial" 
d="M1062 315l-204.002 -257.002c-27.333 5.33301 -49.666 9.33301 -66.999 12c-52.667 8 -98 12 -136 12c-54 0 -111.333 -6.83301 -172 -20.5l-178 -41c-58 -13.667 -103.667 -20.5 -137 -20.5h-168l62 290h61c50 0 110 4.66699 180 14c50 6.66699 102 15.334 156 26.001
l67 14l-48 57c-35.333 40 -69.333 75 -102 105c-43.333 38.667 -75 58 -95 58c-21.333 0 -44.666 -6.33301 -69.999 -19c-18.667 -9.33301 -34 -19.333 -46 -30l-22 22l57 92c38.667 47.333 84 71 136 71c35.333 0 75.666 -14.667 120.999 -44c32 -20 79 -57.333 141 -112
l164 -144c24.667 -21.333 59.334 -39.666 104.001 -54.999c58.667 -20 124 -30 196 -30zM586.998 -178.002l-101 -102l-120 120l101 102z" />
    <glyph glyph-name="uniFEA0" unicode="&#x62c;" horiz-adv-x="939" arabic-form="medial" 
d="M1062 290l-62.001 -290h-1000l62 290h473l-49 71c-38 52 -73 95.667 -105 131c-44 48 -76.333 72 -97 72c-21.333 0 -44.666 -6.33301 -69.999 -19c-18.667 -9.33301 -34 -19.333 -46 -30l-22 22l57 92c38.667 47.333 84 71 136 71c47.333 0 110.5 -34.667 189.5 -104
l236.5 -210c25.333 -22 56.333 -42 93 -60c50 -24 96 -36 138 -36h66zM581.999 -220l-101 -102l-120 120l101 102z" />
    <glyph glyph-name="uniFEA2" unicode="&#x62d;" horiz-adv-x="930" arabic-form="final" 
d="M600 0c-90.667 0 -185.167 -17.667 -283.5 -53s-147.5 -71 -147.5 -107c0 -50.667 43.667 -102.334 131 -155.001c94 -56.667 195.333 -85 304 -85h369l-164 -174c-65.333 -64 -114.333 -96 -147 -96c-150.667 0 -274.667 26.667 -372 80
c-79.333 43.333 -139 103.333 -179 180c-30.667 59.333 -45.667 121.333 -45 186c0 32.667 3.33301 64.667 10 96c17.333 82.667 58.333 155.334 123 218.001c48.667 47.333 110.667 88 186 122c54 24 101 40 141 48l-54 78c-46.667 64 -85 113 -115 147
c-46.667 52.667 -80.667 79 -102 79s-44.666 -6.33301 -69.999 -19c-18.667 -9.33301 -33.667 -19.333 -45 -30l-23 22l57 92c38.667 47.333 84 71 136 71c47.333 0 110.5 -34.667 189.5 -104l236.5 -210c25.333 -22 56.666 -42 93.999 -60c49.333 -24 95 -36 137 -36h95
l-62 -290h-400z" />
    <glyph glyph-name="uniFEA3" unicode="&#x62d;" horiz-adv-x="900" arabic-form="initial" 
d="M1062 315l-204.002 -257.002c-27.333 5.33301 -49.666 9.33301 -66.999 12c-52.667 8 -98 12 -136 12c-54 0 -111.333 -6.83301 -172 -20.5l-178 -41c-58 -13.667 -103.667 -20.5 -137 -20.5h-168l62 290h61c50 0 110 4.66699 180 14c50 6.66699 102 15.334 156 26.001
l67 14l-48 57c-35.333 40 -69.333 75 -102 105c-43.333 38.667 -75 58 -95 58c-21.333 0 -44.666 -6.33301 -69.999 -19c-18.667 -9.33301 -34 -19.333 -46 -30l-22 22l57 92c38.667 47.333 84 71 136 71c35.333 0 75.666 -14.667 120.999 -44c32 -20 79 -57.333 141 -112
l164 -144c24.667 -21.333 59.334 -39.666 104.001 -54.999c58.667 -20 124 -30 196 -30z" />
    <glyph glyph-name="uniFEA4" unicode="&#x62d;" horiz-adv-x="939" arabic-form="medial" 
d="M1062 290l-62.001 -290h-1000l62 290h473l-49 71c-38 52 -73 95.667 -105 131c-44 48 -76.333 72 -97 72c-21.333 0 -44.666 -6.33301 -69.999 -19c-18.667 -9.33301 -34 -19.333 -46 -30l-22 22l57 92c38.667 47.333 84 71 136 71c47.333 0 110.5 -34.667 189.5 -104
l236.5 -210c25.333 -22 56.333 -42 93 -60c50 -24 96 -36 138 -36h66z" />
    <glyph glyph-name="uniFEA6" unicode="&#x62e;" horiz-adv-x="928" arabic-form="final" 
d="M436 982l-101 -102l-119 120l100 102zM600 0c-90.667 0 -185.167 -17.667 -283.5 -53s-147.5 -71 -147.5 -107c0 -50.667 43.667 -102.334 131 -155.001c94 -56.667 195.333 -85 304 -85h369l-164 -174c-65.333 -64 -114.333 -96 -147 -96
c-150.667 0 -274.667 26.667 -372 80c-79.333 43.333 -139 103.333 -179 180c-30.667 59.333 -45.667 121.333 -45 186c0 32.667 3.33301 64.667 10 96c17.333 82.667 58.333 155.334 123 218.001c48.667 47.333 110.667 88 186 122c54 24 101 40 141 48l-54 78
c-46.667 64 -85 113 -115 147c-46.667 52.667 -80.667 79 -102 79s-44.666 -6.33301 -69.999 -19c-18.667 -9.33301 -33.667 -19.333 -45 -30l-23 22l57 92c38.667 47.333 84 71 136 71c47.333 0 110.5 -34.667 189.5 -104l236.5 -210c25.333 -22 56.666 -42 93.999 -60
c49.333 -24 95 -36 137 -36h95l-62 -290h-400z" />
    <glyph glyph-name="uniFEA7" unicode="&#x62e;" horiz-adv-x="900" arabic-form="initial" 
d="M494 982l-101 -102l-119 120l100 102zM1062 315l-204.002 -257.002c-27.333 5.33301 -49.666 9.33301 -66.999 12c-52.667 8 -98 12 -136 12c-54 0 -111.333 -6.83301 -172 -20.5l-178 -41c-58 -13.667 -103.667 -20.5 -137 -20.5h-168l62 290h61
c50 0 110 4.66699 180 14c50 6.66699 102 15.334 156 26.001l67 14l-48 57c-35.333 40 -69.333 75 -102 105c-43.333 38.667 -75 58 -95 58c-21.333 0 -44.666 -6.33301 -69.999 -19c-18.667 -9.33301 -34 -19.333 -46 -30l-22 22l57 92c38.667 47.333 84 71 136 71
c35.333 0 75.666 -14.667 120.999 -44c32 -20 79 -57.333 141 -112l164 -144c24.667 -21.333 59.334 -39.666 104.001 -54.999c58.667 -20 124 -30 196 -30z" />
    <glyph glyph-name="uniFEA8" unicode="&#x62e;" horiz-adv-x="939" arabic-form="medial" 
d="M433 982l-101 -102l-119 120l100 102zM1062 290l-62.001 -290h-1000l62 290h473l-49 71c-38 52 -73 95.667 -105 131c-44 48 -76.333 72 -97 72c-21.333 0 -44.666 -6.33301 -69.999 -19c-18.667 -9.33301 -34 -19.333 -46 -30l-22 22l57 92c38.667 47.333 84 71 136 71
c47.333 0 110.5 -34.667 189.5 -104l236.5 -210c25.333 -22 56.333 -42 93 -60c50 -24 96 -36 138 -36h66z" />
    <glyph glyph-name="uniFEAA" unicode="&#x62f;" horiz-adv-x="938" arabic-form="final" 
d="M678 0h-314c-56.667 -0 -96 9.33301 -118 28c-28 23.333 -38.667 65.333 -32 126l27 232h28c9.33301 -21.333 18.333 -37.333 27 -48c27.333 -32 62.333 -48 105 -48h198c32.667 0 57.5 4.16699 74.5 12.5s25.5 21.5 25.5 39.5c0.666992 38.667 -16.333 84.667 -51 138
c-26.667 40 -58.667 79.667 -96 119c-32 33.333 -49.333 50 -52 50l33 254c53.333 -28 109 -96 167 -204l142 -272c54.667 -91.333 107 -137 157 -137h70l-61 -290h-81c-34 0 -63.667 11 -89 33s-44.333 52.667 -57 92c-9.33301 -28 -17.333 -48.667 -24 -62
c-22.667 -42 -49 -63 -79 -63z" />
    <glyph glyph-name="uniFEAC" unicode="&#x630;" horiz-adv-x="938" arabic-form="final" 
d="M678 0h-314c-56.667 -0 -96 9.33301 -118 28c-28 23.333 -38.667 65.333 -32 126l27 232h28c9.33301 -21.333 18.333 -37.333 27 -48c27.333 -32 62.333 -48 105 -48h198c32.667 0 57.5 4.16699 74.5 12.5s25.5 21.5 25.5 39.5c0.666992 38.667 -16.333 84.667 -51 138
c-26.667 40 -58.667 79.667 -96 119c-32 33.333 -49.333 50 -52 50l33 254c53.333 -28 109 -96 167 -204l142 -272c54.667 -91.333 107 -137 157 -137h70l-61 -290h-81c-34 0 -63.667 11 -89 33s-44.333 52.667 -57 92c-9.33301 -28 -17.333 -48.667 -24 -62
c-22.667 -42 -49 -63 -79 -63zM602 1101l-103 -101l-119 120l101 101z" />
    <glyph glyph-name="uniFEAE" unicode="&#x631;" horiz-adv-x="828" arabic-form="final" 
d="M613 67c-12.667 33.333 -35.667 80.668 -69 142.001l-47 81l96 299l44 -81c38.667 -68.667 74.667 -122.167 108 -160.5s61.666 -57.5 84.999 -57.5h132l-62 -290h-211c-21.333 -102.667 -62.666 -189.334 -123.999 -260.001
c-68.667 -79.333 -148.334 -119 -239.001 -119c-60 0 -130.667 12.333 -212 37c-27.333 8 -62.333 20.667 -105 38l-1 29c104 20.667 201 52.667 291 96c79.333 37.333 148.333 80 207 128c50.667 42 86.334 81.333 107.001 118z" />
    <glyph glyph-name="uniFEB0" unicode="&#x632;" horiz-adv-x="828" arabic-form="final" 
d="M657 802l-102 -102l-119 120l100 102zM613 67c-12.667 33.333 -35.667 80.668 -69 142.001l-47 81l96 299l44 -81c38.667 -68.667 74.667 -122.167 108 -160.5s61.666 -57.5 84.999 -57.5h132l-62 -290h-211c-21.333 -102.667 -62.666 -189.334 -123.999 -260.001
c-68.667 -79.333 -148.334 -119 -239.001 -119c-60 0 -130.667 12.333 -212 37c-27.333 8 -62.333 20.667 -105 38l-1 29c104 20.667 201 52.667 291 96c79.333 37.333 148.333 80 207 128c50.667 42 86.334 81.333 107.001 118z" />
    <glyph glyph-name="uniFEB2" unicode="&#x633;" horiz-adv-x="1754" arabic-form="final" 
d="M1623 421c16 -37.333 36.998 -67.335 62.998 -90.002c32 -27.333 67 -41 105 -41h102l-62 -290h-77c-30 0 -59.833 7.66699 -89.5 23s-53.834 33.333 -72.501 54c-10.667 -17.333 -19.667 -30 -27 -38c-21.333 -26 -39.666 -39 -54.999 -39h-56
c-55.333 0 -101.333 14 -138 42c-31.333 23.333 -54.666 56.333 -69.999 99c-16 -50 -46 -86.667 -90 -110c-39.333 -20.667 -88 -31 -146 -31h-100v-72c-0.666992 -18 -2.33398 -33 -5.00098 -45c-18 -86 -88.667 -153 -212 -201c-108.667 -42.667 -237.667 -64 -387 -64
c-108 0 -186.333 29.333 -235 88c-44 52 -66 128 -66 228c0.666992 39.333 6 83.333 16 132c12.667 59.333 30.667 120.333 54 183s44.666 109.667 63.999 141l43 -3c-6.66699 -16 -14 -38.5 -22 -67.5s-14.667 -55.833 -20 -80.5
c-6.66699 -30.667 -11.667 -57.167 -15 -79.5s-5 -42.166 -5 -59.499c0 -68.667 25.667 -120.667 77 -156c42.667 -29.333 95 -44 157 -44c118.667 0 219.334 8 302.001 24c93.333 18 146.333 43.333 159 76c0 32 -9 72.667 -27 122c-13.333 36.667 -30 75.334 -50 116.001
c-17.333 34.667 -26.666 52 -27.999 52l116 220c38.667 -78 78.334 -135.667 119.001 -173c34 -31.333 66 -47 96 -47c40 0 77 13.833 111 41.5s54.333 57.167 61 88.5c1.33301 6.66699 2 11.667 2 15l81 79c0 -48 13 -96 39 -144c28.667 -53.333 61.667 -80 99 -80
c20.667 0 37.334 4 50.001 12s21 21 25 39c0 2.66699 0.333008 8.66699 1 18c0 20.667 -3.66699 42 -11 64c-2.66699 7.33301 -6.33398 16.333 -11.001 27l88 147l21 -95c7.33301 -32.667 16 -59.667 26 -81z" />
    <glyph glyph-name="uniFEB3" unicode="&#x633;" horiz-adv-x="1100" arabic-form="initial" 
d="M1033 0c-67.333 0 -123.003 18.9961 -167.003 56.9961c-33.333 28.667 -58.666 66.334 -75.999 113.001c-12 -56 -35 -98.333 -69 -127s-77 -43 -129 -43c-62 0 -113.333 19.333 -154 58c-26.667 25.333 -44.667 54 -54 86c-22.667 -41.333 -54.667 -75.666 -96 -102.999
s-80 -41 -116 -41h-172l62 290h73c66 0 117.333 12.667 154 38c40.667 28 80.667 81.667 120 161h53c14.667 -44 28 -77 40 -99c38 -66.667 84 -100 138 -100c32.667 0 59.334 13.333 80.001 40c16.667 21.333 28.667 49.333 36 84c4 19.333 6 37.333 6 54l76 76
c0.666992 -47.333 12.334 -98 35.001 -152c30 -68 66.667 -102 110 -102c15.333 0 27.333 1.66699 36 5c14 5.33301 22.667 14.666 26 27.999c0.666992 4.66699 1 8.33398 1 11.001c0 20.667 -8.33301 43.334 -25 68.001c-8.66699 12.667 -23.667 31.667 -45 57l86 174
c25.333 -36 46 -83.333 62 -142c14 -49.333 24 -107.666 30 -174.999c5.33301 -57.333 8 -117 8 -179v-137h-129z" />
    <glyph glyph-name="uniFEB4" unicode="&#x633;" horiz-adv-x="1345" arabic-form="medial" 
d="M1410 0l-65.0039 -0.00195312c-56 0 -101.667 15.667 -137 47c-13.333 12 -34.333 39.667 -63 83h-7c0 -2 -0.666992 -5.66699 -2 -11c-5.33301 -26.667 -16.666 -50.667 -33.999 -72c-25.333 -31.333 -55.666 -47 -90.999 -47c-69.333 0 -128 23.333 -176 70
c-16 15.333 -33 39 -51 71c-12 -32 -30 -59.333 -54 -82c-42.667 -39.333 -98.667 -59 -168 -59c-40 0 -79.333 10.5 -118 31.5s-63.334 45.833 -74.001 74.5c-28.667 -36 -57.667 -62 -87 -78c-34.667 -18.667 -77.667 -28 -129 -28h-154l62 290h80
c65.333 0 120.833 13.167 166.5 39.5s78.5 64.5 98.5 114.5l63 30v-57c-0.666992 -41.333 14.333 -73.666 45 -96.999c26 -20 58 -30 96 -30c40 0 73.333 14.667 100 44c22.667 24.667 38 56 46 94c2 9.33301 3.33301 16.833 4 22.5s1 13.5 1 23.5l69 36
c0 -46.667 13.667 -93 41 -139c32 -54 71.667 -81 119 -81c10.667 0 21.334 4.16699 32.001 12.5s17.334 19.5 20.001 33.5c2.66699 12.667 1 26 -5 40l-23 44l69 136c12 -29.333 22 -52.666 30 -69.999c26.667 -52.667 53.334 -92.667 80.001 -120
c23.333 -24 50.5 -42.667 81.5 -56s60.5 -20 88.5 -20h108z" />
    <glyph glyph-name="uniFEB6" unicode="&#x634;" horiz-adv-x="1754" arabic-form="final" 
d="M1417 658l-102 -102l-120 120l102 102zM1196 637l-102 -102l-120 120l102 102zM1281 830l-102 -101l-120 120l102 101zM1623 421c16 -37.333 36.998 -67.335 62.998 -90.002c32 -27.333 67 -41 105 -41h102l-62 -290h-77c-30 0 -59.833 7.66699 -89.5 23
s-53.834 33.333 -72.501 54c-10.667 -17.333 -19.667 -30 -27 -38c-21.333 -26 -39.666 -39 -54.999 -39h-56c-55.333 0 -101.333 14 -138 42c-31.333 23.333 -54.666 56.333 -69.999 99c-16 -50 -46 -86.667 -90 -110c-39.333 -20.667 -88 -31 -146 -31h-100v-72
c-0.666992 -18 -2.33398 -33 -5.00098 -45c-18 -86 -88.667 -153 -212 -201c-108.667 -42.667 -237.667 -64 -387 -64c-108 0 -186.333 29.333 -235 88c-44 52 -66 128 -66 228c0.666992 39.333 6 83.333 16 132c12.667 59.333 30.667 120.333 54 183
s44.666 109.667 63.999 141l43 -3c-6.66699 -16 -14 -38.5 -22 -67.5s-14.667 -55.833 -20 -80.5c-6.66699 -30.667 -11.667 -57.167 -15 -79.5s-5 -42.166 -5 -59.499c0 -68.667 25.667 -120.667 77 -156c42.667 -29.333 95 -44 157 -44c118.667 0 219.334 8 302.001 24
c93.333 18 146.333 43.333 159 76c0 32 -9 72.667 -27 122c-13.333 36.667 -30 75.334 -50 116.001c-17.333 34.667 -26.666 52 -27.999 52l116 220c38.667 -78 78.334 -135.667 119.001 -173c34 -31.333 66 -47 96 -47c40 0 77 13.833 111 41.5s54.333 57.167 61 88.5
c1.33301 6.66699 2 11.667 2 15l81 79c0 -48 13 -96 39 -144c28.667 -53.333 61.667 -80 99 -80c20.667 0 37.334 4 50.001 12s21 21 25 39c0 2.66699 0.333008 8.66699 1 18c0 20.667 -3.66699 42 -11 64c-2.66699 7.33301 -6.33398 16.333 -11.001 27l88 147l21 -95
c7.33301 -32.667 16 -59.667 26 -81z" />
    <glyph glyph-name="uniFEB7" unicode="&#x634;" horiz-adv-x="1100" arabic-form="initial" 
d="M1033 0c-67.333 0 -123.003 18.9961 -167.003 56.9961c-33.333 28.667 -58.666 66.334 -75.999 113.001c-12 -56 -35 -98.333 -69 -127s-77 -43 -129 -43c-62 0 -113.333 19.333 -154 58c-26.667 25.333 -44.667 54 -54 86c-22.667 -41.333 -54.667 -75.666 -96 -102.999
s-80 -41 -116 -41h-172l62 290h73c66 0 117.333 12.667 154 38c40.667 28 80.667 81.667 120 161h53c14.667 -44 28 -77 40 -99c38 -66.667 84 -100 138 -100c32.667 0 59.334 13.333 80.001 40c16.667 21.333 28.667 49.333 36 84c4 19.333 6 37.333 6 54l76 76
c0.666992 -47.333 12.334 -98 35.001 -152c30 -68 66.667 -102 110 -102c15.333 0 27.333 1.66699 36 5c14 5.33301 22.667 14.666 26 27.999c0.666992 4.66699 1 8.33398 1 11.001c0 20.667 -8.33301 43.334 -25 68.001c-8.66699 12.667 -23.667 31.667 -45 57l86 174
c25.333 -36 46 -83.333 62 -142c14 -49.333 24 -107.666 30 -174.999c5.33301 -57.333 8 -117 8 -179v-137h-129zM932.997 702.996l-102 -102l-120 120l102 102zM711.997 681.996l-102 -102l-120 120l102 102zM796.997 874.996l-102 -101l-120 120l102 101z" />
    </font>
</defs>
</svg>
