<?xml version="1.0" standalone="no"?>
<!DOCTYPE svg PUBLIC "-//W3C//DTD SVG 1.1//EN" "http://www.w3.org/Graphics/SVG/1.1/DTD/svg11.dtd" >
<svg>
<metadata>
Created by FontForge 20090914 at Wed Oct 19 01:01:13 2011
 By www-data
(c) by Abolfazl Seilsepour - +98 912 591 3420  -  seilsepor@yahoo.com
</metadata>
<defs>
<font id="Far.Chini" horiz-adv-x="0" >
  <font-face 
    font-family="Far.Chini"
    font-weight="400"
    font-stretch="normal"
    units-per-em="2048"
    panose-1="0 0 4 0 0 0 0 0 0 0"
    ascent="1638"
    descent="-410"
    bbox="-158 -793.001 2038 2090.67"
    underline-thickness="80"
    underline-position="-660"
    unicode-range="U+0020-U+FEFC"
  />
<missing-glyph horiz-adv-x="1024" 
d="M128 0v1517h768v-1517h-768zM256 128h512v1261h-512v-1261z" />
    <glyph glyph-name="uE818" unicode="&#x651;&#x64b;" 
d="M322 1546c10.667 0 15.999 3.00098 15.999 9.00098c0 5.33301 -5 8 -15 8l-74 1l1 24l-1 12l-1 19l-2 38c-1.33301 18.667 -5.66602 30 -12.999 34l-8 3c-2.66699 0.666992 -5.33398 1 -8.00098 1c-12.667 0 -19 -3.66699 -19 -11
c0 -2.66699 0.666992 -5.33398 2 -8.00098l12 -21c2 -2.66699 3.33301 -6.66699 4 -12l1 -7l1 -7l1 -26l-1 -19l-1 -20c-19.333 0 -38.666 -0.333008 -57.999 -1v-17h163zM368.999 1653c2.66699 8 4 14.333 4 19c0 8.66699 -7.33301 14.334 -22 17.001l-9 2
c-8.66699 0 -12.667 -4 -12 -12l1 -6l4 -30l-4 -23l-2 -28c-0.666992 -15.333 1 -23 5 -23c6 0 11.667 8.33301 17 25l9 31c4.66699 15.333 7.66699 24.666 9 27.999zM83.999 1681l-4.00098 1.00098c-5.33301 0 -10 -2 -14 -6l-2 -2l-1 -4c0 -6.66699 6.66699 -15 20 -25
c10 -8 30.667 -28.333 62 -61c7.33301 -8 13.333 -12 18 -12c1.33301 0 2 1 2 3c0 3.33301 -2 9.33301 -6 18c-2 4 -9.33301 13.667 -22 29c-10 11.333 -16.333 21.666 -19 30.999c-5.33301 16.667 -16.666 26 -33.999 28zM106.998 1762c2 -4.66699 5.66602 -7 10.999 -7
l7 2l11 4l65 30l102 46l17 9c10.667 5.33301 14.667 11.333 12 18s-8.66699 9.33398 -18 8.00098c-4.66699 -0.666992 -9.66699 -2.33398 -15 -5.00098l-6 -3l-4 -1l-3 -2l-20 -11l-15 -8l-50 -22l-45 -19c-37.333 -16 -53.666 -29 -48.999 -39zM104.997 1880
c2 -4.66699 5.66602 -7 10.999 -7l7 2l11 4l65 30l103 46l16 9c10.667 5.33301 14.667 11.333 12 18s-8.33398 9.33398 -17.001 8.00098c-5.33301 -0.666992 -10.666 -2.33398 -15.999 -5.00098l-6 -3l-4 -1l-2 -2l-21 -11l-15 -8l-50 -22l-45 -19
c-37.333 -16 -53.666 -29 -48.999 -39z" />
    <glyph glyph-name="uFC5E" unicode="&#x651;&#x64c;" arabic-form="isolated" 
d="M302 1543c10 0 15.001 3 15.001 9c0 5.33301 -5 8 -15 8l-73 1v24l-1 12v19l-2 37c-1.33301 19.333 -6 31 -14 35l-7 2c-2.66699 0.666992 -5.33398 1 -8.00098 1c-12.667 0 -19 -3.66699 -19 -11c0 -2.66699 0.666992 -5 2 -7l12 -22c2 -2.66699 3.33301 -6.66699 4 -12
l1 -7l1 -7v-25v-19l-1 -20c-20 0 -39.667 -0.333008 -59 -1v-17h164zM349.001 1650c2.66699 7.33301 4 13.334 4 18.001c0 8.66699 -7.66699 14.667 -23 18l-8 1c-8.66699 0 -12.667 -4 -12 -12l1 -6l4 -30l-4 -23l-2 -28c-0.666992 -14.667 1 -22 5 -22
c6 0 11.333 8.33301 16 25l10 31c4 15.333 7 24.666 9 27.999zM63.001 1678l-3.00098 0.000976562c-5.33301 0.666992 -10 -1 -14 -5l-2 -3l-1 -3c0 -6.66699 6.66699 -15.334 20 -26.001c9.33301 -7.33301 30 -27.666 62 -60.999c7.33301 -8 13 -12 17 -12
c2 0.666992 3 1.66699 3 3c0 3.33301 -2.33301 9.66602 -7 18.999c-1.33301 4 -8.66602 13.667 -21.999 29c-9.33301 10.667 -15.333 20.667 -18 30c-6 17.333 -17.667 27 -35 29zM197 1780c22 -6.66699 43.665 -8.33203 64.998 -4.99902c20 4 41 15.333 63 34
c10.667 9.33301 17.334 14 20.001 14v-3c-0.666992 -2 -3 -6.33301 -7 -13c-31.333 -44.667 -66.666 -64.334 -105.999 -59.001l-15 1l-7 1l-6 2l-10 3l-9 2c-8.66699 2 -11.334 8 -8.00098 18c2.66699 7.33301 9.33398 9 20.001 5zM235.998 1873
c-3.33301 -10.667 -7.99805 -15.3311 -13.998 -13.998c-2.66699 1.33301 -4 4 -4 8c0 3.33301 0.666992 7.33301 2 12h-3c-4.66699 0.666992 -6 5.66699 -4 15v1l1 1c2 7.33301 6.66699 10 14 8l28 86l-2 1c-4 0.666992 -5 5.33398 -3 14.001
c1.33301 4.66699 2.83301 7.66699 4.5 9s2.83398 2 3.50098 2l5 -1c4 11.333 7.66699 16.333 11 15l1 -1c4 -2.66699 4.66699 -9.33398 2 -20.001l29 -8l37 -10l15 -5l16 -4c4 7.33301 7 10.666 9 9.99902l2 -1c1.33301 -2.66699 1.66602 -6.66699 0.999023 -12
c1.33301 -6 1.33301 -11.333 0 -16c-0.666992 -2.66699 -3.33398 -6 -8.00098 -10l-15 -39l-4 -13c-0.666992 -2.66699 -2 -7.33398 -4 -14.001c-0.666992 -2.66699 -2 -7.33398 -4 -14.001c0 -1.33301 -0.666992 -4.66602 -2 -9.99902c3.33301 -3.33301 4 -7.33301 2 -12
c-0.666992 -4 -3.33398 -6.66699 -8.00098 -8c-2.66699 -8 -6 -11.333 -10 -10c-2.66699 0.666992 -3.66699 4 -3 10l-13 5l-24 9l-17 4l-18 6zM367 1959.01l-29 10l-21 6l-26 6l-21 5l-27 -85l96 -31zM247 2057.01c-22 7.33301 -43.334 9.00098 -64.001 5.00098
c-20.667 -3.33301 -42 -14.333 -64 -33c-10.667 -9.33301 -17.334 -14 -20.001 -14v2c0.666992 2.66699 3.33398 7 8.00098 13c31.333 44.667 66.333 64.667 105 60l16 -2l7 -1l5 -1l11 -3l8 -2c8.66699 -2 11.334 -8.33301 8.00098 -19
c-2 -6.66699 -8.66699 -8.33398 -20 -5.00098zM207.999 1964.01c4 11.333 8.66797 16.002 14.001 14.002c2.66699 -1.33301 4 -4 4 -8c0 -2.66699 -0.666992 -6.33398 -2 -11.001l3 -1c5.33301 -0.666992 6.66602 -5.33398 3.99902 -14.001v-2v-1
c-2.66699 -7.33301 -7.66699 -9.66602 -15 -6.99902l-28 -87h2c4.66699 -0.666992 5.66699 -5.66699 3 -15c-1.33301 -4 -2.83301 -6.66699 -4.5 -8s-2.83398 -2 -3.50098 -2l-5 1c-3.33301 -11.333 -6.66602 -16.333 -9.99902 -15h-2
c-3.33301 2.66699 -4 9.33398 -2 20.001l-29 9l-36 9l-16 5l-16 4c-4 -7.33301 -7 -10.666 -9 -9.99902l-1 1c-2 3.33301 -2.66699 7.66602 -2 12.999c-1.33301 6 -1.33301 11.333 0 16c1.33301 2.66699 4.33301 5.66699 9 9c5.33301 13.333 10 26.666 14 39.999l4 12
c0.666992 3.33301 2 8 4 14c0.666992 3.33301 2 8 4 14c0 1.33301 0.666992 4.66602 2 9.99902c-2.66699 4 -3.33398 8.33301 -2.00098 13c1.33301 3.33301 4 6 8 8c2.66699 7.33301 6.33398 10.333 11.001 9c2 -0.666992 2.66699 -4 2 -10l13 -5l25 -9l16 -4l18 -5z
M78 1879.01l28 -11l22 -5l25 -7l21 -5l27 86l-95 31z" />
    <glyph glyph-name="uFC5F" unicode="&#x651;&#x64d;" arabic-form="isolated" 
d="M308 1815c10.667 0 15.999 3 15.999 9c0 5.33301 -5 8 -15 8l-74 1l1 24l-1 12l-1 19l-2 38c-1.33301 18.667 -5.66602 30 -12.999 34l-8 3h-8c-12.667 0 -19 -3.33301 -19 -10c0 -3.33301 0.666992 -6 2 -8l13 -21c1.33301 -3.33301 2.33301 -7.33301 3 -12l2 -7v-8
l1 -25l-1 -19v-20c-20 0 -39.667 -0.333008 -59 -1v-17h163zM354.999 1922c2.66699 7.33301 4.00098 13.334 4.00098 18.001c0 9.33301 -7.33301 15.333 -22 18l-9 1c-8.66699 0 -12.334 -4 -11.001 -12v-6c2.66699 -19.333 4 -29.333 4 -30l-4 -22l-1 -28
c-1.33301 -15.333 0 -23 4 -23c6 0 11.667 8.33301 17 25l9 31c4.66699 15.333 7.66699 24.666 9 27.999zM70 1950h-4c-4.66699 0.666992 -9.33398 -1 -14.001 -5l-2 -3v-3c0 -6.66699 6.33301 -15.334 19 -26.001c10 -7.33301 30.667 -27.666 62 -60.999
c8 -8 14 -12 18 -12c1.33301 0.666992 2 2 2 4c0 3.33301 -2 9.33301 -6 18c-2 4 -9.33301 13.667 -22 29c-10 11.333 -16.333 21.333 -19 30c-5.33301 17.333 -16.666 27 -33.999 29zM119 1538c2 -4.66699 6.00098 -7 12.001 -7l6 2l11 4l65 30l103 46l16 9
c11.333 5.33301 15.333 11.333 12 18c-2.66699 6.66699 -8.33398 9.33398 -17.001 8.00098c-4.66699 -0.666992 -10 -2.33398 -16 -5.00098l-6 -3l-4 -1l-2 -2l-20 -11l-16 -7l-49 -23l-46 -19c-36.667 -16 -53 -29 -49 -39zM117.001 1656c2 -4.66699 6 -7 12 -7l7 2l10 4
l65 31l103 45l17 9c10.667 5.33301 14.667 11.333 12 18s-8.66699 9.33398 -18 8.00098c-4.66699 -0.666992 -9.66699 -2.33398 -15 -5.00098l-7 -3l-3 -1l-3 -2l-20 -11l-15 -7l-50 -22l-46 -20c-36.667 -16 -53 -29 -49 -39z" />
    <glyph glyph-name="uFC60" unicode="&#x651;&#x64e;" arabic-form="isolated" 
d="M322 1573c10.667 0 15.999 3.00098 15.999 9.00098c0 5.33301 -5 8 -15 8l-74 1l1 24l-1 12l-1 19l-2 38c-1.33301 18.667 -5.66602 30 -12.999 34l-8 3c-2.66699 0.666992 -5.33398 1 -8.00098 1c-12.667 0 -19 -3.66699 -19 -11
c0 -2.66699 0.666992 -5.33398 2 -8.00098l12 -21c2 -2.66699 3.33301 -6.66699 4 -12l1 -7l1 -7l1 -26l-1 -19l-1 -20c-19.333 0 -38.666 -0.333008 -57.999 -1v-17h163zM368.999 1680c2.66699 8 4 14.001 4 18.001c0 9.33301 -7.33301 15.333 -22 18l-9 2
c-8.66699 0 -12.667 -4 -12 -12l1 -6l4 -30l-4 -23l-2 -28c-0.666992 -15.333 1 -23 5 -23c6 0 11.667 8.33301 17 25l9 31c4.66699 15.333 7.66699 24.666 9 27.999zM83.999 1708l-4.00098 1.00098c-5.33301 0 -10 -2 -14 -6l-2 -2l-1 -4c0 -6.66699 6.66699 -15 20 -25
c10 -8 30.667 -28.333 62 -61c7.33301 -8 13.333 -12 18 -12c1.33301 0 2 1 2 3c0 3.33301 -2 9.33301 -6 18c-2 4 -9.33301 13.667 -22 29c-10 11.333 -16.333 21.666 -19 30.999c-5.33301 16.667 -16.666 26 -33.999 28zM93.998 1778c2 -4.66699 6.00098 -7 12.001 -7l7 2
l10 4l65 31l103 45l16 9c11.333 5.33301 15.666 11.333 12.999 18s-8.66699 9.33398 -18 8.00098c-4.66699 -0.666992 -10 -2.33398 -16 -5.00098l-6 -3l-4 -1l-2 -2l-20 -11l-16 -7l-49 -22l-46 -20c-36.667 -16 -53 -29 -49 -39z" />
    <glyph glyph-name="uFC61" unicode="&#x651;&#x64f;" arabic-form="isolated" 
d="M315 1560c10.667 0 15.999 3.00098 15.999 9.00098c0 5.33301 -5 8 -15 8l-74 1l1 24l-1 12l-1 19l-2 38c-1.33301 18.667 -5.66602 30 -12.999 34l-8 3c-2 0 -4.66699 0.333008 -8 1c-12.667 0 -19 -3.66699 -19 -11c0 -2.66699 0.666992 -5.33398 2 -8.00098l12 -21
c2 -2.66699 3.33301 -6.66699 4 -12l2 -7v-8l1 -25l-1 -19v-20c-20 0 -39.667 -0.333008 -59 -1v-17h163zM361.999 1667c2.66699 7.33301 4.00098 13.334 4.00098 18.001c0 9.33301 -7.33301 15.333 -22 18l-9 1c-8.66699 0 -12.334 -4 -11.001 -12v-5
c2.66699 -20 4 -30.333 4 -31l-4 -22l-1 -28c-1.33301 -15.333 0 -23 4 -23c6 0 11.667 8.33301 17 25l9 31c4.66699 15.333 7.66699 24.666 9 27.999zM77 1695l-4.00098 0.000976562c-5.33301 0.666992 -10 -1 -14 -5l-2 -3l-1 -3c0 -6.66699 6.66699 -15.334 20 -26.001
c10 -7.33301 30.667 -27.666 62 -60.999c8 -8 14 -12 18 -12c1.33301 0.666992 2 2 2 4c0 3.33301 -2 9.33301 -6 18c-2 4 -9.33301 13.667 -22 29c-10 11.333 -16.333 21.666 -19 30.999c-5.33301 16.667 -16.666 26 -33.999 28zM131.999 1781
c21.333 -6.66699 42.667 -8.33301 64 -5c20 4 41 15.333 63 34c11.333 9.33301 18 14 20 14l1 -3c-1.33301 -2 -4 -6.33301 -8 -13c-31.333 -44 -66.666 -63.667 -105.999 -59l-15 2l-7 1l-6 1l-10 3l-9 2c-8.66699 2 -11.334 8 -8.00098 18c2 4.66699 5.66699 7 11 7
c2.66699 0 6 -0.666992 10 -2zM170 1874c-3.33301 -10.667 -7.66699 -15.0029 -13 -13.0029c-3.33301 0.666992 -5 3.33398 -5 8.00098c0 2.66699 0.666992 6.33398 2 11.001h-3c-4.66699 0.666992 -6 5.66699 -4 15v1l1 1c2 8 6.66699 10.667 14 8l28 86l-2 1
c-4 0.666992 -5 5.66699 -3 15c1.33301 4 2.83301 6.66699 4.5 8s3.16699 2 4.5 2l4 -1c4 11.333 7.66699 16.333 11 15l1 -1c4 -2 4.66699 -8.66699 2 -20l29 -8l37 -10l16 -5l15 -3c4 6.66699 7 9.66699 9 9l2 -1c1.33301 -2.66699 2 -6.16699 2 -10.5v-10.5
c0 -6 -3 -11.667 -9 -17l-15 -39l-3 -12c-1.33301 -3.33301 -3 -8.33301 -5 -15c-0.666992 -2.66699 -1.66699 -7.33398 -3 -14.001c-0.666992 -1.33301 -1.33398 -4.66602 -2.00098 -9.99902c2.66699 -3.33301 3.33398 -7.33301 2.00098 -12
c-1.33301 -4 -4.33301 -6.66699 -9 -8c-2 -8 -5.33301 -11.333 -10 -10c-2 0.666992 -3 4.33398 -3 11.001l-13 4l-24 9l-17 5l-18 5zM300.999 1960l-28 10l-22 6l-26 6l-20 6l-28 -86l96 -31z" />
    <glyph glyph-name="uFC62" unicode="&#x651;&#x650;" arabic-form="isolated" 
d="M322 1689c10.667 0 15.999 3.00098 15.999 9.00098c0 5.33301 -5 8 -15 8l-74 1l1 24l-1 12l-1 19l-2 38c-1.33301 18.667 -5.66602 30 -12.999 34l-8 3c-2.66699 0.666992 -5.33398 1 -8.00098 1c-12.667 0 -19 -3.66699 -19 -11
c0 -2.66699 0.666992 -5.33398 2 -8.00098l12 -21c2 -2.66699 3.33301 -6.66699 4 -12l1 -7l1 -7l1 -26l-1 -19l-1 -20c-19.333 0 -38.666 -0.333008 -57.999 -1v-17h163zM368.999 1796c2.66699 8 4 14.333 4 19c0 8.66699 -7.33301 14.334 -22 17.001l-9 2
c-8.66699 0 -12.667 -4 -12 -12l1 -6l4 -30l-4 -23l-2 -28c-0.666992 -15.333 1 -23 5 -23c6 0 11.667 8.33301 17 25l9 31c4.66699 15.333 7.66699 24.666 9 27.999zM83.999 1824l-4.00098 1.00098c-5.33301 0 -10 -2 -14 -6l-2 -2l-1 -4c0 -6.66699 6.66699 -15 20 -25
c10 -8 30.667 -28.333 62 -61c7.33301 -8 13.333 -12 18 -12c1.33301 0 2 1 2 3c0 3.33301 -2 9.33301 -6 18c-2 4 -9.33301 13.667 -22 29c-10 11.333 -16.333 21.666 -19 30.999c-5.33301 16.667 -16.666 26 -33.999 28zM133.998 1546
c2.66699 -4.66699 6.66699 -6.66699 12 -6l7 1l10 4l66 31l102 45l17 9c10.667 6 14.667 12.333 12 19c-2.66699 6 -8.66699 8.33301 -18 7c-4.66699 -0.666992 -9.66699 -2 -15 -4l-6 -3l-4 -2l-3 -2l-20 -11l-15 -7l-50 -22l-45 -20c-37.333 -16 -54 -29 -50 -39z" />
    <glyph glyph-name="uFDF2" unicode="&#xfedf;&#xfee0;&#xfeea;" horiz-adv-x="1858" arabic-form="isolated" 
d="M1660 96l1.00195 -22.9971c3.33301 -48.667 -16.667 -73 -60 -73c-38.667 0 -64.667 19.333 -78 58l-9 43c-2 17.333 -3.33301 39.666 -4 66.999l-2 101l2 92l3 81l1 106l-3 921c1.33301 11.333 15 23.666 41 36.999c7.33301 3.33301 14.666 5 21.999 5
c22 0 42.167 -10.5 60.5 -31.5s27.166 -42.5 26.499 -64.5l-1 -14c-5.33301 -20 -16.333 -88 -33 -204v-873c0.666992 -54.667 6 -105.334 16 -152.001zM1219 1176l-8.00098 -88l-3 -116l-7 -53l-3 -58l-7 -274l-7 -136l-2 -128l-2 -11l-7 -77
c-10 -100 -21.667 -150 -35 -150c-12 0 -26 61.667 -42 185c-12.667 100 -18.667 206.333 -18 319l2 214l-3 88l-8 330c2.66699 43.333 24 65 64 65c22 0 42.333 -10.5 61 -31.5s27.334 -42.5 26.001 -64.5zM1634 42.0029
c-101.333 -15.333 -178.332 -25.999 -230.999 -31.999c-62.667 -6.66699 -110.334 -10 -143.001 -10v82l174 12l72 2l93 -3c26 -0.666992 60.667 -3 104 -7c26 -4.66699 39 -9.66699 39 -15c0 -8.66699 -36 -18.334 -108 -29.001zM1260 0.00390625h-314v82h314v-82z
M819.002 13.0039c-10 -10 -22.6689 -14.667 -38.002 -14l-14 1c-6 0 -11.667 1 -17 3c-19.333 4.66699 -34.666 15.667 -45.999 33l-9 47l-8 53l-5 48l-1 42c-0.666992 10 0 24 2 42c2 22.667 3 38 3 46l1 25v23l3 19l1 35l-2 69c-0.666992 28 -10 58.667 -28 92
c-14.667 28 -21.334 49.333 -20.001 64c2.66699 25.333 16.667 44.666 42 57.999c10.667 6 21.334 9 32.001 9c16.667 0 34.334 -6 53.001 -18c26 -15.333 39 -32 39 -50l-3 -14l-3 -14l-1 -17l-1 -33v-34l2 -92l-2 -9l-3 -26l-4 -26l-8 -38l-13 -72
c-2.66699 -16.667 -4 -33 -4 -49c0 -53.333 17 -104.333 51 -153c6.66699 -10 10 -19.333 10 -28c0 -5.33301 -3 -12.666 -9 -21.999zM1052 0.00390625h-271l-13 82h284v-82zM777 508.004c-15.333 -40.667 -55.332 -61.001 -119.999 -61.001c-145.333 0 -251 8 -317 24
c44 -181.333 157.667 -338.333 341 -471c-82.667 0 -171.334 52.333 -266.001 157c-62.667 70.667 -113 146.334 -151 227.001c-31.333 66 -47 114.333 -47 145c0 12 2.66699 21.667 8 29c12 17.333 27 26 45 26c8.66699 0 15.667 -1.33301 21 -4l46 -12l25 -4l23 -2l57 -1
h195l36 2l16 3l23 7l20 3c32.667 0 49 -15.333 49 -46zM1218 1374c10 0 15.002 3.33301 15.002 10c0 4.66699 -5 7.33398 -15 8.00098l-73 1v23l-1 13l-1 19l-2 37c-0.666992 19.333 -5 31 -13 35l-7 2c-2.66699 0.666992 -5.33398 1 -8.00098 1
c-12.667 0 -19 -3.66699 -19 -11c0 -2.66699 0.666992 -5.33398 2 -8.00098l12 -21c1.33301 -2.66699 2.66602 -6.66699 3.99902 -12l1 -7l1 -7v-25v-19l-1 -20c-20 0 -39.667 -0.333008 -59 -1v-18h164zM1265 1482c2.66699 7.33301 4 13.333 4 18
c0 8.66699 -7.66699 14.667 -23 18l-8 1c-8.66699 0 -12.667 -4 -12 -12l1 -6l4 -30l-4 -23l-2 -28c-0.666992 -15.333 1 -23 5 -23c6 0 11.333 8.33301 16 25l9 31c4.66699 16 8 25.667 10 29zM979.003 1510l-3.00195 0.00195312c-5.33301 0 -10 -1.66699 -14 -5l-2 -3
l-1 -3c0 -6.66699 6.66699 -15.334 20 -26.001c9.33301 -8 30 -28.333 62 -61c7.33301 -8 13 -12 17 -12c2 0 3 1 3 3c0 3.33301 -2.33301 9.66602 -7 18.999c-2 4 -9.33301 13.333 -22 28c-9.33301 11.333 -15.666 21.666 -18.999 30.999
c-5.33301 16.667 -16.666 26.334 -33.999 29.001z" />
    <glyph glyph-name="uFEF5" unicode="&#xfedf;&#xfe82;" horiz-adv-x="945" arabic-form="isolated" 
d="M408 43c2.66699 -9.33301 14.001 -20 34.001 -32c20 -8 38 -12 54 -12c48.667 0 72 25.667 70 77l-2 57c-0.666992 8.66699 -3.33398 28.667 -8.00098 60c-7.33301 42 -18.333 85.667 -33 131c-33.333 98.667 -77.666 197.667 -132.999 297
c-122 220.667 -250.667 365.667 -386 435c-24 12.667 -42.667 21 -56 25l-17 5c-10 3.33301 -17.333 5 -22 5c-7.33301 0 -11.333 -2.66699 -12 -8c0 -7.33301 9.33301 -19.666 28 -36.999c85.333 -82 161.333 -166.667 228 -254
c17.333 -22.667 40.166 -60.334 68.499 -113.001s57.833 -112.667 88.5 -180c70.667 -156.667 106 -265.667 106 -327v-8l-1 -10l-12 -72c0 -14 1.66699 -27 5 -39zM573.001 1401l-1 14.001c-1.33301 22 7.33398 43.5 26.001 64.5s39 31.5 61 31.5l22 -5
c21.333 -9.33301 35.333 -29.333 42 -60c1.33301 -6.66699 -1.66699 -29.334 -9 -68.001l-12 -64c-2.66699 -14.667 -4.33398 -31 -5.00098 -49l4 -1314c0 -20.667 -2.66699 -33.667 -8 -39c-16 -16 -36.667 -24 -62 -24c-43.333 0 -63.333 24 -60 72l3 33l6 75l1 74l2 69z
M368.001 1172c-4.66699 0 -11.999 1.66602 -21.999 4.99902l-35 17c-14.667 6.66699 -35.334 15.334 -62.001 26.001c-24 0 -54.667 -13.667 -92 -41v66c31.333 24 59.333 36 84 36c17.333 0 51 -14.667 101 -44l22 -5c19.333 0 47 21 83 63v-69
c-26.667 -36 -53 -54 -79 -54z" />
    <glyph glyph-name="uFEF6" unicode="&#xfee0;&#xfe82;" horiz-adv-x="945" arabic-form="final" 
d="M408 43c2.66699 -9.33301 14.001 -20 34.001 -32c20 -8 38 -12 54 -12c48.667 0 72 25.667 70 77l-2 57c-0.666992 8.66699 -3.33398 28.667 -8.00098 60c-7.33301 42 -18.333 85.667 -33 131c-33.333 98.667 -77.666 197.667 -132.999 297
c-122 220.667 -250.667 365.667 -386 435c-24 12.667 -42.667 21 -56 25l-17 5c-10 3.33301 -17.333 5 -22 5c-7.33301 0 -11.333 -2.66699 -12 -8c0 -7.33301 9.33301 -19.666 28 -36.999c85.333 -82 161.333 -166.667 228 -254
c17.333 -22.667 40.166 -60.334 68.499 -113.001s57.833 -112.667 88.5 -180c70.667 -156.667 106 -265.667 106 -327v-8l-1 -10l-12 -72c0 -14 1.66699 -27 5 -39zM573.001 1401l-1 14.001c-1.33301 22 7.33398 43.5 26.001 64.5s39 31.5 61 31.5l22 -5
c21.333 -9.33301 35.333 -29.333 42 -60c1.33301 -6.66699 -1.66699 -29.334 -9 -68.001l-12 -64c-2.66699 -14.667 -4.33398 -31 -5.00098 -49l4 -1314c0 -20.667 -2.66699 -33.667 -8 -39c-16 -16 -36.667 -24 -62 -24c-43.333 0 -63.333 24 -60 72l3 33l6 75l1 74l2 69z
M639.001 82.001h328v-82h-328v82zM368.001 1172c-4.66699 0 -11.999 1.66602 -21.999 4.99902l-35 17c-14.667 6.66699 -35.334 15.334 -62.001 26.001c-24 0 -54.667 -13.667 -92 -41v66c31.333 24 59.333 36 84 36c17.333 0 51 -14.667 101 -44l22 -5
c19.333 0 47 21 83 63v-69c-26.667 -36 -53 -54 -79 -54z" />
    <glyph glyph-name="uFEF7" unicode="&#xfedf;&#xfe84;" horiz-adv-x="945" arabic-form="isolated" 
d="M408 43c2.66699 -9.33301 14.001 -20 34.001 -32c20 -8 38 -12 54 -12c48.667 0 72 25.667 70 77l-2 57c-0.666992 8.66699 -3.33398 28.667 -8.00098 60c-7.33301 42 -18.333 85.667 -33 131c-33.333 98.667 -77.666 197.667 -132.999 297
c-122 220.667 -250.667 365.667 -386 435c-24 12.667 -42.667 21 -56 25l-17 5c-10 3.33301 -17.333 5 -22 5c-7.33301 0 -11.333 -2.66699 -12 -8c0 -7.33301 9.33301 -19.666 28 -36.999c85.333 -82 161.333 -166.667 228 -254
c17.333 -22.667 40.166 -60.334 68.499 -113.001s57.833 -112.667 88.5 -180c70.667 -156.667 106 -265.667 106 -327v-8l-1 -10l-12 -72c0 -14 1.66699 -27 5 -39zM573.001 1401l-1 14.001c-1.33301 22 7.33398 43.5 26.001 64.5s39 31.5 61 31.5l22 -5
c21.333 -9.33301 35.333 -29.333 42 -60c1.33301 -6.66699 -1.66699 -29.334 -9 -68.001l-12 -64c-2.66699 -14.667 -4.33398 -31 -5.00098 -49l4 -1314c0 -20.667 -2.66699 -33.667 -8 -39c-16 -16 -36.667 -24 -62 -24c-43.333 0 -63.333 24 -60 72l3 33l6 75l1 74l2 69z
M189.001 1086v35.999h121c26 0 45 2 57 6l24 5c10 0 15 -6.33301 15 -19c0 -9.33301 -5 -17.666 -15 -24.999c-9.33301 -2 -37.333 -3 -84 -3h-118zM388.001 1227l-15 -4.00098l-21 -2l-53 2l-23 3l-26 6c0 -4.66699 6.33301 -20.5 19 -47.5s19 -52.833 19 -77.5
c-10 22.667 -21.333 41 -34 55c-10.667 12 -26 30.333 -46 55c-9.33301 13.333 -14 25.333 -14 36c0 18.667 8.33301 28 25 28l9 -1c14 -4 25 -6.33301 33 -7l27 -2h34h21l15 1l18 5l12 1c12.667 0 19 -6.66699 19 -20s-6.33301 -23.666 -19 -30.999z" />
    <glyph glyph-name="uFEF8" unicode="&#xfee0;&#xfe84;" horiz-adv-x="945" arabic-form="final" 
d="M408 43c2.66699 -9.33301 14.001 -20 34.001 -32c20 -8 38 -12 54 -12c48.667 0 72 25.667 70 77l-2 57c-0.666992 8.66699 -3.33398 28.667 -8.00098 60c-7.33301 42 -18.333 85.667 -33 131c-33.333 98.667 -77.666 197.667 -132.999 297
c-122 220.667 -250.667 365.667 -386 435c-24 12.667 -42.667 21 -56 25l-17 5c-10 3.33301 -17.333 5 -22 5c-7.33301 0 -11.333 -2.66699 -12 -8c0 -7.33301 9.33301 -19.666 28 -36.999c85.333 -82 161.333 -166.667 228 -254
c17.333 -22.667 40.166 -60.334 68.499 -113.001s57.833 -112.667 88.5 -180c70.667 -156.667 106 -265.667 106 -327v-8l-1 -10l-12 -72c0 -14 1.66699 -27 5 -39zM573.001 1401l-1 14.001c-1.33301 22 7.33398 43.5 26.001 64.5s39 31.5 61 31.5l22 -5
c21.333 -9.33301 35.333 -29.333 42 -60c1.33301 -6.66699 -1.66699 -29.334 -9 -68.001l-12 -64c-2.66699 -14.667 -4.33398 -31 -5.00098 -49l4 -1314c0 -20.667 -2.66699 -33.667 -8 -39c-16 -16 -36.667 -24 -62 -24c-43.333 0 -63.333 24 -60 72l3 33l6 75l1 74l2 69z
M639.001 82.001h328v-82h-328v82zM189.001 1086v35.999h121c26 0 45 2 57 6l24 5c10 0 15 -6.33301 15 -19c0 -9.33301 -5 -17.666 -15 -24.999c-9.33301 -2 -37.333 -3 -84 -3h-118zM388.001 1227l-15 -4.00098l-21 -2l-53 2l-23 3l-26 6
c0 -4.66699 6.33301 -20.5 19 -47.5s19 -52.833 19 -77.5c-10 22.667 -21.333 41 -34 55c-10.667 12 -26 30.333 -46 55c-9.33301 13.333 -14 25.333 -14 36c0 18.667 8.33301 28 25 28l9 -1c14 -4 25 -6.33301 33 -7l27 -2h34h21l15 1l18 5l12 1
c12.667 0 19 -6.66699 19 -20s-6.33301 -23.666 -19 -30.999z" />
    <glyph glyph-name="uFEF9" unicode="&#xfedf;&#xfe88;" horiz-adv-x="945" arabic-form="isolated" 
d="M408 43c2.66699 -9.33301 14.001 -20 34.001 -32c20 -8 38 -12 54 -12c48.667 0 72 25.667 70 77l-2 57c-0.666992 8.66699 -3.33398 28.667 -8.00098 60c-7.33301 42 -18.333 85.667 -33 131c-33.333 98.667 -77.666 197.667 -132.999 297
c-122 220.667 -250.667 365.667 -386 435c-24 12.667 -42.667 21 -56 25l-17 5c-10 3.33301 -17.333 5 -22 5c-7.33301 0 -11.333 -2.66699 -12 -8c0 -7.33301 9.33301 -19.666 28 -36.999c85.333 -82 161.333 -166.667 228 -254
c17.333 -22.667 40.166 -60.334 68.499 -113.001s57.833 -112.667 88.5 -180c70.667 -156.667 106 -265.667 106 -327v-8l-1 -10l-12 -72c0 -14 1.66699 -27 5 -39zM573.001 1401l-1 14.001c-1.33301 22 7.33398 43.5 26.001 64.5s39 31.5 61 31.5l22 -5
c21.333 -9.33301 35.333 -29.333 42 -60c1.33301 -6.66699 -1.66699 -29.334 -9 -68.001l-12 -64c-2.66699 -14.667 -4.33398 -31 -5.00098 -49l4 -1314c0 -20.667 -2.66699 -33.667 -8 -39c-16 -16 -36.667 -24 -62 -24c-43.333 0 -63.333 24 -60 72l3 33l6 75l1 74l2 69z
M297.001 -297.999v36h139c7.33301 0 13.333 0.333008 18 1c2 0 9.33301 1.66699 22 5l23 5c10 0 15 -6.33301 15 -19c0 -12 -5.33301 -20.333 -16 -25l-22 -3h-61h-118zM495.001 -155.999c-8.66699 -5.33301 -20.333 -7.66602 -35 -6.99902l-52 3l-20 2
c-6 0 -10.333 0.333008 -13 1l-17 5c0 -4.66699 6.33301 -20 19 -46s19 -52.333 19 -79c-10 23.333 -21.333 41.666 -34 54.999c-20.667 22.667 -36 41.667 -46 57s-15 27 -15 35c0 4 2.33301 9.5 7 16.5s11 10.5 19 10.5l9 -1l42 -8h37h36l15 1c6 0 11 1 15 3l16 2
c12 0 18 -6.66699 18 -20c0 -10 -6.66699 -20 -20 -30z" />
    <glyph glyph-name="uFEFA" unicode="&#xfee0;&#xfe88;" horiz-adv-x="945" arabic-form="final" 
d="M408 43c2.66699 -9.33301 14.001 -20 34.001 -32c20 -8 38 -12 54 -12c48.667 0 72 25.667 70 77l-2 57c-0.666992 8.66699 -3.33398 28.667 -8.00098 60c-7.33301 42 -18.333 85.667 -33 131c-33.333 98.667 -77.666 197.667 -132.999 297
c-122 220.667 -250.667 365.667 -386 435c-24 12.667 -42.667 21 -56 25l-17 5c-10 3.33301 -17.333 5 -22 5c-7.33301 0 -11.333 -2.66699 -12 -8c0 -7.33301 9.33301 -19.666 28 -36.999c85.333 -82 161.333 -166.667 228 -254
c17.333 -22.667 40.166 -60.334 68.499 -113.001s57.833 -112.667 88.5 -180c70.667 -156.667 106 -265.667 106 -327v-8l-1 -10l-12 -72c0 -14 1.66699 -27 5 -39zM573.001 1401l-1 14.001c-1.33301 22 7.33398 43.5 26.001 64.5s39 31.5 61 31.5l22 -5
c21.333 -9.33301 35.333 -29.333 42 -60c1.33301 -6.66699 -1.66699 -29.334 -9 -68.001l-12 -64c-2.66699 -14.667 -4.33398 -31 -5.00098 -49l4 -1314c0 -20.667 -2.66699 -33.667 -8 -39c-16 -16 -36.667 -24 -62 -24c-43.333 0 -63.333 24 -60 72l3 33l6 75l1 74l2 69z
M639.001 82.001h328v-82h-328v82zM297.001 -297.999v36h139c7.33301 0 13.333 0.333008 18 1c2 0 9.33301 1.66699 22 5l23 5c10 0 15 -6.33301 15 -19c0 -12 -5.33301 -20.333 -16 -25l-22 -3h-61h-118zM495.001 -155.999c-8.66699 -5.33301 -20.333 -7.66602 -35 -6.99902
l-52 3l-20 2c-6 0 -10.333 0.333008 -13 1l-17 5c0 -4.66699 6.33301 -20 19 -46s19 -52.333 19 -79c-10 23.333 -21.333 41.666 -34 54.999c-20.667 22.667 -36 41.667 -46 57s-15 27 -15 35c0 4 2.33301 9.5 7 16.5s11 10.5 19 10.5l9 -1l42 -8h37h36l15 1c6 0 11 1 15 3
l16 2c12 0 18 -6.66699 18 -20c0 -10 -6.66699 -20 -20 -30z" />
    <glyph glyph-name="uFEFB" unicode="&#xfedf;&#xfe8e;" horiz-adv-x="945" arabic-form="isolated" 
d="M408 43c2.66699 -9.33301 14.001 -20 34.001 -32c20 -8 38 -12 54 -12c48.667 0 72 25.667 70 77l-2 57c-0.666992 8.66699 -3.33398 28.667 -8.00098 60c-7.33301 42 -18.333 85.667 -33 131c-33.333 98.667 -77.666 197.667 -132.999 297
c-122 220.667 -250.667 365.667 -386 435c-24 12.667 -42.667 21 -56 25l-17 5c-10 3.33301 -17.333 5 -22 5c-7.33301 0 -11.333 -2.66699 -12 -8c0 -7.33301 9.33301 -19.666 28 -36.999c85.333 -82 161.333 -166.667 228 -254
c17.333 -22.667 40.166 -60.334 68.499 -113.001s57.833 -112.667 88.5 -180c70.667 -156.667 106 -265.667 106 -327v-8l-1 -10l-12 -72c0 -14 1.66699 -27 5 -39zM573.001 1401l-1 14.001c-1.33301 22 7.33398 43.5 26.001 64.5s39 31.5 61 31.5l22 -5
c21.333 -9.33301 35.333 -29.333 42 -60c1.33301 -6.66699 -1.66699 -29.334 -9 -68.001l-12 -64c-2.66699 -14.667 -4.33398 -31 -5.00098 -49l4 -1314c0 -20.667 -2.66699 -33.667 -8 -39c-16 -16 -36.667 -24 -62 -24c-43.333 0 -63.333 24 -60 72l3 33l6 75l1 74l2 69z
" />
    <glyph glyph-name="uFEFC" unicode="&#xfee0;&#xfe8e;" horiz-adv-x="945" arabic-form="final" 
d="M408 43c2.66699 -9.33301 14.001 -20 34.001 -32c20 -8 38 -12 54 -12c48.667 0 72 25.667 70 77l-2 57c-0.666992 8.66699 -3.33398 28.667 -8.00098 60c-7.33301 42 -18.333 85.667 -33 131c-33.333 98.667 -77.666 197.667 -132.999 297
c-122 220.667 -250.667 365.667 -386 435c-24 12.667 -42.667 21 -56 25l-17 5c-10 3.33301 -17.333 5 -22 5c-7.33301 0 -11.333 -2.66699 -12 -8c0 -7.33301 9.33301 -19.666 28 -36.999c85.333 -82 161.333 -166.667 228 -254
c17.333 -22.667 40.166 -60.334 68.499 -113.001s57.833 -112.667 88.5 -180c70.667 -156.667 106 -265.667 106 -327v-8l-1 -10l-12 -72c0 -14 1.66699 -27 5 -39zM573.001 1401l-1 14.001c-1.33301 22 7.33398 43.5 26.001 64.5s39 31.5 61 31.5l22 -5
c21.333 -9.33301 35.333 -29.333 42 -60c1.33301 -6.66699 -1.66699 -29.334 -9 -68.001l-12 -64c-2.66699 -14.667 -4.33398 -31 -5.00098 -49l4 -1314c0 -20.667 -2.66699 -33.667 -8 -39c-16 -16 -36.667 -24 -62 -24c-43.333 0 -63.333 24 -60 72l3 33l6 75l1 74l2 69z
M639.001 82.001h328v-82h-328v82z" />
    <glyph glyph-name="u0652_u064E.liga" unicode="&#x652;&#x64e;" horiz-adv-x="1" 
d="M94 1224l-0.00195312 -11v-16c0 -4.66699 -1 -8 -3 -10c-6 -4 -14 -6 -24 -6c-17.333 0 -25.333 6.33301 -24 19v8l3 20v19l1 17l-1 262l-3 14v3c-1.33301 16.667 10.334 25 35.001 25l8 -1c8.66699 -2.66699 14.334 -8 17.001 -16
c0.666992 -1.33301 -0.333008 -7 -3 -17l-5 -16c-1.33301 -4 -2 -8.33301 -2 -13l-2 -64v-101l4 -90z" />
    <glyph glyph-name="u0652_u064B.liga" unicode="&#x652;&#x64b;" horiz-adv-x="1" 
d="M306 822c0 11.333 1.66797 22.332 5.00098 32.999l6 12c5.33301 6.66699 9.66602 11.667 12.999 15c17.333 16 37 24 59 24c23.333 0 43 -8.16699 59 -24.5s24 -36.166 24 -59.499c0 -21.333 -8.33301 -40.333 -25 -57s-36 -25 -58 -25c-21.333 0 -40.5 8.33301 -57.5 25
s-25.5 35.667 -25.5 57zM472.001 821.999c0 11.333 1.33301 22.332 4 32.999l7 12c4.66699 6.66699 9 11.667 13 15c17.333 16 37 24 59 24c22.667 0 42 -8.16699 58 -24.5s24 -36.166 24 -59.499c0 -21.333 -8.33301 -40.333 -25 -57s-35.667 -25 -57 -25
s-40.5 8.33301 -57.5 25s-25.5 35.667 -25.5 57z" />
    <glyph glyph-name="u0652_u064D.liga" unicode="&#x652;&#x64d;" horiz-adv-x="1" 
d="M505 -711c0 11.333 1.33301 22.332 4 32.999l7 12c4.66699 6.66699 9 11.667 13 15c17.333 16 37 24 59 24c22.667 0 42 -8.16699 58 -24.5s24 -36.166 24 -59.499c0 -21.333 -8.33301 -40.333 -25 -57s-35.667 -25 -57 -25s-40.5 8.33301 -57.5 25
s-25.5 35.667 -25.5 57zM670 -711.001c0 11.333 1.66699 22.332 5 32.999l7 12c4.66699 6.66699 8.66699 11.667 12 15c17.333 16 37.333 24 60 24s42 -8.16699 58 -24.5s24 -36.166 24 -59.499c0 -21.333 -8.33301 -40.333 -25 -57s-35.667 -25 -57 -25
c-22 0 -41.5 8.33301 -58.5 25s-25.5 35.667 -25.5 57z" />
    <glyph glyph-name="u0622" unicode="&#x622;" horiz-adv-x="592" arabic-form="isolated" 
d="M342 168l1 -44v-61c0 -20.667 -3 -33.667 -9 -39c-16 -16 -36.333 -24 -61 -24c-43.333 -0 -63.333 24.333 -60 73l2 33l6 75l2 74l2 69l-11 933c-1.33301 22.667 7.16699 44.334 25.5 65.001s38.833 31 61.5 31l21 -4c22 -9.33301 36 -29.333 42 -60
c1.33301 -6.66699 -1.66699 -29.667 -9 -69l-12 -63c-2.66699 -14.667 -4 -31.334 -4 -50.001l-5 -328l1 -187l9 -323zM368 1397c-4.66699 0 -11.999 1.66699 -21.999 5l-35 16c-14.667 7.33301 -35.334 16.333 -62.001 27c-24 0 -54.667 -14 -92 -42v67
c31.333 24 59.333 36 84 36c17.333 0 51 -14.667 101 -44l22 -5c19.333 0 47 21 83 63v-69c-26.667 -36 -53 -54 -79 -54z" />
    <glyph glyph-name="u0623" unicode="&#x623;" horiz-adv-x="592" arabic-form="isolated" 
d="M342 168l1 -43.999v-61c0 -20.667 -3 -33.667 -9 -39c-16 -16 -36.333 -24 -61 -24c-43.333 0 -63.333 24.333 -60 73l2 33l6 75l2 74l2 69l-11 844c-1.33301 22 7.16699 43.5 25.5 64.5s38.833 31.5 61.5 31.5l21 -5c22 -8.66699 36 -28.334 42 -59.001
c1.33301 -6.66699 -1.66699 -29.667 -9 -69l-12 -63c-2.66699 -14 -4 -30.667 -4 -50l-2 -104l-3 -179l1 -159l9 -307zM189 1310v36h121c26 0 45 2 57 6l24 6c10 0 15 -6.33301 15 -19c0 -9.33301 -5 -18 -15 -26c-9.33301 -2 -37.333 -3 -84 -3h-118zM388 1452
l-15 -4.00098l-21 -2l-53 2l-23 3l-26 6c0 -4.66699 6.33301 -20.5 19 -47.5s19 -52.833 19 -77.5c-10 22.667 -21.333 41 -34 55c-10.667 12 -26 30.333 -46 55c-9.33301 13.333 -14 25.333 -14 36c0 18.667 8.33301 28 25 28l51 -9c10 0 16 -0.333008 18 -1h34h21l15 1
l18 5l12 1c12.667 0 19 -6.66699 19 -20s-6.33301 -23.666 -19 -30.999z" />
    <glyph glyph-name="u0624" unicode="&#x624;" horiz-adv-x="1385" arabic-form="isolated" 
d="M355 -342c148 0 281.999 17.002 401.999 51.002c116 32.667 222.667 90.667 320 174c50.667 43.333 82.334 65 95.001 65l6 -7c0 -8.66699 -7.33301 -25.334 -22 -50.001c-57.333 -98.667 -131.333 -171.667 -222 -219c-80.667 -42.667 -182 -70.334 -304 -83.001
l-140 -13l-39 -2l-124 -4c-56 -2.66699 -84 14.333 -84 51c0 24.667 37.333 37 112 37zM405.999 -2.99805c0 -38.667 -18.3359 -58.001 -55.0029 -58.001c-35.333 0 -53 19.333 -53 58l-18 -1c-31.333 -2.66699 -49.666 11.666 -54.999 42.999l-1 4v4
c0 26.667 24.667 40 74 40l-3 306l-11 -1c-27.333 -2 -43.666 12.667 -48.999 44c0 14.667 5 26.667 15 36c4 2.66699 10 4.66699 18 6l30 2c0 40 11.333 60 34 60l11 -2c27.333 -3.33301 44.333 -23.666 51 -60.999l192 3l243 7l105 1l102 4c11.333 27.333 24 41 38 41
l10 -2c15.333 -7.33301 26.333 -20.333 33 -39c21.333 -17.333 32 -34 32 -50c0 -10 -10.667 -23.333 -32 -40c-6 -48 -9 -95.333 -9 -142v-43c0 -11.333 1 -28 3 -50c0.666992 -10.667 2.33398 -27 5.00098 -49c0.666992 -4.66699 3 -16 7 -34
c25.333 -9.33301 38 -22 38 -38c0 -13.333 -11.667 -24.666 -35 -33.999c0 -28 -15 -42 -45 -42c-14.667 0 -26.667 10 -36 30l-91 1l-165 4l-111 -4zM1033 408.001l-193 3l-144 -4l-169 -7l-136 -4l3 -303h645zM583.996 614.001v35.999h121c26 0 45 2 57 6l24 5
c10 0 15 -6.33301 15 -19c0 -9.33301 -5 -17.666 -15 -24.999c-9.33301 -2 -37.333 -3 -84 -3h-118zM782.996 756l-15 -5.00195l-21 -1l-53 2l-23 3l-26 5c0 -4.66699 6.33301 -20.5 19 -47.5s19 -52.5 19 -76.5c-10 22.667 -20.833 40.334 -32.5 53.001
s-27.5 31.667 -47.5 57c-9.33301 12.667 -14 24.334 -14 35.001c0 19.333 8.33301 29 25 29l9 -2c14 -4 25 -6.33301 33 -7l27 -2h34l21 1l15 1l18 4l12 2c12.667 0 19 -7 19 -21c0 -13.333 -6.33301 -23.333 -19 -30z" />
    <glyph glyph-name="u0625" unicode="&#x625;" horiz-adv-x="592" arabic-form="isolated" 
d="M342 168l1 -43.999v-61c0 -20.667 -3 -33.667 -9 -39c-16 -16 -36.333 -24 -61 -24c-43.333 0 -63.333 24.333 -60 73l2 33l6 75l2 74l2 69l-11 1091c-1.33301 22 7.16699 43.5 25.5 64.5s38.833 31.5 61.5 31.5l21 -5c22 -9.33301 36 -29.333 42 -60
c1.33301 -6.66699 -1.66699 -29.334 -9 -68.001l-12 -64c-2.66699 -14 -4 -30.333 -4 -49zM189 -257.999v35.999h121c26 0 45 2 57 6l24 5c10 0 15 -6.33301 15 -19c0 -9.33301 -5 -17.666 -15 -24.999c-9.33301 -2 -37.333 -3 -84 -3h-118zM352 -122l-53 1.99902h-13l-15 4
c-4.66699 0 -11.667 1.33301 -21 4c0 -6 6.33301 -20.167 19 -42.5s19 -49.5 19 -81.5c-10 22.667 -20.833 40.334 -32.5 53.001s-27.5 31.667 -47.5 57c-9.33301 12.667 -14 24.667 -14 36c0 18.667 8.66699 28 26 28l8 -1l16 -4l26 -4h37l36 -1l15 1c6 0 11 1 15 3l16 3
c12 0 18 -7 18 -21c0 -26 -18.333 -38 -55 -36z" />
    <glyph glyph-name="u0626" unicode="&#x626;" horiz-adv-x="1326" arabic-form="isolated" 
d="M1102 232l2.00195 -12.998c0 -30.667 -20 -85.334 -60 -164.001c-46.667 -90.667 -93.334 -234 -140.001 -430c0 202 25 379 75 531l-199 -3c-42.667 -0.666992 -73.334 9.66602 -92.001 30.999c-12.667 16 -19 32 -19 48c0 23.333 16 35 48 35h23l18 -3l80 -11h30
c17.333 -0.666992 44.333 1 81 5l111 12c17.333 0 31.333 -12.667 42 -38zM1126 -424.998c-28.667 -6 -88.9961 -9.66797 -180.996 -11.001l-479 -7l4 -37l2 -34c0.666992 -26 -2.33301 -52.333 -9 -79c-9.33301 -38 -23 -57 -41 -57c-30 0 -48.333 24.333 -55 73l-18 134
c-49.333 0 -79.333 -4.33301 -90 -13c-6.66699 -6.66699 -17.334 -9.66699 -32.001 -9l-15 1c-6.66699 0 -12.334 1 -17.001 3c-34 6 -52 26 -54 60l-1 14c-0.666992 12.667 1.16602 22.334 5.49902 29.001s10.833 9.66699 19.5 9l79 -1l12 -3h23
c12.667 0 21 -0.666992 25 -2l48 -4l-2 64c0 6.66699 -0.333008 14.667 -1 24c-1.33301 12 -3.33301 27.667 -6 47l-20 136l-9 42c-34 156.667 -63.667 254.334 -89 293.001c-15.333 23.333 -23 43.333 -23 60c0 12 4 22.333 12 31c19.333 20 39.333 29.333 60 28l9 -1
c28 -2 50.667 -25.333 68 -70l13 -48l15 -54c14 -50.667 27.667 -146 41 -286c12 -127.333 22.333 -215 31 -263l124 -2l208 -6c27.333 0 68.333 -2 123 -6l103 -16c83.333 -12.667 126.666 -23.334 129.999 -32.001l-5 -3zM935.006 621.001
c36.667 49.333 68 77.666 94 84.999l17 2c15.333 0 32.333 -5 51 -15c22 -11.333 33 -24 33 -38c0 -19.333 -17.667 -39.333 -53 -60c-148.667 -89.333 -265.667 -175.666 -351 -258.999c-42 -41.333 -70 -62 -84 -62c-7.33301 0 -11 5 -11 15c0 20 21 54 63 102
c12.667 15.333 55.667 54.333 129 117c50.667 44 88 81.667 112 113zM165.006 478.001v35.999h121c26 0 45 2 57 6l24 5c10 0 15 -6.33301 15 -19c0 -9.33301 -5 -17.666 -15 -24.999c-9.33301 -2 -37.333 -3 -84 -3h-118zM364.006 619l-15 -4.00098l-21 -2l-53 2l-23 3
l-26 6c0 -4.66699 6.33301 -20.5 19 -47.5s19 -52.833 19 -77.5c-10 22.667 -21.333 41 -34 55c-10.667 12 -26 30.333 -46 55c-9.33301 13.333 -14 25.333 -14 36c0 18.667 8.33301 28 25 28l9 -1c14 -4 25 -6.33301 33 -7l27 -2h34h21l15 1l18 5l12 1
c12.667 0 19 -6.66699 19 -20s-6.33301 -23.666 -19 -30.999z" />
    <glyph glyph-name="u0627" unicode="&#x627;" horiz-adv-x="592" arabic-form="isolated" 
d="M342 168l1 -43.999v-61c0 -20.667 -3 -33.667 -9 -39c-16 -16 -36.333 -24 -61 -24c-43.333 0 -63.333 24.333 -60 73l2 33l6 75l2 74l2 69l-11 1091c-1.33301 22 7.16699 43.5 25.5 64.5s38.833 31.5 61.5 31.5l21 -5c22 -9.33301 36 -29.333 42 -60
c1.33301 -6.66699 -1.66699 -29.334 -9 -68.001l-12 -64c-2.66699 -14 -4 -30.333 -4 -49z" />
    <glyph glyph-name="u0628" unicode="&#x628;" horiz-adv-x="1271" arabic-form="isolated" 
d="M957 -27c-139.333 22 -252.335 32.334 -339.002 31.001l-85 -1l-19 -3c-55.333 0 -106 -3.66699 -152 -11c-35.333 -6 -63.666 -13.333 -84.999 -22c-12.667 -5.33301 -24.667 -8 -36 -8c-28 0 -42 12.333 -42 37c0 9.33301 4 19.666 12 30.999
c32.667 75.333 49 136.333 49 183c0 6 -5.33301 39.333 -16 100l-12 66c-4 20.667 -5.66699 41.667 -5 63l2 60l3 60c1.33301 26 -1 48.667 -7 68l-2 14c0 16.667 12.667 33.334 38 50.001c17.333 11.333 35 17 53 17c12.667 0 23.334 -2.66699 32.001 -8
c23.333 -10 37.333 -29.333 42 -58c2 -8 -4.66699 -29.667 -20 -65l-20 -47c-5.33301 -19.333 -8 -34 -8 -44l1 -75l3 -31l2 -43l23 -156l-7 -23c-4 -13.333 -10.667 -38 -20 -74l90 -3h428c17.333 -0.666992 44.666 -5.66699 81.999 -15l-9 429
c-3.33301 131.333 9.66699 201.666 39 210.999c8.66699 3.33301 18.334 5 29.001 5c16.667 0 33 -5.66699 49 -17c25.333 -16.667 38 -40 38 -70c0 -17.333 -5.5 -31.5 -16.5 -42.5s-18.167 -29.167 -21.5 -54.5l-6 -47l-6 -188l3 -244c64.667 -21.333 97 -39.333 97 -54
c0 -10.667 -20.333 -16 -61 -16h-14l-25 1c-16 -52 -30 -78 -42 -78c-11.333 0 -24.333 24 -39 72zM539.998 -195.999c0 11.333 1.33301 22.332 4 32.999l7 12c2.66699 3.33301 7 8.33301 13 15c16 16 35.333 24 58 24c23.333 0 43 -8.16699 59 -24.5s24 -36.166 24 -59.499
c0 -21.333 -8.33301 -40.333 -25 -57s-36 -25 -58 -25c-22.667 0 -42 8 -58 24s-24 35.333 -24 58z" />
    <glyph glyph-name="u0629" unicode="&#x629;" horiz-adv-x="1029" arabic-form="isolated" 
d="M788 1c-34 0 -62.001 13.666 -84.001 40.999l-9 47l-8 52l-5 47l-1 42c-0.666992 10.667 0 24.667 2 42c2 21.333 3 36 3 44l1 24v22l3 19l1 35l-2 69c-0.666992 28 -10 58.667 -28 92c-14.667 28 -21.334 49.333 -20.001 64c2.66699 25.333 16.667 44.666 42 57.999
c10.667 6 21.334 9 32.001 9c16.667 0 34.334 -6 53.001 -18c26 -15.333 39 -32 39 -50l-3 -14l-3 -14l-1 -17l-1 -33v-34l2 -65l-1 -27l-1 -16c0 -7.33301 -1 -13.666 -3 -18.999l-4 -28c-2 -10.667 -5 -23 -9 -37c-10.667 -62 -16 -100.667 -16 -116
c0 -50.667 17 -101 51 -151c7.33301 -11.333 11 -21.666 11 -30.999c0 -24.667 -13.667 -37 -41 -37zM776.999 507.999c-15.333 -40.667 -55.332 -61.001 -119.999 -61.001c-145.333 0 -251 8 -317 24c44 -181.333 157.667 -338.333 341 -471
c-82.667 0 -171.334 52.333 -266.001 157c-62.667 70.667 -113 146.334 -151 227.001c-31.333 66 -47 114.333 -47 145c0 12 2.66699 21.667 8 29c12 17.333 27 26 45 26c8.66699 0 15.667 -1.33301 21 -4l46 -12l25 -4l23 -2l57 -1h195l36 2l16 3l23 7l20 3
c32.667 0 49 -15.333 49 -46zM277 724.998l0.000976562 36h121c26.667 0 46 2 58 6l24 5c10 0 15 -6 15 -18c0 -10 -5.33301 -18.667 -16 -26c-8.66699 -2 -36.334 -3 -83.001 -3h-119zM476.001 866.998l-13.999 -5l-21 -1l-53 2l-24 3l-25 5
c0 -4.66699 6.16699 -20.5 18.5 -47.5s18.5 -52.5 18.5 -76.5c-10 22.667 -21 41 -33 55c-10.667 11.333 -26.334 29.666 -47.001 54.999c-8.66699 12.667 -13 24.334 -13 35.001c0 19.333 8 29 24 29l9 -2c14.667 -4 25.667 -6.33301 33 -7l27 -2h35l21 1l15 1l18 4l12 2
c12.667 0 19 -7 19 -21c0 -13.333 -6.66699 -23.333 -20 -30z" />
    <glyph glyph-name="u062A" unicode="&#x62a;" horiz-adv-x="1271" arabic-form="isolated" 
d="M957 -27c-139.333 22 -252.335 32.334 -339.002 31.001l-85 -1l-19 -3c-55.333 0 -106 -3.66699 -152 -11c-35.333 -6 -63.666 -13.333 -84.999 -22c-12.667 -5.33301 -24.667 -8 -36 -8c-28 0 -42 12.333 -42 37c0 9.33301 4 19.666 12 30.999
c32.667 75.333 49 136.333 49 183c0 6 -5.33301 39.333 -16 100l-12 66c-4 20.667 -5.66699 41.667 -5 63l2 60l3 60c1.33301 26 -1 48.667 -7 68l-2 14c0 16.667 12.667 33.334 38 50.001c17.333 11.333 35 17 53 17c12.667 0 23.334 -2.66699 32.001 -8
c23.333 -10 37.333 -29.333 42 -58c2 -8 -4.66699 -29.667 -20 -65l-20 -47c-5.33301 -19.333 -8 -34 -8 -44l1 -75l3 -31l2 -43l23 -156l-7 -23c-4 -13.333 -10.667 -38 -20 -74l90 -3h428c17.333 -0.666992 44.666 -5.66699 81.999 -15l-9 429
c-3.33301 131.333 9.66699 201.666 39 210.999c8.66699 3.33301 18.334 5 29.001 5c16.667 0 33 -5.66699 49 -17c25.333 -16.667 38 -40 38 -70c0 -17.333 -5.5 -31.5 -16.5 -42.5s-18.167 -29.167 -21.5 -54.5l-6 -47l-6 -188l3 -244c64.667 -21.333 97 -39.333 97 -54
c0 -10.667 -20.333 -16 -61 -16h-14l-25 1c-16 -52 -30 -78 -42 -78c-11.333 0 -24.333 24 -39 72zM477.998 902.001c0 22.667 8 42 24 58s35.333 24 58 24s42.167 -8 58.5 -24s24.5 -35.333 24.5 -58c0 -22 -8.33301 -41.333 -25 -58s-36 -25 -58 -25
c-22.667 0 -42 8.16699 -58 24.5s-24 35.833 -24 58.5zM642.998 902.001c0 22.667 8 42 24 58s35.667 24 59 24c22.667 0 42.167 -8 58.5 -24s24.5 -35.333 24.5 -58c0 -22 -8.5 -41.333 -25.5 -58s-36.167 -25 -57.5 -25c-22.667 0 -42.167 8.16699 -58.5 24.5
s-24.5 35.833 -24.5 58.5z" />
    <glyph glyph-name="u062B" unicode="&#x62b;" horiz-adv-x="1271" arabic-form="isolated" 
d="M957 -27c-139.333 22 -252.335 32.334 -339.002 31.001l-85 -1l-19 -3c-55.333 0 -106 -3.66699 -152 -11c-35.333 -6 -63.666 -13.333 -84.999 -22c-12.667 -5.33301 -24.667 -8 -36 -8c-28 0 -42 12.333 -42 37c0 9.33301 4 19.666 12 30.999
c32.667 75.333 49 136.333 49 183c0 6 -5.33301 39.333 -16 100l-12 66c-4 20.667 -5.66699 41.667 -5 63l2 60l3 60c1.33301 26 -1 48.667 -7 68l-2 14c0 16.667 12.667 33.334 38 50.001c17.333 11.333 35 17 53 17c12.667 0 23.334 -2.66699 32.001 -8
c23.333 -10 37.333 -29.333 42 -58c2 -8 -4.66699 -29.667 -20 -65l-20 -47c-5.33301 -19.333 -8 -34 -8 -44l1 -75l3 -31l2 -43l23 -156l-7 -23c-4 -13.333 -10.667 -38 -20 -74l90 -3h428c17.333 -0.666992 44.666 -5.66699 81.999 -15l-9 429
c-3.33301 131.333 9.66699 201.666 39 210.999c8.66699 3.33301 18.334 5 29.001 5c16.667 0 33 -5.66699 49 -17c25.333 -16.667 38 -40 38 -70c0 -17.333 -5.5 -31.5 -16.5 -42.5s-18.167 -29.167 -21.5 -54.5l-6 -47l-6 -188l3 -244c64.667 -21.333 97 -39.333 97 -54
c0 -10.667 -20.333 -16 -61 -16h-14l-25 1c-16 -52 -30 -78 -42 -78c-11.333 0 -24.333 24 -39 72zM469.998 902.001c0 22.667 8.16699 42 24.5 58s35.833 24 58.5 24c22 0 41.333 -8.33301 58 -25s25 -35.667 25 -57s-8.5 -40.5 -25.5 -57.5s-36.167 -25.5 -57.5 -25.5
c-24.667 0 -44.667 8.33301 -60 25s-23 36 -23 58zM635.998 902.001c0 22.667 8.16699 42 24.5 58s35.833 24 58.5 24c21.333 0 40.333 -8.33301 57 -25s25 -35.667 25 -57s-8.33301 -40.5 -25 -57.5s-35.667 -25.5 -57 -25.5c-24.667 0 -44.667 8.33301 -60 25
s-23 36 -23 58zM554.998 1069c0 22.667 8.16699 42.167 24.5 58.5s35.833 24.5 58.5 24.5c21.333 0 40.333 -8.5 57 -25.5s25 -36.167 25 -57.5s-8.33301 -40.5 -25 -57.5s-35.667 -25.5 -57 -25.5c-24.667 0 -44.667 8.33301 -60 25s-23 36 -23 58z" />
    <glyph glyph-name="u062C" unicode="&#x62c;" horiz-adv-x="1391" arabic-form="isolated" 
d="M996 0c0 -38.667 18.6689 -58.002 56.002 -58.002c34.667 0 52 19.333 52 58l19 -1c31.333 -2.66699 49.666 11.666 54.999 42.999l1 4v4c0 26.667 -25 40 -75 40l3 306c48 0 72 16 72 48c0 26.667 -17.333 40 -52 40c-13.333 0 -21 -0.333008 -23 -1c0 40 -11 60 -33 60
l-12 -2c-26.667 -3.33301 -43.667 -23.666 -51 -60.999l-120 2l-225 8l-143 -3l-151 1c-82.667 0.666992 -125.334 -12.666 -128.001 -39.999c0 -22.667 12.167 -38.5 36.5 -47.5s72.166 -13.167 143.499 -12.5l587 8l3 -77l3 -67c2 -54.667 -1 -109.667 -9 -165
c-338.667 0 -560 -74 -664 -222c-38.667 -54.667 -69.667 -129.667 -93 -225c-8.66699 -36.667 -13 -62 -13 -76v-5l2 -2l6 8l16 27c88.667 193.333 217.334 315 386.001 365c102.667 30.667 203.667 45.334 303 44.001zM447.002 -402.002l-27.001 -4.00098l-24 -2h-11l-9 2
c-16 2 -24 14 -24 36c0 20 16 36 48 48c18.667 6.66699 35.334 10 50.001 10c8 0 14.667 -1 20 -3c14 -5.33301 48 -7.66602 102 -6.99902l63 1l106 2l246 9c96.667 2 145 -16 145 -54c0 -18.667 -14.333 -33.667 -43 -45c-10 -3.33301 -24.333 -5 -43 -5
c-26 0 -56 2.66699 -90 8c-61.333 8.66699 -156 13 -284 13c-114 0 -189 -3 -225 -9zM799.001 -150.003c0 22.667 8.33301 42.167 25 58.5s36 24.5 58 24.5c23.333 0 43 -8.16699 59 -24.5s24 -35.833 24 -58.5s-8.16699 -42.167 -24.5 -58.5s-35.833 -24.5 -58.5 -24.5
c-21.333 0 -40.5 8.5 -57.5 25.5s-25.5 36.167 -25.5 57.5z" />
    <glyph glyph-name="u062D" unicode="&#x62d;" horiz-adv-x="1391" arabic-form="isolated" 
d="M996 0c0 -38.667 18.6689 -58.002 56.002 -58.002c34.667 0 52 19.333 52 58l19 -1c31.333 -2.66699 49.666 11.666 54.999 42.999l1 4v4c0 26.667 -25 40 -75 40l3 306c48 0 72 16 72 48c0 26.667 -17.333 40 -52 40c-13.333 0 -21 -0.333008 -23 -1c0 40 -11 60 -33 60
l-12 -2c-26.667 -3.33301 -43.667 -23.666 -51 -60.999l-120 2l-225 8l-143 -3l-151 1c-82.667 0.666992 -125.334 -12.666 -128.001 -39.999c0 -22.667 12.167 -38.5 36.5 -47.5s72.166 -13.167 143.499 -12.5l587 8l3 -77l3 -67c2 -54.667 -1 -109.667 -9 -165
c-338.667 0 -560 -74 -664 -222c-38.667 -54.667 -69.667 -129.667 -93 -225c-8.66699 -36.667 -13 -62 -13 -76v-5l2 -2l6 8l16 27c88.667 193.333 217.334 315 386.001 365c102.667 30.667 203.667 45.334 303 44.001zM447.002 -402.002l-27.001 -4.00098l-24 -2h-11l-9 2
c-16 2 -24 14 -24 36c0 20 16 36 48 48c18.667 6.66699 35.334 10 50.001 10c8 0 14.667 -1 20 -3c14 -5.33301 48 -7.66602 102 -6.99902l63 1l106 2l246 9c96.667 2 145 -16 145 -54c0 -18.667 -14.333 -33.667 -43 -45c-10 -3.33301 -24.333 -5 -43 -5
c-26 0 -56 2.66699 -90 8c-61.333 8.66699 -156 13 -284 13c-114 0 -189 -3 -225 -9z" />
    <glyph glyph-name="u062E" unicode="&#x62e;" horiz-adv-x="1391" arabic-form="isolated" 
d="M996 0c0 -38.667 18.6689 -58.002 56.002 -58.002c34.667 0 52 19.333 52 58l19 -1c31.333 -2.66699 49.666 11.666 54.999 42.999l1 4v4c0 26.667 -25 40 -75 40l3 306c48 0 72 16 72 48c0 26.667 -17.333 40 -52 40c-13.333 0 -21 -0.333008 -23 -1c0 40 -11 60 -33 60
l-12 -2c-26.667 -3.33301 -43.667 -23.666 -51 -60.999l-120 2l-225 8l-143 -3l-151 1c-82.667 0.666992 -125.334 -12.666 -128.001 -39.999c0 -22.667 12.167 -38.5 36.5 -47.5s72.166 -13.167 143.499 -12.5l587 8l3 -77l3 -67c2 -54.667 -1 -109.667 -9 -165
c-338.667 0 -560 -74 -664 -222c-38.667 -54.667 -69.667 -129.667 -93 -225c-8.66699 -36.667 -13 -62 -13 -76v-5l2 -2l6 8l16 27c88.667 193.333 217.334 315 386.001 365c102.667 30.667 203.667 45.334 303 44.001zM447.002 -402.002l-27.001 -4.00098l-24 -2h-11l-9 2
c-16 2 -24 14 -24 36c0 20 16 36 48 48c18.667 6.66699 35.334 10 50.001 10c8 0 14.667 -1 20 -3c14 -5.33301 48 -7.66602 102 -6.99902l63 1l106 2l246 9c96.667 2 145 -16 145 -54c0 -18.667 -14.333 -33.667 -43 -45c-10 -3.33301 -24.333 -5 -43 -5
c-26 0 -56 2.66699 -90 8c-61.333 8.66699 -156 13 -284 13c-114 0 -189 -3 -225 -9zM587.001 688.997c0 22.667 7.99902 42 23.999 58s35.333 24 58 24s42.334 -8 59.001 -24s25 -35.333 25 -58c0 -22 -8.5 -41.333 -25.5 -58s-36.5 -25 -58.5 -25
s-41.167 8.16699 -57.5 24.5s-24.5 35.833 -24.5 58.5z" />
    <glyph glyph-name="u062F" unicode="&#x62f;" horiz-adv-x="1388" arabic-form="isolated" 
d="M224 31c0 -21.333 10.668 -35.666 32.001 -42.999l27 -4l46 -2l286 11l448 7l74 6c26 2 44 6.33301 54 13c12.667 9.33301 19 21.333 19 36c0 27.333 -17.333 46 -52 56c-18.667 5.33301 -40.334 7.66602 -65.001 6.99902l-27 -1h-16l-12 -3l-92 -10l-67 -2l-217 -4
l-197 -1h-141c-66.667 -7.33301 -100 -29.333 -100 -66zM969.001 198c34 -28 66.002 -42 96.002 -42c29.333 0 53.666 14 72.999 42c9.33301 13.333 14 26 14 38c0 13.333 -6 28 -18 44c-18.667 24.667 -64 49.667 -136 75l-149 53c-200 70 -390 228.333 -570 475
c-18.667 25.333 -31.334 39.333 -38.001 42l-2 -3c0 -10 12.333 -41.333 37 -94c48 -104 119.667 -207.667 215 -311c101.333 -110 199.666 -188.333 294.999 -235c52.667 -26 106.334 -51 161.001 -75z" />
    <glyph glyph-name="u0630" unicode="&#x630;" horiz-adv-x="1388" arabic-form="isolated" 
d="M224 31c0 -21.333 10.668 -35.666 32.001 -42.999l27 -4l46 -2l286 11l448 7l74 6c26 2 44 6.33301 54 13c12.667 9.33301 19 21.333 19 36c0 27.333 -17.333 46 -52 56c-18.667 5.33301 -40.334 7.66602 -65.001 6.99902l-27 -1h-16l-12 -3l-92 -10l-67 -2l-217 -4
l-197 -1h-141c-66.667 -7.33301 -100 -29.333 -100 -66zM969.001 198c34 -28 66.002 -42 96.002 -42c29.333 0 53.666 14 72.999 42c9.33301 13.333 14 26 14 38c0 13.333 -6 28 -18 44c-18.667 24.667 -64 49.667 -136 75l-149 53c-200 70 -390 228.333 -570 475
c-18.667 25.333 -31.334 39.333 -38.001 42l-2 -3c0 -10 12.333 -41.333 37 -94c48 -104 119.667 -207.667 215 -311c101.333 -110 199.666 -188.333 294.999 -235c52.667 -26 106.334 -51 161.001 -75zM232.003 1054c0 22.667 8 42.167 24 58.5s35.333 24.5 58 24.5
s42.167 -8.16699 58.5 -24.5s24.5 -35.833 24.5 -58.5c0 -22 -8.33301 -41.333 -25 -58s-36 -25 -58 -25s-41.167 8.16699 -57.5 24.5s-24.5 35.833 -24.5 58.5z" />
    <glyph glyph-name="u0631" unicode="&#x631;" horiz-adv-x="699" arabic-form="isolated" 
d="M484 -210c0.666992 -32 -10.667 -47.998 -34 -47.998c-31.333 0 -51 23.667 -59 71l15 746l20 98c6 29.333 11.667 45.666 17 48.999c6 0 10 -22.333 12 -67c1.33301 -34.667 3 -69.334 5 -104.001v-27l3 -19l5 -38l4 -166l8 -220zM47.999 -357.998
c-36.667 -49.333 -68.001 -77.666 -94.001 -84.999l-16 -2c-10.667 0 -19 1 -25 3c-8 2 -17 6 -27 12c-21.333 11.333 -32 24 -32 38c0 20 17.333 40.333 52 61c148.667 89.333 265.334 175.333 350.001 258c42 41.333 70.333 62 85 62c7.33301 0 11 -5 11 -15
c0 -20 -21 -54 -63 -102c-13.333 -14.667 -28.333 -29.334 -45 -44.001l-84 -73c-50.667 -44 -88 -81.667 -112 -113z" />
    <glyph glyph-name="u0632" unicode="&#x632;" horiz-adv-x="699" arabic-form="isolated" 
d="M484 -210c0.666992 -32 -10.667 -47.998 -34 -47.998c-31.333 0 -51 23.667 -59 71l15 746l20 98c6 29.333 11.667 45.666 17 48.999c6 0 10 -22.333 12 -67c1.33301 -34.667 3 -69.334 5 -104.001v-27l3 -19l5 -38l4 -166l8 -220zM47.999 -357.998
c-36.667 -49.333 -68.001 -77.666 -94.001 -84.999l-16 -2c-10.667 0 -19 1 -25 3c-8 2 -17 6 -27 12c-21.333 11.333 -32 24 -32 38c0 20 17.333 40.333 52 61c148.667 89.333 265.334 175.333 350.001 258c42 41.333 70.333 62 85 62c7.33301 0 11 -5 11 -15
c0 -20 -21 -54 -63 -102c-13.333 -14.667 -28.333 -29.334 -45 -44.001l-84 -73c-50.667 -44 -88 -81.667 -112 -113zM365.998 902.002c0 22.667 7.99902 42 23.999 58s35.333 24 58 24s42.334 -8 59.001 -24s25 -35.333 25 -58c0 -22 -8.5 -41.333 -25.5 -58
s-36.5 -25 -58.5 -25s-41.167 8.16699 -57.5 24.5s-24.5 35.833 -24.5 58.5z" />
    <glyph glyph-name="u0633" unicode="&#x633;" horiz-adv-x="1918" arabic-form="isolated" 
d="M1697 638c5.33301 -12.667 7.99902 -26 7.99902 -40c0 -21.333 -3.66699 -50.333 -11 -87l-28 -135c-14.667 -70 -23.667 -119.333 -27 -148c-10.667 -79.333 -27 -119 -49 -119c-9.33301 0 -14 27.667 -14 83v25l16 243l-11 143l-2 28c-3.33301 38 8 57 34 57
c6.66699 0 15.334 -1.66699 26.001 -5c28 -9.33301 47.333 -24.333 58 -45zM1682 44c0 -10 -4.8291 -19.832 -14.4961 -29.499s-19.834 -14.5 -30.501 -14.5h-303l-1 -102c-0.666992 -46 -15.334 -72 -44.001 -78c-18.667 0 -32.334 7 -41.001 21c-2.66699 8 -5 16 -7 24
l-1 30l4 105h-258v82l258 5l4 185l-2 121c-0.666992 29.333 -2.33398 51.666 -5.00098 66.999l-4 29l-2 11c0 2 -2 8 -6 18l-35 101c-4.66699 12.667 -7 25 -7 37c0 34.667 19 52 57 52c14.667 0 29.667 -5.66699 45 -17c10.667 -7.33301 19.667 -24.666 27 -51.999
c6 -20 9 -36 9 -48l3 -63l12 -329l-3 -112l301 -5c29.333 -0.666992 44 -13.334 44 -38.001zM1280 -400.999c-3.33301 -31.333 -21.334 -51.335 -54.001 -60.002l-33 -4c-10 0 -20.333 2.66699 -31 8c-14 6.66699 -24 10.667 -30 12c-13.333 1.33301 -33.666 2 -60.999 2
l-13 -115c-6 -49.333 -22.667 -79.333 -50 -90l-9 -2c-18 0 -32 19 -42 57c-6 26 -9 52.333 -9 79l1 48l5 23l-572 7c-54.667 0.666992 -87.667 1.33398 -99 2.00098c-55.333 2.66699 -87 8 -95 16c0 10 43.333 20.667 130 32l107 14
c32.667 4.66699 80.667 7.33398 144 8.00098l400 8c7.33301 43.333 11 84.666 11 123.999c0 84 -13.333 189.333 -40 316c-60 286.667 -102.333 447 -127 481c-16 25.333 -24 45.333 -24 60c0 12 4.33301 22.667 13 32c19.333 20 39 29 59 27h10
c28 -2 50.667 -25.667 68 -71l13 -47l15 -55l17 -81l27 -148l26 -158l14 -108l21 -248l-4 -127l53 2l50 5l44 3h41c8 0.666992 14 -3.66602 18 -12.999c4 -12.667 6 -25.667 6 -39zM658.002 231.999c0 -54 -37 -80.333 -111 -79l-199 3c32 -105.333 52.333 -192 61 -260
l7 -61l3 -58l2 -81l2 -71c-45.333 192.667 -92 336 -140 430c-40 78.667 -60 133.334 -60 164.001c0 7.33301 0.666992 11.666 2 12.999c6.66699 25.333 20.667 38 42 38l153 -16l39 -1h28h16l11 3l96 11c32 0 48 -11.667 48 -35z" />
    <glyph glyph-name="u0634" unicode="&#x634;" horiz-adv-x="1918" arabic-form="isolated" 
d="M1697 638c5.33301 -12.667 7.99902 -26 7.99902 -40c0 -21.333 -3.66699 -50.333 -11 -87l-28 -135c-14.667 -70 -23.667 -119.333 -27 -148c-10.667 -79.333 -27 -119 -49 -119c-9.33301 0 -14 27.667 -14 83v25l16 243l-11 143l-2 28c-3.33301 38 8 57 34 57
c6.66699 0 15.334 -1.66699 26.001 -5c28 -9.33301 47.333 -24.333 58 -45zM1682 44c0 -10 -4.8291 -19.832 -14.4961 -29.499s-19.834 -14.5 -30.501 -14.5h-303l-1 -102c-0.666992 -46 -15.334 -72 -44.001 -78c-18.667 0 -32.334 7 -41.001 21c-2.66699 8 -5 16 -7 24
l-1 30l4 105h-258v82l258 5l4 185l-2 121c-0.666992 29.333 -2.33398 51.666 -5.00098 66.999l-4 29l-2 11c0 2 -2 8 -6 18l-35 101c-4.66699 12.667 -7 25 -7 37c0 34.667 19 52 57 52c14.667 0 29.667 -5.66699 45 -17c10.667 -7.33301 19.667 -24.666 27 -51.999
c6 -20 9 -36 9 -48l3 -63l12 -329l-3 -112l301 -5c29.333 -0.666992 44 -13.334 44 -38.001zM1280 -400.999c-3.33301 -31.333 -21.334 -51.335 -54.001 -60.002l-33 -4c-10 0 -20.333 2.66699 -31 8c-14 6.66699 -24 10.667 -30 12c-13.333 1.33301 -33.666 2 -60.999 2
l-13 -115c-6 -49.333 -22.667 -79.333 -50 -90l-9 -2c-18 0 -32 19 -42 57c-6 26 -9 52.333 -9 79l1 48l5 23l-572 7c-54.667 0.666992 -87.667 1.33398 -99 2.00098c-55.333 2.66699 -87 8 -95 16c0 10 43.333 20.667 130 32l107 14
c32.667 4.66699 80.667 7.33398 144 8.00098l400 8c7.33301 43.333 11 84.666 11 123.999c0 84 -13.333 189.333 -40 316c-60 286.667 -102.333 447 -127 481c-16 25.333 -24 45 -24 59c0 12.667 4.33301 23.667 13 33c19.333 20 39 29 59 27h10
c28 -2 50.667 -25.667 68 -71l13 -47l15 -55l17 -81l27 -148l26 -158l14 -108l21 -248l-4 -127l53 2l50 5l44 3h41c8 0.666992 14 -3.66602 18 -12.999c4 -12.667 6 -25.667 6 -39zM658.002 231.999c0 -54 -37 -80.333 -111 -79l-199 3c32 -105.333 52.333 -192 61 -260
l7 -61l3 -58l2 -81l2 -71c-45.333 192.667 -92 336 -140 430c-40 78.667 -60 133.334 -60 164.001c0 7.33301 0.666992 11.666 2 12.999c6.66699 25.333 20.667 38 42 38l153 -16l39 -1h28h16l11 3l96 11c32 0 48 -11.667 48 -35zM1090 901.999c0 22.667 8.16699 42 24.5 58
s35.833 24 58.5 24c22 0 41.333 -8.33301 58 -25s25 -35.667 25 -57c0 -23.333 -8 -43 -24 -59s-35.667 -24 -59 -24c-24.667 0 -44.667 8.33301 -60 25s-23 36 -23 58zM1256 901.999c0 22.667 8.16699 42 24.5 58s35.833 24 58.5 24c22 0 41.167 -8.33301 57.5 -25
s24.5 -35.667 24.5 -57c0 -23.333 -8 -43 -24 -59s-35.333 -24 -58 -24c-24.667 0 -44.667 8.33301 -60 25s-23 36 -23 58zM1175 1069c0 22.667 8.16699 42.167 24.5 58.5s35.833 24.5 58.5 24.5c22 0 41.167 -8.33301 57.5 -25s24.5 -36 24.5 -58c0 -23.333 -8 -43 -24 -59
s-35.333 -24 -58 -24c-24.667 0 -44.667 8.33301 -60 25s-23 36 -23 58z" />
    <glyph glyph-name="u0635" unicode="&#x635;" horiz-adv-x="1868" arabic-form="isolated" 
d="M1637 136l-19 -2.00098c-13.333 -0.666992 -26 3 -38 11c-8 4.66699 -12 10.334 -12 17.001l4 15c6 10 9.66699 23 11 39v54l-2 93l-2 52l-5 36l-4 47c-1.33301 15.333 1.66699 26.333 9 33c9.33301 4 26.833 -15.5 52.5 -58.5s44.5 -104.833 56.5 -185.5l5 -30l1 -30
c2.66699 -52.667 -16.333 -83 -57 -91zM1703 60.999c2.66699 -6.66699 3.99902 -13.332 3.99902 -19.999c0 -10.667 -7.33301 -21.667 -22 -33c-4.66699 -2.66699 -22.667 -6 -54 -10l-105 -3l-473 5l-68 82c4.66699 14.667 11.334 33.334 20.001 56.001l12 28l15 29
c20 40 42.333 77.333 67 112c52.667 76 109 136 169 180c127.333 95.333 224.333 155 291 179c34 12 63 18 87 18c36.667 0 55 -8 55 -24c0 -6.66699 -6.33301 -16.334 -19 -29.001l-36 -36c-12.667 -15.333 -42 -35 -88 -59l-169 -86
c-102 -52.667 -204.667 -173.334 -308 -362.001l146 1l238 -4c41.333 0 66 2.33301 74 7l29 5l54 1c41.333 1.33301 68.333 -11 81 -37zM1280 -400.999c-3.33301 -31.333 -21.334 -51.335 -54.001 -60.002l-33 -4c-10 0 -20.333 2.66699 -31 8
c-14 6.66699 -24 10.667 -30 12c-13.333 1.33301 -33.666 2 -60.999 2l-13 -115c-6 -49.333 -22.667 -79.333 -50 -90l-9 -2c-18 0 -32 19 -42 57c-6 26 -9 52.333 -9 79l1 48l5 23l-572 7c-54.667 0.666992 -87.667 1.33398 -99 2.00098c-55.333 2.66699 -87 8 -95 16
c0 10 43.333 20.667 130 32l107 14c32.667 4.66699 80.667 7.33398 144 8.00098l400 8c7.33301 43.333 11 84.666 11 123.999c0 84 -13.333 189.333 -40 316c-60 286.667 -102.333 447 -127 481c-16 25.333 -24 45 -24 59c0 12.667 4.33301 23.667 13 33
c19.333 20 39 29 59 27h10c28 -2 50.667 -25.667 68 -71l13 -47l15 -55l17 -81l27 -148l26 -158l14 -108l21 -248l-4 -127l53 2l50 5l44 3h41c8 0.666992 14 -3.66602 18 -12.999c4 -12.667 6 -25.667 6 -39zM657.998 231.999c0 -54 -37 -80.333 -111 -79l-199 3
c32 -105.333 52.333 -192 61 -260l7 -61l3 -58l2 -81l2 -71c-45.333 192.667 -92 336 -140 430c-40 78.667 -60 133.334 -60 164.001c0 7.33301 0.666992 11.666 2 12.999c6.66699 25.333 20.667 38 42 38l153 -16l39 -1h28h16l11 3l96 11c32 0 48 -11.667 48 -35z" />
    <glyph glyph-name="u0636" unicode="&#x636;" horiz-adv-x="1868" arabic-form="isolated" 
d="M1637 136l-19 -2.00098c-13.333 -0.666992 -26 3 -38 11c-8 4.66699 -12 10.334 -12 17.001l4 15c6 10 9.66699 23 11 39v54l-2 93l-2 52l-5 36l-4 47c-1.33301 15.333 1.66699 26.333 9 33c9.33301 4 26.833 -15.5 52.5 -58.5s44.5 -104.833 56.5 -185.5l5 -30l1 -30
c2.66699 -52.667 -16.333 -83 -57 -91zM1703 60.999c2.66699 -6.66699 3.99902 -13.332 3.99902 -19.999c0 -10.667 -7.33301 -21.667 -22 -33c-4.66699 -2.66699 -22.667 -6 -54 -10l-105 -3l-473 5l-68 82c4.66699 14.667 11.334 33.334 20.001 56.001l12 28l15 29
c20 40 42.333 77.333 67 112c52.667 76 109 136 169 180c127.333 95.333 224.333 155 291 179c34 12 63 18 87 18c36.667 0 55 -8 55 -24c0 -6.66699 -6.33301 -16.334 -19 -29.001l-36 -36c-12.667 -15.333 -42 -35 -88 -59l-169 -86
c-102 -52.667 -204.667 -173.334 -308 -362.001l146 1l238 -4c41.333 0 66 2.33301 74 7l29 5l54 1c41.333 1.33301 68.333 -11 81 -37zM1280 -400.999c-3.33301 -31.333 -21.334 -51.335 -54.001 -60.002l-33 -4c-10 0 -20.333 2.66699 -31 8
c-14 6.66699 -24 10.667 -30 12c-13.333 1.33301 -33.666 2 -60.999 2l-13 -115c-6 -49.333 -22.667 -79.333 -50 -90l-9 -2c-18 0 -32 19 -42 57c-6 26 -9 52.333 -9 79l1 48l5 23l-572 7c-54.667 0.666992 -87.667 1.33398 -99 2.00098c-55.333 2.66699 -87 8 -95 16
c0 10 43.333 20.667 130 32l107 14c32.667 4.66699 80.667 7.33398 144 8.00098l400 8c7.33301 43.333 11 84.666 11 123.999c0 84 -13.333 189.333 -40 316c-60 286.667 -102.333 447 -127 481c-16 25.333 -24 45.333 -24 60c0 12 4.33301 22.667 13 32
c19.333 20 39 29 59 27h10c28 -2 50.667 -25.667 68 -71l13 -47l15 -55l17 -81l27 -148l26 -158l14 -108l21 -248l-4 -127l53 2l50 5l44 3h41c8 0.666992 14 -3.66602 18 -12.999c4 -12.667 6 -25.667 6 -39zM657.998 231.999c0 -54 -37 -80.333 -111 -79l-199 3
c32 -105.333 52.333 -192 61 -260l7 -61l3 -58l2 -81l2 -71c-45.333 192.667 -92 336 -140 430c-40 78.667 -60 133.334 -60 164.001c0 7.33301 0.666992 11.666 2 12.999c6.66699 25.333 20.667 38 42 38l153 -16l39 -1h28h16l11 3l96 11c32 0 48 -11.667 48 -35z
M1149 901.999c0 22.667 8 42 24 58s35.667 24 59 24c22.667 0 42.167 -8 58.5 -24s24.5 -35.333 24.5 -58c0 -22 -8.5 -41.333 -25.5 -58s-36.167 -25 -57.5 -25c-22.667 0 -42.167 8.16699 -58.5 24.5s-24.5 35.833 -24.5 58.5z" />
    <glyph glyph-name="u0637" unicode="&#x637;" horiz-adv-x="1292" arabic-form="isolated" 
d="M618 707c0 -114.667 -7.66992 -192 -23.0029 -232c-9.33301 -22 -26.666 -33 -51.999 -33l-23 3c-37.333 7.33301 -54.333 22.666 -51 45.999c0 16 7 65 21 147l7 38l6 45l3 51l1 22c2.66699 90 -19.666 199.333 -66.999 328
c-41.333 110.667 -92.666 210.334 -153.999 299.001c-10.667 16 -17.667 29.333 -21 40l3 3c8.66699 0 34.667 -18.333 78 -55c86 -74 155 -181.333 207 -322c26 -70.667 42.333 -133.667 49 -189l12 -96c2.66699 -24 4 -55.667 4 -95zM1016 136l-20.001 -1.99902
c-13.333 -0.666992 -26 3 -38 11c-7.33301 4.66699 -11.333 10.334 -12 17.001l5 15c6 10 9.66699 23 11 39v54l-2 93l-3 52l-5 36l-4 47c-1.33301 15.333 1.66699 26.333 9 33c9.33301 3.33301 26.833 -15.834 52.5 -57.501s44.834 -103.834 57.501 -186.501l4 -30l2 -30
c2.66699 -52.667 -16.333 -83 -57 -91zM1082 61.001l4.00391 -19.9971c0 -10.667 -7.66699 -21.667 -23 -33c-4.66699 -2.66699 -22.667 -6 -54 -10l-105 -3l-463 6c17.333 -32.667 26 -60 26 -82c0 -22.667 -10 -34 -30 -34c-12 0 -21.333 1 -28 3
c-16.667 3.33301 -37.667 40.666 -63 111.999l-4 82c23.333 72 64.666 147 123.999 225c55.333 72 115.333 132 180 180c127.333 95.333 224.666 155 291.999 179c34 12 62.667 18 86 18c37.333 0 56 -8 56 -24c0 -6.66699 -6.33301 -16.334 -19 -29.001l-36 -36
c-12.667 -15.333 -42.334 -35 -89.001 -59l-168 -86c-102.667 -52.667 -205.334 -173.334 -308.001 -362.001l146 1l183 -2c18 0 52 1.66699 102 5l53 4l57 2c42.667 2 69.667 -10.333 81 -37zM342 82.0039h-26l-11 1c-8.66699 0 -14 0.666992 -16 2l-21 5l-33 6l-23 2
c-41.333 0 -68 -12.333 -80 -37c-3.33301 -6.66699 -5 -13.334 -5 -20.001c0 -10.667 7.66699 -21.667 23 -33c2.66699 -1.33301 8 -2.66602 16 -3.99902l31 -2l59 -1h26c11.333 -0.666992 20.333 -1 27 -1h37z" />
    <glyph glyph-name="u0638" unicode="&#x638;" horiz-adv-x="1292" arabic-form="isolated" 
d="M618 707c0 -114.667 -7.66992 -192 -23.0029 -232c-9.33301 -22 -26.666 -33 -51.999 -33l-23 3c-37.333 7.33301 -54.333 22.666 -51 45.999c0 16 7 65 21 147l7 38l6 45l3 51l1 22c2.66699 90 -19.666 199.333 -66.999 328
c-41.333 110.667 -92.666 210.334 -153.999 299.001c-10.667 16 -17.667 29.333 -21 40l3 3c8.66699 0 34.667 -18.333 78 -55c86 -74 155 -181.333 207 -322c26 -70.667 42.333 -133.667 49 -189l12 -96c2.66699 -24 4 -55.667 4 -95zM1016 136l-20.001 -1.99902
c-13.333 -0.666992 -26 3 -38 11c-7.33301 4.66699 -11.333 10.334 -12 17.001l5 15c6 10 9.66699 23 11 39v54l-2 93l-3 52l-5 36l-4 47c-1.33301 15.333 1.66699 26.333 9 33c9.33301 3.33301 26.833 -15.834 52.5 -57.501s44.834 -103.834 57.501 -186.501l4 -30l2 -30
c2.66699 -52.667 -16.333 -83 -57 -91zM1082 61.001l4.00391 -19.9971c0 -10.667 -7.66699 -21.667 -23 -33c-4.66699 -2.66699 -22.667 -6 -54 -10l-105 -3l-463 6c17.333 -32.667 26 -60 26 -82c0 -22.667 -10 -34 -30 -34c-12 0 -21.333 1 -28 3
c-16.667 3.33301 -37.667 40.666 -63 111.999l-4 82c23.333 72 64.666 147 123.999 225c55.333 72 115.333 132 180 180c127.333 95.333 224.666 155 291.999 179c34 12 62.667 18 86 18c37.333 0 56 -8 56 -24c0 -6.66699 -6.33301 -16.334 -19 -29.001l-36 -36
c-12.667 -15.333 -42.334 -35 -89.001 -59l-168 -86c-102.667 -52.667 -205.334 -173.334 -308.001 -362.001l146 1l183 -2c18 0 52 1.66699 102 5l53 4l57 2c42.667 2 69.667 -10.333 81 -37zM342 82.0039h-26l-11 1c-8.66699 0 -14 0.666992 -16 2l-21 5l-33 6l-23 2
c-41.333 0 -68 -12.333 -80 -37c-3.33301 -6.66699 -5 -13.334 -5 -20.001c0 -10.667 7.66699 -21.667 23 -33c2.66699 -1.33301 8 -2.66602 16 -3.99902l31 -2l59 -1h26c11.333 -0.666992 20.333 -1 27 -1h37zM730 903.004c0 23.333 8 43 24 59s35.667 24 59 24
c22.667 0 42.167 -8.16699 58.5 -24.5s24.5 -35.833 24.5 -58.5c0 -21.333 -8.5 -40.5 -25.5 -57.5s-36.167 -25.5 -57.5 -25.5c-22.667 0 -42.167 8.33301 -58.5 25s-24.5 36 -24.5 58z" />
    <glyph glyph-name="u0639" unicode="&#x639;" horiz-adv-x="1273" arabic-form="isolated" 
d="M1089 629c-16 -40.667 -56 -60.999 -120 -60.999c-115.333 0 -206 8 -272 24l30 -126l32 -126l23 -118l5 -44l2 -39c1.33301 -22 -0.666992 -41 -6 -57c-17.333 90 -71.333 231 -162 423c-31.333 65.333 -47 113.666 -47 144.999c0 12 2.66699 21.333 8 28
c12 18 27 27 45 27c8.66699 0 15.667 -1.33301 21 -4l46 -13l25 -4l23 -1l49 -2l144 -1l14 1l36 3l16 3l23 6l20 3c32.667 0 49 -15 49 -45zM1116 44.001c0 -29.333 -16 -44 -48 -44h-108v82h117c26 0 39 -12.667 39 -38zM1005 82.001v-81.999l-49 1
c-108 1.33301 -211.667 -13.334 -311 -44.001c-165.333 -50.667 -294 -172.334 -386 -365.001c-10.667 -21.333 -18 -33 -22 -35l-2 7c0 10.667 4.33301 36 13 76c22 96.667 55 174 99 232c42 54.667 109.833 103.334 203.5 146.001s245.167 64 454.5 64zM1089 -408.998
c-10 -3.33301 -24.334 -5.00098 -43.001 -5.00098c-26 0 -56 2.66699 -90 8c-61.333 8.66699 -156 13 -284 13c-114 0 -189 -3 -225 -9l-27 -4l-24 -2h-11l-9 2c-16 2 -24 14 -24 36c0 20 16 36 48 48c18.667 6.66699 35.334 10 50.001 10c8 0 14.667 -1 20 -3
c14 -5.33301 48 -7.66602 102 -6.99902l63 1l106 2l246 9c96.667 2 145 -16 145 -54c0 -18.667 -14.333 -33.667 -43 -45z" />
    <glyph glyph-name="u063A" unicode="&#x63a;" horiz-adv-x="1273" arabic-form="isolated" 
d="M1089 629c-16 -40.667 -56 -60.999 -120 -60.999c-115.333 0 -206 8 -272 24l30 -126l32 -126l23 -118l5 -44l2 -39c1.33301 -22 -0.666992 -41 -6 -57c-17.333 90 -71.333 231 -162 423c-31.333 65.333 -47 113.666 -47 144.999c0 12 2.66699 21.333 8 28
c12 18 27 27 45 27c8.66699 0 15.667 -1.33301 21 -4l46 -13l25 -4l23 -1l49 -2l144 -1l14 1l36 3l16 3l23 6l20 3c32.667 0 49 -15 49 -45zM1116 44.001c0 -29.333 -16 -44 -48 -44h-108v82h117c26 0 39 -12.667 39 -38zM1005 82.001v-81.999l-49 1
c-108 1.33301 -211.667 -13.334 -311 -44.001c-165.333 -50.667 -294 -172.334 -386 -365.001c-10.667 -21.333 -18 -33 -22 -35l-2 7c0 10.667 4.33301 36 13 76c22 96.667 55 174 99 232c42 54.667 109.833 103.334 203.5 146.001s245.167 64 454.5 64zM1089 -408.998
c-10 -3.33301 -24.334 -5.00098 -43.001 -5.00098c-26 0 -56 2.66699 -90 8c-61.333 8.66699 -156 13 -284 13c-114 0 -189 -3 -225 -9l-27 -4l-24 -2h-11l-9 2c-16 2 -24 14 -24 36c0 20 16 36 48 48c18.667 6.66699 35.334 10 50.001 10c8 0 14.667 -1 20 -3
c14 -5.33301 48 -7.66602 102 -6.99902l63 1l106 2l246 9c96.667 2 145 -16 145 -54c0 -18.667 -14.333 -33.667 -43 -45zM764.999 902.001c0 22.667 8.16699 42 24.5 58s35.833 24 58.5 24s42.167 -8 58.5 -24s24.5 -35.333 24.5 -58c0 -22 -8.5 -41.333 -25.5 -58
s-36.167 -25 -57.5 -25c-22.667 0 -42.167 8.16699 -58.5 24.5s-24.5 35.833 -24.5 58.5z" />
    <glyph glyph-name="u0641" unicode="&#x641;" horiz-adv-x="1410" arabic-form="isolated" 
d="M940 879c0 -21.333 -8.5 -40.5 -25.5 -57.5s-36.167 -25.5 -57.5 -25.5c-22.667 0 -42.167 8.33301 -58.5 25s-24.5 36 -24.5 58c0 23.333 8.16699 43 24.5 59s35.833 24 58.5 24s42.167 -8.16699 58.5 -24.5s24.5 -35.833 24.5 -58.5zM1169 -41
c-10 0 -22.6689 2.66602 -38.002 7.99902c-37.333 13.333 -67.666 21.666 -90.999 24.999l-47 6l-54 2h-145v82h274c-8.66699 42.667 -13 84 -13 124v24c0 7.33301 0.333008 16 1 26l7 66c5.33301 53.333 8 92.333 8 117v30l-1 16c0 12.667 -2.66699 27.334 -8 44.001
s-12 32.667 -20 48c-15.333 28 -22 49.333 -20 64c2.66699 25.333 16.667 44.666 42 57.999c10 6 20.667 9 32 9c16.667 0 34.334 -6 53.001 -18c26 -15.333 39 -32 39 -50l-3 -14l-3 -14l-1 -17l-1 -33v-34l2 -62c0.666992 -30.667 -6 -74.667 -20 -132
c-14.667 -59.333 -22 -103.666 -22 -132.999c0 -56 19.667 -114 59 -174c7.33301 -11.333 11 -21.666 11 -30.999c0 -24.667 -13.667 -37 -41 -37zM1158 628.999c-15.333 -40.667 -55.332 -61 -119.999 -61c-145.333 0 -251 8 -317 24
c43.333 -181.333 157 -338.333 341 -471c-82.667 0 -171.334 52.333 -266.001 157c-62.667 70 -113 145.667 -151 227c-31.333 66 -47 114.333 -47 145c0 12 2.66699 21.333 8 28c12 18 27 27 45 27c8.66699 0 15.667 -1.33301 21 -4l46 -13l25 -4l23 -1l56 -2h196l36 3
l16 3l23 6l20 3c32.667 0 49 -15 49 -45zM967.999 83.999c2.66699 -5.33301 4 -11.668 4 -19.001c0 -43.333 -59 -65 -177 -65c-182 0 -329.333 -9 -442 -27c-12 -48 -25 -72 -39 -72c-9.33301 0 -23.333 26 -42 78l-39 -1c-38.667 -2 -59 3.33301 -61 16
c0 13.333 32.333 31.333 97 54l2 284l-3 88c-2 42.667 -3.66699 70.334 -5 83.001c-4.66699 42 -12.667 67.833 -24 77.5s-17 24.167 -17 43.5c0 32.667 13.667 57 41 73c16.667 9.33301 32 14 46 14l13 -1l16 -4c28.667 -10 41.667 -80.333 39 -211l-9 -429
c40.667 14.667 113.667 21 219 19l355 -4c8 0 16.667 1 26 3z" />
    <glyph glyph-name="u0642" unicode="&#x642;" horiz-adv-x="1284" arabic-form="isolated" 
d="M1210 -401c-3.33301 -31.333 -21.334 -51.334 -54.001 -60.001l-32 -4c-15.333 0 -26.666 3 -33.999 9c-4.66699 4.66699 -16.667 9 -36 13l-13 -115c-6 -49.333 -22.667 -79.333 -50 -90l-10 -2c-18 0 -31.667 19 -41 57c-6.66699 26 -9.66699 52.333 -9 79l1 48l5 23
l-220 2l-307 5c-56.667 0.666992 -89.667 1.33398 -99 2.00098c-55.333 2.66699 -87 8 -95 16c0 9.33301 43.333 20 130 32l105 14c32 4.66699 77.333 7.33398 136 8.00098l365 8c8 47.333 11.667 88.666 11 123.999l-2 93l-4 157l-14 467c-0.666992 27.333 -10 58 -28 92
c-14.667 28 -21.334 49.333 -20.001 64c2.66699 25.333 16.667 44.666 42 57.999c10.667 6 21.334 9 32.001 9c16.667 0 34.667 -6 54 -18c25.333 -15.333 38 -32 38 -50l-2 -14l-9 -75v-50l-4 -104v-363l6 -131l3 -135l-4 -127l29 1l33 4l40 5h33
c8 0.666992 14.333 -3.66602 19 -12.999c3.33301 -12.667 5 -25.667 5 -39zM894.999 878.999c0 -21.333 -8.5 -40.5 -25.5 -57.5s-36.167 -25.5 -57.5 -25.5c-22.667 0 -42.167 8.33301 -58.5 25s-24.5 36 -24.5 58c0 23.333 8.16699 43 24.5 59s35.833 24 58.5 24
s42.167 -8.16699 58.5 -24.5s24.5 -35.833 24.5 -58.5zM706.999 878.999c0 -21.333 -8.5 -40.5 -25.5 -57.5s-36.167 -25.5 -57.5 -25.5c-22.667 0 -42.167 8.33301 -58.5 25s-24.5 36 -24.5 58c0 23.333 8 43 24 59s35.667 24 59 24c22.667 0 42.167 -8.16699 58.5 -24.5
s24.5 -35.833 24.5 -58.5zM1031 628.999c-15.333 -40.667 -55.334 -61 -120.001 -61c-145.333 0 -250.666 8 -315.999 24c43.333 -181.333 157 -338.333 341 -471c-83.333 0 -172.333 52.333 -267 157c-62.667 70 -113 145.667 -151 227c-30.667 66 -46 114.333 -46 145
c0 12 2.33301 21.333 7 28c12 18 27 27 45 27c9.33301 0 16.333 -1.33301 21 -4l47 -13l24 -4l23 -1l57 -2h195l36 3l16 3l23 6l20 3c32.667 0 49 -15 49 -45zM657.998 90.999c0 -53.333 -37 -79.333 -111 -78l-199 3l34 -161l17 -73l18 -44c4 -10 6 -47.667 6 -113
c-18 80 -41.333 141.667 -70 185l-70 105c-40 78.667 -60 133.334 -60 164.001c0 7.33301 0.666992 11.666 2 12.999c6.66699 25.333 20.667 38 42 38l153 -16l39 -2l28 1h16l11 3l96 11c32 0 48 -12 48 -36z" />
    <glyph glyph-name="u0643" unicode="&#x643;" horiz-adv-x="1574" arabic-form="isolated" 
d="M1143 0c-66 -4 -153.67 -4.33301 -263.003 -1c-132 4 -219.333 5.66699 -262 5l-85 -1l-19 -3c-55.333 -0 -106 -3.66699 -152 -11c-35.333 -6 -63.666 -13.333 -84.999 -22c-12.667 -5.33301 -24.667 -8 -36 -8c-28 0 -42 12.333 -42 37c0 9.33301 4 19.666 12 30.999
l18 41c16 38.667 24 72.334 24 101.001c0 6 -5.33301 39.333 -16 100l-12 66c-4 20.667 -5.66699 41.667 -5 63l4 100c1.33301 27.333 -1 50 -7 68l-3 14c0 16.667 13 33.334 39 50.001c17.333 12 35 18 53 18c12.667 0 23.334 -3 32.001 -9
c4 -1.33301 14.333 -1.66602 31 -0.999023c10 0 16 -5.66699 18 -17c3.33301 -19.333 -5.66699 -54 -27 -104l-20 -48c-5.33301 -18.667 -7.66602 -33.667 -6.99902 -45l1 -32v-22l3 -30l3 -43l22 -157l-7 -22c-2 -0.666992 -6.33301 -12 -13 -34l90 -3h428
c10.667 -0.666992 26.667 -2 48 -4c12 -1.33301 28.333 -4.33301 49 -9c14 2 45 1.66699 93 -1l117 -6l98 9l1 98l3 67c2.66699 54.667 0 109.667 -8 165l-88 -2l-228 -3l-410 -17c-22 -0.666992 -33 13.333 -33 42c0 27.333 12 46.666 36 57.999
c18.667 9.33301 47 13 85 11l76 -4l138 -3l67 -3l348 8c0 39.333 18.333 59 55 59c35.333 0 53 -19.667 53 -59l19 2c31.333 2.66699 49.333 -12 54 -44l1 -4v-4c0 -26.667 -24.667 -40 -74 -40l3 -306c48 0 72 -16 72 -48c0 -26.667 -17.667 -40 -53 -40h-9l-13 1
c0 -39.333 -11.333 -59 -34 -59l-11 1c-27.333 3.33301 -44.333 23.666 -51 60.999zM1303 826c-148 0 -282.002 -17.002 -402.002 -51.002c-115.333 -32.667 -221.666 -90.667 -318.999 -174c-50.667 -43.333 -82.334 -65 -95.001 -65l-6 8c0 8.66699 7 25.334 21 50.001
c58 98 132 171 222 219c80.667 42 182.334 69.333 305.001 82l139 14l163 6c24.667 0.666992 44.834 -3.66602 60.501 -12.999s23.5 -20 23.5 -32c0 -13.333 -9.16699 -24 -27.5 -32s-46.5 -12 -84.5 -12z" />
    <glyph glyph-name="u0644" unicode="&#x644;" horiz-adv-x="1298" arabic-form="isolated" 
d="M1235 -176c-3.33301 -31.333 -21.3301 -51.333 -53.9971 -60l-33 -4c-15.333 0 -26.333 3.33301 -33 10l-8 10l-21 2h-15l-13 -115c-6 -49.333 -22.667 -79.666 -50 -90.999l-9 -1c-18 0 -32 19 -42 57c-6 26 -9 52.333 -9 79l1 48l5 23
c-73.333 0 -151.333 -17.667 -234 -53c-44.667 -19.333 -112.334 -54.666 -203.001 -105.999c-70 -39.333 -115 -59 -135 -59c-118 0 -182.667 6 -194 18c0 7.33301 43.333 18 130 32c29.333 4.66699 83.333 29 162 73c91.333 52 168.333 91.667 231 119
c96 42 182 63 258 63c7.33301 43.333 11 84.666 11 123.999c0 116.667 -34.667 377 -104 781c-2 11.333 -28 125.666 -78 342.999c-44.667 196.667 -67 307 -67 331c0 12 4.33301 22.333 13 31c19.333 20 39 29.333 59 28l10 -1c27.333 -2 49.666 -25.333 66.999 -70l14 -48
l15 -54c34 -126 70 -339.333 108 -640c40.667 -328.667 59 -562.334 55 -701.001l-4 -127h33c2 0.666992 3.66699 1 5 1c7.33301 0 18.666 1.66699 33.999 5l38 4h33c8 0.666992 14 -3.66602 18 -12.999c4 -12.667 6 -25.667 6 -39zM658.003 232c0 -54 -37 -80.333 -111 -79
l-199 3c32 -105.333 52.333 -192 61 -260l7 -61l3 -58l2 -81l2 -71c-45.333 192.667 -92 336 -140 430c-40 78.667 -60 133.334 -60 164.001c0 7.33301 0.666992 11.666 2 12.999c6.66699 25.333 20.667 38 42 38l153 -16l39 -1h28h16l11 3l96 11c32 0 48 -11.667 48 -35z
" />
    <glyph glyph-name="u0645" unicode="&#x645;" horiz-adv-x="1121" arabic-form="isolated" 
d="M412 523c-38.667 0 -57.998 18.667 -57.998 56c0 34.667 19.333 52 58 52l-1 19c-2.66699 31.333 11.666 49.666 42.999 54.999h5h4c26 0 39 -24.667 39 -74l306 3c0 48 16 72 48 72c27.333 0 41 -17.333 41 -52v-10l-2 -13c40 0 60 -11 60 -33l-1 -12
c-4 -26.667 -24.667 -43.667 -62 -51l2 -53c0.666992 -13.333 3.33398 -25.666 8.00098 -36.999c4 -15.333 5.33301 -31.333 4 -48l-6 -146c-0.666992 -24.667 -5.33398 -44 -14.001 -58s-21.334 -25.667 -38.001 -35l-22 -5c-19.333 0 -28 13.333 -26 40l5 82l2 78l1 182
l-55 2l-89 4c-55.333 2 -110.333 -1 -165 -9v-52l2 -17l13 -116l3 -48v-15l-6 -55l-2 -49c-2 -48 -17.333 -72 -46 -72c-33.333 0 -49.333 11.333 -48 34l4 136zM981.002 79c0 -52.667 -37.001 -79 -111.001 -79c-14 -0 -102 14.333 -264 43c-170 30 -268.667 45 -296 45
c32 -105.333 52.333 -192 61 -260l8 -61l3 -58l1 -82l2 -70c-44.667 192.667 -91 336 -139 430c-40 78.667 -60 133.334 -60 164.001c0 7.33301 0.333008 11.666 1 12.999c7.33301 25.333 21.333 38 42 38l111 -12l255 -48c140.667 -26 221.334 -39 242.001 -39l96 11
c32 0 48 -11.667 48 -35z" />
    <glyph glyph-name="u0646" unicode="&#x646;" horiz-adv-x="1298" arabic-form="isolated" 
d="M1235 -176c-3.33301 -31.333 -21.333 -51.3379 -54 -60.0049l-33 -4c-15.333 0 -26.333 3.33301 -33 10l-8 10l-21 2h-15l-13 -115c-6 -49.333 -22.667 -79.666 -50 -90.999l-9 -1c-18 0 -32 19 -42 57c-6 26 -9 52.333 -9 79l1 48l5 23
c-73.333 0 -151.333 -17.667 -234 -53c-44.667 -19.333 -112.334 -54.666 -203.001 -105.999c-70 -39.333 -115 -59 -135 -59c-118 0 -182.667 6 -194 18c0 7.33301 43.333 18 130 32c29.333 4.66699 83.333 29 162 73c91.333 52 168.333 91.667 231 119
c96 42 182 63 258 63c7.33301 43.333 11 84.666 11 123.999c0 29.333 -1.33301 63.333 -4 102c-2.66699 49.333 -4 77 -4 83c-0.666992 18.667 -3.66699 49.334 -9 92.001l-18 104c-3.33301 18.667 -17.666 65 -42.999 139c-22 64.667 -33 109.334 -33 134.001
c0 12.667 4.33301 23.334 13 32.001c18.667 20 38.334 29.333 59.001 28l10 -1c25.333 -2 44.333 -17.333 57 -46l22 -52l10 -34l7 -40l15 -173l2 -51l1 -71l7 -246l-4 -127h33c2 0.666992 3.66699 1 5 1c7.33301 0 18.666 1.66699 33.999 5l38 4h33
c8 0.666992 14 -3.66602 18 -12.999c4 -12.667 6 -25.667 6 -39zM658 231.995c0 -54 -37 -80.333 -111 -79l-199 3c32 -105.333 52.333 -192 61 -260l7 -61l3 -58l2 -81l2 -71c-45.333 192.667 -92 336 -140 430c-40 78.667 -60 133.334 -60 164.001
c0 7.33301 0.666992 11.666 2 12.999c6.66699 25.333 20.667 38 42 38l153 -16l39 -1h28h16l11 3l96 11c32 0 48 -11.667 48 -35zM497 623.995c0 22.667 8 42 24 58s35.667 24 59 24c22.667 0 42.167 -8 58.5 -24s24.5 -35.333 24.5 -58c0 -22 -8.5 -41.333 -25.5 -58
s-36.167 -25 -57.5 -25c-22.667 0 -42.167 8.16699 -58.5 24.5s-24.5 35.833 -24.5 58.5z" />
    <glyph glyph-name="u0647" unicode="&#x647;" horiz-adv-x="1029" arabic-form="isolated" 
d="M788 1c-34 0 -62.001 13.666 -84.001 40.999l-9 47l-8 52l-5 47l-1 42c-0.666992 10.667 0 24.667 2 42c2 21.333 3 36 3 44l1 24v22l3 19l1 35l-2 69c-0.666992 28 -10 58.667 -28 92c-14.667 28 -21.334 49.333 -20.001 64c2.66699 25.333 16.667 44.666 42 57.999
c10.667 6 21.334 9 32.001 9c16.667 0 34.334 -6 53.001 -18c26 -15.333 39 -32 39 -50l-3 -14l-3 -14l-1 -17l-1 -33v-34l2 -65l-1 -27l-1 -16c0 -7.33301 -1 -13.666 -3 -18.999l-4 -28c-2 -10.667 -5 -23 -9 -37c-10.667 -62 -16 -100.667 -16 -116
c0 -50.667 17 -101 51 -151c7.33301 -11.333 11 -21.666 11 -30.999c0 -24.667 -13.667 -37 -41 -37zM776.999 507.999c-15.333 -40.667 -55.332 -61.001 -119.999 -61.001c-145.333 0 -251 8 -317 24c44 -181.333 157.667 -338.333 341 -471
c-82.667 0 -171.334 52.333 -266.001 157c-62.667 70.667 -113 146.334 -151 227.001c-31.333 66 -47 114.333 -47 145c0 12 2.66699 21.667 8 29c12 17.333 27 26 45 26c8.66699 0 15.667 -1.33301 21 -4l46 -12l25 -4l23 -2l57 -1h195l36 2l16 3l23 7l20 3
c32.667 0 49 -15.333 49 -46z" />
    <glyph glyph-name="u0648" unicode="&#x648;" horiz-adv-x="1385" arabic-form="isolated" 
d="M355 -342c148 0 281.999 17.002 401.999 51.002c116 32.667 222.667 90.667 320 174c50.667 43.333 82.334 65 95.001 65l6 -7c0 -8.66699 -7.33301 -25.334 -22 -50.001c-57.333 -98.667 -131.333 -171.667 -222 -219c-80.667 -42.667 -182 -70.334 -304 -83.001
l-140 -13l-39 -2l-124 -4c-56 -2.66699 -84 14.333 -84 51c0 24.667 37.333 37 112 37zM405.999 -2.99805c0 -38.667 -18.3359 -58.001 -55.0029 -58.001c-35.333 0 -53 19.333 -53 58l-18 -1c-31.333 -2.66699 -49.666 11.666 -54.999 42.999l-1 4v4
c0 26.667 24.667 40 74 40l-3 306l-11 -1c-27.333 -2 -43.666 12.667 -48.999 44c0 14.667 5 26.667 15 36c4 2.66699 10 4.66699 18 6l30 2c0 40 11.333 60 34 60l11 -2c27.333 -3.33301 44.333 -23.666 51 -60.999l192 3l243 7l105 1l102 4c11.333 27.333 24 41 38 41
l10 -2c15.333 -7.33301 26.333 -20.333 33 -39c21.333 -17.333 32 -34 32 -50c0 -10 -10.667 -23.333 -32 -40c-6 -48 -9 -95.333 -9 -142v-43c0 -11.333 1 -28 3 -50c0.666992 -10.667 2.33398 -27 5.00098 -49c0.666992 -4.66699 3 -16 7 -34
c25.333 -9.33301 38 -22 38 -38c0 -13.333 -11.667 -24.666 -35 -33.999c0 -28 -15 -42 -45 -42c-14.667 0 -26.667 10 -36 30l-91 1l-165 4l-111 -4zM1033 408.001l-193 3l-144 -4l-169 -7l-136 -4l3 -303h645z" />
    <glyph glyph-name="u0649" unicode="&#x649;" horiz-adv-x="1326" arabic-form="isolated" 
d="M1102 232l2.00195 -12.998c0 -30.667 -20 -85.334 -60 -164.001c-46.667 -90.667 -93.334 -234 -140.001 -430c0 202 25 379 75 531l-199 -3c-42.667 -0.666992 -73.334 9.66602 -92.001 30.999c-12.667 16 -19 32 -19 48c0 23.333 16 35 48 35h23l18 -3l80 -11h30
c17.333 -0.666992 44.333 1 81 5l111 12c17.333 0 31.333 -12.667 42 -38zM1126 -424.998c-28.667 -6 -88.9961 -9.66895 -180.996 -11.002l-479 -7l4 -37l2 -34c0.666992 -26 -2.33301 -52.333 -9 -79c-9.33301 -38 -23 -57 -41 -57c-30 0 -48.333 24.333 -55 73l-18 134
c-49.333 0 -79.333 -4.33301 -90 -13c-6.66699 -6.66699 -17.334 -9.66699 -32.001 -9l-15 1c-6.66699 0 -12.334 1 -17.001 3c-34 6 -52 26 -54 60l-1 14c-0.666992 12.667 1.16602 22.334 5.49902 29.001s10.833 9.66699 19.5 9l79 -1l12 -3h23
c12.667 0 21 -0.666992 25 -2l48 -4l-2 64c0 6.66699 -0.333008 14.667 -1 24c-1.33301 12 -3.33301 27.667 -6 47l-20 136l-9 42c-34 156.667 -63.667 254.334 -89 293.001c-15.333 23.333 -23 43 -23 59c0 12.667 4 23.334 12 32.001c19.333 20 39.333 29.333 60 28l9 -1
c28 -2 50.667 -25.333 68 -70l13 -48l15 -54c14 -50.667 27.667 -146 41 -286c12 -127.333 22.333 -215 31 -263l124 -2l208 -6c27.333 0 68.333 -2 123 -6l103 -16c83.333 -12.667 126.666 -23.334 129.999 -32.001l-5 -3zM935.006 621c36.667 49.333 68 77.666 94 84.999
l17 2c15.333 0 32.333 -5 51 -15c22 -11.333 33 -24 33 -38c0 -19.333 -17.667 -39.333 -53 -60c-148.667 -89.333 -265.667 -175.666 -351 -258.999c-42 -41.333 -70 -62 -84 -62c-7.33301 0 -11 5 -11 15c0 20 21 54 63 102c12.667 15.333 55.667 54.333 129 117
c50.667 44 88 81.667 112 113z" />
    <glyph glyph-name="u064A" unicode="&#x64a;" horiz-adv-x="1326" arabic-form="isolated" 
d="M1102 232l2.00195 -12.998c0 -30.667 -20 -85.334 -60 -164.001c-46.667 -90.667 -93.334 -234 -140.001 -430c0 202 25 379 75 531l-199 -3c-42.667 -0.666992 -73.334 9.66602 -92.001 30.999c-12.667 16 -19 32 -19 48c0 23.333 16 35 48 35h23l18 -3l80 -11h30
c17.333 -0.666992 44.333 1 81 5l111 12c17.333 0 31.333 -12.667 42 -38zM1126 -424.998c-28.667 -6 -88.9961 -9.66797 -180.996 -11.001l-479 -7l4 -37l2 -34c0.666992 -26 -2.33301 -52.333 -9 -79c-9.33301 -38 -23 -57 -41 -57c-30 0 -48.333 24.333 -55 73l-18 134
c-49.333 0 -79.333 -4.33301 -90 -13c-6.66699 -6.66699 -17.334 -9.66699 -32.001 -9l-15 1c-6.66699 0 -12.334 1 -17.001 3c-34 6 -52 26 -54 60l-1 14c-0.666992 12.667 1.16602 22.334 5.49902 29.001s10.833 9.66699 19.5 9l79 -1l12 -3h23
c12.667 0 21 -0.666992 25 -2l48 -4l-2 64c0 6.66699 -0.333008 14.667 -1 24c-1.33301 12 -3.33301 27.667 -6 47l-20 136l-9 42c-34 156.667 -63.667 254.334 -89 293.001c-15.333 23.333 -23 43.333 -23 60c0 12 4 22.333 12 31c19.333 20 39.333 29.333 60 28l9 -1
c28 -2 50.667 -25.333 68 -70l13 -48l15 -54c14 -50.667 27.667 -146 41 -286c12 -127.333 22.333 -215 31 -263l124 -2l208 -6c27.333 0 68.333 -2 123 -6l103 -16c83.333 -12.667 126.666 -23.334 129.999 -32.001l-5 -3zM935.006 621.001
c36.667 49.333 68 77.666 94 84.999l17 2c15.333 0 32.333 -5 51 -15c22 -11.333 33 -24 33 -38c0 -19.333 -17.667 -39.333 -53 -60c-148.667 -89.333 -265.667 -175.666 -351 -258.999c-42 -41.333 -70 -62 -84 -62c-7.33301 0 -11 5 -11 15c0 20 21 54 63 102
c12.667 15.333 55.667 54.333 129 117c50.667 44 88 81.667 112 113z" />
    <glyph glyph-name="u067E" unicode="&#x67e;" horiz-adv-x="1271" arabic-form="isolated" 
d="M957 -27c-139.333 22 -252.335 32.334 -339.002 31.001l-85 -1l-19 -3c-55.333 0 -106 -3.66699 -152 -11c-35.333 -6 -63.666 -13.333 -84.999 -22c-12.667 -5.33301 -24.667 -8 -36 -8c-28 0 -42 12.333 -42 37c0 9.33301 4 19.666 12 30.999
c32.667 75.333 49 136.333 49 183c0 6 -5.33301 39.333 -16 100l-12 66c-4 20.667 -5.66699 41.667 -5 63l2 60l3 60c1.33301 26 -1 48.667 -7 68l-2 14c0 16.667 12.667 33.334 38 50.001c17.333 11.333 35 17 53 17c12.667 0 23.334 -2.66699 32.001 -8
c23.333 -10 37.333 -29.333 42 -58c2 -8 -4.66699 -29.667 -20 -65l-20 -47c-5.33301 -19.333 -8 -34 -8 -44l1 -75l3 -31l2 -43l23 -156l-7 -23c-4 -13.333 -10.667 -38 -20 -74l90 -3h428c17.333 -0.666992 44.666 -5.66699 81.999 -15l-9 429
c-3.33301 131.333 9.66699 201.666 39 210.999c8.66699 3.33301 18.334 5 29.001 5c16.667 0 33 -5.66699 49 -17c25.333 -16.667 38 -40 38 -70c0 -17.333 -5.5 -31.5 -16.5 -42.5s-18.167 -29.167 -21.5 -54.5l-6 -47l-6 -188l3 -244c64.667 -21.333 97 -39.333 97 -54
c0 -10.667 -20.333 -16 -61 -16h-14l-25 1c-16 -52 -30 -78 -42 -78c-11.333 0 -24.333 24 -39 72zM804.998 -222.999c0 -22.667 -8.16699 -41.999 -24.5 -57.999s-35.833 -24 -58.5 -24c-21.333 0 -40.5 8.33301 -57.5 25s-25.5 35.667 -25.5 57c0 22 8.5 41.5 25.5 58.5
s36.167 25.5 57.5 25.5c24.667 0 44.667 -8.33301 60 -25s23 -36.334 23 -59.001zM638.998 -222.998c0 -22.667 -8 -41.999 -24 -57.999s-35.667 -24 -59 -24c-21.333 0 -40.333 8.33301 -57 25s-25 35.667 -25 57c0 22 8.33301 41.5 25 58.5s35.667 25.5 57 25.5
c24.667 0 44.667 -8.33301 60 -25s23 -36.334 23 -59.001zM719.998 -389.997c0 -22.667 -8 -42 -24 -58s-35.667 -24 -59 -24c-21.333 0 -40.333 8.33301 -57 25s-25 35.667 -25 57s8.33301 40.5 25 57.5s35.667 25.5 57 25.5c24.667 0 44.667 -8.33301 60 -25
s23 -36 23 -58z" />
    <glyph glyph-name="u0686" unicode="&#x686;" horiz-adv-x="1391" arabic-form="isolated" 
d="M996 0c0 -38.667 18.6699 -58.001 56.0029 -58.001c34.667 0 52 19.333 52 58l19 -1c31.333 -2.66699 49.666 11.666 54.999 42.999l1 4v4c0 26.667 -25 40 -75 40l3 306c48 0 72 16 72 48c0 26.667 -17.333 40 -52 40c-13.333 0 -21 -0.333008 -23 -1
c0 40 -11 60 -33 60l-12 -2c-26.667 -3.33301 -43.667 -23.666 -51 -60.999l-120 2l-225 8l-143 -3l-151 1c-82.667 0.666992 -125.334 -12.666 -128.001 -39.999c0 -22.667 12.167 -38.5 36.5 -47.5s72.166 -13.167 143.499 -12.5l587 8l3 -77l3 -67
c2 -54.667 -1 -109.667 -9 -165c-338.667 0 -560 -74 -664 -222c-39.333 -56.667 -73.333 -142.334 -102 -257.001c-8.66699 -36.667 -13 -62 -13 -76v-5l2 -2l6 8l16 27c99.333 216 231 348.333 395 397c102.667 30.667 203.667 45.334 303 44.001zM394.003 -507.001
l-27 -4.00098l-24 -2h-10l-10 2c-16 2 -24 14 -24 36c0 20 16 36 48 48c18.667 6.66699 35.334 10 50.001 10c8.66699 0 15.667 -1 21 -3c13.333 -5.33301 47.333 -7.66602 102 -6.99902l63 1l105 2l246 9c97.333 2 146 -16 146 -54c0 -18.667 -14.333 -33.667 -43 -45
c-10.667 -3.33301 -25.334 -5 -44.001 -5c-26 0 -56 2.66699 -90 8c-60.667 8.66699 -155 13 -283 13c-114.667 0 -190 -3 -226 -9zM933.003 -155.002c0 -23.333 -8.16895 -43 -24.502 -59s-36.166 -24 -59.499 -24c-21.333 0 -40.333 8.5 -57 25.5s-25 36.167 -25 57.5
s8.33301 40.5 25 57.5s35.667 25.5 57 25.5c24.667 0 44.834 -8.33301 60.501 -25s23.5 -36 23.5 -58zM767.001 -155.002c0 -23.333 -8.16699 -43 -24.5 -59s-35.833 -24 -58.5 -24c-22 0 -41.333 8.5 -58 25.5s-25 36.167 -25 57.5s8.5 40.5 25.5 57.5
s36.167 25.5 57.5 25.5c24.667 0 44.667 -8.33301 60 -25s23 -36 23 -58zM848.001 -322.002c0 -23.333 -8.16699 -43 -24.5 -59s-35.833 -24 -58.5 -24c-22 0 -41.333 8.33301 -58 25s-25 36 -25 58c0 21.333 8.33301 40.5 25 57.5s36 25.5 58 25.5
c24.667 0 44.667 -8.33301 60 -25s23 -36 23 -58z" />
    <glyph glyph-name="u0698" unicode="&#x698;" horiz-adv-x="699" arabic-form="isolated" 
d="M484 -210c0.666992 -32 -10.667 -47.998 -34 -47.998c-31.333 0 -51 23.667 -59 71l15 746l20 98c6 29.333 11.667 45.666 17 48.999c6 0 10 -22.333 12 -67c1.33301 -34.667 3 -69.334 5 -104.001v-27l3 -19l5 -38l4 -166l8 -220zM47.999 -357.998
c-36.667 -49.333 -68.001 -77.666 -94.001 -84.999l-16 -2c-10.667 0 -19 1 -25 3c-8 2 -17 6 -27 12c-21.333 11.333 -32 24 -32 38c0 20 17.333 40.333 52 61c148.667 89.333 265.334 175.333 350.001 258c42 41.333 70.333 62 85 62c7.33301 0 11 -5 11 -15
c0 -20 -21 -54 -63 -102c-13.333 -14.667 -28.333 -29.334 -45 -44.001l-84 -73c-50.667 -44 -88 -81.667 -112 -113zM272.998 917.002c0 22.667 8.16699 42 24.5 58s35.833 24 58.5 24c22 0 41.333 -8.33301 58 -25s25 -35.667 25 -57c0 -23.333 -8 -43 -24 -59
s-35.667 -24 -59 -24c-24.667 0 -44.667 8.33301 -60 25s-23 36 -23 58zM438.998 917.002c0 22.667 8 42 24 58s35.667 24 59 24c21.333 0 40.333 -8.33301 57 -25s25 -35.667 25 -57c0 -23.333 -8 -43 -24 -59s-35.333 -24 -58 -24c-24.667 0 -44.667 8.33301 -60 25
s-23 36 -23 58zM357.998 1084c0 22.667 8 42.167 24 58.5s35.667 24.5 59 24.5c21.333 0 40.333 -8.33301 57 -25s25 -36 25 -58c0 -23.333 -8 -43 -24 -59s-35.333 -24 -58 -24c-24.667 0 -44.667 8.33301 -60 25s-23 36 -23 58z" />
    <glyph glyph-name="u06AF" unicode="&#x6af;" horiz-adv-x="1574" arabic-form="isolated" 
d="M1143 0c-66 -4 -153.67 -4.33301 -263.003 -1c-132 4 -219.333 5.66699 -262 5l-85 -1l-19 -3c-55.333 -0 -106 -3.66699 -152 -11c-35.333 -6 -63.666 -13.333 -84.999 -22c-12.667 -5.33301 -24.667 -8 -36 -8c-28 0 -42 12.333 -42 37c0 9.33301 4 19.666 12 30.999
l18 41c16 38.667 24 72.334 24 101.001c0 6 -5.33301 39.333 -16 100l-12 66c-4 20.667 -5.66699 41.667 -5 63l4 100c1.33301 27.333 -1 50 -7 68l-3 14c0 16.667 13 33.334 39 50.001c17.333 12 35 18 53 18c12.667 0 23.334 -3 32.001 -9
c4 -1.33301 14.333 -1.66602 31 -0.999023c10 0 16 -5.66699 18 -17c3.33301 -19.333 -5.66699 -54 -27 -104l-20 -48c-5.33301 -18.667 -7.66602 -33.667 -6.99902 -45l1 -32v-22l3 -30l3 -43l22 -157l-7 -22c-2 -0.666992 -6.33301 -12 -13 -34l90 -3h428
c10.667 -0.666992 26.667 -2 48 -4c12 -1.33301 28.333 -4.33301 49 -9c14 2 45 1.66699 93 -1l117 -6l98 9l1 98l3 67c2.66699 54.667 0 109.667 -8 165l-88 -2l-228 -3l-410 -17c-22 -0.666992 -33 13.333 -33 42c0 27.333 12 46.666 36 57.999
c18.667 9.33301 47 13 85 11l76 -4l138 -3l67 -3l348 8c0 39.333 18.333 59 55 59c35.333 0 53 -19.667 53 -59l19 2c31.333 2.66699 49.333 -12 54 -44l1 -4v-4c0 -26.667 -24.667 -40 -74 -40l3 -306c48 0 72 -16 72 -48c0 -26.667 -17.667 -40 -53 -40h-9l-13 1
c0 -39.333 -11.333 -59 -34 -59l-11 1c-27.333 3.33301 -44.333 23.666 -51 60.999zM1303 826c-148 0 -282.002 -17.002 -402.002 -51.002c-115.333 -32.667 -221.666 -90.667 -318.999 -174c-50.667 -43.333 -82.334 -65 -95.001 -65l-6 8c0 8.66699 7 25.334 21 50.001
c58 98 132 171 222 219c80.667 42 182.334 69.333 305.001 82l139 14l163 6c24.667 0.666992 44.834 -3.66602 60.501 -12.999s23.5 -20 23.5 -32c0 -13.333 -9.16699 -24 -27.5 -32s-46.5 -12 -84.5 -12zM1189 1005c0 -9.33301 -6.5 -16.833 -19.5 -22.5
s-32.833 -8.5 -59.5 -8.5c-214 0 -382 -52.333 -504 -157c-36 -30.667 -58.333 -46 -67 -46l-4 5c0 6.66699 5 18.667 15 36c40 68.667 91.667 119.667 155 153c56.667 29.333 127.667 48.666 213 57.999l98 9l114 4c17.333 0.666992 31.5 -2.16602 42.5 -8.49902
s16.5 -13.833 16.5 -22.5z" />
    <glyph glyph-name="uFB57" unicode="&#x67e;" horiz-adv-x="1271" arabic-form="final" 
d="M1294 0h-258v82h258v-82zM1068 -41c-10.667 0 -24 2.99609 -40 8.99609c-27.333 10 -53.666 16.667 -78.999 20l-73 9l-184 7l-160 -8c-40.667 -2 -74.334 -5 -101.001 -9l-78 -14c-12 -48 -25 -72 -39 -72c-9.33301 0 -23.333 26 -42 78l-39 -1
c-38.667 -2 -59 3.33301 -61 16c0 13.333 32.333 31.333 97 54l2 284l-3 88c-2 42.667 -3.66699 70.334 -5 83.001c-4.66699 42 -12.667 67.833 -24 77.5s-17 24.167 -17 43.5c0 32.667 13.667 57 41 73c16.667 9.33301 32 14 46 14l13 -1l16 -4
c28.667 -10 41.667 -80.333 39 -211l-9 -429c40.667 14.667 113.667 21 219 19l355 -4c8 0 16.667 1 26 3c-1.33301 6 -6.33301 23 -15 51c-8 24.667 -12 40 -12 46l9 63l12 90l3 47l4 105c0.666992 10.667 -1.66602 24.834 -6.99902 42.501s-12 33.834 -20 48.501
c-15.333 28.667 -22.333 50.334 -21 65.001c2.66699 25.333 16.667 44.666 42 57.999c10.667 5.33301 21.667 8 33 8c16 0 33.667 -5.66699 53 -17c25.333 -15.333 38 -32 38 -50l-2 -14l-5 -31l-3 -37l3 -60l3 -60c1.33301 -28 -4.33398 -71.667 -17.001 -131l-12 -58
c-2.66699 -14 -4 -27.333 -4 -40c0 -49.333 16 -110.333 48 -183c6.66699 -11.333 10.667 -21.666 12 -30.999c0 -24.667 -14 -37 -42 -37zM805 -230.004c0 -22.667 -8.16699 -42.167 -24.5 -58.5s-35.833 -24.5 -58.5 -24.5c-21.333 0 -40.5 8.5 -57.5 25.5
s-25.5 36.167 -25.5 57.5s8.5 40.5 25.5 57.5s36.167 25.5 57.5 25.5c24.667 0 44.667 -8.33301 60 -25s23 -36 23 -58zM639 -230.004c0 -22.667 -8 -42.167 -24 -58.5s-35.667 -24.5 -59 -24.5c-21.333 0 -40.333 8.5 -57 25.5s-25 36.167 -25 57.5s8.33301 40.5 25 57.5
s35.667 25.5 57 25.5c24.667 0 44.667 -8.33301 60 -25s23 -36 23 -58zM720 -397.004c0 -23.333 -8 -43 -24 -59s-35.667 -24 -59 -24c-21.333 0 -40.333 8.33301 -57 25s-25 36 -25 58c0 21.333 8.33301 40.5 25 57.5s35.667 25.5 57 25.5c24.667 0 44.667 -8.33301 60 -25
s23 -36 23 -58z" />
    <glyph glyph-name="uFB58" unicode="&#x67e;" horiz-adv-x="604" arabic-form="initial" 
d="M352 -41c-9.33301 0 -21.667 2.66699 -37 8c-38 13.333 -68.667 21.666 -92 24.999l-47 6l-53 2h-145v82h274c-9.33301 42.667 -14 84 -14 124v24c0 7.33301 0.666992 16 2 26l7 66c5.33301 53.333 8 92.333 8 117v30l-2 16c0 12.667 -2.5 27.334 -7.5 44.001
s-11.5 32.667 -19.5 48c-15.333 28 -22.333 49.333 -21 64c3.33301 25.333 17.333 44.666 42 57.999c10.667 6 21.667 9 33 9c16 0 33.667 -6 53 -18c25.333 -15.333 38 -32 38 -50l-2 -14l-3 -14l-2 -17v-33v-34l1 -62c1.33301 -30.667 -5 -74.667 -19 -132
c-14.667 -59.333 -22 -103.666 -22 -132.999c0 -54.667 19.333 -112.667 58 -174c6.66699 -10 10.667 -20.333 12 -31c0 -24.667 -14 -37 -42 -37zM362.999 -230c0 -22.667 -8.16699 -42.167 -24.5 -58.5s-35.833 -24.5 -58.5 -24.5c-22 0 -41.333 8.5 -58 25.5
s-25 36.167 -25 57.5s8.33301 40.5 25 57.5s36 25.5 58 25.5c24.667 0 44.667 -8.33301 60 -25s23 -36 23 -58zM196.999 -230c0 -22.667 -8.16699 -42.167 -24.5 -58.5s-35.833 -24.5 -58.5 -24.5c-21.333 0 -40.5 8.5 -57.5 25.5s-25.5 36.167 -25.5 57.5
s8.5 40.5 25.5 57.5s36.167 25.5 57.5 25.5c24.667 0 44.667 -8.33301 60 -25s23 -36 23 -58zM277.999 -397c0 -23.333 -8.16699 -43 -24.5 -59s-35.833 -24 -58.5 -24c-21.333 0 -40.5 8.33301 -57.5 25s-25.5 36 -25.5 58c0 21.333 8.5 40.5 25.5 57.5
s36.167 25.5 57.5 25.5c24.667 0 44.667 -8.33301 60 -25s23 -36 23 -58z" />
    <glyph glyph-name="uFB59" unicode="&#x67e;" horiz-adv-x="607" arabic-form="medial" 
d="M-22 0v82l56 1l90 8c108.667 8.66699 168.667 12.667 180 12l121 -11c8 0 23.667 -0.333008 47 -1l39 -2l119 -7v-82h-652zM364 199l1.99902 -19.999c1.33301 -17.333 -4.66699 -34.666 -18 -51.999s-29 -26 -47 -26c-9.33301 0 -19.333 3.66699 -30 11
c-24 16 -39.333 56 -46 120l-3 29l-1 35c-1.33301 72 7.66699 144 27 216c35.333 130.667 69 196 101 196l10 -3c5.33301 -0.666992 8 -5.66699 8 -15c0 -4.66699 -0.666992 -8.66699 -2 -12l-4 -13c-3.33301 -9.33301 -8.66602 -21 -15.999 -35
c-22.667 -42.667 -34 -126.334 -34 -251.001c0 -58 2.66699 -96.333 8 -115c10.667 -12.667 25.667 -34.334 45 -65.001zM422.999 -222.999c0 -22.667 -8.16699 -41.999 -24.5 -57.999s-35.833 -24 -58.5 -24c-22 0 -41.333 8.33301 -58 25s-25 35.667 -25 57
c0 22 8.33301 41.5 25 58.5s36 25.5 58 25.5c24.667 0 44.667 -8.33301 60 -25s23 -36.334 23 -59.001zM256.999 -222.998c0 -22.667 -8.16699 -41.999 -24.5 -57.999s-35.833 -24 -58.5 -24c-21.333 0 -40.5 8.33301 -57.5 25s-25.5 35.667 -25.5 57
c0 22 8.5 41.5 25.5 58.5s36.167 25.5 57.5 25.5c24.667 0 44.667 -8.33301 60 -25s23 -36.334 23 -59.001zM337.999 -389.997c0 -22.667 -8.16699 -42 -24.5 -58s-35.833 -24 -58.5 -24c-21.333 0 -40.5 8.33301 -57.5 25s-25.5 35.667 -25.5 57s8.5 40.5 25.5 57.5
s36.167 25.5 57.5 25.5c24.667 0 44.667 -8.33301 60 -25s23 -36 23 -58z" />
    <glyph glyph-name="uFB7B" unicode="&#x686;" horiz-adv-x="1332" arabic-form="final" 
d="M1355 0h-251v82h251v-82zM1179 444c0 -32 -23.9971 -48 -71.9971 -48l-3 -306c49.333 0 74 -16 74 -48c-4 -28.667 -22.333 -43 -55 -43h-9l-10 1c0 -38.667 -17.333 -58 -52 -58c-37.333 0 -56 19.333 -56 58l-48 1c-103.333 1.33301 -204.333 -13.334 -303 -44.001
c-160.667 -49.333 -292.334 -181.666 -395.001 -396.999c-10.667 -21.333 -18 -33 -22 -35l-2 7c0 10.667 4.33301 36 13 76c26.667 117.333 62.667 205 108 263c113.333 144 332.666 216 657.999 216l6 78l3 87l-2 52l-4 92l-204 -2l-383 -6
c-74.667 -0.666992 -122.667 3.33301 -144 12c-24 10 -36 26 -36 48c0 27.333 42.667 40.666 128 39.999l151 -1l143 3l176 -5c15.333 0 38.666 -0.333008 69.999 -1l99 -4c3.33301 32.667 20.333 53 51 61l12 2c22 0 33 -20 33 -60l23 1
c34.667 2.66699 52 -10.666 52 -39.999zM1044 -514c-10 -3.33301 -24.334 -5.00098 -43.001 -5.00098c-26 0 -56 2.66699 -90 8c-61.333 8.66699 -156 13 -284 13c-114 0 -189 -3 -225 -9l-27 -4l-24 -2h-11l-9 2c-16 2 -24 14 -24 36c0 20 16 36 48 48
c18.667 6.66699 35.334 10 50.001 10c8 0 14.667 -1 20 -3c14 -5.33301 48 -7.66602 102 -6.99902l63 1l106 2l246 9c96.667 2 145 -16 145 -54c0 -18.667 -14.333 -33.667 -43 -45zM948.002 -155.001c0 -23.333 -8.16895 -43 -24.502 -59s-36.166 -24 -59.499 -24
c-21.333 0 -40.333 8.5 -57 25.5s-25 36.167 -25 57.5s8.33301 40.5 25 57.5s35.667 25.5 57 25.5c24.667 0 44.834 -8.33301 60.501 -25s23.5 -36 23.5 -58zM782 -155.001c0 -22.667 -8.16699 -42.167 -24.5 -58.5s-35.833 -24.5 -58.5 -24.5c-22 0 -41.333 8.5 -58 25.5
s-25 36.167 -25 57.5s8.5 40.5 25.5 57.5s36.167 25.5 57.5 25.5c24.667 0 44.667 -8.33301 60 -25s23 -36 23 -58zM863 -322.001c0 -23.333 -8.16699 -43 -24.5 -59s-35.833 -24 -58.5 -24c-22 0 -41.333 8.33301 -58 25s-25 36 -25 58c0 21.333 8.33301 40.5 25 57.5
s36 25.5 58 25.5c24.667 0 44.667 -8.33301 60 -25s23 -36 23 -58z" />
    <glyph glyph-name="uFB7C" unicode="&#x686;" horiz-adv-x="1168" arabic-form="initial" 
d="M685 0h-707.001v82l649 15l-209 363c-45.333 78.667 -77.333 116.334 -96 113.001c-16.667 -3.33301 -25 -39 -25 -107v-202c-9.33301 12.667 -16.333 30.667 -21 54c-5.33301 -13.333 -8 -25 -8 -35c0 -14 2.66699 -28.333 8 -43c-34 79.333 -51 173.666 -51 282.999
c0 114 18 174 54 180l31 2c20.667 2 40.834 -2.66699 60.501 -14s61.167 -69.333 124.5 -174l123 -204l55 -102l65 -114l130 3c41.333 1.33301 68.333 -10.667 81 -36l2 -9l3 -11c0 -13.333 -9 -23 -27 -29l-18 -10l-37 -3l-65 -1l-21 -1c70 -153.333 105 -248 105 -284
c0 -6 -2 -9.33301 -6 -10c-7.33301 0 -26.333 24 -57 72zM594.999 -223c0 -22.667 -8.16699 -41.999 -24.5 -57.999s-35.833 -24 -58.5 -24c-21.333 0 -40.333 8.33301 -57 25s-25 35.667 -25 57c0 22 8.33301 41.5 25 58.5s35.667 25.5 57 25.5
c24.667 0 44.667 -8.33301 60 -25s23 -36.334 23 -59.001zM429.999 -222.999c0 -22.667 -8.16895 -41.999 -24.502 -57.999s-36.166 -24 -59.499 -24c-21.333 0 -40.333 8.33301 -57 25s-25 35.667 -25 57c0 22 8.33301 41.5 25 58.5s35.667 25.5 57 25.5
c24.667 0 44.834 -8.33301 60.501 -25s23.5 -36.334 23.5 -59.001zM510.997 -389.998c0 -22.667 -8.16895 -42 -24.502 -58s-36.166 -24 -59.499 -24c-21.333 0 -40.333 8.33301 -57 25s-25 35.667 -25 57s8.33301 40.5 25 57.5s35.667 25.5 57 25.5
c24.667 0 44.834 -8.33301 60.501 -25s23.5 -36 23.5 -58z" />
    <glyph glyph-name="uFB7D" unicode="&#x686;" horiz-adv-x="960" arabic-form="medial" 
d="M685 0h-707v82l649 15l-209 363c-45.333 78.667 -77.333 116.334 -96 113.001c-16.667 -3.33301 -25 -39 -25 -107v-202c-9.33301 12.667 -16.333 30.667 -21 54c-5.33301 -13.333 -8 -25 -8 -35c0 -14 2.66699 -28.333 8 -43c-34 79.333 -51 173.666 -51 282.999
c0 114 18 174 54 180l31 2c20.667 2 40.834 -2.66699 60.501 -14s61.167 -69.333 124.5 -174l123 -204l55 -102l65 -114c107.333 -10 189.666 -15 246.999 -15v-82h-199c70 -153.333 105 -248 105 -284c0 -6 -2 -9.33301 -6 -10c-7.33301 0 -26.333 24 -57 72zM573 -223
c0 -22.667 -8.16699 -41.999 -24.5 -57.999s-35.833 -24 -58.5 -24c-22 0 -41.333 8.33301 -58 25s-25 35.667 -25 57c0 22 8.33301 41.5 25 58.5s36 25.5 58 25.5c24.667 0 44.667 -8.33301 60 -25s23 -36.334 23 -59.001zM407 -222.999
c0 -22.667 -8.16699 -41.999 -24.5 -57.999s-35.833 -24 -58.5 -24c-21.333 0 -40.5 8.33301 -57.5 25s-25.5 35.667 -25.5 57c0 22 8.5 41.5 25.5 58.5s36.167 25.5 57.5 25.5c24.667 0 44.667 -8.33301 60 -25s23 -36.334 23 -59.001zM488 -389.998
c0 -22.667 -8.16699 -42 -24.5 -58s-35.833 -24 -58.5 -24c-21.333 0 -40.5 8.33301 -57.5 25s-25.5 35.667 -25.5 57s8.5 40.5 25.5 57.5s36.167 25.5 57.5 25.5c24.667 0 44.667 -8.33301 60 -25s23 -36 23 -58z" />
    <glyph glyph-name="uFB8B" unicode="&#x698;" horiz-adv-x="699" arabic-form="final" 
d="M474 0l2 -132.998l2 -42l3 -19l3 -16l3 -17c0 -20.667 -12.333 -31 -37 -31c-31.333 0 -51 23.667 -59 71l15 746l20 98c6 29.333 11.667 45.666 17 48.999c6 0 10 -22.333 12 -67c1.33301 -34.667 3 -69.334 5 -104.001v-27l3 -19l5 -38l6 -369h247v-82h-247z
M48 -357.998c-36.667 -49.333 -68.001 -77.666 -94.001 -84.999l-16 -2c-10.667 0 -19 1 -25 3c-8 2 -17 6 -27 12c-21.333 11.333 -32 24 -32 38c0 20 17.333 40.333 52 61c148.667 89.333 265.334 175.333 350.001 258c42 41.333 70.333 62 85 62c7.33301 0 11 -5 11 -15
c0 -20 -21 -54 -63 -102c-13.333 -14.667 -28.333 -29.334 -45 -44.001l-84 -73c-50.667 -44 -88 -81.667 -112 -113zM272.999 902.002c0 22.667 8.16699 42 24.5 58s35.833 24 58.5 24c22 0 41.333 -8.33301 58 -25s25 -35.667 25 -57c0 -23.333 -8 -43 -24 -59
s-35.667 -24 -59 -24c-24.667 0 -44.667 8.33301 -60 25s-23 36 -23 58zM438.999 902.002c0 22.667 8 42 24 58s35.667 24 59 24c21.333 0 40.333 -8.33301 57 -25s25 -35.667 25 -57c0 -23.333 -8 -43 -24 -59s-35.333 -24 -58 -24c-24.667 0 -44.667 8.33301 -60 25
s-23 36 -23 58zM357.999 1069c0 22.667 8 42.167 24 58.5s35.667 24.5 59 24.5c21.333 0 40.333 -8.33301 57 -25s25 -36 25 -58c0 -23.333 -8 -43 -24 -59s-35.333 -24 -58 -24c-24.667 0 -44.667 8.33301 -60 25s-23 36 -23 58z" />
    <glyph glyph-name="uFEDA" unicode="&#x6a9;" horiz-adv-x="1586" arabic-form="final" 
d="M1295 0l-278 0.00390625c-1.33301 -4.66699 -17.666 -6.33398 -48.999 -5.00098c-54.667 8.66699 -171.334 11.667 -350.001 9l-85 -1l-19 -3c-55.333 0 -106 -3.66699 -152 -11c-35.333 -6 -63.666 -13.333 -84.999 -22c-12.667 -5.33301 -24.667 -8 -36 -8
c-28 0 -42 12.333 -42 37c0 9.33301 4 19.666 12 30.999c30 68.667 45 120.667 45 156c0 16 -3.33301 41.667 -10 77l-12 66c-4 20.667 -5.66699 41.667 -5 63l3 60l3 60c1.33301 26.667 -1.33398 49.334 -8.00098 68.001l-2 15c0 16 12.667 32.667 38 50
c17.333 11.333 35 17 53 17c12.667 0 23.667 -2.66699 33 -8c22.667 -10.667 36.667 -30.334 42 -59.001c1.33301 -8 -5.66699 -29.333 -21 -64l-20 -47c-5.33301 -19.333 -7.66602 -34.333 -6.99902 -45v-75l3 -30l3 -43l11 -44l9 -63l-7 -23
c-4 -13.333 -10.667 -38 -20 -74l90 -3h428c10.667 -0.666992 26.667 -2 48 -4c14 0 32.333 -1.66699 55 -5c0 5.33301 112.667 8 338 8l6 155c2 54.667 -1 109.667 -9 165l-88 -2l-228 -3l-409 -17c-22 -0.666992 -33 13.333 -33 42c0 27.333 12 46.666 36 57.999
c18 9.33301 46 13 84 11l77 -4l137 -3l68 -3l347 8c0 39.333 18.667 59 56 59c34.667 0 52 -19.667 52 -59l19 2c31.333 2.66699 49.666 -12 54.999 -44l1 -4v-4c0 -26.667 -25 -40 -75 -40l3 -306c48 0 72 -16 72 -48c0 -26.667 -17.333 -40 -52 -40h-10l-13 1
c0 -39.333 -11 -59 -33 -59l-12 1c-26.667 3.33301 -43.667 23.666 -51 60.999zM1340 826.004c-147.333 0 -281 -17.002 -401 -51.002c-116 -32.667 -222.667 -90.667 -320 -174c-50.667 -43.333 -82.334 -65 -95.001 -65l-6 8c0 8.66699 7.33301 25.334 22 50.001
c57.333 98 131.333 171 222 219c80.667 42 182 69.333 304 82l139 14l164 6c24.667 0.666992 44.834 -3.66602 60.501 -12.999s23.5 -20 23.5 -32c0 -13.333 -9.33301 -24 -28 -32s-47 -12 -85 -12zM1645 0.00195312h-248l3 91l245 -9v-82z" />
    <glyph glyph-name="uFEDB" unicode="&#x6a9;" horiz-adv-x="1307" arabic-form="initial" 
d="M1026 826c-148 0 -282 -17.002 -402 -51.002c-116 -32.667 -222.667 -90.667 -320 -174c-50.667 -43.333 -82.334 -65 -95.001 -65l-6 8c0 8.66699 7.33301 25.334 22 50.001c57.333 98 131.333 171 222 219c80.667 42 182 69.333 304 82l140 14l163 6
c24.667 0.666992 44.834 -3.66602 60.501 -12.999s23.5 -20 23.5 -32c0 -13.333 -9.16699 -24 -27.5 -32s-46.5 -12 -84.5 -12zM975 486.998c0 39.333 18.334 59.002 55.001 59.002c35.333 0 53 -19.667 53 -59l18 2c31.333 2.66699 49.666 -12 54.999 -44l1 -4v-4
c0 -26.667 -24.667 -40 -74 -40l3 -306c48 0 72 -16 72 -48c0 -26.667 -17.667 -40 -53 -40h-10l-12 1c0 -39.333 -11.333 -59 -34 -59l-11 1c-27.333 3.33301 -44.333 23.666 -51 60.999l-121 -2l-128 -5l-96 -2l-144 2h-520v82l220 9l193 3l104 3l492 -6l2 77l3 67
c2 54.667 -0.666992 109.667 -8 165l-89 -2l-228 -3l-409 -17c-22 -0.666992 -33 13.333 -33 42c0 27.333 12 46.666 36 57.999c18.667 9.33301 47 13 85 11l76 -4l137 -3l68 -3z" />
    <glyph glyph-name="uFEDC" unicode="&#x6a9;" horiz-adv-x="1307" arabic-form="medial" 
d="M1138 870c0 -13.333 -9.16699 -24.002 -27.5 -32.002s-46.5 -12 -84.5 -12c-148 0 -282 -17 -402 -51c-116 -32.667 -222.667 -90.667 -320 -174c-50.667 -43.333 -82.334 -65 -95.001 -65l-6 8c0 8.66699 7.33301 25.334 22 50.001c57.333 98 131.333 171 222 219
c80.667 42 182 69.333 304 82l140 14l163 6c24.667 0.666992 44.834 -3.66602 60.501 -12.999s23.5 -20 23.5 -32zM1330 -0.00195312h-247l3 82h244v-82zM1158 38.998c0 -12 -5.99902 -21.666 -17.999 -28.999c-14.667 -6.66699 -33.667 -10 -57 -10
c0 -36.667 -11 -55 -33 -55l-12 1c-28 6 -45 26.333 -51 61l-121 -2l-128 -5l-96 -2l-144 2h-520v82l220 9l193 3l104 3l492 -6l2 77l3 67c2 54.667 -0.666992 109.667 -8 165l-89 -2l-228 -3l-409 -17c-22 -0.666992 -33 13.333 -33 42c0 27.333 12 46.666 36 57.999
c18.667 9.33301 47 13 85 11l76 -4l137 -3l68 -3l348 8c0 39.333 18.333 59 55 59c35.333 0 53 -19.667 53 -59l18 2c31.333 2.66699 49.666 -12 54.999 -44l1 -4v-4c0 -26.667 -24.667 -40 -74 -40l3 -315c48 0 72 -14.333 72 -43z" />
    </font>
</defs>
</svg>
