<?xml version="1.0" standalone="no"?>
<!DOCTYPE svg PUBLIC "-//W3C//DTD SVG 1.1//EN" "http://www.w3.org/Graphics/SVG/1.1/DTD/svg11.dtd" >
<svg>
<metadata>
Created by FontForge 20090914 at Wed Oct 19 00:54:28 2011
 By www-data
(c) by Abolfazl Seilsepour - +98 912 591 3420  -  seilsepor@yahoo.com
</metadata>
<defs>
<font id="FarBarik" horiz-adv-x="166" >
  <font-face 
    font-family="Far.Barik"
    font-weight="300"
    font-stretch="normal"
    units-per-em="2048"
    panose-1="2 7 3 3 5 2 9 6 5 4"
    ascent="1638"
    descent="-410"
    bbox="-211 -1095 1607 2182"
    underline-thickness="80"
    underline-position="-1060"
    unicode-range="U+0020-U+FEFC"
  />
<missing-glyph horiz-adv-x="848" 
d="M0 0v1343h768v-1343h-768zM128 128h512v1087h-512v-1087z" />
    <glyph glyph-name=".notdef" unicode="&#x652;&#x64d;" horiz-adv-x="848" 
d="M0 0v1343h768v-1343h-768zM128 128h512v1087h-512v-1087z" />
    <glyph glyph-name="copyright" unicode="&#x652;&#x64b;" horiz-adv-x="1816" 
d="M862 1495c125.333 0 247.5 -32 366.5 -96s211.833 -155.5 278.5 -274.5s100 -243.167 100 -372.5s-32.833 -253.333 -98.5 -372s-157.667 -210.5 -276 -275.5s-241.833 -97.5 -370.5 -97.5c-129.333 0 -252.833 32.5 -370.5 97.5s-209.5 156.833 -275.5 275.5
s-99 242.667 -99 372s33.5 253.5 100.5 372.5s160 210.5 279 274.5s240.833 96 365.5 96zM862 1431c-114 0 -225.169 -29.333 -333.502 -88s-193.166 -142.334 -254.499 -251.001s-92 -222 -92 -340s30 -230.833 90 -338.5s144 -191.667 252 -252s220.667 -90.5 338 -90.5
s230 30.167 338 90.5s192.167 144.333 252.5 252s90.5 220.5 90.5 338.5s-30.667 231.333 -92 340s-146.166 192.334 -254.499 251.001s-219.833 88 -334.5 88zM1230 1230l22 -293.999h-41c-26 83.333 -66.167 145.5 -120.5 186.5s-120.166 61.5 -197.499 61.5
c-58 0 -109.333 -12 -154 -36s-81.334 -55.667 -110.001 -95c-21.333 -30.667 -39 -71 -53 -121s-21 -102 -21 -156c0 -148.667 32 -258.167 96 -328.5s148 -105.5 252 -105.5c136 0 245 56.667 327 170l39 -20c-97.333 -142 -231 -213 -401 -213
c-140.667 0 -257 45.333 -349 136s-138 200.667 -138 330c0 134 49 248.333 147 343s223 142 375 142c33.333 0 60.333 -2 81 -6s59 -15 115 -33c16.667 -6 29 -9 37 -9c11.333 0 21 3.16699 29 9.5s16 19.166 24 38.499h41z" />
    <glyph glyph-name="uniE818" unicode="&#x651;&#x64b;" horiz-adv-x="0" 
 />
    <glyph glyph-name="uniFC5E" unicode="&#x651;&#x64c;" horiz-adv-x="0" arabic-form="isolated" 
 />
    <glyph glyph-name="uniFC5F" unicode="&#x651;&#x64d;" horiz-adv-x="0" arabic-form="isolated" 
 />
    <glyph glyph-name="uniFC60" unicode="&#x651;&#x64e;" horiz-adv-x="0" arabic-form="isolated" 
 />
    <glyph glyph-name="uniFC61" unicode="&#x651;&#x64f;" horiz-adv-x="0" arabic-form="isolated" 
 />
    <glyph glyph-name="uniFC62" unicode="&#x651;&#x650;" horiz-adv-x="0" arabic-form="isolated" 
 />
    <glyph glyph-name="uniFD3E" unicode="&#x652;&#x64e;" horiz-adv-x="911" 
d="M805 242c-37.333 -42.667 -61.333 -79 -72 -109c-6 -17.333 -8.66699 -42.333 -8 -75c2.66699 -19.333 12 -101.666 28 -246.999l-244 299c-86.667 107.333 -146.667 230 -180 368c-69.333 0 -145.666 -7.33301 -228.999 -22c71.333 52.667 131.666 104.667 180.999 156
c16 17.333 29.667 34.666 41 51.999c-14 10 -24.333 20.333 -31 31c-21.333 -14.667 -38.666 -28.334 -51.999 -41.001c-49.333 -47.333 -101.333 -107.666 -156 -180.999c15.333 86 23 165 23 237v148c0 72.667 -7.66699 152 -23 238c54.667 -73.333 106.667 -134 156 -182
c13.333 -12.667 30.666 -26 51.999 -40c9.33301 12 20 22.667 32 32c-12.667 18.667 -26.667 36 -42 52c-49.333 50.667 -109.666 102.667 -180.999 156c86 -15.333 162.333 -23 229 -23c33.333 138 93.333 260.333 180 367l244 301c-10 -72.667 -19.333 -155 -28 -247
c-0.666992 -33.333 2 -58.666 8 -75.999c10.667 -29.333 34.667 -66 72 -110c-84.667 0 -144 -12.333 -178 -37c-44 -30 -84.667 -96 -122 -198c59.333 0 132 7.66699 218 23c-73.333 -54.667 -134 -106.667 -182 -156l-42 -52c12 -9.33301 23 -20 33 -32
c22 16 39.667 29.333 53 40c48 46 100 106.667 156 182c-14.667 -82.667 -22 -162 -22 -238v-148c0 -74.667 7.33301 -153.667 22 -237c-54.667 73.333 -106.667 133.666 -156 180.999c-15.333 13.333 -33 27 -53 41c-8.66699 -12 -19.667 -22.333 -33 -31
c13.333 -18 27.333 -35.333 42 -52c48 -49.333 108.667 -101.333 182 -156c-82.667 14.667 -155.334 22 -218.001 22c37.333 -102.667 78 -168.667 122 -198c34 -25.333 93.333 -38 178 -38zM521 785c0 29.333 -10.834 54.833 -32.501 76.5s-47.167 32.5 -76.5 32.5
c-30 0 -56 -10.833 -78 -32.5s-33 -47.167 -33 -76.5c0 -30 10.833 -55.667 32.5 -77s47.834 -32 78.501 -32c29.333 0 54.833 10.667 76.5 32s32.5 47 32.5 77z" />
    <glyph glyph-name="uniFDF2" unicode="&#xfedf;&#xfee0;&#xfeea;" horiz-adv-x="666" arabic-form="isolated" 
d="M170 1048c0 21.333 -11.668 32 -35.001 32s-34.666 -10.667 -33.999 -32v-915c0 -25.333 11.5 -38 34.5 -38s34.5 12.667 34.5 38v915zM595.999 162c-1.33301 -107.333 -44.332 -161 -128.999 -161v-1c-31.333 2 -58.666 11.667 -81.999 29
c-20.667 -18.667 -48.334 -28 -83.001 -28v-1c-32.667 0 -59.334 8 -80.001 24c-21.333 -16 -51 -24 -89 -24c-88.667 0 -133 43 -133 129v919c0 87.333 46 130.666 138 129.999c84.667 0.666992 127 -42.666 127 -129.999v-874h1c0 -48.667 12 -73 36 -73
c22 0 33 21.333 33 64v1629c0 36.667 15.667 55 47 55c33.333 0 50 -18.333 50 -55v-1662c0 -20.667 11.667 -31 35 -31c21.333 0 32.333 20 33 60v1635c0 34 16 51 48 51s48 -17 48 -51v-1634z" />
    <glyph glyph-name="uniFEF5" unicode="&#xfedf;&#xfe82;" horiz-adv-x="400" arabic-form="isolated" 
d="M330 1797v-1607c0 -53.333 -17.667 -98.666 -53 -135.999c-36 -36 -70 -54 -102 -54h-134c-27.333 0.666992 -41 16 -41 46c0 31.333 13.667 47.333 41 48h62v1486c-0.666992 27.333 13.833 40.833 43.5 40.5s44.5 -13.833 44.5 -40.5v-1473
c28.667 28.667 43 56.334 43 83.001v1607c0 30.667 16 46 48 46s48 -15.333 48 -46zM115 1943c14 12.667 31.666 18.667 52.999 18c20 -1.33301 36 -8.33301 48 -21c12.667 -13.333 13.834 -24 3.50098 -32s-18.5 -9 -24.5 -3c-8.66699 8.66699 -18.5 14.167 -29.5 16.5
s-23.833 -3.5 -38.5 -17.5c-16 -14 -33.667 -20.333 -53 -19s-35.333 9 -48 23c-12 12 -13.167 22.167 -3.5 30.5s18.5 8.83301 26.5 1.5c6.66699 -7.33301 15.5 -12.333 26.5 -15s24.167 3.33301 39.5 18z" />
    <glyph glyph-name="uniFEF6" unicode="&#xfee0;&#xfe82;" horiz-adv-x="366" arabic-form="final" 
d="M268 45c-32.667 -30 -63.667 -45.001 -93 -45.001h-134c-27.333 0.666992 -41 16 -41 46c0 31.333 13.667 47.333 41 48h62v1486c-0.666992 27.333 13.833 40.833 43.5 40.5s44.5 -13.833 44.5 -40.5v-1473c28.667 28.667 43 56.334 43 83.001v1607c0 30.667 16 46 48 46
s48 -15.333 48 -46v-1612c0 -56 12 -84 36 -84v-101c-43.333 0 -76 15 -98 45zM115 1943c14 12.667 31.666 18.667 52.999 18c20 -1.33301 36 -8.33301 48 -21c12.667 -13.333 13.834 -24 3.50098 -32s-18.5 -9 -24.5 -3c-8.66699 8.66699 -18.5 14.167 -29.5 16.5
s-23.833 -3.5 -38.5 -17.5c-16 -14 -33.667 -20.333 -53 -19s-35.333 9 -48 23c-12 12 -13.167 22.167 -3.5 30.5s18.5 8.83301 26.5 1.5c6.66699 -7.33301 15.5 -12.333 26.5 -15s24.167 3.33301 39.5 18z" />
    <glyph glyph-name="uniFEF7" unicode="&#xfedf;&#xfe84;" horiz-adv-x="400" arabic-form="isolated" 
d="M330 1797v-1607c0 -53.333 -17.667 -98.666 -53 -135.999c-36 -36 -70 -54 -102 -54h-134c-27.333 0.666992 -41 16 -41 46c0 31.333 13.667 47.333 41 48h62v1486c-0.666992 27.333 13.833 40.833 43.5 40.5s44.5 -13.833 44.5 -40.5v-1473
c28.667 28.667 43 56.334 43 83.001v1607c0 30.667 16 46 48 46s48 -15.333 48 -46zM39 1706c-10 0 -15.0029 4.49902 -15.0029 13.499s5 13.5 15 13.5h61v236c-1.33301 14.667 3.33398 27.167 14.001 37.5s23.334 15.5 38.001 15.5s26.834 -5 36.501 -15
s15.5 -21.667 17.5 -35c0 -11.333 -5 -17 -15 -17c-8 0 -12.667 3 -14 9c0 21.333 -8.33301 32 -25 32c-17.333 0 -26 -9 -26 -27v-236h65c10 0 15 -4.66699 15 -14s-5 -13.666 -15 -12.999h-152z" />
    <glyph glyph-name="uniFEF8" unicode="&#xfee0;&#xfe84;" horiz-adv-x="366" arabic-form="final" 
d="M268 45c-32.667 -30 -63.667 -45.001 -93 -45.001h-134c-27.333 0.666992 -41 16 -41 46c0 31.333 13.667 47.333 41 48h62v1486c-0.666992 27.333 13.833 40.833 43.5 40.5s44.5 -13.833 44.5 -40.5v-1473c28.667 28.667 43 56.334 43 83.001v1607c0 30.667 16 46 48 46
s48 -15.333 48 -46v-1612c0 -56 12 -84 36 -84v-101c-43.333 0 -76 15 -98 45zM39 1706c-10 0 -15.0029 4.49902 -15.0029 13.499s5 13.5 15 13.5h61v236c-1.33301 14.667 3.33398 27.167 14.001 37.5s23.334 15.5 38.001 15.5s26.834 -5 36.501 -15s15.5 -21.667 17.5 -35
c0 -11.333 -5 -17 -15 -17c-8 0 -12.667 3 -14 9c0 21.333 -8.33301 32 -25 32c-17.333 0 -26 -9 -26 -27v-236h65c10 0 15 -4.66699 15 -14s-5 -13.666 -15 -12.999h-152z" />
    <glyph glyph-name="uniFEF9" unicode="&#xfedf;&#xfe88;" horiz-adv-x="400" arabic-form="isolated" 
d="M330 1797v-1607c0 -53.333 -17.667 -98.666 -53 -135.999c-36 -36 -70 -54 -102 -54h-134c-27.333 0.666992 -41 16 -41 46c0 31.333 13.667 47.333 41 48h62v1486c-0.666992 27.333 13.833 40.833 43.5 40.5s44.5 -13.833 44.5 -40.5v-1473
c28.667 28.667 43 56.334 43 83.001v1607c0 30.667 16 46 48 46s48 -15.333 48 -46zM148 -386.002c-10 0 -15.0029 4.49902 -15.0029 13.499s5 13.5 15 13.5h61v236c-1.33301 14.667 3.33398 27.167 14.001 37.5s23.334 15.5 38.001 15.5s26.834 -5 36.501 -15
s15.5 -21.667 17.5 -35c0 -11.333 -5 -17 -15 -17c-8 0 -12.667 3 -14 9c0 21.333 -8.33301 32 -25 32c-17.333 0 -26 -9 -26 -27v-236h65c10 0 15 -4.66699 15 -14s-5 -13.666 -15 -12.999h-152z" />
    <glyph glyph-name="uniFEFA" unicode="&#xfee0;&#xfe88;" horiz-adv-x="366" arabic-form="final" 
d="M268 45c-32.667 -30 -63.667 -45.001 -93 -45.001h-134c-27.333 0.666992 -41 16 -41 46c0 31.333 13.667 47.333 41 48h62v1486c-0.666992 27.333 13.833 40.833 43.5 40.5s44.5 -13.833 44.5 -40.5v-1473c28.667 28.667 43 56.334 43 83.001v1607c0 30.667 16 46 48 46
s48 -15.333 48 -46v-1612c0 -56 12 -84 36 -84v-101c-43.333 0 -76 15 -98 45zM148 -386.001c-10 0 -15.0029 4.49902 -15.0029 13.499s5 13.5 15 13.5h61v236c-1.33301 14.667 3.33398 27.167 14.001 37.5s23.334 15.5 38.001 15.5s26.834 -5 36.501 -15
s15.5 -21.667 17.5 -35c0 -11.333 -5 -17 -15 -17c-8 0 -12.667 3 -14 9c0 21.333 -8.33301 32 -25 32c-17.333 0 -26 -9 -26 -27v-236h65c10 0 15 -4.66699 15 -14s-5 -13.666 -15 -12.999h-152z" />
    <glyph glyph-name="uniFEFB" unicode="&#xfedf;&#xfe8e;" horiz-adv-x="400" arabic-form="isolated" 
d="M330 1797v-1607c0 -53.333 -17.667 -98.666 -53 -135.999c-36 -36 -70 -54 -102 -54h-134c-27.333 0.666992 -41 16 -41 46c0 31.333 13.667 47.333 41 48h62v1486c-0.666992 27.333 13.833 40.833 43.5 40.5s44.5 -13.833 44.5 -40.5v-1473
c28.667 28.667 43 56.334 43 83.001v1607c0 30.667 16 46 48 46s48 -15.333 48 -46z" />
    <glyph glyph-name="uniFEFC" unicode="&#xfee0;&#xfe8e;" horiz-adv-x="366" arabic-form="final" 
d="M268 45c-32.667 -30 -63.667 -45.001 -93 -45.001h-134c-27.333 0.666992 -41 16 -41 46c0 31.333 13.667 47.333 41 48h62v1486c-0.666992 27.333 13.833 40.833 43.5 40.5s44.5 -13.833 44.5 -40.5v-1473c28.667 28.667 43 56.334 43 83.001v1607c0 30.667 16 46 48 46
s48 -15.333 48 -46v-1612c0 -56 12 -84 36 -84v-101c-43.333 0 -76 15 -98 45z" />
    <glyph glyph-name="afii57410" unicode="&#x622;" arabic-form="isolated" 
d="M57 1847c32 0 48 -17 48 -51v-1755c0 -10 -7 -20.667 -21 -32s-30 -12.5 -48 -3.5s-27 20.833 -27 35.5v1755c0 34 16 51 48 51zM54 1943c14 12.667 31.666 18.667 52.999 18c20 -1.33301 36 -8.33301 48 -21c12.667 -13.333 13.834 -24 3.50098 -32s-18.5 -9 -24.5 -3
c-8.66699 8.66699 -18.5 14.167 -29.5 16.5s-23.833 -3.5 -38.5 -17.5c-16 -14 -33.667 -20.333 -53 -19s-35.333 9 -48 23c-12 12 -13.167 22.167 -3.5 30.5s18.5 8.83301 26.5 1.5c6.66699 -7.33301 15.5 -12.333 26.5 -15s24.167 3.33301 39.5 18z" />
    <glyph glyph-name="afii57411" unicode="&#x623;" arabic-form="isolated" 
d="M48 1847c32 0 48 -17 48 -51v-1755c0 -10 -7 -20.667 -21 -32s-30 -12.5 -48 -3.5s-27 20.833 -27 35.5v1755c0 34 16 51 48 51zM92 2182c14.667 0 26.8311 -5.00098 36.498 -15.001s15.5 -21.667 17.5 -35c0 -11.333 -5 -17 -15 -17c-8 0 -12.667 3 -14 9
c0 21.333 -8.33301 32 -25 32c-17.333 0 -26 -9 -26 -27v-236h65c10 0 15 -4.66699 15 -14s-5 -13.666 -15 -12.999h-152c-10 0 -15 4.5 -15 13.5s5 13.5 15 13.5h61v236c-1.33301 14.667 3.33398 27.167 14.001 37.5s23.334 15.5 38.001 15.5z" />
    <glyph glyph-name="afii57412" unicode="&#x624;" horiz-adv-x="335" arabic-form="isolated" 
d="M170 1048c0 21.333 -11.668 32 -35.001 32s-34.666 -10.667 -33.999 -32v-915c0 -25.333 11.5 -38 34.5 -38s34.5 12.667 34.5 38v915zM170.999 3c-12 -2 -24.668 -3 -38.001 -3c-88.667 0 -133 43 -133 129v919c0 87.333 46 130.666 138 129.999
c84.667 0.666992 127 -42.666 127 -129.999v-1769c0.666992 -30.667 -13.666 -46 -42.999 -46c-34 0 -51 15.333 -51 46v724zM24.998 1234c-12.667 0 -19.002 5.49902 -19.002 16.499s6 16.5 18 16.5h65v292c-1.33301 18 4.5 33.333 17.5 46s28.5 19 46.5 19
c18.667 0 33.834 -6.16699 45.501 -18.5s18.834 -26.833 21.501 -43.5c0 -14 -6 -21 -18 -21c-10 0 -16 4 -18 12c0 26 -10.333 39 -31 39s-31 -11 -31 -33v-292h79c12.667 0 19 -5.66699 19 -17s-6 -16.666 -18 -15.999h-177z" />
    <glyph glyph-name="afii57413" unicode="&#x625;" arabic-form="isolated" 
d="M48 1847c32 0 48 -17 48 -51v-1755c0 -10 -7 -20.667 -21 -32s-30 -12.5 -48 -3.5s-27 20.833 -27 35.5v1755c0 34 16 51 48 51zM72 -28c14.667 0 26.8311 -5.00098 36.498 -15.001s15.5 -21.667 17.5 -35c0 -11.333 -5 -17 -15 -17c-8 0 -12.667 3 -14 9
c0 21.333 -8.33301 32 -25 32c-17.333 0 -26 -9 -26 -27v-236h65c10 0 15 -4.66699 15 -14s-5 -13.666 -15 -12.999h-152c-10 0 -15 4.5 -15 13.5s5 13.5 15 13.5h61v236c-1.33301 14.667 3.33398 27.167 14.001 37.5s23.334 15.5 38.001 15.5z" />
    <glyph glyph-name="afii57414" unicode="&#x626;" horiz-adv-x="501" arabic-form="isolated" 
d="M437 1087v-910c0.666992 -33.333 -15.333 -50 -48 -50s-48.667 16.667 -48 50v910c0 23.333 -12 35 -36 35s-36 -11.667 -36 -35v-1360c1.33301 -36.667 -11.667 -67.667 -39 -93s-58.333 -38 -93 -38c-35.333 0 -67 13.167 -95 39.5s-42 56.833 -42 91.5v910
c0 35.333 16.5 53 49.5 53s49.5 -17.667 49.5 -53v-907c0 -25.333 11.667 -38 35 -38s35 12.667 35 38v1357c0 87.333 44.667 131 134 131s134 -43.667 134 -131zM-97 820c-12.667 0 -19.002 5.49902 -19.002 16.499s6 16.5 18 16.5h65v292c-1.33301 18 4.5 33.333 17.5 46
s28.5 19 46.5 19c18.667 0 33.834 -6.16699 45.501 -18.5s18.834 -26.833 21.501 -43.5c0 -14 -6 -21 -18 -21c-10 0 -16 4 -18 12c0 26 -10.333 39 -31 39s-31 -11 -31 -33v-292h79c12.667 0 19 -5.66699 19 -17s-6 -16.666 -18 -15.999h-177z" />
    <glyph glyph-name="afii57415" unicode="&#x627;" arabic-form="isolated" 
d="M48 1847c32 0 48 -17 48 -51v-1755c0 -10 -7 -20.667 -21 -32s-30 -12.5 -48 -3.5s-27 20.833 -27 35.5v1755c0 34 16 51 48 51z" />
    <glyph glyph-name="afii57416" unicode="&#x628;" horiz-adv-x="339" arabic-form="isolated" 
d="M269 1050v-915c0 -90 -43 -135 -129 -135c-93.333 0 -140 45 -140 135v915c0 32.667 15 49 45 49c34 0 51 -16.333 51 -49v-915c0 -23.333 14.667 -35 44 -35c22 0 33 11.667 33 35v915c0 32 16.333 48 49 48c31.333 0 47 -16 47 -48zM73 -106
c0 16.667 6.16699 31.167 18.5 43.5s26.5 18.5 42.5 18.5c15.333 0 28.5 -5.83301 39.5 -17.5s16.5 -26.167 16.5 -43.5c0 -18 -5.66699 -33 -17 -45s-25.333 -18 -42 -18c-15.333 0 -28.833 6.16699 -40.5 18.5s-17.5 26.833 -17.5 43.5z" />
    <glyph glyph-name="afii57417" unicode="&#x629;" horiz-adv-x="335" arabic-form="isolated" 
d="M170 1048c0 21.333 -11.668 32 -35.001 32s-34.666 -10.667 -33.999 -32v-915c0 -25.333 11.5 -38 34.5 -38s34.5 12.667 34.5 38v915zM264.999 1048v-918c0 -86.667 -44.167 -130 -132.5 -130s-132.5 43 -132.5 129v919c0 87.333 46 130.666 138 129.999
c84.667 0.666992 127 -42.666 127 -129.999zM32.999 1275c-10 0 -15.0029 4.49902 -15.0029 13.499s5 13.5 15 13.5h61v236c-1.33301 14.667 3.33398 27.167 14.001 37.5s23.334 15.5 38.001 15.5s26.834 -5 36.501 -15s15.5 -21.667 17.5 -35c0 -11.333 -5 -17 -15 -17
c-8 0 -12.667 3 -14 9c0 21.333 -8.33301 32 -25 32c-17.333 0 -26 -9 -26 -27v-236h65c10 0 15 -4.66699 15 -14s-5 -13.666 -15 -12.999h-152z" />
    <glyph glyph-name="afii57418" unicode="&#x62a;" horiz-adv-x="339" arabic-form="isolated" 
d="M269 1050v-915c0 -90 -43 -135 -129 -135c-93.333 0 -140 45 -140 135v915c0 32.667 15 49 45 49c34 0 51 -16.333 51 -49v-915c0 -23.333 14.667 -35 44 -35c22 0 33 11.667 33 35v915c0 32 16.333 48 49 48c31.333 0 47 -16 47 -48zM136 1197
c0 16.667 6.16699 31.167 18.5 43.5s26.5 18.5 42.5 18.5c15.333 0 28.5 -5.83301 39.5 -17.5s16.5 -26.167 16.5 -43.5c0 -18 -5.66699 -33 -17 -45s-25.333 -18 -42 -18c-15.333 0 -28.833 6.16699 -40.5 18.5s-17.5 26.833 -17.5 43.5zM16 1197
c0 16.667 6.16699 31.167 18.5 43.5s26.5 18.5 42.5 18.5c15.333 0 28.5 -5.83301 39.5 -17.5s16.5 -26.167 16.5 -43.5c0 -18 -5.66699 -33 -17 -45s-25.333 -18 -42 -18c-15.333 0 -28.833 6.16699 -40.5 18.5s-17.5 26.833 -17.5 43.5z" />
    <glyph glyph-name="afii57419" unicode="&#x62b;" horiz-adv-x="339" arabic-form="isolated" 
d="M269 1050v-915c0 -90 -43 -135 -129 -135c-93.333 0 -140 45 -140 135v915c0 32.667 15 49 45 49c34 0 51 -16.333 51 -49v-915c0 -23.333 14.667 -35 44 -35c22 0 33 11.667 33 35v915c0 32 16.333 48 49 48c31.333 0 47 -16 47 -48zM78 1317
c0 16.667 6.16699 31.167 18.5 43.5s26.5 18.5 42.5 18.5c15.333 0 28.5 -5.83301 39.5 -17.5s16.5 -26.167 16.5 -43.5c0 -18 -5.66699 -33 -17 -45s-25.333 -18 -42 -18c-15.333 0 -28.833 6.16699 -40.5 18.5s-17.5 26.833 -17.5 43.5zM136 1197
c0 16.667 6.16699 31.167 18.5 43.5s26.5 18.5 42.5 18.5c15.333 0 28.5 -5.83301 39.5 -17.5s16.5 -26.167 16.5 -43.5c0 -18 -5.66699 -33 -17 -45s-25.333 -18 -42 -18c-15.333 0 -28.833 6.16699 -40.5 18.5s-17.5 26.833 -17.5 43.5zM16 1197
c0 16.667 6.16699 31.167 18.5 43.5s26.5 18.5 42.5 18.5c15.333 0 28.5 -5.83301 39.5 -17.5s16.5 -26.167 16.5 -43.5c0 -18 -5.66699 -33 -17 -45s-25.333 -18 -42 -18c-15.333 0 -28.833 6.16699 -40.5 18.5s-17.5 26.833 -17.5 43.5z" />
    <glyph glyph-name="afii57420" unicode="&#x62c;" horiz-adv-x="1236" arabic-form="isolated" 
d="M627 -124c0 16.667 6.16699 31.167 18.5 43.5s26.5 18.5 42.5 18.5c15.333 0 28.5 -5.83301 39.5 -17.5s16.5 -26.167 16.5 -43.5c0 -18 -5.66699 -33 -17 -45s-25.333 -18 -42 -18c-15.333 0 -28.833 6.16699 -40.5 18.5s-17.5 26.833 -17.5 43.5zM671 99
l9.00098 -0.00195312c22 0 33 11.667 33 35v826c0 23.333 -11 35 -33 35c-29.333 0 -44 -11.667 -44 -35v-410c0 -32 -15.667 -48 -47 -48c-32.667 0 -49 16 -49 48v410c0 90 46.667 135 140 135c86 0 129 -45 129 -135v-826c0 -85.333 -37.333 -130 -112 -134h-21
c-48.667 0 -84.167 -0.166992 -106.5 -0.5s-49.5 -3.83301 -81.5 -10.5c-98 -21.333 -182 -62.666 -252 -123.999c-90.667 -72 -136 -192.333 -136 -361c0 -139.333 48 -256.666 144 -351.999c95.333 -96 213 -144 353 -144c132 0 247.667 48 347 144
c97.333 99.333 146 216.666 146 351.999c0 44.667 -4.66699 85.5 -14 122.5s-46 108.167 -110 213.5c-18 28.667 -15 53 9 73c29.333 19.333 58.666 11 87.999 -25c10.667 -10.667 30 -45 58 -103s47 -108.167 57 -150.5s15 -85.833 15 -130.5
c0 -162 -59.333 -302.333 -178 -421c-116.667 -118.667 -258 -178 -424 -178c-168.667 0 -310 59.333 -424 178c-120.667 118.667 -178.667 259.334 -174 422.001c0.666992 192 56.667 338 168 438c90.667 74 189 123.667 295 149c19.333 2.66699 91 5 215 7z" />
    <glyph glyph-name="afii57421" unicode="&#x62d;" horiz-adv-x="1236" arabic-form="isolated" 
d="M671 99l9.00098 -0.00195312c22 0 33 11.667 33 35v826c0 23.333 -11 35 -33 35c-29.333 0 -44 -11.667 -44 -35v-410c0 -32 -15.667 -48 -47 -48c-32.667 0 -49 16 -49 48v410c0 90 46.667 135 140 135c86 0 129 -45 129 -135v-826c0 -85.333 -37.333 -130 -112 -134
h-21c-48.667 0 -84.167 -0.166992 -106.5 -0.5s-49.5 -3.83301 -81.5 -10.5c-98 -21.333 -182 -62.666 -252 -123.999c-90.667 -72 -136 -192.333 -136 -361c0 -139.333 48 -256.666 144 -351.999c95.333 -96 213 -144 353 -144c132 0 247.667 48 347 144
c97.333 99.333 146 216.666 146 351.999c0 44.667 -4.66699 85.5 -14 122.5s-46 108.167 -110 213.5c-18 28.667 -15 53 9 73c29.333 19.333 58.666 11 87.999 -25c10.667 -10.667 30 -45 58 -103s47 -108.167 57 -150.5s15 -85.833 15 -130.5
c0 -162 -59.333 -302.333 -178 -421c-116.667 -118.667 -258 -178 -424 -178c-168.667 0 -310 59.333 -424 178c-120.667 118.667 -178.667 259.334 -174 422.001c0.666992 192 56.667 338 168 438c90.667 74 189 123.667 295 149c19.333 2.66699 91 5 215 7z" />
    <glyph glyph-name="afii57422" unicode="&#x62e;" horiz-adv-x="1236" arabic-form="isolated" 
d="M620 1254c0 16.667 6.16699 31.167 18.5 43.5s26.5 18.5 42.5 18.5c15.333 0 28.5 -5.83301 39.5 -17.5s16.5 -26.167 16.5 -43.5c0 -18 -5.66699 -33 -17 -45s-25.333 -18 -42 -18c-15.333 0 -28.833 6.16699 -40.5 18.5s-17.5 26.833 -17.5 43.5zM671 99
l9.00098 -0.00195312c22 0 33 11.667 33 35v826c0 23.333 -11 35 -33 35c-29.333 0 -44 -11.667 -44 -35v-410c0 -32 -15.667 -48 -47 -48c-32.667 0 -49 16 -49 48v410c0 90 46.667 135 140 135c86 0 129 -45 129 -135v-826c0 -85.333 -37.333 -130 -112 -134h-21
c-48.667 0 -84.167 -0.166992 -106.5 -0.5s-49.5 -3.83301 -81.5 -10.5c-98 -21.333 -182 -62.666 -252 -123.999c-90.667 -72 -136 -192.333 -136 -361c0 -139.333 48 -256.666 144 -351.999c95.333 -96 213 -144 353 -144c132 0 247.667 48 347 144
c97.333 99.333 146 216.666 146 351.999c0 44.667 -4.66699 85.5 -14 122.5s-46 108.167 -110 213.5c-18 28.667 -15 53 9 73c29.333 19.333 58.666 11 87.999 -25c10.667 -10.667 30 -45 58 -103s47 -108.167 57 -150.5s15 -85.833 15 -130.5
c0 -162 -59.333 -302.333 -178 -421c-116.667 -118.667 -258 -178 -424 -178c-168.667 0 -310 59.333 -424 178c-120.667 118.667 -178.667 259.334 -174 422.001c0.666992 192 56.667 338 168 438c90.667 74 189 123.667 295 149c19.333 2.66699 91 5 215 7z" />
    <glyph glyph-name="afii57423" unicode="&#x62f;" horiz-adv-x="451" arabic-form="isolated" 
d="M103 949c0 -40.667 -16.999 -61.001 -50.999 -61.001c-34.667 0 -52 21 -52 63c0.666992 118.667 65.667 178 195 178c124 0 186 -63 186 -189v-940h-329c-34.667 0 -52 16.333 -52 49c0 30.667 16.333 46.334 49 47.001h233v844c0.666992 64 -28.333 96 -87 96
c-60.667 0 -91.334 -29 -92.001 -87z" />
    <glyph glyph-name="afii57424" unicode="&#x630;" horiz-adv-x="451" arabic-form="isolated" 
d="M103 949c0 -40.667 -16.999 -61.001 -50.999 -61.001c-34.667 0 -52 21 -52 63c0.666992 118.667 65.667 178 195 178c124 0 186 -63 186 -189v-940h-329c-34.667 0 -52 16.333 -52 49c0 30.667 16.333 46.334 49 47.001h233v844c0.666992 64 -28.333 96 -87 96
c-60.667 0 -91.334 -29 -92.001 -87zM131.001 1296c0 16.667 6.16699 31.167 18.5 43.5s26.5 18.5 42.5 18.5c15.333 0 28.5 -5.83301 39.5 -17.5s16.5 -26.167 16.5 -43.5c0 -18 -5.66699 -33 -17 -45s-25.333 -18 -42 -18c-15.333 0 -28.833 6.16699 -40.5 18.5
s-17.5 26.833 -17.5 43.5z" />
    <glyph glyph-name="afii57425" unicode="&#x631;" horiz-adv-x="164" arabic-form="isolated" 
d="M51 1087c29.333 0 43.666 -15.333 42.999 -46v-1762c0.666992 -30.667 -13.666 -46 -42.999 -46c-34 0 -51 15.333 -51 46v1762c0 30.667 17 46 51 46z" />
    <glyph glyph-name="afii57426" unicode="&#x632;" horiz-adv-x="164" arabic-form="isolated" 
d="M51 1087c29.333 0 43.666 -15.333 42.999 -46v-1762c0.666992 -30.667 -13.666 -46 -42.999 -46c-34 0 -51 15.333 -51 46v1762c0 30.667 17 46 51 46zM-9 1206c0 16.667 6.16699 31.167 18.5 43.5s26.5 18.5 42.5 18.5c15.333 0 28.5 -5.83301 39.5 -17.5
s16.5 -26.167 16.5 -43.5c0 -18 -5.66699 -33 -17 -45s-25.333 -18 -42 -18c-15.333 0 -28.833 6.16699 -40.5 18.5s-17.5 26.833 -17.5 43.5z" />
    <glyph glyph-name="afii57427" unicode="&#x633;" horiz-adv-x="685" arabic-form="isolated" 
d="M615 1050l-0.000976562 -915c0 -90 -43 -135 -129 -135c-38 -0 -68 7.33301 -90 22c-20.667 -14.667 -48.334 -22 -83.001 -22c-16 -0 -30.667 1.33301 -44 4v-269c0 -90 -43 -135 -129 -135c-93.333 0 -140 45 -140 135v915c0 32.667 15 49 45 49
c34 0 51 -16.333 51 -49v-915c0 -23.333 14.667 -35 44 -35c22 0 33 11.667 33 35v1315c0 32.667 15 49 45 49c34 0 51 -16.333 51 -49v-915c0 -23.333 14.667 -35 44 -35c22 0 33 11.667 33 35v919c1.33301 30 16.333 45 45 45c12 0 21.667 -2 29 -6
c8.66699 -4.66699 14.667 -11.667 18 -21c0.666992 -1.33301 1.33398 -3 2.00098 -5c0.666992 -3.33301 1.33398 -7 2.00098 -11v-926c2 -20 16.667 -30 44 -30c22 0 33 11.667 33 35v915c0 32 16.333 48 49 48c31.333 0 47 -16 47 -48z" />
    <glyph glyph-name="afii57428" unicode="&#x634;" horiz-adv-x="685" arabic-form="isolated" 
d="M615 1050v-915c0 -90 -43 -135 -129 -135c-38 -0 -68 7.33301 -90 22c-20.667 -14.667 -48.334 -22 -83.001 -22c-16 -0 -30.667 1.33301 -44 4v-269c0 -90 -43 -135 -129 -135c-93.333 0 -140 45 -140 135v915c0 32.667 15 49 45 49c34 0 51 -16.333 51 -49v-915
c0 -23.333 14.667 -35 44 -35c22 0 33 11.667 33 35v1315c0 32.667 15 49 45 49c34 0 51 -16.333 51 -49v-915c0 -23.333 14.667 -35 44 -35c22 0 33 11.667 33 35v915c0 4.66699 0.333008 9 1 13l1 4c4.66699 21.333 19 32 43 32c12 0 21.667 -2 29 -6
c8.66699 -4.66699 14.667 -11.667 18 -21c0.666992 -1.33301 1.33398 -3 2.00098 -5l2 -12v-925c2 -20 16.667 -30 44 -30c22 0 33 11.667 33 35v915c0 32 16.333 48 49 48c31.333 0 47 -16 47 -48zM337 1317c0 16.667 6.16699 31.167 18.5 43.5s26.5 18.5 42.5 18.5
c15.333 0 28.5 -5.83301 39.5 -17.5s16.5 -26.167 16.5 -43.5c0 -18 -5.66699 -33 -17 -45s-25.333 -18 -42 -18c-15.333 0 -28.833 6.16699 -40.5 18.5s-17.5 26.833 -17.5 43.5zM395 1197c0 16.667 6.16699 31.167 18.5 43.5s26.5 18.5 42.5 18.5
c15.333 0 28.5 -5.83301 39.5 -17.5s16.5 -26.167 16.5 -43.5c0 -18 -5.66699 -33 -17 -45s-25.333 -18 -42 -18c-15.333 0 -28.833 6.16699 -40.5 18.5s-17.5 26.833 -17.5 43.5zM275 1197c0 16.667 6.16699 31.167 18.5 43.5s26.5 18.5 42.5 18.5
c15.333 0 28.5 -5.83301 39.5 -17.5s16.5 -26.167 16.5 -43.5c0 -18 -5.66699 -33 -17 -45s-25.333 -18 -42 -18c-15.333 0 -28.833 6.16699 -40.5 18.5s-17.5 26.833 -17.5 43.5z" />
    <glyph glyph-name="afii57429" unicode="&#x635;" horiz-adv-x="688" arabic-form="isolated" 
d="M269 1048l-0.00195312 -199.999l26 51c68.667 129.333 128.167 195 178.5 197s87 -9.5 110 -34.5s34.5 -56.833 34.5 -95.5v-803c-1.33301 -130.667 -117.666 -184.334 -348.999 -161.001v-267c0 -90 -43 -135 -129 -135c-93.333 0 -140 45 -140 135v915
c0 32.667 15 49 45 49c34 0 51 -16.333 51 -49v-915c0 -23.333 14.667 -35 44 -35c22 0 33 11.667 33 35v1313c0 30.667 15.833 46 47.5 46s47.834 -15.333 48.501 -46zM275.998 622.001v-482.999c0 -30.667 42.333 -46 127 -46c73.333 0 110 16.333 110 49v818
c3.33301 24.667 -5 38.667 -25 42s-60 -48.667 -120 -156c-17.333 -28.667 -48 -103.334 -92 -224.001z" />
    <glyph glyph-name="afii57430" unicode="&#x636;" horiz-adv-x="688" arabic-form="isolated" 
d="M368 846c-17.333 -28.667 -48 -103.333 -92 -224v-483c0 -30.667 42.333 -46 127 -46c73.333 0 110 16.333 110 49v818c3.33301 24.667 -5 38.667 -25 42s-60 -48.667 -120 -156zM173 1048c0 30.667 15.8311 46.001 47.498 46.001s47.834 -15.333 48.501 -46v-200l26 51
c68.667 129.333 128.167 195 178.5 197s87 -9.5 110 -34.5s34.5 -56.833 34.5 -95.5v-803c-1.33301 -130.667 -117.666 -184.334 -348.999 -161.001v-267c0 -90 -43 -135 -129 -135c-93.333 0 -140 45 -140 135v915c0 32.667 15 49 45 49c34 0 51 -16.333 51 -49v-915
c0 -23.333 14.667 -35 44 -35c22 0 33 11.667 33 35v1313zM250.998 1276c0 16.667 6.16699 31.167 18.5 43.5s26.5 18.5 42.5 18.5c15.333 0 28.5 -5.83301 39.5 -17.5s16.5 -26.167 16.5 -43.5c0 -18 -5.66699 -33 -17 -45s-25.333 -18 -42 -18
c-15.333 0 -28.833 6.16699 -40.5 18.5s-17.5 26.833 -17.5 43.5z" />
    <glyph glyph-name="afii57431" unicode="&#x637;" horiz-adv-x="490" arabic-form="isolated" 
d="M222 80c68 0 101.999 17.999 101.999 53.999v789c0 16.667 -9.5 27.334 -28.5 32.001s-45 -19.333 -78 -72s-74.167 -148 -123.5 -286v-477c0.666992 -26.667 43.334 -40 128.001 -40zM232.999 -2.00098c-155.333 0 -232.667 17.332 -232 51.999v1449
c-0.666992 34 14.833 51 46.5 51s47.167 -17 46.5 -51v-687c24.667 62.667 54.5 116.5 89.5 161.5s70.5 69.833 106.5 74.5s66.667 -4.66602 92 -27.999s38 -55 38 -95v-785c0 -94 -62.333 -141.333 -187 -142z" />
    <glyph glyph-name="afii57432" unicode="&#x638;" horiz-adv-x="490" arabic-form="isolated" 
d="M94 1499l-0.000976562 -687.001c24.667 62.667 54.5 116.5 89.5 161.5s70.5 69.833 106.5 74.5s66.667 -4.66602 92 -27.999s38 -55 38 -95v-785c0 -94 -62.333 -141.333 -187 -142c-155.333 0 -232.666 17.333 -231.999 52v1449c-0.666992 34 14.833 51 46.5 51
s47.167 -17 46.5 -51zM221.999 79.999c68 0 101.999 17.999 101.999 53.999v789c0 16.667 -9.5 27.334 -28.5 32.001s-45 -19.333 -78 -72s-74.167 -148 -123.5 -286v-477c0.666992 -26.667 43.334 -40 128.001 -40zM175.998 1276c0 16.667 6.16699 31.167 18.5 43.5
s26.5 18.5 42.5 18.5c15.333 0 28.5 -5.83301 39.5 -17.5s16.5 -26.167 16.5 -43.5c0 -18 -5.66699 -33 -17 -45s-25.333 -18 -42 -18c-15.333 0 -28.833 6.16699 -40.5 18.5s-17.5 26.833 -17.5 43.5z" />
    <glyph glyph-name="afii57433" unicode="&#x639;" horiz-adv-x="1252" arabic-form="isolated" 
d="M504 94l-0.000976562 847.998c-4 52.667 12.833 97.334 50.5 134.001s82.834 55 135.501 55c54.667 0 99 -17.833 133 -53.5s54.667 -77.167 62 -124.5c0 -42 -17.333 -63 -52 -63c-29.333 0 -46.666 11.667 -51.999 35c-0.666992 75.333 -31 113 -91 113
c-60.667 0 -90.667 -32 -90 -96v-845h229c37.333 0 56 -16.667 56 -50c-0.666992 -31.333 -18 -47 -52 -47h-287c-14.667 1.33301 -34 -2.33398 -58 -11.001c-98 -21.333 -182 -62.666 -252 -123.999c-90.667 -72 -136 -192.333 -136 -361
c0 -139.333 48 -256.666 144 -351.999c95.333 -96 213 -144 353 -144c132 0 247.667 48 347 144c97.333 99.333 146 216.666 146 351.999c0 44.667 -4.66699 85.5 -14 122.5s-46 108.167 -110 213.5c-18 28.667 -15 53 9 73c29.333 19.333 58.666 11 87.999 -25
c10.667 -10.667 30 -45 58 -103s47 -108.167 57 -150.5s15 -85.833 15 -130.5c0 -162 -59.333 -302.333 -178 -421c-116.667 -118.667 -258 -178 -424 -178c-168.667 0 -310 59.333 -424 178c-120.667 118.667 -178.667 259.334 -174 422.001
c0.666992 192 56.667 338 168 438c90.667 74 189 123.667 295 149c19.333 4 35.333 4.66699 48 2z" />
    <glyph glyph-name="afii57434" unicode="&#x63a;" horiz-adv-x="1252" arabic-form="isolated" 
d="M597 1296c0 16.667 6.16699 31.167 18.5 43.5s26.5 18.5 42.5 18.5c15.333 0 28.5 -5.83301 39.5 -17.5s16.5 -26.167 16.5 -43.5c0 -18 -5.66699 -33 -17 -45s-25.333 -18 -42 -18c-15.333 0 -28.833 6.16699 -40.5 18.5s-17.5 26.833 -17.5 43.5zM504 94
l-0.000976562 847.998c-4 52.667 12.833 97.334 50.5 134.001s82.834 55 135.501 55c54.667 0 99 -17.833 133 -53.5s54.667 -77.167 62 -124.5c0 -42 -17.333 -63 -52 -63c-29.333 0 -46.666 11.667 -51.999 35c-0.666992 75.333 -31 113 -91 113
c-60.667 0 -90.667 -32 -90 -96v-845h229c37.333 0 56 -16.667 56 -50c-0.666992 -31.333 -18 -47 -52 -47h-287c-6.66699 -0.666992 -26 -4.33398 -58 -11.001c-98 -21.333 -182 -62.666 -252 -123.999c-90.667 -72 -136 -192.333 -136 -361
c0 -139.333 48 -256.666 144 -351.999c95.333 -96 213 -144 353 -144c132 0 247.667 48 347 144c97.333 99.333 146 216.666 146 351.999c0 44.667 -4.66699 85.5 -14 122.5s-46 108.167 -110 213.5c-18 28.667 -15 53 9 73c29.333 19.333 58.666 11 87.999 -25
c10.667 -10.667 30 -45 58 -103s47 -108.167 57 -150.5s15 -85.833 15 -130.5c0 -162 -59.333 -302.333 -178 -421c-116.667 -118.667 -258 -178 -424 -178c-168.667 0 -310 59.333 -424 178c-120.667 118.667 -178.667 259.334 -174 422.001
c0.666992 192 56.667 338 168 438c90.667 74 189 123.667 295 149c7.33301 1.33301 23.333 2 48 2z" />
    <glyph glyph-name="afii57441" unicode="&#x641;" horiz-adv-x="431" arabic-form="isolated" 
d="M361 828l0.00195312 -900.999c-4 -50.667 -20.667 -92.667 -50 -126c-33.333 -33.333 -75.333 -50 -126 -50c-60.667 0 -104.667 16.667 -132 50c-34.667 36.667 -52.334 77.667 -53.001 123c0 39.333 14.667 59 44 59c27.333 2 45 -7 53 -27
c2 -36.667 7.33301 -63.334 16 -80.001s31.667 -25 69 -25s61.333 8.83301 72 26.5s16 34.167 16 49.5v76c-10 -2 -22.667 -3 -38 -3c-43.333 -0 -77.666 12.333 -102.999 37s-38 55.667 -38 93v698c0 35.333 12.667 66.666 38 93.999s56.666 41 93.999 41
s69.666 -13.167 96.999 -39.5s41 -58.166 41 -95.499zM222.002 863.001c-27.333 0 -40.667 -12.667 -40 -38v-690c0 -25.333 13.667 -38 41 -38s41 12.667 41 38v693c0 23.333 -14 35 -42 35zM171.001 1106c0 16.667 6.16699 31.167 18.5 43.5s26.5 18.5 42.5 18.5
c15.333 0 28.5 -5.83301 39.5 -17.5s16.5 -26.167 16.5 -43.5c0 -18 -5.66699 -33 -17 -45s-25.333 -18 -42 -18c-15.333 0 -28.833 6.16699 -40.5 18.5s-17.5 26.833 -17.5 43.5z" />
    <glyph glyph-name="afii57442" unicode="&#x642;" horiz-adv-x="431" arabic-form="isolated" 
d="M361 828l0.00195312 -900.999c-4 -50.667 -20.667 -92.667 -50 -126c-33.333 -33.333 -75.333 -50 -126 -50c-60.667 0 -104.667 16.667 -132 50c-34.667 36.667 -52.334 77.667 -53.001 123c0 39.333 14.667 59 44 59c27.333 2 45 -7 53 -27
c2 -36.667 7.33301 -63.334 16 -80.001s31.667 -25 69 -25s61.333 8.83301 72 26.5s16 34.167 16 49.5v76c-10 -2 -22.667 -3 -38 -3c-43.333 -0 -77.666 12.333 -102.999 37s-38 55.667 -38 93v698c0 35.333 12.667 66.666 38 93.999s56.666 41 93.999 41
s69.666 -13.167 96.999 -39.5s41 -58.166 41 -95.499zM222.002 863.001c-27.333 0 -40.667 -12.667 -40 -38v-690c0 -25.333 13.667 -38 41 -38s41 12.667 41 38v693c0 23.333 -14 35 -42 35zM231.001 1106c0 16.667 6.16699 31.167 18.5 43.5s26.5 18.5 42.5 18.5
c15.333 0 28.5 -5.83301 39.5 -17.5s16.5 -26.167 16.5 -43.5c0 -18 -5.66699 -33 -17 -45s-25.333 -18 -42 -18c-15.333 0 -28.833 6.16699 -40.5 18.5s-17.5 26.833 -17.5 43.5zM111.001 1106c0 16.667 6.16699 31.167 18.5 43.5s26.5 18.5 42.5 18.5
c15.333 0 28.5 -5.83301 39.5 -17.5s16.5 -26.167 16.5 -43.5c0 -18 -5.66699 -33 -17 -45s-25.333 -18 -42 -18c-15.333 0 -28.833 6.16699 -40.5 18.5s-17.5 26.833 -17.5 43.5z" />
    <glyph glyph-name="afii57443" unicode="&#x643;" horiz-adv-x="850" arabic-form="isolated" 
d="M92 0c-61.333 0.666992 -92.002 60.999 -92.002 180.999v685c0.666992 28.667 17 43 49 43s48 -14.333 48 -43l1 -669v-55c-3.33301 -28 9 -41.667 37 -41h236c21.333 0 32 13 32 39v1003c-59.333 -20 -131.333 -30 -216 -30c-30 0 -44.833 14.833 -44.5 44.5
s15.166 44.5 44.499 44.5c76.667 0 154.334 19.833 233.001 59.5s143.5 98.667 194.5 177s74 168.5 69 270.5s-18.833 176.667 -41.5 224s-45 81 -67 101c-25.333 26 -24.166 51 3.50098 75s56.167 15.667 85.5 -25c20 -23.333 45.833 -67.666 77.5 -132.999
s47.5 -146 47.5 -242s-19.833 -180.667 -59.5 -254s-83.167 -131.833 -130.5 -175.5s-80 -70.5 -98 -80.5v-1065c0.666992 -90 -42.666 -134.667 -129.999 -134h-279z" />
    <glyph glyph-name="afii57444" unicode="&#x644;" horiz-adv-x="445" arabic-form="isolated" 
d="M375 1803l-0.000976562 -1622c0.666992 -120.667 -61.666 -181 -186.999 -181s-188 60.333 -188 181v685c0.666992 28.667 17 43 49 43s48 -14.333 48 -43l1 -669c-0.666992 -70 29 -105 89 -105s90.333 33 91 99v1612c-0.666992 28.667 15.333 43 48 43
s49 -14.333 49 -43z" />
    <glyph glyph-name="afii57445" unicode="&#x645;" horiz-adv-x="335" arabic-form="isolated" 
d="M265 1048l-0.000976562 -918c0 -86.667 -44.333 -130 -133 -130c-14 0 -26.667 1 -38 3v-724c0.666992 -30.667 -13.666 -46 -42.999 -46c-34 0 -51 15.333 -51 46v1769c0 87.333 46 130.666 138 129.999c84.667 0.666992 127 -42.666 127 -129.999zM134.999 1080
c-23.333 0 -34.667 -10.667 -34 -32v-915c0 -25.333 11.5 -38 34.5 -38s34.5 12.667 34.5 38v915c0 21.333 -11.667 32 -35 32z" />
    <glyph glyph-name="afii57446" unicode="&#x646;" horiz-adv-x="339" arabic-form="isolated" 
d="M269 1050v-915c0 -90 -43 -135 -129 -135c-93.333 0 -140 45 -140 135v915c0 32.667 15 49 45 49c34 0 51 -16.333 51 -49v-915c0 -23.333 14.667 -35 44 -35c22 0 33 11.667 33 35v915c0 32 16.333 48 49 48c31.333 0 47 -16 47 -48zM83 1254
c0 16.667 6.16699 31.167 18.5 43.5s26.5 18.5 42.5 18.5c15.333 0 28.5 -5.83301 39.5 -17.5s16.5 -26.167 16.5 -43.5c0 -18 -5.66699 -33 -17 -45s-25.333 -18 -42 -18c-15.333 0 -28.833 6.16699 -40.5 18.5s-17.5 26.833 -17.5 43.5z" />
    <glyph glyph-name="afii57470" unicode="&#x647;" horiz-adv-x="335" arabic-form="isolated" 
d="M265 1048v-918c0 -86.667 -44.167 -130 -132.5 -130s-132.5 43 -132.5 129v919c0 87.333 46 130.666 138 129.999c84.667 0.666992 127 -42.666 127 -129.999zM135 1080c-23.333 0 -34.667 -10.667 -34 -32v-915c0 -25.333 11.5 -38 34.5 -38s34.5 12.667 34.5 38v915
c0 21.333 -11.667 32 -35 32z" />
    <glyph glyph-name="afii57448" unicode="&#x648;" horiz-adv-x="335" arabic-form="isolated" 
d="M170 1048c0 21.333 -11.668 32 -35.001 32s-34.666 -10.667 -33.999 -32v-915c0 -25.333 11.5 -38 34.5 -38s34.5 12.667 34.5 38v915zM170.999 3c-12 -2 -24.668 -3 -38.001 -3c-88.667 0 -133 43 -133 129v919c0 87.333 46 130.666 138 129.999
c84.667 0.666992 127 -42.666 127 -129.999v-1769c0.666992 -30.667 -13.666 -46 -42.999 -46c-34 0 -51 15.333 -51 46v724z" />
    <glyph glyph-name="afii57449" unicode="&#x649;" horiz-adv-x="507" arabic-form="isolated" 
d="M437 1087v-910c0.666992 -33.333 -15.333 -50 -48 -50s-48.667 16.667 -48 50v910c0 23.333 -12 35 -36 35s-36 -11.667 -36 -35v-1360c1.33301 -36.667 -11.667 -67.667 -39 -93s-58.333 -38 -93 -38c-35.333 0 -67 13.167 -95 39.5s-42 56.833 -42 91.5v910
c0 35.333 16.5 53 49.5 53s49.5 -17.667 49.5 -53v-907c0 -25.333 11.667 -38 35 -38s35 12.667 35 38v1357c0 87.333 44.667 131 134 131s134 -43.667 134 -131z" />
    <glyph glyph-name="afii57450" unicode="&#x64a;" horiz-adv-x="507" arabic-form="isolated" 
d="M437 1087v-910c0.666992 -33.333 -15.333 -50 -48 -50s-48.667 16.667 -48 50v910c0 23.333 -12 35 -36 35s-36 -11.667 -36 -35v-1360c1.33301 -36.667 -11.667 -67.667 -39 -93s-58.333 -38 -93 -38c-35.333 0 -67 13.167 -95 39.5s-42 56.833 -42 91.5v910
c0 35.333 16.5 53 49.5 53s49.5 -17.667 49.5 -53v-907c0 -25.333 11.667 -38 35 -38s35 12.667 35 38v1357c0 87.333 44.667 131 134 131s134 -43.667 134 -131z" />
    <glyph glyph-name="afii57506" unicode="&#x67e;" horiz-adv-x="339" arabic-form="isolated" 
d="M269 1050v-915c0 -90 -43 -135 -129 -135c-93.333 0 -140 45 -140 135v915c0 32.667 15 49 45 49c34 0 51 -16.333 51 -49v-915c0 -23.333 14.667 -35 44 -35c22 0 33 11.667 33 35v915c0 32 16.333 48 49 48c31.333 0 47 -16 47 -48zM133 -300
c16.667 0 30.667 -6 42 -18s17 -27 17 -45c0 -17.333 -5.5 -31.833 -16.5 -43.5s-24.167 -17.5 -39.5 -17.5c-16 0 -30.167 6.16699 -42.5 18.5s-18.5 26.833 -18.5 43.5s5.83301 31.167 17.5 43.5s25.167 18.5 40.5 18.5zM133 -175c16.667 0 30.667 -6 42 -18
s17 -27 17 -45c0 -17.333 -5.5 -31.833 -16.5 -43.5s-24.167 -17.5 -39.5 -17.5c-16 0 -30.167 6.16699 -42.5 18.5s-18.5 26.833 -18.5 43.5s5.83301 31.167 17.5 43.5s25.167 18.5 40.5 18.5zM140 -50c16.667 0 30.667 -6 42 -18s17 -27 17 -45
c0 -17.333 -5.5 -31.833 -16.5 -43.5s-24.167 -17.5 -39.5 -17.5c-16 0 -30.167 6.16699 -42.5 18.5s-18.5 26.833 -18.5 43.5s5.83301 31.167 17.5 43.5s25.167 18.5 40.5 18.5z" />
    <glyph glyph-name="afii57507" unicode="&#x686;" horiz-adv-x="1236" arabic-form="isolated" 
d="M555 -232c16.667 0 30.667 -6 42 -18s17 -27 17 -45c0 -17.333 -5.5 -31.833 -16.5 -43.5s-24.167 -17.5 -39.5 -17.5c-16 0 -30.167 6.16699 -42.5 18.5s-18.5 26.833 -18.5 43.5s5.83301 31.167 17.5 43.5s25.167 18.5 40.5 18.5zM671 99l9.00098 -0.00195312
c22 0 33 11.667 33 35v826c0 23.333 -11 35 -33 35c-29.333 0 -44 -11.667 -44 -35v-410c0 -32 -15.667 -48 -47 -48c-32.667 0 -49 16 -49 48v410c0 90 46.667 135 140 135c86 0 129 -45 129 -135v-826c0 -85.333 -37.333 -130 -112 -134h-21
c-48.667 0 -84.167 -0.166992 -106.5 -0.5s-49.5 -3.83301 -81.5 -10.5c-98 -21.333 -182 -62.666 -252 -123.999c-90.667 -72 -136 -192.333 -136 -361c0 -139.333 48 -256.666 144 -351.999c95.333 -96 213 -144 353 -144c132 0 247.667 48 347 144
c97.333 99.333 146 216.666 146 351.999c0 44.667 -4.66699 85.5 -14 122.5s-46 108.167 -110 213.5c-18 28.667 -15 53 9 73c29.333 19.333 58.666 11 87.999 -25c10.667 -10.667 30 -45 58 -103s47 -108.167 57 -150.5s15 -85.833 15 -130.5
c0 -162 -59.333 -302.333 -178 -421c-116.667 -118.667 -258 -178 -424 -178c-168.667 0 -310 59.333 -424 178c-120.667 118.667 -178.667 259.334 -174 422.001c0.666992 192 56.667 338 168 438c90.667 74 189 123.667 295 149c19.333 2.66699 91 5 215 7z
M617.001 -352.002c16.667 0 30.667 -6 42 -18s17 -27 17 -45c0 -17.333 -5.5 -31.833 -16.5 -43.5s-24.167 -17.5 -39.5 -17.5c-16 0 -30.167 6.16699 -42.5 18.5s-18.5 26.833 -18.5 43.5s5.83301 31.167 17.5 43.5s25.167 18.5 40.5 18.5zM734.001 -295.002
c0 -17.333 -5.5 -31.833 -16.5 -43.5s-24.167 -17.5 -39.5 -17.5c-16 0 -30.167 6.16699 -42.5 18.5s-18.5 26.833 -18.5 43.5s5.83301 31.167 17.5 43.5s25.167 18.5 40.5 18.5c16.667 0 30.667 -6 42 -18s17 -27 17 -45z" />
    <glyph glyph-name="afii57508" unicode="&#x698;" horiz-adv-x="164" arabic-form="isolated" 
d="M51 1087c29.333 0 43.666 -15.333 42.999 -46v-1762c0.666992 -30.667 -13.666 -46 -42.999 -46c-34 0 -51 15.333 -51 46v1762c0 30.667 17 46 51 46zM-4 1473c0 16.667 6.16699 31.167 18.5 43.5s26.5 18.5 42.5 18.5c15.333 0 28.5 -5.83301 39.5 -17.5
s16.5 -26.167 16.5 -43.5c0 -18 -5.66699 -33 -17 -45s-25.333 -18 -42 -18c-15.333 0 -28.833 6.16699 -40.5 18.5s-17.5 26.833 -17.5 43.5zM-4 1213c0 16.667 6.16699 31.167 18.5 43.5s26.5 18.5 42.5 18.5c15.333 0 28.5 -5.83301 39.5 -17.5s16.5 -26.167 16.5 -43.5
c0 -18 -5.66699 -33 -17 -45s-25.333 -18 -42 -18c-15.333 0 -28.833 6.16699 -40.5 18.5s-17.5 26.833 -17.5 43.5zM-4 1343c0 16.667 6.16699 31.167 18.5 43.5s26.5 18.5 42.5 18.5c15.333 0 28.5 -5.83301 39.5 -17.5s16.5 -26.167 16.5 -43.5
c0 -18 -5.66699 -33 -17 -45s-25.333 -18 -42 -18c-15.333 0 -28.833 6.16699 -40.5 18.5s-17.5 26.833 -17.5 43.5z" />
    <glyph glyph-name="afii57509" unicode="&#x6af;" horiz-adv-x="850" arabic-form="isolated" 
d="M92 0c-61.333 0.666992 -92.002 60.999 -92.002 180.999v685c0.666992 28.667 17 43 49 43s48 -14.333 48 -43l1 -669v-55c-3.33301 -28 9 -41.667 37 -41h236c21.333 0 32 13 32 39v1003c-59.333 -20 -131.333 -30 -216 -30c-30 0 -44.833 14.833 -44.5 44.5
s15.166 44.5 44.499 44.5c76.667 0 154.334 19.833 233.001 59.5s143.5 98.667 194.5 177s74 168.5 69 270.5s-18.833 176.667 -41.5 224s-45 81 -67 101c-25.333 26 -24.166 51 3.50098 75s56.167 15.667 85.5 -25c20 -23.333 45.833 -67.666 77.5 -132.999
s47.5 -146 47.5 -242s-19.833 -180.667 -59.5 -254s-83.167 -131.833 -130.5 -175.5s-80 -70.5 -98 -80.5v-1065c0.666992 -90 -42.666 -134.667 -129.999 -134h-279zM623.998 1708c-10 -96 -37.001 -170.667 -81.001 -224s-74 -86 -90 -98l-90 -69
c-56 -28 -126 -47.667 -210 -59c-29.333 -4.66699 -45.833 7.83301 -49.5 37.5s8.83301 46.5 37.5 50.5c76 10 150.333 40 223 90s125.334 136 158.001 258c8.66699 36.667 29.334 53 62.001 49c27.333 -6 40.666 -17.667 39.999 -35z" />
    <glyph glyph-name="uniFB57" unicode="&#x67e;" horiz-adv-x="306" arabic-form="final" 
d="M173 1050c0 32 16.333 48 49 48c31.333 0 47 -16 47 -48v-884c0 -43.333 12.333 -65 37 -65v-101c-33.333 0 -60.333 7.66699 -81 23c-20.667 -15.333 -49 -23 -85 -23c-93.333 0 -140 45 -140 135v915c0 32.667 15 49 45 49c34 0 51 -16.333 51 -49v-915
c0 -23.333 14.667 -35 44 -35c22 0 33 11.667 33 35v915zM133 -300c16.667 0 30.667 -6 42 -18s17 -27 17 -45c0 -17.333 -5.5 -31.833 -16.5 -43.5s-24.167 -17.5 -39.5 -17.5c-16 0 -30.167 6.16699 -42.5 18.5s-18.5 26.833 -18.5 43.5s5.83301 31.167 17.5 43.5
s25.167 18.5 40.5 18.5zM133 -175c16.667 0 30.667 -6 42 -18s17 -27 17 -45c0 -17.333 -5.5 -31.833 -16.5 -43.5s-24.167 -17.5 -39.5 -17.5c-16 0 -30.167 6.16699 -42.5 18.5s-18.5 26.833 -18.5 43.5s5.83301 31.167 17.5 43.5s25.167 18.5 40.5 18.5zM140 -50
c16.667 0 30.667 -6 42 -18s17 -27 17 -45c0 -17.333 -5.5 -31.833 -16.5 -43.5s-24.167 -17.5 -39.5 -17.5c-16 0 -30.167 6.16699 -42.5 18.5s-18.5 26.833 -18.5 43.5s5.83301 31.167 17.5 43.5s25.167 18.5 40.5 18.5z" />
    <glyph glyph-name="uniFB58" unicode="&#x67e;" horiz-adv-x="202" arabic-form="initial" 
d="M85 1098c31.333 0 47 -17.333 47 -52v-912c0 -89.333 -44 -134 -132 -134v101c22 0 33 13 33 39v906c0.666992 34.667 18 52 52 52zM63 -298c16.667 0 30.667 -6 42 -18s17 -27 17 -45c0 -17.333 -5.5 -31.833 -16.5 -43.5s-24.167 -17.5 -39.5 -17.5
c-16 0 -30.167 6.16699 -42.5 18.5s-18.5 26.833 -18.5 43.5s5.83301 31.167 17.5 43.5s25.167 18.5 40.5 18.5zM63 -173c16.667 0 30.667 -6 42 -18s17 -27 17 -45c0 -17.333 -5.5 -31.833 -16.5 -43.5s-24.167 -17.5 -39.5 -17.5c-16 0 -30.167 6.16699 -42.5 18.5
s-18.5 26.833 -18.5 43.5s5.83301 31.167 17.5 43.5s25.167 18.5 40.5 18.5zM70 -48c16.667 0 30.667 -6 42 -18s17 -27 17 -45c0 -17.333 -5.5 -31.833 -16.5 -43.5s-24.167 -17.5 -39.5 -17.5c-16 0 -30.167 6.16699 -42.5 18.5s-18.5 26.833 -18.5 43.5
s5.83301 31.167 17.5 43.5s25.167 18.5 40.5 18.5z" />
    <glyph glyph-name="uniFB59" unicode="&#x67e;" arabic-form="medial" 
d="M132 166c0 -43.333 11.334 -65 34.001 -65v-101c-32.667 0 -59.334 7.66699 -80.001 23c-21.333 -15.333 -50 -23 -86 -23v101c22 0 33 13 33 39v906c0.666992 34.667 18 52 52 52c31.333 0 47 -17.333 47 -52v-880zM45.501 -66.5c11.667 12.333 25.167 18.5 40.5 18.5
c16.667 0 30.667 -6 42 -18s17 -27 17 -45c0 -17.333 -5.5 -31.833 -16.5 -43.5s-24.167 -17.5 -39.5 -17.5c-16 0 -30.167 6.16699 -42.5 18.5s-18.5 26.833 -18.5 43.5s5.83301 31.167 17.5 43.5zM38.501 -191.5c11.667 12.333 25.167 18.5 40.5 18.5
c16.667 0 30.667 -6 42 -18s17 -27 17 -45c0 -17.333 -5.5 -31.833 -16.5 -43.5s-24.167 -17.5 -39.5 -17.5c-16 0 -30.167 6.16699 -42.5 18.5s-18.5 26.833 -18.5 43.5s5.83301 31.167 17.5 43.5zM38.501 -316.5c11.667 12.333 25.167 18.5 40.5 18.5
c16.667 0 30.667 -6 42 -18s17 -27 17 -45c0 -17.333 -5.5 -31.833 -16.5 -43.5s-24.167 -17.5 -39.5 -17.5c-16 0 -30.167 6.16699 -42.5 18.5s-18.5 26.833 -18.5 43.5s5.83301 31.167 17.5 43.5z" />
    <glyph glyph-name="uniFB7B" unicode="&#x686;" horiz-adv-x="1212" arabic-form="final" 
d="M632 98l47 -0.00195312c22 0 33 11.667 33 35v826c0 23.333 -11 35 -33 35c-29.333 0 -44 -11.667 -44 -35v-410c0 -32 -15.667 -48 -47 -48c-32.667 0 -49 16 -49 48v410c0 90 46.667 135 140 135c86 0 129 -45 129 -135v-797c5.33301 -19.333 13.333 -34.333 24 -45
c12.667 -12 32.334 -17.667 59.001 -17h378v-100h-377c-10 0 -19.333 0.666992 -28 2c-32.667 4.66699 -60.334 16.667 -83.001 36c-17.333 -21.333 -43.666 -34 -78.999 -38c-7.33301 -0.666992 -15 -1 -23 -1h-109c-22.667 0 -50 -3.33301 -82 -10
c-98 -21.333 -182 -62.666 -252 -123.999c-90.667 -72 -136 -192.333 -136 -361c0 -139.333 48 -256.666 144 -351.999c95.333 -96 213 -144 353 -144c132 0 247.667 48 347 144c97.333 99.333 146 216.666 146 351.999c0 44.667 -4.66699 85.5 -14 122.5
s-46 108.167 -110 213.5c-18 28.667 -15 53 9 73c29.333 19.333 58.666 11 87.999 -25c10.667 -10.667 30 -45 58 -103s47 -108.167 57 -150.5s15 -85.833 15 -130.5c0 -162 -59.333 -302.333 -178 -421c-116.667 -118.667 -258 -178 -424 -178
c-168.667 0 -310 59.333 -424 178c-120.667 118.667 -178.667 259.334 -174 422.001c0.666992 192 56.667 338 168 438c90.667 74 189 123.667 295 149c19.333 2.66699 78 4.66699 176 6zM607 -250.002c11.333 -12 17 -27 17 -45c0 -17.333 -5.5 -31.833 -16.5 -43.5
s-24.167 -17.5 -39.5 -17.5c-16 0 -30.167 6.16699 -42.5 18.5s-18.5 26.833 -18.5 43.5s5.83301 31.167 17.5 43.5s25.167 18.5 40.5 18.5c6 0 11.333 -0.666992 16 -2c10 -2.66699 18.667 -8 26 -16zM685 -232.002c16.667 0 30.667 -6 42 -18s17 -27 17 -45
c0 -17.333 -5.5 -31.833 -16.5 -43.5s-24.167 -17.5 -39.5 -17.5c-16 0 -30.167 6.16699 -42.5 18.5s-18.5 26.833 -18.5 43.5s5.83301 31.167 17.5 43.5s25.167 18.5 40.5 18.5zM627 -352.002c16.667 0 30.667 -6 42 -18s17 -27 17 -45c0 -17.333 -5.5 -31.833 -16.5 -43.5
s-24.167 -17.5 -39.5 -17.5c-16 0 -30.167 6.16699 -42.5 18.5s-18.5 26.833 -18.5 43.5s5.83301 31.167 17.5 43.5s25.167 18.5 40.5 18.5z" />
    <glyph glyph-name="uniFB7C" unicode="&#x686;" horiz-adv-x="471" arabic-form="initial" 
d="M147.5 -77.5c11.667 12.333 25.167 18.5 40.5 18.5c16.667 0 30.667 -6 42 -18s17 -27 17 -45c0 -17.333 -5.5 -31.833 -16.5 -43.5s-24.167 -17.5 -39.5 -17.5c-16 0 -30.167 6.16699 -42.5 18.5s-18.5 26.833 -18.5 43.5s5.83301 31.167 17.5 43.5zM267.5 -77.5
c11.667 12.333 25.167 18.5 40.5 18.5c16.667 0 30.667 -6 42 -18s17 -27 17 -45c0 -17.333 -5.5 -31.833 -16.5 -43.5s-24.167 -17.5 -39.5 -17.5c-16 0 -30.167 6.16699 -42.5 18.5s-18.5 26.833 -18.5 43.5s5.83301 31.167 17.5 43.5zM209.5 -197.5
c11.667 12.333 25.167 18.5 40.5 18.5c16.667 0 30.667 -6 42 -18s17 -27 17 -45c0 -17.333 -5.5 -31.833 -16.5 -43.5s-24.167 -17.5 -39.5 -17.5c-16 0 -30.167 6.16699 -42.5 18.5s-18.5 26.833 -18.5 43.5s5.83301 31.167 17.5 43.5zM-33 -1v100.001h292
c20 -0.666992 30 10.666 30 33.999v826c0 23.333 -11 35 -33 35c-29.333 0 -44 -11.667 -44 -35v-410c0 -32 -15.667 -48 -47 -48c-32.667 0 -49 16 -49 48v410c0 90 46.667 135 140 135c86 0 129 -45 129 -135v-826c0 -89.333 -43 -134 -129 -134h-289z" />
    <glyph glyph-name="uniFB7D" unicode="&#x686;" horiz-adv-x="499" arabic-form="medial" 
d="M147.5 -77.5c11.667 12.333 25.167 18.5 40.5 18.5c16.667 0 30.667 -6 42 -18s17 -27 17 -45c0 -17.333 -5.5 -31.833 -16.5 -43.5s-24.167 -17.5 -39.5 -17.5c-16 0 -30.167 6.16699 -42.5 18.5s-18.5 26.833 -18.5 43.5s5.83301 31.167 17.5 43.5zM267.5 -77.5
c11.667 12.333 25.167 18.5 40.5 18.5c16.667 0 30.667 -6 42 -18s17 -27 17 -45c0 -17.333 -5.5 -31.833 -16.5 -43.5s-24.167 -17.5 -39.5 -17.5c-16 0 -30.167 6.16699 -42.5 18.5s-18.5 26.833 -18.5 43.5s5.83301 31.167 17.5 43.5zM209.5 -197.5
c11.667 12.333 25.167 18.5 40.5 18.5c16.667 0 30.667 -6 42 -18s17 -27 17 -45c0 -17.333 -5.5 -31.833 -16.5 -43.5s-24.167 -17.5 -39.5 -17.5c-16 0 -30.167 6.16699 -42.5 18.5s-18.5 26.833 -18.5 43.5s5.83301 31.167 17.5 43.5zM385 162
c5.33301 -19.333 13.333 -34.332 24 -44.999c12.667 -12 32.334 -17.667 59.001 -17h66v-100h-65c-10 0 -19.333 0.666992 -28 2c-32.667 4.66699 -60.334 16.667 -83.001 36c-21.333 -26 -55.333 -39 -102 -39h-289v100h289c22 -0.666992 33 10.666 33 33.999v826
c0 23.333 -11 35 -33 35c-29.333 0 -44 -11.667 -44 -35v-410c0 -32 -15.667 -48 -47 -48c-32.667 0 -49 16 -49 48v410c0 90 46.667 135 140 135c86 0 129 -45 129 -135v-797z" />
    <glyph glyph-name="uniFB8B" unicode="&#x698;" horiz-adv-x="134" arabic-form="final" 
d="M94 4v-725c0.666992 -30.667 -13.666 -46 -42.999 -46c-34 0 -51 15.333 -51 46v1762c0 30.667 17 46 51 46c29.333 0 43.666 -15.333 42.999 -46v-875h1c0 -43.333 13 -65 39 -65v-101c-14.667 -0 -28 1.33301 -40 4zM-4 1343c0 16.667 6.16699 31.167 18.5 43.5
s26.5 18.5 42.5 18.5c15.333 0 28.5 -5.83301 39.5 -17.5s16.5 -26.167 16.5 -43.5c0 -18 -5.66699 -33 -17 -45s-25.333 -18 -42 -18c-15.333 0 -28.833 6.16699 -40.5 18.5s-17.5 26.833 -17.5 43.5zM-4 1213c0 16.667 6.16699 31.167 18.5 43.5s26.5 18.5 42.5 18.5
c15.333 0 28.5 -5.83301 39.5 -17.5s16.5 -26.167 16.5 -43.5c0 -18 -5.66699 -33 -17 -45s-25.333 -18 -42 -18c-15.333 0 -28.833 6.16699 -40.5 18.5s-17.5 26.833 -17.5 43.5zM-4 1473c0 16.667 6.16699 31.167 18.5 43.5s26.5 18.5 42.5 18.5
c15.333 0 28.5 -5.83301 39.5 -17.5s16.5 -26.167 16.5 -43.5c0 -18 -5.66699 -33 -17 -45s-25.333 -18 -42 -18c-15.333 0 -28.833 6.16699 -40.5 18.5s-17.5 26.833 -17.5 43.5z" />
    <glyph glyph-name="uniFB8F" unicode="&#x6a9;" horiz-adv-x="847" arabic-form="final" 
d="M371 0l-279.001 -0.000976562c-61.333 0.666992 -92 61 -92 181v685c0.666992 28.667 17 43 49 43s48 -14.333 48 -43l1 -669v-55c-3.33301 -28 9 -41.667 37 -41h236c21.333 0 32 13 32 39v1003c-59.333 -20 -131.333 -30 -216 -30c-30 0 -44.833 14.833 -44.5 44.5
s15.166 44.5 44.499 44.5c76.667 0 154.334 19.833 233.001 59.5s143.5 98.667 194.5 177s74 168.5 69 270.5s-18.833 176.667 -41.5 224s-45 81 -67 101c-25.333 26 -24.166 51 3.50098 75s56.167 15.667 85.5 -25c20 -23.333 45.833 -67.666 77.5 -132.999
s47.5 -146 47.5 -242s-19.833 -180.667 -59.5 -254s-83.167 -131.833 -130.5 -175.5s-80 -70.5 -98 -80.5v-1025c0 -48.667 12 -73 36 -73h311v-101h-311c-32 0 -58.333 7.66699 -79 23c-21.333 -15.333 -50.333 -23 -87 -23z" />
    <glyph glyph-name="uniFB90" unicode="&#x6a9;" horiz-adv-x="800" arabic-form="initial" 
d="M614 2084c20 -23.333 45.8311 -67.667 77.498 -133s47.5 -146 47.5 -242s-19.833 -180.667 -59.5 -254s-83.167 -131.833 -130.5 -175.5s-80 -70.5 -98 -80.5v-1065c0.666992 -90 -42.666 -134.667 -129.999 -134h-321v101h321c21.333 0 32 13 32 39v1003
c-59.333 -20 -131.333 -30 -216 -30c-30 0 -44.833 14.833 -44.5 44.5s15.166 44.5 44.499 44.5c76.667 0 154.334 19.833 233.001 59.5s143.5 98.667 194.5 177s74 168.5 69 270.5s-18.833 176.667 -41.5 224s-45 81 -67 101c-25.333 26 -24.166 51 3.50098 75
s56.167 15.667 85.5 -25z" />
    <glyph glyph-name="uniFB91" unicode="&#x6a9;" horiz-adv-x="797" arabic-form="medial" 
d="M451 1199c18 10 50.666 36.834 97.999 80.501s90.833 102.167 130.5 175.5s59.5 158 59.5 254s-15.833 176.667 -47.5 242s-57.5 109.666 -77.5 132.999c-29.333 40.667 -57.833 49 -85.5 25s-28.834 -49 -3.50098 -75c22 -20 44.333 -53.667 67 -101
s36.5 -122 41.5 -224s-18 -192.167 -69 -270.5s-115.833 -137.333 -194.5 -177s-156.334 -59.5 -233.001 -59.5c-29.333 0 -44.166 -14.833 -44.499 -44.5s14.5 -44.5 44.5 -44.5c84.667 0 156.667 10 216 30v-1003c0 -26 -10.667 -39 -32 -39h-321v-101h321
c36.667 0 65.334 7.66699 86.001 23c20.667 -15.333 47.334 -23 80.001 -23h311v101h-311c-24 0 -36 24.333 -36 73v1025z" />
    <glyph glyph-name="uniFB93" unicode="&#x6af;" horiz-adv-x="847" arabic-form="final" 
d="M371 0l-279.001 -0.000976562c-61.333 0.666992 -92 61 -92 181v685c0.666992 28.667 17 43 49 43s48 -14.333 48 -43l1 -669v-55c-3.33301 -28 9 -41.667 37 -41h236c21.333 0 32 13 32 39v1003c-59.333 -20 -131.333 -30 -216 -30c-30 0 -44.833 14.833 -44.5 44.5
s15.166 44.5 44.499 44.5c76.667 0 154.334 19.833 233.001 59.5s143.5 98.667 194.5 177s74 168.5 69 270.5s-18.833 176.667 -41.5 224s-45 81 -67 101c-25.333 26 -24.166 51 3.50098 75s56.167 15.667 85.5 -25c20 -23.333 45.833 -67.666 77.5 -132.999
s47.5 -146 47.5 -242s-19.833 -180.667 -59.5 -254s-83.167 -131.833 -130.5 -175.5s-80 -70.5 -98 -80.5v-1025c0 -48.667 12 -73 36 -73h311v-101h-311c-32 0 -58.333 7.66699 -79 23c-21.333 -15.333 -50.333 -23 -87 -23zM623.999 1708
c-10 -96 -37.001 -170.667 -81.001 -224s-74 -86 -90 -98l-90 -69c-56 -28 -126 -47.667 -210 -59c-29.333 -4.66699 -45.833 7.83301 -49.5 37.5s8.83301 46.5 37.5 50.5c76 10 150.333 40 223 90s125.334 136 158.001 258c8.66699 36.667 29.334 53 62.001 49
c27.333 -6 40.666 -17.667 39.999 -35z" />
    <glyph glyph-name="uniFB94" unicode="&#x6af;" horiz-adv-x="800" arabic-form="initial" 
d="M614 2084c20 -23.333 45.8311 -67.667 77.498 -133s47.5 -146 47.5 -242s-19.833 -180.667 -59.5 -254s-83.167 -131.833 -130.5 -175.5s-80 -70.5 -98 -80.5v-1065c0.666992 -90 -42.666 -134.667 -129.999 -134h-321v101h321c21.333 0 32 13 32 39v1003
c-59.333 -20 -131.333 -30 -216 -30c-30 0 -44.833 14.833 -44.5 44.5s15.166 44.5 44.499 44.5c76.667 0 154.334 19.833 233.001 59.5s143.5 98.667 194.5 177s74 168.5 69 270.5s-18.833 176.667 -41.5 224s-45 81 -67 101c-25.333 26 -24.166 51 3.50098 75
s56.167 15.667 85.5 -25zM583.998 1708c-10 -96 -37.001 -170.667 -81.001 -224s-74 -86 -90 -98l-90 -69c-56 -28 -126 -47.667 -210 -59c-29.333 -4.66699 -45.833 7.83301 -49.5 37.5s8.83301 46.5 37.5 50.5c76 10 150.333 40 223 90s125.334 136 158.001 258
c8.66699 36.667 29.334 53 62.001 49c27.333 -6 40.666 -17.667 39.999 -35z" />
    <glyph glyph-name="uniFB95" unicode="&#x6af;" horiz-adv-x="797" arabic-form="medial" 
d="M353 1143c-59.333 -20 -131.334 -30.001 -216.001 -30.001c-30 0 -44.833 14.833 -44.5 44.5s15.166 44.5 44.499 44.5c76.667 0 154.334 19.833 233.001 59.5s143.5 98.667 194.5 177s74 168.5 69 270.5s-18.833 176.667 -41.5 224s-45 81 -67 101
c-25.333 26 -24.166 51 3.50098 75s56.167 15.667 85.5 -25c20 -23.333 45.833 -67.666 77.5 -132.999s47.5 -146 47.5 -242s-19.833 -180.667 -59.5 -254s-83.167 -131.833 -130.5 -175.5s-80 -70.5 -98 -80.5v-1025c0 -48.667 12 -73 36 -73h311v-101h-311
c-32 0 -58.333 7.66699 -79 23c-21.333 -15.333 -50.333 -23 -87 -23h-321v101h321c21.333 0 32 13 32 39v1003zM583.999 1708c-10 -96 -37.001 -170.667 -81.001 -224s-74 -86 -90 -98l-90 -69c-56 -28 -126 -47.667 -210 -59c-29.333 -4.66699 -45.833 7.83301 -49.5 37.5
s8.83301 46.5 37.5 50.5c76 10 150.333 40 223 90s125.334 136 158.001 258c8.66699 36.667 29.334 53 62.001 49c27.333 -6 40.666 -17.667 39.999 -35z" />
    <glyph glyph-name="uniFBA5" unicode="&#x6c0;" horiz-adv-x="300" arabic-form="final" 
d="M170 1048c0 21.333 -11.668 32 -35.001 32s-34.666 -10.667 -33.999 -32v-915c0 -25.333 11.5 -38 34.5 -38s34.5 12.667 34.5 38v915zM221.999 24c-22 -16 -51.667 -24 -89 -24c-88.667 0 -133 43 -133 129v919c0 87.333 46 130.666 138 129.999
c84.667 0.666992 127 -42.666 127 -129.999v-874c0 -48.667 12 -73 36 -73v-101c-32.667 0 -59 8 -79 24zM32.999 1275c-10 0 -15.0029 4.49902 -15.0029 13.499s5 13.5 15 13.5h61v236c-1.33301 14.667 3.33398 27.167 14.001 37.5s23.334 15.5 38.001 15.5
s26.834 -5 36.501 -15s15.5 -21.667 17.5 -35c0 -11.333 -5 -17 -15 -17c-8 0 -12.667 3 -14 9c0 21.333 -8.33301 32 -25 32c-17.333 0 -26 -9 -26 -27v-236h65c10 0 15 -4.66699 15 -14s-5 -13.666 -15 -12.999h-152z" />
    <glyph glyph-name="uniFBFD" unicode="&#x6cc;" horiz-adv-x="473" arabic-form="final" 
d="M341 173v914c0 23.333 -12 35 -36 35s-36 -11.667 -36 -35v-1360c1.33301 -36.667 -11.667 -67.667 -39 -93s-58.333 -38 -93 -38c-35.333 0 -67 13.167 -95 39.5s-42 56.833 -42 91.5v910c0 35.333 16.5 53 49.5 53s49.5 -17.667 49.5 -53v-907
c0 -25.333 11.667 -38 35 -38s35 12.667 35 38v1357c0 87.333 44.667 131 134 131s134 -43.667 134 -131v-914c0 -48 12 -72 36 -72v-101c-88 0 -132 57.667 -132 173z" />
    <glyph glyph-name="uniFBFE" unicode="&#x6cc;" horiz-adv-x="192" arabic-form="initial" 
d="M85 1098c31.333 0 47 -17.333 47 -52v-912c0 -89.333 -44 -134 -132 -134v101c22 0 33 13 33 39v906c0.666992 34.667 18 52 52 52zM14 -237c0 16.667 6.16699 31.167 18.5 43.5s26.5 18.5 42.5 18.5c15.333 0 28.5 -5.83301 39.5 -17.5s16.5 -26.167 16.5 -43.5
c0 -18 -5.66699 -33 -17 -45s-25.333 -18 -42 -18c-15.333 0 -28.833 6.16699 -40.5 18.5s-17.5 26.833 -17.5 43.5zM14 -107c0 16.667 6.16699 31.167 18.5 43.5s26.5 18.5 42.5 18.5c15.333 0 28.5 -5.83301 39.5 -17.5s16.5 -26.167 16.5 -43.5
c0 -18 -5.66699 -33 -17 -45s-25.333 -18 -42 -18c-15.333 0 -28.833 6.16699 -40.5 18.5s-17.5 26.833 -17.5 43.5z" />
    <glyph glyph-name="uniFBFF" unicode="&#x6cc;" arabic-form="medial" 
d="M24 -237c0 16.667 6.16699 31.167 18.5 43.5s26.5 18.5 42.5 18.5c15.333 0 28.5 -5.83301 39.5 -17.5s16.5 -26.167 16.5 -43.5c0 -18 -5.66699 -33 -17 -45s-25.333 -18 -42 -18c-15.333 0 -28.833 6.16699 -40.5 18.5s-17.5 26.833 -17.5 43.5zM132 166
c0 -43.333 11.334 -65 34.001 -65v-101c-32.667 0 -59.334 7.66699 -80.001 23c-21.333 -15.333 -50 -23 -86 -23v101c22 0 33 13 33 39v906c0.666992 34.667 18 52 52 52c31.333 0 47 -17.333 47 -52v-880zM24.001 -107c0 16.667 6.16699 31.167 18.5 43.5
s26.5 18.5 42.5 18.5c15.333 0 28.5 -5.83301 39.5 -17.5s16.5 -26.167 16.5 -43.5c0 -18 -5.66699 -33 -17 -45s-25.333 -18 -42 -18c-15.333 0 -28.833 6.16699 -40.5 18.5s-17.5 26.833 -17.5 43.5z" />
    <glyph glyph-name="uniFE82" unicode="&#x622;" horiz-adv-x="132" arabic-form="final" 
d="M106 1794l-0.000976562 -1662c0 -21.333 11.667 -32 35 -32v-100c-35.333 2 -65.666 14.333 -90.999 37c-27.333 27.333 -41 59 -41 95v1662c0 36.667 15.667 55 47 55c33.333 0 50 -18.333 50 -55zM53.999 1943c14 12.667 31.666 18.667 52.999 18
c20 -1.33301 36 -8.33301 48 -21c12.667 -13.333 13.834 -24 3.50098 -32s-18.5 -9 -24.5 -3c-8.66699 8.66699 -18.5 14.167 -29.5 16.5s-23.833 -3.5 -38.5 -17.5c-16 -14 -33.667 -20.333 -53 -19s-35.333 9 -48 23c-12 12 -13.167 22.167 -3.5 30.5
s18.5 8.83301 26.5 1.5c6.66699 -7.33301 15.5 -12.333 26.5 -15s24.167 3.33301 39.5 18z" />
    <glyph glyph-name="uniFE84" unicode="&#x623;" horiz-adv-x="132" arabic-form="final" 
d="M97 1794l-0.000976562 -1662c0 -21.333 11.667 -32 35 -32v-100c-35.333 2 -65.666 14.333 -90.999 37c-27.333 27.333 -41 59 -41 95v1662c0 36.667 15.667 55 47 55c33.333 0 50 -18.333 50 -55zM91.999 2182c14.667 0 26.8311 -5.00098 36.498 -15.001
s15.5 -21.667 17.5 -35c0 -11.333 -5 -17 -15 -17c-8 0 -12.667 3 -14 9c0 21.333 -8.33301 32 -25 32c-17.333 0 -26 -9 -26 -27v-236h65c10 0 15 -4.66699 15 -14s-5 -13.666 -15 -12.999h-152c-10 0 -15 4.5 -15 13.5s5 13.5 15 13.5h61v236
c-1.33301 14.667 3.33398 27.167 14.001 37.5s23.334 15.5 38.001 15.5z" />
    <glyph glyph-name="uniFE86" unicode="&#x624;" horiz-adv-x="301" arabic-form="final" 
d="M170 1048c0 21.333 -11.668 32 -35.001 32s-34.666 -10.667 -33.999 -32v-915c0 -25.333 11.5 -38 34.5 -38s34.5 12.667 34.5 38v915zM24.999 1234c-12.667 0 -19.002 5.49902 -19.002 16.499s6 16.5 18 16.5h65v292c-1.33301 18 4.5 33.333 17.5 46s28.5 19 46.5 19
c18.667 0 33.834 -6.16699 45.501 -18.5s18.834 -26.833 21.501 -43.5c0 -14 -6 -21 -18 -21c-10 0 -16 4 -18 12c0 26 -10.333 39 -31 39s-31 -11 -31 -33v-292h79c12.667 0 19 -5.66699 19 -17s-6 -16.666 -18 -15.999h-177zM264.997 3.99902l-0.000976562 -725
c0.666992 -30.667 -13.666 -46 -42.999 -46c-34 0 -51 15.333 -51 46v724c-11.333 -2 -24 -3 -38 -3c-88.667 0 -133 43 -133 129v919c0 87.333 46 130.666 138 129.999c84.667 0.666992 127 -42.666 127 -129.999v-874c0 -48.667 12 -73 36 -73v-101
c-13.333 0 -25.333 1.33301 -36 4z" />
    <glyph glyph-name="uniFE88" unicode="&#x625;" horiz-adv-x="132" arabic-form="final" 
d="M97 1794l-0.000976562 -1662c0 -21.333 11.667 -32 35 -32v-100c-35.333 2 -65.666 14.333 -90.999 37c-27.333 27.333 -41 59 -41 95v1662c0 36.667 15.667 55 47 55c33.333 0 50 -18.333 50 -55zM71.999 -28c14.667 0 26.8311 -5.00098 36.498 -15.001
s15.5 -21.667 17.5 -35c0 -11.333 -5 -17 -15 -17c-8 0 -12.667 3 -14 9c0 21.333 -8.33301 32 -25 32c-17.333 0 -26 -9 -26 -27v-236h65c10 0 15 -4.66699 15 -14s-5 -13.666 -15 -12.999h-152c-10 0 -15 4.5 -15 13.5s5 13.5 15 13.5h61v236
c-1.33301 14.667 3.33398 27.167 14.001 37.5s23.334 15.5 38.001 15.5z" />
    <glyph glyph-name="uniFE8A" unicode="&#x626;" horiz-adv-x="473" arabic-form="final" 
d="M341 173v914c0 23.333 -12 35 -36 35s-36 -11.667 -36 -35v-1360c1.33301 -36.667 -11.667 -67.667 -39 -93s-58.333 -38 -93 -38c-35.333 0 -67 13.167 -95 39.5s-42 56.833 -42 91.5v910c0 35.333 16.5 53 49.5 53s49.5 -17.667 49.5 -53v-907
c0 -25.333 11.667 -38 35 -38s35 12.667 35 38v1357c0 87.333 44.667 131 134 131s134 -43.667 134 -131v-914c0 -48 12 -72 36 -72v-101c-88 0 -132 57.667 -132 173zM-97 820c-12.667 0 -19.002 5.49902 -19.002 16.499s6 16.5 18 16.5h65v292
c-1.33301 18 4.5 33.333 17.5 46s28.5 19 46.5 19c18.667 0 33.834 -6.16699 45.501 -18.5s18.834 -26.833 21.501 -43.5c0 -14 -6 -21 -18 -21c-10 0 -16 4 -18 12c0 26 -10.333 39 -31 39s-31 -11 -31 -33v-292h79c12.667 0 19 -5.66699 19 -17s-6 -16.666 -18 -15.999
h-177z" />
    <glyph glyph-name="uniFE8B" unicode="&#x626;" horiz-adv-x="245" arabic-form="initial" 
d="M85 1098c31.333 0 47 -17.333 47 -52v-912c0 -89.333 -44 -134 -132 -134v101c22 0 33 13 33 39v906c0.666992 34.667 18 52 52 52zM-15 1164c-12.667 0 -19.002 5.49902 -19.002 16.499s6 16.5 18 16.5h65v292c-1.33301 18 4.5 33.333 17.5 46s28.5 19 46.5 19
c18.667 0 33.834 -6.16699 45.501 -18.5s18.834 -26.833 21.501 -43.5c0 -14 -6 -21 -18 -21c-10 0 -16 4 -18 12c0 26 -10.333 39 -31 39s-31 -11 -31 -33v-292h79c12.667 0 19 -5.66699 19 -17s-6 -16.666 -18 -15.999h-177z" />
    <glyph glyph-name="uniFE8C" unicode="&#x626;" arabic-form="medial" 
d="M132 166c0 -43.333 11.334 -65 34.001 -65v-101c-32.667 0 -59.334 7.66699 -80.001 23c-21.333 -15.333 -50 -23 -86 -23v101c22 0 33 13 33 39v906c0.666992 34.667 18 52 52 52c31.333 0 47 -17.333 47 -52v-880zM-14.999 1164
c-12.667 0 -19.002 5.49902 -19.002 16.499s6 16.5 18 16.5h65v292c-1.33301 18 4.5 33.333 17.5 46s28.5 19 46.5 19c18.667 0 33.834 -6.16699 45.501 -18.5s18.834 -26.833 21.501 -43.5c0 -14 -6 -21 -18 -21c-10 0 -16 4 -18 12c0 26 -10.333 39 -31 39
s-31 -11 -31 -33v-292h79c12.667 0 19 -5.66699 19 -17s-6 -16.666 -18 -15.999h-177z" />
    <glyph glyph-name="uniFE8E" unicode="&#x627;" horiz-adv-x="132" arabic-form="final" 
d="M97 1794l-0.000976562 -1662c0 -21.333 11.667 -32 35 -32v-100c-35.333 2 -65.666 14.333 -90.999 37c-27.333 27.333 -41 59 -41 95v1662c0 36.667 15.667 55 47 55c33.333 0 50 -18.333 50 -55z" />
    <glyph glyph-name="uniFE90" unicode="&#x628;" horiz-adv-x="306" arabic-form="final" 
d="M173 1050c0 32 16.333 48 49 48c31.333 0 47 -16 47 -48v-884c0 -43.333 12.333 -65 37 -65v-101c-33.333 0 -60.333 7.66699 -81 23c-20.667 -15.333 -49 -23 -85 -23c-93.333 0 -140 45 -140 135v915c0 32.667 15 49 45 49c34 0 51 -16.333 51 -49v-915
c0 -23.333 14.667 -35 44 -35c22 0 33 11.667 33 35v915zM73 -106c0 16.667 6.16699 31.167 18.5 43.5s26.5 18.5 42.5 18.5c15.333 0 28.5 -5.83301 39.5 -17.5s16.5 -26.167 16.5 -43.5c0 -18 -5.66699 -33 -17 -45s-25.333 -18 -42 -18
c-15.333 0 -28.833 6.16699 -40.5 18.5s-17.5 26.833 -17.5 43.5z" />
    <glyph glyph-name="uniFE91" unicode="&#x628;" horiz-adv-x="202" arabic-form="initial" 
d="M85 1098c31.333 0 47 -17.333 47 -52v-912c0 -89.333 -44 -134 -132 -134v101c22 0 33 13 33 39v906c0.666992 34.667 18 52 52 52zM33 -106c0 16.667 6.16699 31.167 18.5 43.5s26.5 18.5 42.5 18.5c15.333 0 28.5 -5.83301 39.5 -17.5s16.5 -26.167 16.5 -43.5
c0 -18 -5.66699 -33 -17 -45s-25.333 -18 -42 -18c-15.333 0 -28.833 6.16699 -40.5 18.5s-17.5 26.833 -17.5 43.5z" />
    <glyph glyph-name="uniFE92" unicode="&#x628;" arabic-form="medial" 
d="M132 166c0 -43.333 11.334 -65 34.001 -65v-101c-32.667 0 -59.334 7.66699 -80.001 23c-21.333 -15.333 -50 -23 -86 -23v101c22 0 33 13 33 39v906c0.666992 34.667 18 52 52 52c31.333 0 47 -17.333 47 -52v-880zM26.001 -106c0 16.667 6.16699 31.167 18.5 43.5
s26.5 18.5 42.5 18.5c15.333 0 28.5 -5.83301 39.5 -17.5s16.5 -26.167 16.5 -43.5c0 -18 -5.66699 -33 -17 -45s-25.333 -18 -42 -18c-15.333 0 -28.833 6.16699 -40.5 18.5s-17.5 26.833 -17.5 43.5z" />
    <glyph glyph-name="uniFE96" unicode="&#x62a;" horiz-adv-x="306" arabic-form="final" 
d="M173 1050c0 32 16.333 48 49 48c31.333 0 47 -16 47 -48v-884c0 -43.333 12.333 -65 37 -65v-101c-33.333 0 -60.333 7.66699 -81 23c-20.667 -15.333 -49 -23 -85 -23c-93.333 0 -140 45 -140 135v915c0 32.667 15 49 45 49c34 0 51 -16.333 51 -49v-915
c0 -23.333 14.667 -35 44 -35c22 0 33 11.667 33 35v915zM136 1197c0 16.667 6.16699 31.167 18.5 43.5s26.5 18.5 42.5 18.5c15.333 0 28.5 -5.83301 39.5 -17.5s16.5 -26.167 16.5 -43.5c0 -18 -5.66699 -33 -17 -45s-25.333 -18 -42 -18
c-15.333 0 -28.833 6.16699 -40.5 18.5s-17.5 26.833 -17.5 43.5zM16 1197c0 16.667 6.16699 31.167 18.5 43.5s26.5 18.5 42.5 18.5c15.333 0 28.5 -5.83301 39.5 -17.5s16.5 -26.167 16.5 -43.5c0 -18 -5.66699 -33 -17 -45s-25.333 -18 -42 -18
c-15.333 0 -28.833 6.16699 -40.5 18.5s-17.5 26.833 -17.5 43.5z" />
    <glyph glyph-name="uniFE97" unicode="&#x62a;" horiz-adv-x="208" arabic-form="initial" 
d="M85 1098c31.333 0 47 -17.333 47 -52v-912c0 -89.333 -44 -134 -132 -134v101c22 0 33 13 33 39v906c0.666992 34.667 18 52 52 52zM26 1197c0 16.667 6.16699 31.167 18.5 43.5s26.5 18.5 42.5 18.5c15.333 0 28.5 -5.83301 39.5 -17.5s16.5 -26.167 16.5 -43.5
c0 -18 -5.66699 -33 -17 -45s-25.333 -18 -42 -18c-15.333 0 -28.833 6.16699 -40.5 18.5s-17.5 26.833 -17.5 43.5zM25 1332c0 16.667 6.16699 31.167 18.5 43.5s26.5 18.5 42.5 18.5c15.333 0 28.5 -5.83301 39.5 -17.5s16.5 -26.167 16.5 -43.5
c0 -18 -5.66699 -33 -17 -45s-25.333 -18 -42 -18c-15.333 0 -28.833 6.16699 -40.5 18.5s-17.5 26.833 -17.5 43.5z" />
    <glyph glyph-name="uniFE98" unicode="&#x62a;" arabic-form="medial" 
d="M85 1098c31.333 0 47.001 -17.333 47.001 -52v-880c0 -43.333 11.333 -65 34 -65v-101c-32.667 -0 -59.334 7.33301 -80.001 22c-21.333 -14.667 -50 -22 -86 -22v101c22 0 33 13 33 39v906c0.666992 34.667 18 52 52 52zM26.001 1197c0 16.667 6.16699 31.167 18.5 43.5
s26.5 18.5 42.5 18.5c15.333 0 28.5 -5.83301 39.5 -17.5s16.5 -26.167 16.5 -43.5c0 -18 -5.66699 -33 -17 -45s-25.333 -18 -42 -18c-15.333 0 -28.833 6.16699 -40.5 18.5s-17.5 26.833 -17.5 43.5zM25.001 1332c0 16.667 6.16699 31.167 18.5 43.5s26.5 18.5 42.5 18.5
c15.333 0 28.5 -5.83301 39.5 -17.5s16.5 -26.167 16.5 -43.5c0 -18 -5.66699 -33 -17 -45s-25.333 -18 -42 -18c-15.333 0 -28.833 6.16699 -40.5 18.5s-17.5 26.833 -17.5 43.5z" />
    <glyph glyph-name="uniFE9A" unicode="&#x62b;" horiz-adv-x="306" arabic-form="final" 
d="M16 1197c0 16.667 6.16699 31.167 18.5 43.5s26.5 18.5 42.5 18.5c15.333 0 28.5 -5.83301 39.5 -17.5s16.5 -26.167 16.5 -43.5c0 -18 -5.66699 -33 -17 -45s-25.333 -18 -42 -18c-15.333 0 -28.833 6.16699 -40.5 18.5s-17.5 26.833 -17.5 43.5zM136 1197
c0 16.667 6.16699 31.167 18.5 43.5s26.5 18.5 42.5 18.5c15.333 0 28.5 -5.83301 39.5 -17.5s16.5 -26.167 16.5 -43.5c0 -18 -5.66699 -33 -17 -45s-25.333 -18 -42 -18c-15.333 0 -28.833 6.16699 -40.5 18.5s-17.5 26.833 -17.5 43.5zM78 1317
c0 16.667 6.16699 31.167 18.5 43.5s26.5 18.5 42.5 18.5c15.333 0 28.5 -5.83301 39.5 -17.5s16.5 -26.167 16.5 -43.5c0 -18 -5.66699 -33 -17 -45s-25.333 -18 -42 -18c-15.333 0 -28.833 6.16699 -40.5 18.5s-17.5 26.833 -17.5 43.5zM173 1050c0 32 16.333 48 49 48
c31.333 0 47 -16 47 -48v-884c0 -43.333 12.333 -65 37 -65v-101c-33.333 0 -60.333 7.66699 -81 23c-20.667 -15.333 -49 -23 -85 -23c-93.333 0 -140 45 -140 135v915c0 32.667 15 49 45 49c34 0 51 -16.333 51 -49v-915c0 -23.333 14.667 -35 44 -35
c22 0 33 11.667 33 35v915z" />
    <glyph glyph-name="uniFE9B" unicode="&#x62b;" horiz-adv-x="268" arabic-form="initial" 
d="M85 1098c31.333 0 47 -17.333 47 -52v-912c0 -89.333 -44 -134 -132 -134v101c22 0 33 13 33 39v906c0.666992 34.667 18 52 52 52zM28 1317c0 16.667 6.16699 31.167 18.5 43.5s26.5 18.5 42.5 18.5c15.333 0 28.5 -5.83301 39.5 -17.5s16.5 -26.167 16.5 -43.5
c0 -18 -5.66699 -33 -17 -45s-25.333 -18 -42 -18c-15.333 0 -28.833 6.16699 -40.5 18.5s-17.5 26.833 -17.5 43.5zM86 1197c0 16.667 6.16699 31.167 18.5 43.5s26.5 18.5 42.5 18.5c15.333 0 28.5 -5.83301 39.5 -17.5s16.5 -26.167 16.5 -43.5
c0 -18 -5.66699 -33 -17 -45s-25.333 -18 -42 -18c-15.333 0 -28.833 6.16699 -40.5 18.5s-17.5 26.833 -17.5 43.5zM-34 1197c0 16.667 6.16699 31.167 18.5 43.5s26.5 18.5 42.5 18.5c15.333 0 28.5 -5.83301 39.5 -17.5s16.5 -26.167 16.5 -43.5
c0 -18 -5.66699 -33 -17 -45s-25.333 -18 -42 -18c-15.333 0 -28.833 6.16699 -40.5 18.5s-17.5 26.833 -17.5 43.5z" />
    <glyph glyph-name="uniFE9C" unicode="&#x62b;" arabic-form="medial" 
d="M85 1098c31.333 0 47.001 -17.333 47.001 -52v-880c0 -43.333 11.333 -65 34 -65v-101c-32.667 -0 -59.334 7.33301 -80.001 22c-21.333 -14.667 -50 -22 -86 -22v101c22 0 33 13 33 39v18v8v880c0.666992 34.667 18 52 52 52zM28.001 1317
c0 16.667 6.16699 31.167 18.5 43.5s26.5 18.5 42.5 18.5c15.333 0 28.5 -5.83301 39.5 -17.5s16.5 -26.167 16.5 -43.5c0 -18 -5.66699 -33 -17 -45s-25.333 -18 -42 -18c-15.333 0 -28.833 6.16699 -40.5 18.5s-17.5 26.833 -17.5 43.5zM86.001 1197
c0 16.667 6.16699 31.167 18.5 43.5s26.5 18.5 42.5 18.5c15.333 0 28.5 -5.83301 39.5 -17.5s16.5 -26.167 16.5 -43.5c0 -18 -5.66699 -33 -17 -45s-25.333 -18 -42 -18c-15.333 0 -28.833 6.16699 -40.5 18.5s-17.5 26.833 -17.5 43.5zM-33.999 1197
c0 16.667 6.16699 31.167 18.5 43.5s26.5 18.5 42.5 18.5c15.333 0 28.5 -5.83301 39.5 -17.5s16.5 -26.167 16.5 -43.5c0 -18 -5.66699 -33 -17 -45s-25.333 -18 -42 -18c-15.333 0 -28.833 6.16699 -40.5 18.5s-17.5 26.833 -17.5 43.5z" />
    <glyph glyph-name="uniFE9E" unicode="&#x62c;" horiz-adv-x="1212" arabic-form="final" 
d="M615 -124c0 16.667 6.16699 31.167 18.5 43.5s26.5 18.5 42.5 18.5c15.333 0 28.5 -5.83301 39.5 -17.5s16.5 -26.167 16.5 -43.5c0 -18 -5.66699 -33 -17 -45s-25.333 -18 -42 -18c-15.333 0 -28.833 6.16699 -40.5 18.5s-17.5 26.833 -17.5 43.5zM632 98
l47 -0.00195312c22 0 33 11.667 33 35v826c0 23.333 -11 35 -33 35c-29.333 0 -44 -11.667 -44 -35v-410c0 -32 -15.667 -48 -47 -48c-32.667 0 -49 16 -49 48v410c0 90 46.667 135 140 135c86 0 129 -45 129 -135v-797c5.33301 -19.333 13.333 -34.333 24 -45
c12.667 -12 32.334 -17.667 59.001 -17h378v-100h-377c-10 0 -19.333 0.666992 -28 2c-32.667 4.66699 -60.334 16.667 -83.001 36c-17.333 -21.333 -43.666 -34 -78.999 -38c-7.33301 -0.666992 -15 -1 -23 -1h-109c-22.667 0 -50 -3.33301 -82 -10
c-98 -21.333 -182 -62.666 -252 -123.999c-90.667 -72 -136 -192.333 -136 -361c0 -139.333 48 -256.666 144 -351.999c95.333 -96 213 -144 353 -144c132 0 247.667 48 347 144c97.333 99.333 146 216.666 146 351.999c0 44.667 -4.66699 85.5 -14 122.5
s-46 108.167 -110 213.5c-18 28.667 -15 53 9 73c29.333 19.333 58.666 11 87.999 -25c10.667 -10.667 30 -45 58 -103s47 -108.167 57 -150.5s15 -85.833 15 -130.5c0 -162 -59.333 -302.333 -178 -421c-116.667 -118.667 -258 -178 -424 -178
c-168.667 0 -310 59.333 -424 178c-120.667 118.667 -178.667 259.334 -174 422.001c0.666992 192 56.667 338 168 438c90.667 74 189 123.667 295 149c19.333 2.66699 78 4.66699 176 6z" />
    <glyph glyph-name="uniFE9F" unicode="&#x62c;" horiz-adv-x="471" arabic-form="initial" 
d="M213 -124c0 16.667 6.16699 31.167 18.5 43.5s26.5 18.5 42.5 18.5c15.333 0 28.5 -5.83301 39.5 -17.5s16.5 -26.167 16.5 -43.5c0 -18 -5.66699 -33 -17 -45s-25.333 -18 -42 -18c-15.333 0 -28.833 6.16699 -40.5 18.5s-17.5 26.833 -17.5 43.5zM-33 -1v100.001h292
c20 -0.666992 30 10.666 30 33.999v826c0 23.333 -11 35 -33 35c-29.333 0 -44 -11.667 -44 -35v-410c0 -32 -15.667 -48 -47 -48c-32.667 0 -49 16 -49 48v410c0 90 46.667 135 140 135c86 0 129 -45 129 -135v-826c0 -89.333 -43 -134 -129 -134h-289z" />
    <glyph glyph-name="uniFEA0" unicode="&#x62c;" horiz-adv-x="499" arabic-form="medial" 
d="M213 -124c0 16.667 6.16699 31.167 18.5 43.5s26.5 18.5 42.5 18.5c15.333 0 28.5 -5.83301 39.5 -17.5s16.5 -26.167 16.5 -43.5c0 -18 -5.66699 -33 -17 -45s-25.333 -18 -42 -18c-15.333 0 -28.833 6.16699 -40.5 18.5s-17.5 26.833 -17.5 43.5zM385 162
c5.33301 -19.333 13.333 -34.332 24 -44.999c12.667 -12 32.334 -17.667 59.001 -17h66v-100h-65c-10 0 -19.333 0.666992 -28 2c-32.667 4.66699 -60.334 16.667 -83.001 36c-21.333 -26 -55.333 -39 -102 -39h-289v100h289c22 -0.666992 33 10.666 33 33.999v826
c0 23.333 -11 35 -33 35c-29.333 0 -44 -11.667 -44 -35v-410c0 -32 -15.667 -48 -47 -48c-32.667 0 -49 16 -49 48v410c0 90 46.667 135 140 135c86 0 129 -45 129 -135v-797z" />
    <glyph glyph-name="uniFEA2" unicode="&#x62d;" horiz-adv-x="1212" arabic-form="final" 
d="M488 -11c-98 -21.333 -181.999 -62.668 -251.999 -124.001c-90.667 -72 -136 -192.333 -136 -361c0 -139.333 48 -256.666 144 -351.999c95.333 -96 213 -144 353 -144c132 0 247.667 48 347 144c97.333 99.333 146 216.666 146 351.999
c0 44.667 -4.66699 85.5 -14 122.5s-46 108.167 -110 213.5c-18 28.667 -15 53 9 73c29.333 19.333 58.666 11 87.999 -25c10.667 -10.667 30 -45 58 -103s47 -108.167 57 -150.5s15 -85.833 15 -130.5c0 -162 -59.333 -302.333 -178 -421
c-116.667 -118.667 -258 -178 -424 -178c-168.667 0 -310 59.333 -424 178c-120.667 118.667 -178.667 259.334 -174 422.001c0.666992 192 56.667 338 168 438c90.667 74 189 123.667 295 149c22 3.33301 96.333 5.33301 223 6c22 0 33 11.667 33 35v826
c0 23.333 -11 35 -33 35c-29.333 0 -44 -11.667 -44 -35v-410c0 -32 -15.667 -48 -47 -48c-32.667 0 -49 16 -49 48v410c0 90 46.667 135 140 135c86 0 129 -45 129 -135v-797c5.33301 -19.333 13.333 -34.333 24 -45c12.667 -12 32.334 -17.667 59.001 -17h378v-100h-377
c-10 0 -19.333 0.666992 -28 2c-32.667 4.66699 -60.334 16.667 -83.001 36c-21.333 -26 -55.333 -39 -102 -39h-109c-22.667 0 -50 -3.33301 -82 -10z" />
    <glyph glyph-name="uniFEA3" unicode="&#x62d;" horiz-adv-x="471" arabic-form="initial" 
d="M-33 -1v100.001h292c20 -0.666992 30 10.666 30 33.999v826c0 23.333 -11 35 -33 35c-29.333 0 -44 -11.667 -44 -35v-410c0 -32 -15.667 -48 -47 -48c-32.667 0 -49 16 -49 48v410c0 90 46.667 135 140 135c86 0 129 -45 129 -135v-826c0 -89.333 -43 -134 -129 -134
h-289z" />
    <glyph glyph-name="uniFEA4" unicode="&#x62d;" horiz-adv-x="499" arabic-form="medial" 
d="M385 162c5.33301 -19.333 13.333 -34.332 24 -44.999c12.667 -12 32.334 -17.667 59.001 -17h66v-100h-65c-10 0 -19.333 0.666992 -28 2c-32.667 4.66699 -60.334 16.667 -83.001 36c-21.333 -26 -55.333 -39 -102 -39h-289v100h289c22 -0.666992 33 10.666 33 33.999
v826c0 23.333 -11 35 -33 35c-29.333 0 -44 -11.667 -44 -35v-410c0 -32 -15.667 -48 -47 -48c-32.667 0 -49 16 -49 48v410c0 90 46.667 135 140 135c86 0 129 -45 129 -135v-797z" />
    <glyph glyph-name="uniFEA6" unicode="&#x62e;" horiz-adv-x="1212" arabic-form="final" 
d="M488 -11c-98 -21.333 -181.999 -62.668 -251.999 -124.001c-90.667 -72 -136 -192.333 -136 -361c0 -139.333 48 -256.666 144 -351.999c95.333 -96 213 -144 353 -144c132 0 247.667 48 347 144c97.333 99.333 146 216.666 146 351.999
c0 44.667 -4.66699 85.5 -14 122.5s-46 108.167 -110 213.5c-18 28.667 -15 53 9 73c29.333 19.333 58.666 11 87.999 -25c10.667 -10.667 30 -45 58 -103s47 -108.167 57 -150.5s15 -85.833 15 -130.5c0 -162 -59.333 -302.333 -178 -421
c-116.667 -118.667 -258 -178 -424 -178c-168.667 0 -310 59.333 -424 178c-120.667 118.667 -178.667 259.334 -174 422.001c0.666992 192 56.667 338 168 438c90.667 74 189 123.667 295 149c22 3.33301 96.333 5.33301 223 6c22 0 33 11.667 33 35v826
c0 23.333 -11 35 -33 35c-29.333 0 -44 -11.667 -44 -35v-410c0 -32 -15.667 -48 -47 -48c-32.667 0 -49 16 -49 48v410c0 90 46.667 135 140 135c86 0 129 -45 129 -135v-797c5.33301 -19.333 13.333 -34.333 24 -45c12.667 -12 32.334 -17.667 59.001 -17h378v-100h-377
c-10 0 -19.333 0.666992 -28 2c-32.667 4.66699 -60.334 16.667 -83.001 36c-21.333 -26 -55.333 -39 -102 -39h-109c-22.667 0 -50 -3.33301 -82 -10zM620.001 1254c0 16.667 6.16699 31.167 18.5 43.5s26.5 18.5 42.5 18.5c15.333 0 28.5 -5.83301 39.5 -17.5
s16.5 -26.167 16.5 -43.5c0 -18 -5.66699 -33 -17 -45s-25.333 -18 -42 -18c-15.333 0 -28.833 6.16699 -40.5 18.5s-17.5 26.833 -17.5 43.5z" />
    <glyph glyph-name="uniFEA7" unicode="&#x62e;" horiz-adv-x="471" arabic-form="initial" 
d="M176 1254c0 16.667 6.16699 31.167 18.5 43.5s26.5 18.5 42.5 18.5c15.333 0 28.5 -5.83301 39.5 -17.5s16.5 -26.167 16.5 -43.5c0 -18 -5.66699 -33 -17 -45s-25.333 -18 -42 -18c-15.333 0 -28.833 6.16699 -40.5 18.5s-17.5 26.833 -17.5 43.5zM-33 -1v100.001h292
c20 -0.666992 30 10.666 30 33.999v826c0 23.333 -11 35 -33 35c-29.333 0 -44 -11.667 -44 -35v-410c0 -32 -15.667 -48 -47 -48c-32.667 0 -49 16 -49 48v410c0 90 46.667 135 140 135c86 0 129 -45 129 -135v-826c0 -89.333 -43 -134 -129 -134h-289z" />
    <glyph glyph-name="uniFEA8" unicode="&#x62e;" horiz-adv-x="499" arabic-form="medial" 
d="M176 1254c0 16.667 6.16699 31.167 18.5 43.5s26.5 18.5 42.5 18.5c15.333 0 28.5 -5.83301 39.5 -17.5s16.5 -26.167 16.5 -43.5c0 -18 -5.66699 -33 -17 -45s-25.333 -18 -42 -18c-15.333 0 -28.833 6.16699 -40.5 18.5s-17.5 26.833 -17.5 43.5zM385 162
c5.33301 -19.333 13.333 -34.332 24 -44.999c12.667 -12 32.334 -17.667 59.001 -17h66v-100h-65c-10 0 -19.333 0.666992 -28 2c-32.667 4.66699 -60.334 16.667 -83.001 36c-21.333 -26 -55.333 -39 -102 -39h-289v100h289c22 -0.666992 33 10.666 33 33.999v826
c0 23.333 -11 35 -33 35c-29.333 0 -44 -11.667 -44 -35v-410c0 -32 -15.667 -48 -47 -48c-32.667 0 -49 16 -49 48v410c0 90 46.667 135 140 135c86 0 129 -45 129 -135v-797z" />
    <glyph glyph-name="uniFEAA" unicode="&#x62f;" horiz-adv-x="415" arabic-form="final" 
d="M282 940c0.666992 64 -28.332 95.999 -86.999 95.999c-60.667 0 -91.334 -29 -92.001 -87c0 -40.667 -17 -61 -51 -61c-34.667 0 -52 21 -52 63c0.666992 118.667 65.667 178 195 178c124 0 186 -63 186 -189v-774c0 -43.333 11.333 -65 34 -65v-101
c-12 0 -23.333 1 -34 3v-3h-329c-34.667 0 -52 16.333 -52 49c-0 30.667 16.333 46.334 49 47.001h233v844z" />
    <glyph glyph-name="uniFEAC" unicode="&#x630;" horiz-adv-x="415" arabic-form="final" 
d="M282 940c0.666992 64 -28.332 95.999 -86.999 95.999c-60.667 0 -91.334 -29 -92.001 -87c0 -40.667 -17 -61 -51 -61c-34.667 0 -52 21 -52 63c0.666992 118.667 65.667 178 195 178c124 0 186 -63 186 -189v-774c0 -43.333 11.333 -65 34 -65v-101
c-12 0 -23.333 1 -34 3v-3h-329c-34.667 0 -52 16.333 -52 49c-0 30.667 16.333 46.334 49 47.001h233v844zM131.001 1296c0 16.667 6.16699 31.167 18.5 43.5s26.5 18.5 42.5 18.5c15.333 0 28.5 -5.83301 39.5 -17.5s16.5 -26.167 16.5 -43.5c0 -18 -5.66699 -33 -17 -45
s-25.333 -18 -42 -18c-15.333 0 -28.833 6.16699 -40.5 18.5s-17.5 26.833 -17.5 43.5z" />
    <glyph glyph-name="uniFEAE" unicode="&#x631;" horiz-adv-x="134" arabic-form="final" 
d="M94 4v-725c0.666992 -30.667 -13.666 -46 -42.999 -46c-34 0 -51 15.333 -51 46v1762c0 30.667 17 46 51 46c29.333 0 43.666 -15.333 42.999 -46v-875h1c0 -43.333 13 -65 39 -65v-101c-14.667 -0 -28 1.33301 -40 4z" />
    <glyph glyph-name="uniFEB0" unicode="&#x632;" horiz-adv-x="134" arabic-form="final" 
d="M94 4v-725c0.666992 -30.667 -13.666 -46 -42.999 -46c-34 0 -51 15.333 -51 46v1762c0 30.667 17 46 51 46c29.333 0 43.666 -15.333 42.999 -46v-875h1c0 -43.333 13 -65 39 -65v-101c-14.667 -0 -28 1.33301 -40 4zM-9 1206c0 16.667 6.16699 31.167 18.5 43.5
s26.5 18.5 42.5 18.5c15.333 0 28.5 -5.83301 39.5 -17.5s16.5 -26.167 16.5 -43.5c0 -18 -5.66699 -33 -17 -45s-25.333 -18 -42 -18c-15.333 0 -28.833 6.16699 -40.5 18.5s-17.5 26.833 -17.5 43.5z" />
    <glyph glyph-name="uniFEB2" unicode="&#x633;" horiz-adv-x="649" arabic-form="final" 
d="M615 1050v-884h1v-32c0 -22 11 -33 33 -33v-101c-32 0 -58 7.66699 -78 23c-21.333 -15.333 -49.666 -23 -84.999 -23c-38 -0 -68 7.33301 -90 22c-20.667 -14.667 -48.334 -22 -83.001 -22c-16 -0 -30.667 1.33301 -44 4v-269c0 -90 -43 -135 -129 -135
c-93.333 0 -140 45 -140 135v915c0 32.667 15 49 45 49c34 0 51 -16.333 51 -49v-915c0 -23.333 14.667 -35 44 -35c22 0 33 11.667 33 35v915v4v396c0 32.667 15 49 45 49c34 0 51 -16.333 51 -49v-915c0 -23.333 14.667 -35 44 -35c20 0 31 10 33 30v5v915v4
c0 3.33301 0.333008 6.33301 1 9l1 4c4.66699 21.333 19 32 43 32c12 0 21.667 -2 29 -6s13 -9.66699 17 -17v-1c0.666992 -1.33301 1 -2.33301 1 -3c1.33301 -2.66699 2.33301 -5.66699 3 -9c0 -2 0.333008 -4.33301 1 -7v-1v-5v-915v-5c2 -20 16.667 -30 44 -30
c22 0 33 11.667 33 35v915c0 32 16.333 48 49 48c31.333 0 47 -16 47 -48z" />
    <glyph glyph-name="uniFEB3" unicode="&#x633;" horiz-adv-x="545" arabic-form="initial" 
d="M475 1050l0.000976562 -915c0 -90 -43 -135 -129 -135c-38 -0 -68 7.33301 -90 22c-20.667 -14.667 -48.334 -22 -83.001 -22c-39.333 0 -70.333 8 -93 24c-20.667 -16 -47.334 -24 -80.001 -24v101c22 0 33 21 33 63v886c0 32.667 15 49 45 49c34 0 51 -16.333 51 -49
v-915c0 -23.333 14.667 -35 44 -35c22 0 33 11.667 33 35v915v4c0 3.33301 0.333008 6.33301 1 9l1 4c4.66699 21.333 19 32 43 32c12 0 21.667 -2 29 -6c8.66699 -4.66699 14.667 -11.667 18 -21c0.666992 -1.33301 1.33398 -3 2.00098 -5c1.33301 -5.33301 2 -11 2 -17
v-915v-5c2 -20 16.667 -30 44 -30c22 0 33 11.667 33 35v915c0 32 16.333 48 49 48c31.333 0 47 -16 47 -48z" />
    <glyph glyph-name="uniFEB4" unicode="&#x633;" horiz-adv-x="508" arabic-form="medial" 
d="M475 1050l0.000976562 -915v-1c0 -22 11 -33 33 -33v-101c-32 0 -58 7.66699 -78 23c-20.667 -15.333 -48.667 -23 -84 -23c-38 -0 -68 7.33301 -90 22c-20.667 -14.667 -48.334 -22 -83.001 -22c-39.333 0 -70.333 8 -93 24c-20.667 -16 -47.334 -24 -80.001 -24v101
c22 0 33 21 33 63v886c0 32.667 15 49 45 49c34 0 51 -16.333 51 -49v-915c0 -23.333 14.667 -35 44 -35c20 0 31 10 33 30v5v915c0 32.667 15 49 45 49c12 0 21.667 -2 29 -6s13 -9.66699 17 -17v-1c0.666992 -1.33301 1 -2.33301 1 -3
c0.666992 -1.33301 1.33398 -3 2.00098 -5l2 -12v-5v-915c0 -23.333 14.667 -35 44 -35c22 0 33 11.667 33 35v915c0 32 16.333 48 49 48c31.333 0 47 -16 47 -48z" />
    <glyph glyph-name="uniFEB6" unicode="&#x634;" horiz-adv-x="649" arabic-form="final" 
d="M337 1317c0 16.667 6.16699 31.167 18.5 43.5s26.5 18.5 42.5 18.5c15.333 0 28.5 -5.83301 39.5 -17.5s16.5 -26.167 16.5 -43.5c0 -18 -5.66699 -33 -17 -45s-25.333 -18 -42 -18c-15.333 0 -28.833 6.16699 -40.5 18.5s-17.5 26.833 -17.5 43.5zM615 1050v-884h1v-32
c0 -22 11 -33 33 -33v-101c-32 0 -58 7.66699 -78 23c-21.333 -15.333 -49.666 -23 -84.999 -23c-38 -0 -68 7.33301 -90 22c-20.667 -14.667 -48.334 -22 -83.001 -22c-16 -0 -30.667 1.33301 -44 4v-269c0 -90 -43 -135 -129 -135c-93.333 0 -140 45 -140 135v915
c0 32.667 15 49 45 49c34 0 51 -16.333 51 -49v-915c0 -23.333 14.667 -35 44 -35c22 0 33 11.667 33 35v1315c0 32.667 15 49 45 49c34 0 51 -16.333 51 -49v-915c0 -23.333 14.667 -35 44 -35c20 0 31 10 33 30v920c0 4.66699 0.333008 9 1 13l1 4
c4.66699 21.333 19 32 43 32c12 0 21.667 -2 29 -6s13 -9.66699 17 -17v-1c0.666992 -1.33301 1 -2.33301 1 -3c1.33301 -2.66699 2.33301 -5.66699 3 -9c0 -2 0.333008 -4.33301 1 -7v-926c2 -20 16.667 -30 44 -30c22 0 33 11.667 33 35v915c0 32 16.333 48 49 48
c31.333 0 47 -16 47 -48zM395 1197c0 16.667 6.16699 31.167 18.5 43.5s26.5 18.5 42.5 18.5c15.333 0 28.5 -5.83301 39.5 -17.5s16.5 -26.167 16.5 -43.5c0 -18 -5.66699 -33 -17 -45s-25.333 -18 -42 -18c-15.333 0 -28.833 6.16699 -40.5 18.5s-17.5 26.833 -17.5 43.5z
M275 1197c0 16.667 6.16699 31.167 18.5 43.5s26.5 18.5 42.5 18.5c15.333 0 28.5 -5.83301 39.5 -17.5s16.5 -26.167 16.5 -43.5c0 -18 -5.66699 -33 -17 -45s-25.333 -18 -42 -18c-15.333 0 -28.833 6.16699 -40.5 18.5s-17.5 26.833 -17.5 43.5z" />
    <glyph glyph-name="uniFEB7" unicode="&#x634;" horiz-adv-x="545" arabic-form="initial" 
d="M475 1050l0.000976562 -915c0 -90 -43 -135 -129 -135c-38 -0 -68 7.33301 -90 22c-20.667 -14.667 -48.334 -22 -83.001 -22c-39.333 0 -70.333 8 -93 24c-20.667 -16 -47.334 -24 -80.001 -24v101c22 0 33 21 33 63v886c0 32.667 15 49 45 49c34 0 51 -16.333 51 -49
v-915c0 -23.333 14.667 -35 44 -35c22 0 33 11.667 33 35v915c0 4.66699 0.333008 9 1 13l1 4c4.66699 21.333 19 32 43 32c12 0 21.667 -2 29 -6s13 -9.66699 17 -17v-1c0.666992 -1.33301 1 -2.33301 1 -3c0.666992 -1.33301 1.33398 -3 2.00098 -5l2 -12v-5v-915v-5
c2 -20 16.667 -30 44 -30c22 0 33 11.667 33 35v915c0 32 16.333 48 49 48c31.333 0 47 -16 47 -48zM254.001 1197c0 16.667 6.16699 31.167 18.5 43.5s26.5 18.5 42.5 18.5c15.333 0 28.5 -5.83301 39.5 -17.5s16.5 -26.167 16.5 -43.5c0 -18 -5.66699 -33 -17 -45
s-25.333 -18 -42 -18c-15.333 0 -28.833 6.16699 -40.5 18.5s-17.5 26.833 -17.5 43.5zM134.001 1197c0 16.667 6.16699 31.167 18.5 43.5s26.5 18.5 42.5 18.5c15.333 0 28.5 -5.83301 39.5 -17.5s16.5 -26.167 16.5 -43.5c0 -18 -5.66699 -33 -17 -45s-25.333 -18 -42 -18
c-15.333 0 -28.833 6.16699 -40.5 18.5s-17.5 26.833 -17.5 43.5zM196.001 1317c0 16.667 6.16699 31.167 18.5 43.5s26.5 18.5 42.5 18.5c15.333 0 28.5 -5.83301 39.5 -17.5s16.5 -26.167 16.5 -43.5c0 -18 -5.66699 -33 -17 -45s-25.333 -18 -42 -18
c-15.333 0 -28.833 6.16699 -40.5 18.5s-17.5 26.833 -17.5 43.5z" />
    <glyph glyph-name="uniFEB8" unicode="&#x634;" horiz-adv-x="508" arabic-form="medial" 
d="M475 1050l0.000976562 -915v-6c1.33301 -18.667 12.333 -28 33 -28v-101c-32 0 -58 7.66699 -78 23c-20.667 -15.333 -48.667 -23 -84 -23c-38 -0 -68 7.33301 -90 22c-20.667 -14.667 -48.334 -22 -83.001 -22c-39.333 0 -70.333 8 -93 24
c-20.667 -16 -47.334 -24 -80.001 -24v101c22 0 33 21 33 63v886c0 32.667 15 49 45 49c34 0 51 -16.333 51 -49v-915c0 -23.333 14.667 -35 44 -35c22 0 33 11.667 33 35v915c0 4.66699 0.333008 9 1 13l1 4c4.66699 21.333 19 32 43 32c12 0 21.667 -2 29 -6
s13 -9.66699 17 -17v-1c0.666992 -1.33301 1 -2.33301 1 -3c0.666992 -1.33301 1.33398 -3 2.00098 -5l2 -12v-5v-915v-5c2 -20 16.667 -30 44 -30c22 0 33 11.667 33 35v915c0 32 16.333 48 49 48c31.333 0 47 -16 47 -48zM196.001 1317c0 16.667 6.16699 31.167 18.5 43.5
s26.5 18.5 42.5 18.5c15.333 0 28.5 -5.83301 39.5 -17.5s16.5 -26.167 16.5 -43.5c0 -18 -5.66699 -33 -17 -45s-25.333 -18 -42 -18c-15.333 0 -28.833 6.16699 -40.5 18.5s-17.5 26.833 -17.5 43.5zM134.001 1197c0 16.667 6.16699 31.167 18.5 43.5s26.5 18.5 42.5 18.5
c15.333 0 28.5 -5.83301 39.5 -17.5s16.5 -26.167 16.5 -43.5c0 -18 -5.66699 -33 -17 -45s-25.333 -18 -42 -18c-15.333 0 -28.833 6.16699 -40.5 18.5s-17.5 26.833 -17.5 43.5zM254.001 1197c0 16.667 6.16699 31.167 18.5 43.5s26.5 18.5 42.5 18.5
c15.333 0 28.5 -5.83301 39.5 -17.5s16.5 -26.167 16.5 -43.5c0 -18 -5.66699 -33 -17 -45s-25.333 -18 -42 -18c-15.333 0 -28.833 6.16699 -40.5 18.5s-17.5 26.833 -17.5 43.5z" />
    <glyph glyph-name="uniFEBA" unicode="&#x635;" horiz-adv-x="651" arabic-form="final" 
d="M269 1048l-0.000976562 -200l26 51c68.667 129.333 128.167 195 178.5 197s87 -9.5 110 -34.5s34.5 -56.833 34.5 -95.5v-832c0 -22 11 -33 33 -33v-101c-42.667 0 -75 12.667 -97 38c-57.333 -37.333 -152.333 -49.333 -285 -36v-267c0 -90 -43 -135 -129 -135
c-93.333 0 -140 45 -140 135v915c0 32.667 15 49 45 49c34 0 51 -16.333 51 -49v-915c0 -23.333 14.667 -35 44 -35c22 0 33 11.667 33 35v915v4v394c0 30.667 15.833 46 47.5 46s47.834 -15.333 48.501 -46zM275.999 622v-482.999c0 -30.667 42.333 -46 127 -46
c73.333 0 110 16.333 110 49v818c3.33301 24.667 -5 38.667 -25 42s-60 -48.667 -120 -156c-17.333 -28.667 -48 -103.334 -92 -224.001z" />
    <glyph glyph-name="uniFEBB" unicode="&#x635;" horiz-adv-x="550" arabic-form="initial" 
d="M128 1051l-0.000976562 -198l23 41c81.333 129.333 145 196.5 191 201.5s80.5 -6.5 103.5 -34.5s34.5 -59.667 34.5 -95v-843c-12 -118 -148.667 -150.333 -410 -97c-18 -16 -41.333 -24.667 -70 -26v101c23.333 0 35 17.667 35 53v897c0 28.667 15.333 43 46 43
s46.334 -14.333 47.001 -43zM133.999 623l-1 -471c0 -33.333 44 -50 132 -50c74 0 110.667 16.333 110 49v810c0 24.667 -10.167 39 -30.5 43s-60.5 -47.333 -120.5 -154c-29.333 -54 -59.333 -129.667 -90 -227z" />
    <glyph glyph-name="uniFEBC" unicode="&#x635;" horiz-adv-x="513" arabic-form="medial" 
d="M128 1051l-0.000976562 -198l23 41c81.333 129.333 145 196.5 191 201.5s80.5 -6.5 103.5 -34.5s34.5 -59.667 34.5 -95v-837c1.33301 -18.667 12.333 -28 33 -28v-101c-38.667 -0 -69 10.333 -91 31c-64 -38 -181.333 -39.667 -352 -5c-18 -16 -41.333 -24.667 -70 -26
v101c23.333 0 35 17.667 35 53v897c0 28.667 15.333 43 46 43s46.334 -14.333 47.001 -43zM131.999 623l1 -471c0 -33.333 44 -50 132 -50c74 0 110.667 16.333 110 49v810c0 24.667 -10.167 39 -30.5 43s-60.5 -47.333 -120.5 -154c-29.333 -54 -60 -129.667 -92 -227z" />
    <glyph glyph-name="uniFEBE" unicode="&#x636;" horiz-adv-x="651" arabic-form="final" 
d="M269 1048l-0.000976562 -200l26 51c68.667 129.333 128.167 195 178.5 197s87 -9.5 110 -34.5s34.5 -56.833 34.5 -95.5v-832c0 -22 11 -33 33 -33v-101c-42.667 0 -75 12.667 -97 38c-57.333 -37.333 -152.333 -49.333 -285 -36v-267c0 -90 -43 -135 -129 -135
c-93.333 0 -140 45 -140 135v915c0 32.667 15 49 45 49c34 0 51 -16.333 51 -49v-915c0 -23.333 14.667 -35 44 -35c22 0 33 11.667 33 35v915v4v394c0 30.667 15.833 46 47.5 46s47.834 -15.333 48.501 -46zM275.999 622v-482.999c0 -30.667 42.333 -46 127 -46
c73.333 0 110 16.333 110 49v818c3.33301 24.667 -5 38.667 -25 42s-60 -48.667 -120 -156c-17.333 -28.667 -48 -103.334 -92 -224.001zM250.999 1276c0 16.667 6.16699 31.167 18.5 43.5s26.5 18.5 42.5 18.5c15.333 0 28.5 -5.83301 39.5 -17.5s16.5 -26.167 16.5 -43.5
c0 -18 -5.66699 -33 -17 -45s-25.333 -18 -42 -18c-15.333 0 -28.833 6.16699 -40.5 18.5s-17.5 26.833 -17.5 43.5z" />
    <glyph glyph-name="uniFEBF" unicode="&#x636;" horiz-adv-x="550" arabic-form="initial" 
d="M128 1051l-0.000976562 -198l23 41c81.333 129.333 145 196.5 191 201.5s80.5 -6.5 103.5 -34.5s34.5 -59.667 34.5 -95v-843c-12 -118 -148.667 -150.333 -410 -97c-18 -16 -41.333 -24.667 -70 -26v101c23.333 0 35 17.667 35 53v897c0 28.667 15.333 43 46 43
s46.334 -14.333 47.001 -43zM133.999 623l-1 -471c0 -33.333 44 -50 132 -50c74 0 110.667 16.333 110 49v810c0 24.667 -10.167 39 -30.5 43s-60.5 -47.333 -120.5 -154c-29.333 -54 -59.333 -129.667 -90 -227zM125.999 1276c0 16.667 6.16699 31.167 18.5 43.5
s26.5 18.5 42.5 18.5c15.333 0 28.5 -5.83301 39.5 -17.5s16.5 -26.167 16.5 -43.5c0 -18 -5.66699 -33 -17 -45s-25.333 -18 -42 -18c-15.333 0 -28.833 6.16699 -40.5 18.5s-17.5 26.833 -17.5 43.5z" />
    <glyph glyph-name="uniFEC0" unicode="&#x636;" horiz-adv-x="513" arabic-form="medial" 
d="M480 966l-0.000976562 -837c1.33301 -18.667 12.333 -28 33 -28v-101c-38.667 -0 -69 10.333 -91 31c-64 -38 -181.333 -39.667 -352 -5c-18 -16 -41.333 -24.667 -70 -26v101c23.333 0 35 17.667 35 53v897c0 28.667 15.333 43 46 43s46.334 -14.333 47.001 -43v-198
l23 41c81.333 129.333 145 196.5 191 201.5s80.5 -6.5 103.5 -34.5s34.5 -59.667 34.5 -95zM131.999 623l1 -471c0 -33.333 44 -50 132 -50c74 0 110.667 16.333 110 49v810c0 24.667 -10.167 39 -30.5 43s-60.5 -47.333 -120.5 -154c-29.333 -54 -60 -129.667 -92 -227z
M125.999 1276c0 16.667 6.16699 31.167 18.5 43.5s26.5 18.5 42.5 18.5c15.333 0 28.5 -5.83301 39.5 -17.5s16.5 -26.167 16.5 -43.5c0 -18 -5.66699 -33 -17 -45s-25.333 -18 -42 -18c-15.333 0 -28.833 6.16699 -40.5 18.5s-17.5 26.833 -17.5 43.5z" />
    <glyph glyph-name="uniFEC2" unicode="&#x637;" horiz-adv-x="457" arabic-form="final" 
d="M222 80c68 0 101.999 17.999 101.999 53.999v789c0 16.667 -9.5 27.334 -28.5 32.001s-45 -19.333 -78 -72s-74.167 -148 -123.5 -286v-477c0.666992 -26.667 43.334 -40 128.001 -40zM367.999 29.999c-31.333 -20.667 -76.334 -31.334 -135.001 -32.001
c-155.333 0 -232.666 17.333 -231.999 52v1449c-0.666992 34 14.833 51 46.5 51s47.167 -17 46.5 -51v-687c24.667 62.667 54.5 116.5 89.5 161.5s70.5 69.833 106.5 74.5s66.667 -4.66602 92 -27.999s38 -55 38 -95v-759c0 -43.333 12.333 -65 37 -65v-101
c-38 0 -67.667 10 -89 30z" />
    <glyph glyph-name="uniFEC3" unicode="&#x637;" horiz-adv-x="522" arabic-form="initial" 
d="M126 1499l0.00195312 -687.001c24.667 62.667 54.5 116.5 89.5 161.5s70.5 69.833 106.5 74.5s66.667 -4.66602 92 -27.999s38 -55 38 -95v-785c0 -94 -62.333 -141.333 -187 -142c-94.667 0 -160.334 6.33301 -197.001 19c-18.667 -11.333 -41.334 -17 -68.001 -17v101
c22 0 33 21 33 63v1335c-0.666992 34 14.833 51 46.5 51s47.167 -17 46.5 -51zM356.002 133.999l-0.000976562 788.999c0 16.667 -9.5 27.334 -28.5 32.001s-45 -19.333 -78 -72s-74.167 -148 -123.5 -286v-477c0.666992 -26.667 43.334 -40 128.001 -40c68 0 102 18 102 54
z" />
    <glyph glyph-name="uniFEC4" unicode="&#x637;" horiz-adv-x="489" arabic-form="medial" 
d="M126 1499l0.00292969 -687c24.667 62.667 54.5 116.5 89.5 161.5s70.5 69.833 106.5 74.5s66.667 -4.66602 92 -27.999s38 -55 38 -95v-769c2 -36.667 14.333 -55 37 -55v-101c-38 0 -68 10 -90 30c-30.667 -20.667 -75.334 -31.334 -134.001 -32.001
c-94.667 0 -160.334 6.33301 -197.001 19c-18.667 -11.333 -41.334 -17 -68.001 -17v101c22 0 33 21 33 63v1335c-0.666992 34 14.833 51 46.5 51s47.167 -17 46.5 -51zM254.003 80c68 0 101.999 17.999 101.999 53.999v789c0 16.667 -9.5 27.334 -28.5 32.001
s-45 -19.333 -78 -72s-74.167 -148 -123.5 -286v-477c0.666992 -26.667 43.334 -40 128.001 -40z" />
    <glyph glyph-name="uniFEC6" unicode="&#x638;" horiz-adv-x="458" arabic-form="final" 
d="M222 80c68 0 101.999 17.999 101.999 53.999v789c0 16.667 -9.5 27.334 -28.5 32.001s-45 -19.333 -78 -72s-74.167 -148 -123.5 -286v-477c0.666992 -26.667 43.334 -40 128.001 -40zM367.999 30.999c-30.667 -21.333 -75.668 -32.334 -135.001 -33.001
c-155.333 0 -232.666 17.333 -231.999 52v1449c-0.666992 34 14.833 51 46.5 51s47.167 -17 46.5 -51v-687c24.667 62.667 54.5 116.5 89.5 161.5s70.5 69.833 106.5 74.5s66.667 -4.66602 92 -27.999s38 -55 38 -95v-759h1c0 -43.333 12.333 -65 37 -65v-101
c-38 0 -68 10.333 -90 31zM175.998 1276c0 16.667 6.16699 31.167 18.5 43.5s26.5 18.5 42.5 18.5c15.333 0 28.5 -5.83301 39.5 -17.5s16.5 -26.167 16.5 -43.5c0 -18 -5.66699 -33 -17 -45s-25.333 -18 -42 -18c-15.333 0 -28.833 6.16699 -40.5 18.5
s-17.5 26.833 -17.5 43.5z" />
    <glyph glyph-name="uniFEC7" unicode="&#x638;" horiz-adv-x="522" arabic-form="initial" 
d="M254 80c68 0 101.999 17.999 101.999 53.999v789c0 16.667 -9.5 27.334 -28.5 32.001s-45 -19.333 -78 -72s-74.167 -148 -123.5 -286v-477c0.666992 -26.667 43.334 -40 128.001 -40zM32.999 163.999v1335c-0.666992 34 14.833 51 46.5 51s47.167 -17 46.5 -51v-687
c24.667 62.667 54.5 116.5 89.5 161.5s70.5 69.833 106.5 74.5s66.667 -4.66602 92 -27.999s38 -55 38 -95v-785c0 -94 -62.333 -141.333 -187 -142c-94 0 -159.667 6.33301 -197 19c-18 -11.333 -40.667 -17 -68 -17v101c22 0 33 21 33 63zM195.999 1276
c0 16.667 6.16699 31.167 18.5 43.5s26.5 18.5 42.5 18.5c15.333 0 28.5 -5.83301 39.5 -17.5s16.5 -26.167 16.5 -43.5c0 -18 -5.66699 -33 -17 -45s-25.333 -18 -42 -18c-15.333 0 -28.833 6.16699 -40.5 18.5s-17.5 26.833 -17.5 43.5z" />
    <glyph glyph-name="uniFEC8" unicode="&#x638;" horiz-adv-x="490" arabic-form="medial" 
d="M254 80c68 0 101.999 17.999 101.999 53.999v789c0 16.667 -9.5 27.334 -28.5 32.001s-45 -19.333 -78 -72s-74.167 -148 -123.5 -286v-477c0.666992 -26.667 43.334 -40 128.001 -40zM451.999 165.999l1 -0.000976562c0 -43.333 12.333 -65 37 -65v-101
c-38 0 -68 10.333 -90 31c-30.667 -21.333 -75.667 -32.333 -135 -33c-94 0 -159.667 6.33301 -197 19c-18 -11.333 -40.667 -17 -68 -17v101c22 0 33 21 33 63v1335c-0.666992 34 14.833 51 46.5 51s47.167 -17 46.5 -51v-687c24.667 62.667 54.5 116.5 89.5 161.5
s70.5 69.833 106.5 74.5s66.667 -4.66602 92 -27.999s38 -55 38 -95v-759zM195.999 1276c0 16.667 6.16699 31.167 18.5 43.5s26.5 18.5 42.5 18.5c15.333 0 28.5 -5.83301 39.5 -17.5s16.5 -26.167 16.5 -43.5c0 -18 -5.66699 -33 -17 -45s-25.333 -18 -42 -18
c-15.333 0 -28.833 6.16699 -40.5 18.5s-17.5 26.833 -17.5 43.5z" />
    <glyph glyph-name="uniFECA" unicode="&#x639;" horiz-adv-x="1121" arabic-form="final" 
d="M504 94l-0.000976562 847.998c-4 52.667 12.833 97.334 50.5 134.001s82.834 55 135.501 55c54.667 0 99 -17.833 133 -53.5s54.667 -77.167 62 -124.5c0 -42 -17.333 -63 -52 -63c-29.333 0 -46.666 11.667 -51.999 35c-0.666992 75.333 -31 113 -91 113
c-60.667 0 -90.667 -32 -90 -96v-841h576v-101h-630c-6.66699 -0.666992 -26 -4.33398 -58 -11.001c-98 -21.333 -182 -62.666 -252 -123.999c-90.667 -72 -136 -192.333 -136 -361c0 -139.333 48 -256.666 144 -351.999c95.333 -96 213 -144 353 -144
c132 0 247.667 48 347 144c97.333 99.333 146 216.666 146 351.999c0 44.667 -4.66699 85.5 -14 122.5s-46 108.167 -110 213.5c-18 28.667 -15 53 9 73c29.333 19.333 58.666 11 87.999 -25c10.667 -10.667 30 -45 58 -103s47 -108.167 57 -150.5s15 -85.833 15 -130.5
c0 -162 -59.333 -302.333 -178 -421c-116.667 -118.667 -258 -178 -424 -178c-168.667 0 -310 59.333 -424 178c-120.667 118.667 -178.667 259.334 -174 422.001c0.666992 192 56.667 338 168 438c90.667 74 189 123.667 295 149c7.33301 1.33301 23.333 2 48 2z" />
    <glyph glyph-name="uniFECB" unicode="&#x639;" horiz-adv-x="506" arabic-form="initial" 
d="M55 164l-0.00195312 777.999c-4 52.667 12.833 97.334 50.5 134.001s82.834 55 135.501 55c54.667 0 99 -17.833 133 -53.5s54.667 -77.167 62 -124.5c0 -42 -17.333 -63 -52 -63c-29.333 0 -46.666 11.667 -51.999 35c-0.666992 75.333 -31 113 -91 113
c-60.667 0 -90.667 -32 -90 -96v-845h229c37.333 0 56 -16.667 56 -50c-0.666992 -31.333 -18 -47 -52 -47h-329v3c-10.667 -2 -22 -3 -34 -3h-34v101h34c22 0 33 21 33 63h1z" />
    <glyph glyph-name="uniFECC" unicode="&#x639;" horiz-adv-x="509" arabic-form="medial" 
d="M34 3c-10.667 -2 -22.002 -3.00098 -34.002 -3.00098v101c22 0 33 21 33 63h1v778c-4 52.667 12.833 97.334 50.5 134.001s82.834 55 135.501 55c54.667 0 99 -17.833 133 -53.5s54.667 -77.167 62 -124.5c0 -42 -17.333 -63 -52 -63
c-29.333 0 -46.666 11.667 -51.999 35c-0.666992 75.333 -31 113 -91 113c-60.667 0 -90.667 -32 -90 -96v-841h380v-101h-476v3z" />
    <glyph glyph-name="uniFECE" unicode="&#x63a;" horiz-adv-x="1121" arabic-form="final" 
d="M597 1296c0 16.667 6.16699 31.167 18.5 43.5s26.5 18.5 42.5 18.5c15.333 0 28.5 -5.83301 39.5 -17.5s16.5 -26.167 16.5 -43.5c0 -18 -5.66699 -33 -17 -45s-25.333 -18 -42 -18c-15.333 0 -28.833 6.16699 -40.5 18.5s-17.5 26.833 -17.5 43.5zM504 94
l-0.000976562 847.998c-4 52.667 12.833 97.334 50.5 134.001s82.834 55 135.501 55c54.667 0 99 -17.833 133 -53.5s54.667 -77.167 62 -124.5c0 -42 -17.333 -63 -52 -63c-29.333 0 -46.666 11.667 -51.999 35c-0.666992 75.333 -31 113 -91 113
c-60.667 0 -90.667 -32 -90 -96v-841h576v-101h-630c-6.66699 -0.666992 -26 -4.33398 -58 -11.001c-98 -21.333 -182 -62.666 -252 -123.999c-90.667 -72 -136 -192.333 -136 -361c0 -139.333 48 -256.666 144 -351.999c95.333 -96 213 -144 353 -144
c132 0 247.667 48 347 144c97.333 99.333 146 216.666 146 351.999c0 44.667 -4.66699 85.5 -14 122.5s-46 108.167 -110 213.5c-18 28.667 -15 53 9 73c29.333 19.333 58.666 11 87.999 -25c10.667 -10.667 30 -45 58 -103s47 -108.167 57 -150.5s15 -85.833 15 -130.5
c0 -162 -59.333 -302.333 -178 -421c-116.667 -118.667 -258 -178 -424 -178c-168.667 0 -310 59.333 -424 178c-120.667 118.667 -178.667 259.334 -174 422.001c0.666992 192 56.667 338 168 438c90.667 74 189 123.667 295 149c7.33301 1.33301 23.333 2 48 2z" />
    <glyph glyph-name="uniFECF" unicode="&#x63a;" horiz-adv-x="509" arabic-form="initial" 
d="M155 1296c0 16.667 6.16699 31.167 18.5 43.5s26.5 18.5 42.5 18.5c15.333 0 28.5 -5.83301 39.5 -17.5s16.5 -26.167 16.5 -43.5c0 -18 -5.66699 -33 -17 -45s-25.333 -18 -42 -18c-15.333 0 -28.833 6.16699 -40.5 18.5s-17.5 26.833 -17.5 43.5zM58 164
l-0.00195312 777.999c-4 52.667 12.833 97.334 50.5 134.001s82.834 55 135.501 55c54.667 0 99 -17.833 133 -53.5s54.667 -77.167 62 -124.5c0 -42 -17.333 -63 -52 -63c-29.333 0 -46.666 11.667 -51.999 35c-0.666992 75.333 -31 113 -91 113
c-60.667 0 -90.667 -32 -90 -96v-845h229c37.333 0 56 -16.667 56 -50c-0.666992 -31.333 -18 -47 -52 -47h-329v3c-10.667 -2 -22 -3 -34 -3h-34v101h34c22 0 33 21 33 63h1z" />
    <glyph glyph-name="uniFED0" unicode="&#x63a;" horiz-adv-x="510" arabic-form="medial" 
d="M220 1131c54.667 0 98.998 -17.834 132.998 -53.501s54.667 -77.167 62 -124.5c0 -42 -17.333 -63 -52 -63c-29.333 0 -46.666 11.667 -51.999 35c-0.666992 75.333 -31 113 -91 113c-60.667 0 -90.667 -32 -90 -96v-841h380v-101h-476v3c-10.667 -2 -22 -3 -34 -3v101
c22 0 33 21 33 63h1v778c-4 52.667 12.833 97.334 50.5 134.001s82.834 55 135.501 55zM130.998 1296c0 16.667 6.16699 31.167 18.5 43.5s26.5 18.5 42.5 18.5c15.333 0 28.5 -5.83301 39.5 -17.5s16.5 -26.167 16.5 -43.5c0 -18 -5.66699 -33 -17 -45s-25.333 -18 -42 -18
c-15.333 0 -28.833 6.16699 -40.5 18.5s-17.5 26.833 -17.5 43.5z" />
    <glyph glyph-name="uniFED2" unicode="&#x641;" horiz-adv-x="398" arabic-form="final" 
d="M362 166c0 -43.333 12.001 -64.999 36.001 -64.999v-101c-13.333 0 -25.666 1 -36.999 3v-76c-4 -50.667 -20.667 -92.667 -50 -126c-33.333 -33.333 -75.333 -50 -126 -50c-60.667 0 -104.667 16.667 -132 50c-34.667 36.667 -52.334 77.667 -53.001 123
c0 39.333 14.667 59 44 59c27.333 2 45 -7 53 -27c2 -36.667 7.33301 -63.334 16 -80.001s31.667 -25 69 -25s61.333 8.83301 72 26.5s16 34.167 16 49.5v76c-10 -2 -22.667 -3 -38 -3c-43.333 -0 -77.666 12.333 -102.999 37s-38 55.667 -38 93v698
c0 35.333 12.667 66.666 38 93.999s56.666 41 93.999 41s69.666 -13.167 96.999 -39.5s41 -58.166 41 -95.499v-662h1zM264.001 828.001c0 23.333 -13.833 35 -41.5 35s-41.167 -12.667 -40.5 -38v-690c0 -25.333 13.667 -38 41 -38s41 12.667 41 38v693zM171.001 1106
c0 16.667 6.16699 31.167 18.5 43.5s26.5 18.5 42.5 18.5c15.333 0 28.5 -5.83301 39.5 -17.5s16.5 -26.167 16.5 -43.5c0 -18 -5.66699 -33 -17 -45s-25.333 -18 -42 -18c-15.333 0 -28.833 6.16699 -40.5 18.5s-17.5 26.833 -17.5 43.5z" />
    </font>
</defs>
</svg>
