<?xml version="1.0" standalone="no"?>
<!DOCTYPE svg PUBLIC "-//W3C//DTD SVG 1.1//EN" "http://www.w3.org/Graphics/SVG/1.1/DTD/svg11.dtd" >
<svg>
<metadata>
Created by FontForge 20090914 at Wed Oct 19 00:54:46 2011
 By www-data
(c) by Abolfazl Seilsepour - +98 912 591 3420  -  seilsepor@yahoo.com
</metadata>
<defs>
<font id="FarBaseet" horiz-adv-x="0" >
  <font-face 
    font-family="Far.Baseet"
    font-weight="300"
    font-stretch="normal"
    units-per-em="2048"
    panose-1="3 0 4 1 0 8 7 5 2 1"
    ascent="1638"
    descent="-410"
    bbox="-233 -627 1984 1581"
    underline-thickness="60"
    underline-position="-560"
    unicode-range="U+0020-U+FEFC"
  />
<missing-glyph horiz-adv-x="1024" 
d="M128 0v1343h768v-1343h-768zM256 128h512v1087h-512v-1087z" />
    <glyph glyph-name=".notdef" unicode="&#x652;&#x64b;" horiz-adv-x="1024" 
d="M128 0v1343h768v-1343h-768zM256 128h512v1087h-512v-1087z" />
    <glyph glyph-name="uniE818" unicode="&#x651;&#x64b;" 
d="M510 1409l-3 -90l-390 2v88h393zM514 1539l3 -90l-400 2v93zM532 1278l-0.000976562 -95c0 -32 -9 -59.333 -27 -82c-23.333 -27.333 -55.666 -41 -96.999 -41c-44 2 -74 18.667 -90 50c-15.333 -28.667 -47.333 -43 -96 -43c-43.333 -3.33301 -76.333 8.66699 -99 36
c-18 22.667 -27 49.334 -27 80.001v95h93v-75c5.33301 -38.667 21 -57.334 47 -56.001c19.333 2 29 31 29 87v44h95v-44c6 -58 23.333 -87 52 -87c23.333 0 32 19 26 57l3 74h91z" />
    <glyph glyph-name="uniFC5E" unicode="&#x651;&#x64c;" arabic-form="isolated" 
d="M597 1153l-0.000976562 -95c0 -32 -9 -59.333 -27 -82c-23.333 -27.333 -55.666 -41 -96.999 -41c-44 2 -74 18.667 -90 50c-15.333 -28.667 -47.333 -43 -96 -43c-43.333 -3.33301 -76.333 8.66699 -99 36c-18 22.667 -27 49.334 -27 80.001v95h93v-75
c5.33301 -38.667 21 -57.334 47 -56.001c19.333 2 29 31 29 87v44h95v-44c6 -58 23.333 -87 52 -87c23.333 0 32 19 26 57l3 74h91zM499.999 1479c-41.333 0 -62 -22.333 -62 -67c0 -45.333 20.667 -68 62 -68s62 22.667 62 68c0 44.667 -20.667 67 -62 67zM290.999 1479
c-40.667 0 -61 -22.333 -61 -67c0 -45.333 20.333 -68 61 -68c41.333 0 62 22.667 62 68c0 44.667 -20.667 67 -62 67zM393.999 1313c-0.666992 -1.33301 -1.33398 -2.33301 -2.00098 -3l-10 -10l-3 -7l-186 -132l-31 60l79 55c-15.333 2.66699 -33.666 14.667 -54.999 36
c-26.667 27.333 -40 60 -40 98c0 92 47.667 138 143 138c46 0 81 -10.333 105 -31c24 20.667 58.667 31 104 31c97.333 0 146 -46 146 -138c0 -38 -14 -70.667 -42 -98l-201 -151l-30 60l78 55c-14.667 2.66699 -32 14 -52 34z" />
    <glyph glyph-name="uniFC5F" unicode="&#x651;&#x64d;" arabic-form="isolated" 
d="M544 1535l0.000976562 -96.001c0 -31.333 -9 -58.333 -27 -81c-22.667 -28 -55.334 -42 -98.001 -42c-43.333 2.66699 -73 19.334 -89 50.001c-15.333 -28.667 -47.333 -43 -96 -43c-43.333 -3.33301 -76.333 9 -99 37c-18 22.667 -27 49 -27 79v96h93v-76
c5.33301 -38.667 21 -57 47 -55c19.333 1.33301 29 30.333 29 87v44h95v-44c6 -58 23.333 -87 52 -87c23.333 0 32 19 26 57l3 74h91zM512.001 1181l3 -91l-396 4v87h393zM512.001 1305v-92l-388 -2l-6 94h394z" />
    <glyph glyph-name="uniFC60" unicode="&#x651;&#x64e;" arabic-form="isolated" 
d="M531 1295l0.000976562 -94.999c0 -32 -9 -59.333 -27 -82c-22.667 -28 -55.334 -42 -98.001 -42c-43.333 2.66699 -73 19.667 -89 51c-15.333 -28.667 -47.333 -43 -96 -43c-43.333 -3.33301 -76.333 8.66699 -99 36c-18 23.333 -27 50 -27 80v95h93v-75
c5.33301 -38.667 21 -57.334 47 -56.001c19.333 2 29 31 29 87v44h95v-43c6 -58 23.333 -87 52 -87c23.333 0 32 18.667 26 56l3 74h91zM513.001 1394l3 -78h-398l3 78h392z" />
    <glyph glyph-name="uniFC61" unicode="&#x651;&#x64f;" arabic-form="isolated" 
d="M293 1395c0 -46 20.667 -69 62 -69c40.667 0 61 23 61 69c0 44.667 -20.333 67 -61 67c-41.333 0 -62 -22.333 -62 -67zM446 1284l-4 -8l-185 -132l-32 60l79 55c-14.667 2.66699 -32 14 -52 34c-28.667 28.667 -43 62 -43 100c0 92 48 138 144 138
c96.667 0 145 -46 145 -138c0 -38 -13.333 -70.667 -40 -98zM553 1145l-0.000976562 -95c0 -32 -9 -59.333 -27 -82c-23.333 -27.333 -55.666 -41 -96.999 -41c-44 2 -74 18.667 -90 50c-15.333 -28.667 -47.333 -43 -96 -43c-43.333 -3.33301 -76.333 8.66699 -99 36
c-18 22.667 -27 49.334 -27 80.001v95h93v-75c5.33301 -38.667 21 -57.334 47 -56.001c19.333 2 29 31 29 87v44h95v-44c6 -58 23.333 -87 52 -87c23.333 0 32 19 26 57l3 74h91z" />
    <glyph glyph-name="uniFC62" unicode="&#x651;&#x650;" arabic-form="isolated" 
d="M551 1495l0.000976562 -96c0 -32 -9 -59.333 -27 -82c-22.667 -28 -55.334 -42 -98.001 -42c-43.333 2.66699 -73 19.667 -89 51c-15.333 -28.667 -47.333 -43 -96 -43c-43.333 -3.33301 -76.333 9 -99 37c-18 22.667 -27 49 -27 79v96h93v-76
c5.33301 -38.667 21 -57 47 -55c19.333 1.33301 29 30 29 86v45h95v-44c6 -58 23.333 -87 52 -87c23.333 0 32 18.667 26 56l3 75h91zM534.001 1262l3 -78h-397l3 78h391z" />
    <glyph glyph-name="uniFD3F" unicode="&#x652;&#x64e;" horiz-adv-x="1135" 
d="M1079 453c0 -32 -34.668 -68.333 -104.001 -109c-7.33301 -104 -23.666 -156 -48.999 -156c-102 96 -178 144 -228 144c5.33301 -51.333 31.666 -99.833 78.999 -145.5s71 -71.5 71 -77.5c0 -10.667 -20.333 -22.667 -61 -36c-46 -14 -97.333 -22 -154 -24
c-48 -144.667 -113 -274 -195 -388c-63.333 -88.667 -131.333 -161.667 -204 -219c-58 -46 -99 -69 -123 -69c-14 0 -21 7 -21 21c0 6.66699 24.333 37.334 73 92.001c60 68 109.333 137.333 148 208c58.667 109.333 98.334 231 119.001 365
c-66.667 11.333 -100 26.333 -100 45c94 95.333 141 169.333 141 222c-48.667 0 -120.334 -49.333 -215.001 -148c-12.667 0 -25.167 17.5 -37.5 52.5s-19.5 72.167 -21.5 111.5c-71.333 37.333 -107 70.666 -107 99.999c0 25.333 33.333 57.666 100 96.999
c6.66699 106 25.334 159 56.001 159l68 -65c46 -45.333 97 -70.666 153 -75.999c0 48 -24.667 96 -74 144s-74 75.667 -74 83c0 15.333 36.333 30.333 109 45c-21.333 109.333 -64.833 221.666 -130.5 336.999s-138.167 207.333 -217.5 276c-14 12 -21 23 -21 33
c0 10.667 8.33301 16 25 16c50.667 0 127 -50 229 -150c134 -131.333 238.667 -297.666 314 -498.999c139.333 -2 209 -20.667 209 -56c-92 -96 -138 -170.333 -138 -223c41.333 0 86 24.667 134 74s75 74 81 74c25.333 0 44 -54.667 56 -164
c73.333 -36 110 -67.333 110 -94zM712.999 446c0 34.667 -12.667 64.167 -38 88.5s-55.666 36.5 -90.999 36.5s-65.666 -12.167 -90.999 -36.5s-38 -53.833 -38 -88.5c0 -35.333 12.667 -65.666 38 -90.999s55.666 -38 90.999 -38s65.666 12.667 90.999 38
s38 55.666 38 90.999z" />
    <glyph glyph-name="uniFDF2" unicode="&#xfedf;&#xfee0;&#xfeea;" horiz-adv-x="1601" arabic-form="isolated" 
d="M1255 1081l0.000976562 -118.001c0 -27.333 -7.66699 -50.666 -23 -69.999c-18 -22 -43.333 -33 -76 -33c-34.667 2 -63.334 26.667 -86.001 74c-18 -45.333 -46 -68 -84 -68c-34 -2 -59.667 7.66699 -77 29c-15.333 19.333 -23 42 -23 68v118h57v-100
c0 -42 15.667 -61.667 47 -59c33.333 0 50 29.333 50 88v71h59v-71c0 -58.667 17 -88 51 -88c31.333 0 47 19 47 57l-2 102h60zM1097 1280l-2 -170h-53v174zM554.001 325.999c-38.667 -87.333 -92 -131 -160 -131c-94.667 0 -143 46.333 -145 139
c-2 105.333 56.667 158 176 158h129v-166zM1265 130.999c-74 12.667 -111.001 67.332 -111.001 163.999v463h-4v2h-129v-461c0 -116.667 -53.333 -172 -160 -166h-18c-106.667 -6 -160 49.333 -160 166v313h-266c-199.333 0 -299 -94.667 -299 -284
c0 -176.667 82.667 -265 248 -265c81.333 0 147.333 33 198 99c28.667 -106 100.667 -160 216 -162h161c6.66699 0.666992 12.334 1.33398 17.001 2.00098c54.667 6 97.667 25.667 129 59c38 -40 93.333 -61 166 -63l135 2c124 10 192.333 85.667 205 227v533h-129v-461
c0 -116.667 -53.333 -172 -160 -166z" />
    <glyph glyph-name="uniFEF5" unicode="&#xfedf;&#xfe82;" horiz-adv-x="745" arabic-form="isolated" 
d="M350 1161c-4 -32.667 -14.333 -57.333 -31 -74c-17.333 -21.333 -41.666 -32 -72.999 -32c-18 0 -43.333 5.33301 -76 16c-32.667 12.667 -55.334 19 -68.001 19c-25.333 0 -41 -15.333 -47 -46h-49c8 71.333 40 107 96 107c19.333 0 45.333 -6 78 -18
c34.667 -12.667 56.667 -19 66 -19c33.333 0 51 15.667 53 47h51zM563 76.001l-166.003 278.001l-295 551l113 62l209 -387l184 -322v725h133v-739c-6 -233.333 -103 -350 -291 -350c-118 0 -197.667 48.333 -239 145c-41.333 99.333 -34.666 211.333 20.001 336h123
c-55.333 -122.667 -65.666 -211.334 -30.999 -266.001s77 -82 127 -82c48.667 0 86.334 16.333 113.001 49z" />
    <glyph glyph-name="uniFEF6" unicode="&#xfee0;&#xfe82;" horiz-adv-x="909" arabic-form="final" 
d="M342 1161c-4 -32.667 -14.333 -57.333 -31 -74c-17.333 -21.333 -41.666 -32 -72.999 -32c-18 0 -43.333 5.33301 -76 16c-32.667 12.667 -55.334 19 -68.001 19c-25.333 0 -41 -15.333 -47 -46h-49c8 71.333 40 107 96 107c19.333 0 45.333 -6 78 -18
c34.667 -12.667 56.667 -19 66 -19c33.333 0 51 15.667 53 47h51zM229 963.001l-118.001 -62l407 -698c-26.667 -54 -107 -80 -241 -78l-84 4l-66 -129h197c170.667 -10 265.334 23.333 284.001 100c50 -66 112.333 -100 187 -102l135 2l-4 127h-70
c-106.667 -6 -160 49.333 -160 166v688h-4v2h-129v-623z" />
    <glyph glyph-name="uniFEF7" unicode="&#xfedf;&#xfe84;" horiz-adv-x="755" arabic-form="isolated" 
d="M258 1063h-193l-2 63l61 -4c-16 20.667 -24 40.667 -24 60c0 70.667 32.667 106 98 106c28 0 51.333 -12.333 70 -37l-23 -45c-12 16.667 -27.667 25 -47 25c-28 4 -43 -10.333 -45 -43c10 -33.333 32 -55.333 66 -66h39v-59zM401 354l-86.001 162.001l-209 389l113 62
l209 -387l184 -324v727h133v-739c-6 -233.333 -103 -350 -291 -350c-118.667 0 -198.334 48.333 -239.001 145c-42 99.333 -35.333 211.333 20 336h123c-55.333 -122.667 -65.666 -211.334 -30.999 -266.001s77 -82 127 -82c48.667 0 86.334 16.333 113.001 49z" />
    <glyph glyph-name="uniFEF8" unicode="&#xfee0;&#xfe84;" horiz-adv-x="901" arabic-form="final" 
d="M244 1063h-193l-2 63l61 -4c-16 20.667 -24 40.667 -24 60c0 70.667 32.667 106 98 106c28 0 51.333 -12.333 70 -37l-23 -45c-12 16.667 -27.667 25 -47 25c-28 4 -43 -10.333 -45 -43c10 -33.333 32 -55.333 66 -66h39v-59zM229 963l-118.999 -62l408 -698
c-26.667 -54 -107.334 -80 -242.001 -78l-84 4l-65 -129h196c171.333 -10 266.333 23.333 285 100c50 -66 112 -100 186 -102l136 2l-4 127h-70c-106.667 -6 -160 49.333 -160 166v688h-4v2h-129v-623z" />
    <glyph glyph-name="uniFEF9" unicode="&#xfedf;&#xfe88;" horiz-adv-x="761" arabic-form="isolated" 
d="M244 -247l-193 -0.000976562l-2 63l61 -4c-16 20.667 -24 40.334 -24 59.001c0 71.333 32.667 107 98 107c28 0 51.333 -12.333 70 -37l-23 -45c-12 16.667 -27.667 25 -47 25c-28 4 -43 -10.333 -45 -43c10 -33.333 32 -55.333 66 -66h39v-59zM418 353.999
l-86.002 162.001l-209 389l112 62l209 -387l185 -322v725h133v-739c-6.66699 -233.333 -103.667 -350 -291 -350c-118.667 0 -198.667 48.333 -240 145c-41.333 99.333 -34.333 211.333 21 336h123c-55.333 -122.667 -65.666 -211.334 -30.999 -266.001
c34 -54.667 76.333 -82 127 -82c48.667 0 86.334 16.333 113.001 49z" />
    <glyph glyph-name="uniFEFA" unicode="&#xfee0;&#xfe88;" horiz-adv-x="905" arabic-form="final" 
d="M313 -247l-193 -0.000976562l-2 63l62 -4c-16.667 20.667 -25 40.334 -25 59.001c0 71.333 32.667 107 98 107c28 0 51.333 -12.333 70 -37l-23 -45c-12 16.667 -27.667 25 -47 25c-28 4 -43 -10.333 -45 -43c10 -33.333 32 -55.333 66 -66h39v-59zM563 359.999v623h129
v-2h4v-688c0 -116.667 53 -172 159 -166h70l4 -127l-135 -2c-74 2 -136 36 -186 102c-18.667 -76.667 -113.667 -110 -285 -100h-197l66 129l84 -4c134 -2 214.667 24 242 78l-408 698l119 62z" />
    <glyph glyph-name="uniFEFB" unicode="&#xfedf;&#xfe8e;" horiz-adv-x="768" arabic-form="isolated" 
d="M424 354l-295.001 551.001l113 62l209 -387l184 -322v725h133v-739c-6 -233.333 -103 -350 -291 -350c-118.667 0 -198.334 48.333 -239.001 145c-42 99.333 -35.333 211.333 20 336h123c-55.333 -122.667 -65.666 -211.334 -30.999 -266.001s77 -82 127 -82
c48.667 0 86.334 16.333 113.001 49z" />
    <glyph glyph-name="uniFEFC" unicode="&#xfee0;&#xfe8e;" horiz-adv-x="911" arabic-form="final" 
d="M569 360v623h129v-2h4v-688c0 -116.667 53 -172 159 -166h70l4 -127l-135 -2c-74 2 -136 36 -186 102c-18.667 -76.667 -113.667 -110 -285 -100h-197l66 129l84 -4c134 -2 214.667 24 242 78l-408 698l119 62z" />
    <glyph glyph-name="afii57410" unicode="&#x622;" horiz-adv-x="249" arabic-form="isolated" 
d="M233 -2v987h-129v-983zM346 1161c-4 -32.667 -14.333 -57.333 -31 -74c-17.333 -21.333 -41.666 -32 -72.999 -32c-18 0 -43.333 5.33301 -76 16c-32.667 12.667 -55.334 19 -68.001 19c-25.333 0 -41 -15.333 -47 -46h-49c8 71.333 40 107 96 107
c19.333 0 45.333 -6 78 -18c34.667 -12.667 56.667 -19 66 -19c33.333 0 51 15.667 53 47h51z" />
    <glyph glyph-name="afii57411" unicode="&#x623;" horiz-adv-x="249" arabic-form="isolated" 
d="M131 2v983h129v-987zM287 1063h-193l-2 63l61 -4c-16 20.667 -24 40.667 -24 60c0 70.667 32.667 106 98 106c28 0 51.333 -12.333 70 -37l-23 -45c-12 16.667 -27.667 25 -47 25c-28 4 -43 -10.333 -45 -43c10 -33.333 32 -55.333 66 -66h39v-59z" />
    <glyph glyph-name="afii57412" unicode="&#x624;" horiz-adv-x="706" arabic-form="isolated" 
d="M567 307c0 -49.333 -15.667 -91.333 -47 -126s-69 -52 -113 -52s-81.667 17.333 -113 52s-47 76.667 -47 126c0 118.667 53.333 178 160 178s160 -59.333 160 -178zM263 -122l41 -129c232.667 0 362.667 109.667 390 329c14 70 14 153.333 0 250
c-6.66699 80 -34.667 149 -84 207c-54.667 62.667 -123 94 -205 94c-80.667 0 -149 -32.333 -205 -97c-56 -64 -84 -140.333 -84 -229c0 -95.333 28 -173 84 -233c54.667 -58.667 123 -88 205 -88c51.333 0 97 12.667 137 38c-46.667 -94.667 -139.667 -142 -279 -142z
M505 739h-191.999l-2 64l61 -4c-16.667 20 -25 39.667 -25 59c0 71.333 33 107 99 107c28 0 51 -12.333 69 -37l-22 -45c-12.667 16 -28.334 24 -47.001 24c-28 4.66699 -43 -9.66602 -45 -42.999c9.33301 -32.667 31 -54.334 65 -65.001h39v-60z" />
    <glyph glyph-name="afii57413" unicode="&#x625;" horiz-adv-x="249" arabic-form="isolated" 
d="M116 2v983h129v-987zM266 -247l-193 -0.000976562l-2 63l61 -4c-16 20.667 -24 40.334 -24 59.001c0 71.333 32.667 107 98 107c28 0 51.333 -12.333 70 -37l-23 -45c-12 16.667 -27.667 25 -47 25c-28 4 -43 -10.333 -45 -43c10 -33.333 32 -55.333 66 -66h39v-59z" />
    <glyph glyph-name="afii57414" unicode="&#x626;" horiz-adv-x="927" arabic-form="isolated" 
d="M297 412l-193 -0.000976562l-2 63l61 -4c-16 20.667 -24 40.334 -24 59.001c0 71.333 32.667 107 98 107c28 0 51.333 -12.333 70 -37l-23 -45c-12 16.667 -27.667 25 -47 25c-28 4 -43 -10.333 -45 -43c10 -33.333 32 -55.333 66 -66h39v-59zM720 294.999
c-117.333 88.667 -91.333 156.998 78 204.998l117 14l-2 123c-194.667 0 -329.667 -65.667 -405 -197c-33.333 -112.667 8.66699 -196 126 -250l78 -69c38 -32 49.667 -77.667 35 -137c-14 -59.333 -84.333 -94 -211 -104c-192.667 30.667 -289 136.334 -289 317.001v184
h-129v-186c0 -274.667 127.667 -424 383 -448v-5c12.667 2 36 2 70 0v5c188 24.667 295.333 100.334 322 227.001s-3 214.667 -89 264v-2z" />
    <glyph glyph-name="afii57415" unicode="&#x627;" horiz-adv-x="251" arabic-form="isolated" 
d="M253 0h-133l2 989h131v-989z" />
    <glyph glyph-name="afii57416" unicode="&#x628;" horiz-adv-x="956" arabic-form="isolated" 
d="M468 -247v131h148v-131h-148zM601 131l64.001 2c106.667 -6 160 49.333 160 166v195h129v-267c-14.667 -149.333 -90 -225 -226 -227l-125 2l-256 -2c-136.667 2 -212.334 77.667 -227.001 227v267h129v-195c0 -116.667 53.333 -172 160 -166z" />
    <glyph glyph-name="afii57417" unicode="&#x629;" horiz-adv-x="696" arabic-form="isolated" 
d="M249 307c0 -49.333 15.667 -91.333 47 -126s69 -52 113 -52s81.667 17.333 113 52s47 76.667 47 126c0 118.667 -53.333 178 -160 178s-160 -59.333 -160 -178zM202 532c56 64.667 124.333 97 205 97s149 -32.333 205 -97c56 -64 84 -140.333 84 -229
c0 -88 -28.667 -163.667 -86 -227c-55.333 -62.667 -123 -94 -203 -94c-82 0 -150.333 29.333 -205 88c-56 60 -84 137.667 -84 233c0 88.667 28 165 84 229zM371 790h-193l-2 63l61 -4c-16 20.667 -24 40.667 -24 60c0 70.667 32.667 106 98 106
c28 0 51.333 -12.333 70 -37l-23 -45c-12 16.667 -27.667 25 -47 25c-28 4 -43 -10.333 -45 -43c10 -33.333 32 -55.333 66 -66h39v-59z" />
    <glyph glyph-name="afii57418" unicode="&#x62a;" horiz-adv-x="956" arabic-form="isolated" 
d="M601 131l64.001 2c106.667 -6 160 49.333 160 166v195h129v-267c-14.667 -149.333 -90 -225 -226 -227l-125 2l-256 -2c-136.667 2 -212.334 77.667 -227.001 227v267h129v-195c0 -116.667 53.333 -172 160 -166zM564.001 612v131h148v-131h-148zM380.001 612v131h148
v-131h-148z" />
    <glyph glyph-name="afii57419" unicode="&#x62b;" horiz-adv-x="950" arabic-form="isolated" 
d="M468 776v131h148v-131h-148zM601 131l64.001 2c106.667 -6 160 49.333 160 166v195h129v-267c-14.667 -149.333 -90 -225 -226 -227l-125 2l-256 -2c-136.667 2 -212.334 77.667 -227.001 227v267h129v-195c0 -116.667 53.333 -172 160 -166zM564.001 612v131h148v-131
h-148zM380.001 612v131h148v-131h-148z" />
    <glyph glyph-name="afii57420" unicode="&#x62c;" horiz-adv-x="864" arabic-form="isolated" 
d="M509 -182v133h147v-133h-147zM888 66l-252.001 -4.99902c-77.333 -9.33301 -151 -29 -221 -59c-99.333 -57.333 -148 -113.666 -146 -168.999c2.66699 -56.667 29.334 -96.334 80.001 -119.001c52 -22.667 169.667 -8.33398 353 42.999l2 -125
c-130 -65.333 -251.667 -82.333 -365 -51c-111.333 30 -176.333 101 -195 213c-16 110 24.333 202 121 276c100 62.667 211.333 103.667 334 123l62 8l-119 180c-126.667 126.667 -260 115.667 -400 -33v141c74 82 156 123 246 123c92 0 180.667 -58 266 -174l105 -153
c26.667 -35.333 69.667 -66 129 -92v-127z" />
    <glyph glyph-name="afii57421" unicode="&#x62d;" horiz-adv-x="874" arabic-form="isolated" 
d="M894 66l-252.001 -4.99902c-77.333 -9.33301 -151 -29 -221 -59c-99.333 -57.333 -148 -113.666 -146 -168.999c2.66699 -56.667 29.334 -96.334 80.001 -119.001c52 -22.667 169.667 -8.33398 353 42.999l2 -125c-130 -65.333 -251.667 -82.333 -365 -51
c-111.333 30 -176.333 101 -195 213c-16 110 24.333 202 121 276c100 62.667 211.333 103.667 334 123l62 8l-119 180c-126.667 126.667 -260 115.667 -400 -33v141c74 82 156 123 246 123c92 0 180.667 -58 266 -174l105 -153c26.667 -35.333 69.667 -66 129 -92v-127z" />
    <glyph glyph-name="afii57422" unicode="&#x62e;" horiz-adv-x="874" arabic-form="isolated" 
d="M314 739v133h148v-133h-148zM894 66l-252.001 -4.99902c-77.333 -9.33301 -151 -29 -221 -59c-99.333 -57.333 -148 -113.666 -146 -168.999c2.66699 -56.667 29.334 -96.334 80.001 -119.001c52 -22.667 169.667 -8.33398 353 42.999l2 -125
c-130 -65.333 -251.667 -82.333 -365 -51c-111.333 30 -176.333 101 -195 213c-16 110 24.333 202 121 276c100 62.667 211.333 103.667 334 123l62 8l-119 180c-126.667 126.667 -260 115.667 -400 -33v141c74 82 156 123 246 123c92 0 180.667 -58 266 -174l105 -153
c26.667 -35.333 69.667 -66 129 -92v-127z" />
    <glyph glyph-name="afii57423" unicode="&#x62f;" horiz-adv-x="641" arabic-form="isolated" 
d="M616 305c27.333 -47.333 35.334 -95.0039 24.001 -143.004c-14.667 -69.333 -46.334 -115.666 -95.001 -138.999c-34.667 -16.667 -93.667 -25 -177 -25h-246v137h244c50 0 91 9.66699 123 29c30 20 35.333 46 16 78c-18.667 30.667 -44 60 -76 88
c-26 24.667 -58.667 51.334 -98 80.001l-123 86v120c39.333 2.66699 87.666 -17.666 144.999 -60.999c52.667 -38 101.334 -77 146.001 -117c56.667 -53.333 95.667 -97.666 117 -132.999z" />
    <glyph glyph-name="afii57424" unicode="&#x630;" horiz-adv-x="647" arabic-form="isolated" 
d="M215 729v131h147v-131h-147zM625 305c27.333 -47.333 35.334 -95.0039 24.001 -143.004c-14.667 -69.333 -46.334 -115.666 -95.001 -138.999c-34.667 -16.667 -93.667 -25 -177 -25h-246v137h244c50 0 91 9.66699 123 29c30 20 35.333 46 16 78
c-18.667 30.667 -44 60 -76 88c-26 24.667 -58.667 51.334 -98 80.001l-123 86v120c39.333 2.66699 87.666 -17.666 144.999 -60.999c52.667 -38 101.334 -77 146.001 -117c56.667 -53.333 95.667 -97.666 117 -132.999z" />
    <glyph glyph-name="afii57425" unicode="&#x631;" horiz-adv-x="397" arabic-form="isolated" 
d="M285 492h123.001v-412c-26.667 -220.667 -156.334 -331 -389.001 -331l-41 129c178 0 280.333 78.333 307 235v379z" />
    <glyph glyph-name="afii57426" unicode="&#x632;" horiz-adv-x="407" arabic-form="isolated" 
d="M293 492h123.001v-412c-26.667 -220.667 -156.334 -331 -389.001 -331l-41 129c178 0 280.333 78.333 307 235v379zM273.001 608v131h147v-131h-147z" />
    <glyph glyph-name="afii57427" unicode="&#x633;" horiz-adv-x="1474" arabic-form="isolated" 
d="M763 494l131.001 -0.000976562v-195c0 -84.667 28 -137.334 84 -158.001c36.667 14.667 61.334 43.334 74.001 86.001v267h137v-265c12 -44 37.333 -73.333 76 -88c54.667 20.667 82 73.334 82 158.001v195h129v-267c-12.667 -133.333 -74 -208.333 -184 -225l-33 -2
c-58.667 4 -104.334 22.333 -137.001 55c-32 -29.333 -70.333 -47 -115 -53l-33 -2c-28.667 2 -57.334 8.66699 -86.001 20c-42.667 -179.333 -171.667 -269 -387 -269c-255.333 0 -383 145 -383 435v189h123v-123c0 -245.333 86.667 -368 260 -368
c183.333 0 270 121.333 260 364z" />
    <glyph glyph-name="afii57428" unicode="&#x634;" horiz-adv-x="1478" arabic-form="isolated" 
d="M1050 776v131h147v-131h-147zM765 494l131.001 -0.000976562v-195c0 -84.667 28 -137.334 84 -158.001c36.667 14.667 61.334 43.334 74.001 86.001v267h137v-265c12 -44 37.333 -73.333 76 -88c54.667 20.667 82 73.334 82 158.001v195h129v-267
c-12.667 -133.333 -74 -208.333 -184 -225l-33 -2c-58.667 4 -104.334 22.333 -137.001 55c-32 -29.333 -70.333 -47 -115 -53l-33 -2c-28.667 2 -57.334 8.66699 -86.001 20c-42.667 -179.333 -171.667 -269 -387 -269c-255.333 0 -383 145 -383 435v189h123v-123
c0 -245.333 86.667 -368 260 -368c183.333 0 270 121.333 260 364zM1146 611.999v131h148v-131h-148zM962.001 611.999v131h147v-131h-147z" />
    <glyph glyph-name="afii57429" unicode="&#x635;" horiz-adv-x="1841" arabic-form="isolated" 
d="M1054 135l446 0.000976562c135.333 0 205 28.667 209 86c6 59.333 -30 118.666 -108 177.999c-56 48 -112.667 79 -170 93c-60 0 -144 -62.333 -252 -187zM503 -257.999c-255.333 0 -382.998 145.333 -382.998 436v205h123v-139c0 -245.333 86.667 -368 260 -368
c170 0 254 86.333 252 259l2 244h139v-203c4 -6 57.333 57.667 160 191c137.333 163.333 263 245 377 245c113.333 -14 203.333 -57.667 270 -131c88 -80 135 -181.667 141 -305c-26.667 -130 -133 -188 -319 -174h-586c-16.667 -3.33301 -34.334 -4 -53.001 -2
c-36.667 -172 -164.334 -258 -383.001 -258z" />
    <glyph glyph-name="afii57430" unicode="&#x636;" horiz-adv-x="1861" arabic-form="isolated" 
d="M1069 135l446 0.000976562c135.333 0 205 28.667 209 86c6 59.333 -30 118.666 -108 177.999c-56 48 -112.667 79 -170 93c-60 0 -144 -62.333 -252 -187zM518 -257.999c-255.333 0 -382.998 145.333 -382.998 436v205h123v-139c0 -245.333 86.667 -368 260 -368
c170 0 254 86.333 252 259l2 244h139v-203c4 -6 57.333 57.667 160 191c137.333 163.333 263 245 377 245c113.333 -14 203.333 -57.667 270 -131c88 -80 135 -181.667 141 -305c-26.667 -130 -133 -188 -319 -174h-586c-16.667 -3.33301 -34.334 -4 -53.001 -2
c-36.667 -172 -164.334 -258 -383.001 -258zM1378 737.001v131h148v-131h-148z" />
    <glyph glyph-name="afii57431" unicode="&#x637;" horiz-adv-x="1343" arabic-form="isolated" 
d="M124 2l66 133h69v858h137v-815c-4 -20 49.333 43 160 189c137.333 163.333 263 245 377 245c113.333 -14 203.333 -57.667 270 -131c88 -80 135.333 -181.667 142 -305c-27.333 -130 -134 -188 -320 -174h-901zM554 135l447 0.000976562c134.667 0 204 28.667 208 86
c6.66699 59.333 -29.333 118.666 -108 177.999c-56 48 -112.667 79 -170 93c-60 0 -144 -62.333 -252 -187z" />
    <glyph glyph-name="afii57432" unicode="&#x638;" horiz-adv-x="1343" arabic-form="isolated" 
d="M120 2l66 133h69v858h137v-815c-4 -20 49.333 43 160 189c137.333 163.333 263 245 377 245c113.333 -14 203.333 -57.667 270 -131c88 -80 135.333 -181.667 142 -305c-27.333 -130 -134 -188 -320 -174h-901zM550 135l447 0.000976562c134.667 0 204 28.667 208 86
c6.66699 59.333 -29.333 118.666 -108 177.999c-56 48 -112.667 79 -170 93c-60 0 -144 -62.333 -252 -187zM859 737.001v131h148v-131h-148z" />
    <glyph glyph-name="afii57433" unicode="&#x639;" horiz-adv-x="808" arabic-form="isolated" 
d="M288 92l32.998 17.001l-49 47c-86 110 -71 232 45 366c76.667 60 154.334 90 233.001 90c109.333 0 196.666 -41 261.999 -123l-82 -83c-43.333 51.333 -100.666 77 -171.999 77c-148 0 -213.333 -64.667 -196 -194c6 -58 36.667 -100.333 92 -127
c92.667 30 201 56 325 78v-127l-149 -45c-77.333 -10 -151 -30 -221 -60c-99.333 -57.333 -148 -113.666 -146 -168.999c2.66699 -56.667 29.334 -96.334 80.001 -119.001c52 -22.667 169.667 -8.33398 353 42.999l2 -125c-130 -64.667 -251.667 -81.667 -365 -51
c-111.333 30 -176.333 101 -195 213c-16 110 24.333 202 121 276z" />
    <glyph glyph-name="afii57434" unicode="&#x63a;" horiz-adv-x="804" arabic-form="isolated" 
d="M411 37l-127.001 119.001c-86 110 -71 232 45 366c76.667 60 154.334 90 233.001 90c109.333 0 196.666 -41 261.999 -123l-82 -83c-43.333 51.333 -100.666 77 -171.999 77c-147.333 0 -213.333 -65.333 -198 -196c8 -60.667 44 -104.334 108 -131.001h133l92 -11z
M506.999 717.001v131h147v-131h-147zM790.999 113.001l-149.001 -44.999c-77.333 -10 -151 -30 -221 -60c-99.333 -57.333 -148 -113.666 -146 -168.999c2.66699 -56.667 29.334 -96.334 80.001 -119.001c52 -22.667 169.667 -8.33398 353 42.999l2 -125
c-130 -64.667 -251.667 -81.667 -365 -51c-111.333 30 -176.333 101 -195 213c-16 110 24.333 202 121 276c102 64 275.333 118.667 520 164v-127z" />
    <glyph glyph-name="afii57441" unicode="&#x641;" horiz-adv-x="1183" arabic-form="isolated" 
d="M1013 479c-26 52 -63.667 78 -113 78c-56.667 0 -97.667 -13.333 -123 -40c-20 -21.333 -30 -51 -30 -89c0 -32 12.667 -55.667 38 -71c32 -18 87.667 -27 167 -27c19.333 0 39.333 3.33301 60 10c18 6 30 12 36 18c0 36.667 -11.667 77 -35 121zM544 2l-202.999 -2
c-136.667 2 -212.334 77.667 -227.001 227v267h129v-195c0 -104.667 42.333 -160 127 -166h604c40 0 64 11 72 33c8 22.667 12 39 12 49v8l-45 -17c-24.667 -7.33301 -47.334 -11 -68.001 -11c-80.667 0 -138.667 5.33301 -174 16c-32.667 12 -60.667 29.667 -84 53
c-43.333 44 -65 96.667 -65 158c0 69.333 24 132 72 188c46 54.667 112 82 198 82c192.667 0 289 -155 289 -465c0 -48 -10 -89.667 -30 -125c-25.333 -44.667 -66.666 -78.667 -123.999 -102zM825.001 737v131h147v-131h-147z" />
    <glyph glyph-name="afii57442" unicode="&#x642;" horiz-adv-x="905" arabic-form="isolated" 
d="M446 307c0 -49.333 15.333 -91.333 46 -126c31.333 -34.667 69 -52 113 -52s81.667 17.333 113 52s47 76.667 47 126c0 118.667 -53.333 178 -160 178c-106 0 -159 -59.333 -159 -178zM429 737v131h148v-131h-148zM894 18
c-30.667 -178 -159.668 -266.999 -387.001 -266.999c-255.333 0 -383 104 -383 312v312h123v-246c0 -163.333 86.667 -245 260 -245c148.667 0 233.334 50.333 254.001 151c-48 -35.333 -100.667 -53 -158 -53c-82 0 -150.333 29.333 -205 88c-56 60 -84 137.667 -84 233
c0 88.667 28 165 84 229c56 64.667 124.333 97 205 97c82 0 150.333 -31.333 205 -94c45.333 -51.333 72 -111 80 -179c16 -112.667 18 -225.334 6 -338.001zM612.999 737.001v131h148v-131h-148z" />
    <glyph glyph-name="afii57443" unicode="&#x643;" horiz-adv-x="1158" arabic-form="isolated" 
d="M353 0c-136.667 2 -212.332 77.667 -226.999 227v267h129v-195c0 -116.667 53.333 -172 160 -166h418c134 -2 186.667 20.667 158 68c-26.667 47.333 -93.667 112 -201 194c-107.333 84.667 -164 143.334 -170 176.001c-6.66699 37.333 -3 74.333 11 111
c42 48.667 229 151.667 561 309l-58 -168l-344 -182c-32.667 -18.667 -28.334 -45.334 12.999 -80.001l160 -130l96 -83c43.333 -39.333 74.333 -81.333 93 -126c13.333 -42.667 6.33301 -90.334 -21 -143.001c-26.667 -51.333 -96.667 -77.666 -210 -78.999h-568z" />
    <glyph glyph-name="afii57444" unicode="&#x644;" horiz-adv-x="980" arabic-form="isolated" 
d="M993 983v-739c-6 -328.667 -137 -493 -393 -493c-255.333 0 -383 145 -383 435v189h123v-123c0 -245.333 86.667 -368 260 -368s260 124.667 260 374v725h133z" />
    <glyph glyph-name="afii57445" unicode="&#x645;" horiz-adv-x="1044" arabic-form="isolated" 
d="M601 307c0 -49.333 15.667 -91.333 47 -126s69 -52 113 -52s81.667 17.333 113 52s47 76.667 47 126c0 118.667 -53.333 178 -160 178s-160 -59.333 -160 -178zM476 369c10.667 65.333 36.668 120.667 78.001 166c54.667 62.667 123 94 205 94
c80.667 0 149 -32.333 205 -97c56 -64 84 -140.333 84 -229c0 -88 -28.667 -163.667 -86 -227c-54.667 -62.667 -122.334 -94 -203.001 -94c-82 0 -150.333 29.333 -205 88c-30.667 -214 -159.667 -321 -387 -321l-41 129c178 0 280.333 78.333 307 235l41 256h2z" />
    <glyph glyph-name="afii57446" unicode="&#x646;" horiz-adv-x="890" arabic-form="isolated" 
d="M886 141h-4c-30.667 -260 -159.667 -390 -387 -390c-255.333 0 -383 145 -383 435v189h123v-123c0 -245.333 86.667 -368 260 -368c157.333 0 243.333 103.667 258 311v297h135zM429 614v131h148v-131h-148z" />
    <glyph glyph-name="afii57470" unicode="&#x647;" horiz-adv-x="696" arabic-form="isolated" 
d="M249 307c0 -49.333 15.667 -91.333 47 -126s69 -52 113 -52s81.667 17.333 113 52s47 76.667 47 126c0 118.667 -53.333 178 -160 178s-160 -59.333 -160 -178zM202 532c56 64.667 124.333 97 205 97s149 -32.333 205 -97c56 -64 84 -140.333 84 -229
c0 -88 -28.667 -163.667 -86 -227c-55.333 -62.667 -123 -94 -203 -94c-82 0 -150.333 29.333 -205 88c-56 60 -84 137.667 -84 233c0 88.667 28 165 84 229z" />
    <glyph glyph-name="afii57448" unicode="&#x648;" horiz-adv-x="706" arabic-form="isolated" 
d="M247 307c0 -49.333 15.667 -91.333 47 -126s69 -52 113 -52s81.667 17.333 113 52s47 76.667 47 126c0 118.667 -53.333 178 -160 178s-160 -59.333 -160 -178zM405 -18c-82 0 -150.333 29.333 -205 88c-56 60 -84 137.667 -84 233c0 88.667 28 165 84 229
c56 64.667 124.333 97 205 97c82 0 150.333 -31.333 205 -94c49.333 -58 77.333 -127 84 -207c14 -96.667 14 -180 0 -250c-27.333 -219.333 -157.333 -329 -390 -329l-41 129c139.333 0 232.333 47.333 279 142c-40 -25.333 -85.667 -38 -137 -38z" />
    <glyph glyph-name="afii57449" unicode="&#x649;" horiz-adv-x="899" arabic-form="isolated" 
d="M804 236v2.00195c85.333 -49.333 114.666 -137.333 87.999 -264s-133.667 -202.334 -321 -227.001v-5c-34.667 2 -58 2 -70 0v5c-255.333 24 -383 173.333 -383 448v186h129v-184c0 -180.667 96.333 -286.334 289 -317.001c126 10 196.333 44.667 211 104
c14 59.333 2.33301 105 -35 137l-78 69c-117.333 54 -159.666 137.333 -126.999 250c76 131.333 211.333 197 406 197l2 -123l-117 -14c-169.333 -48 -195.333 -116.333 -78 -205z" />
    <glyph glyph-name="afii57450" unicode="&#x64a;" horiz-adv-x="899" arabic-form="isolated" 
d="M804 236v2.00195c85.333 -49.333 114.666 -137.333 87.999 -264s-133.667 -202.334 -321 -227.001v-5c-34.667 2 -58 2 -70 0v5c-255.333 24 -383 173.333 -383 448v186h129v-184c0 -180.667 96.333 -286.334 289 -317.001c126 10 196.333 44.667 211 104
c14 59.333 2.33301 105 -35 137l-78 69c-117.333 54 -159.666 137.333 -126.999 250c76 131.333 211.333 197 406 197l2 -123l-117 -14c-169.333 -48 -195.333 -116.333 -78 -205z" />
    <glyph glyph-name="afii57506" unicode="&#x67e;" horiz-adv-x="954" arabic-form="isolated" 
d="M618 -280v-131h-148v131h148zM603 131l64.001 2c106.667 -6 160 49.333 160 166v195h129v-267c-14.667 -149.333 -90 -225 -226 -227l-125 2l-256 -2c-136.667 2 -212.334 77.667 -227.001 227v267h129v-195c0 -116.667 53.333 -172 160 -166zM714.001 -116v-131h-148
v131h148zM530.001 -116v-131h-148v131h148z" />
    <glyph glyph-name="afii57507" unicode="&#x686;" horiz-adv-x="964" arabic-form="isolated" 
d="M901 66l-252.001 -4.99902c-77.333 -9.33301 -151 -29 -221 -59c-99.333 -57.333 -148 -113.666 -146 -168.999c2.66699 -56.667 29.334 -96.334 80.001 -119.001c52 -22.667 169.667 -8.33398 353 42.999l2 -125c-130 -65.333 -251.667 -82.333 -365 -51
c-111.333 30 -176.333 101 -195 213c-16 110 24.333 202 121 276c100 62.667 211.333 103.667 334 123l62 8l-119 180c-126.667 126.667 -260 115.667 -400 -33v141c74 82 156 123 246 123c92 0 180.667 -58 266 -174l105 -153c26.667 -35.333 69.667 -66 129 -92v-127z
M896.999 -197.999v-131h-148v131h148zM992.999 -33.999v-131h-147v131h147zM808.999 -33.999v-131h-148v131h148z" />
    <glyph glyph-name="afii57508" unicode="&#x698;" horiz-adv-x="395" arabic-form="isolated" 
d="M287 492h123.001v-412c-26.667 -220.667 -156.334 -331 -389.001 -331l-41 129c178 0 280.333 78.333 307 235v379zM261.001 776v131h147v-131h-147zM357.001 612v131h147v-131h-147zM173.001 612v131h147v-131h-147z" />
    <glyph glyph-name="afii57509" unicode="&#x6af;" horiz-adv-x="1158" arabic-form="isolated" 
d="M1124 1034l-297.001 -145l-194 -109c-11.333 39.333 -2.66602 81 26.001 125c26 35.333 198 125.333 516 270zM352.999 0c-136.667 2 -212.332 77.667 -226.999 227v267h129v-195c0 -116.667 53.333 -172 160 -166h418c134 -2 186.667 20.667 158 68
c-26.667 47.333 -93.667 112 -201 194c-107.333 84.667 -164 143.334 -170 176.001c-6.66699 37.333 -3 74.333 11 111c42 48.667 229 151.667 561 309l-58 -168l-344 -182c-32.667 -18.667 -28.334 -45.334 12.999 -80.001l160 -130l96 -83
c43.333 -39.333 74.333 -81.333 93 -126c13.333 -42.667 6.33301 -90.334 -21 -143.001c-26.667 -51.333 -96.667 -77.666 -210 -78.999h-568z" />
    <glyph glyph-name="uniFB57" unicode="&#x67e;" horiz-adv-x="1177" arabic-form="final" 
d="M591 2l-245.999 -2c-136.667 2 -212.334 77.667 -227.001 227v267h129v-195c0 -116.667 53.333 -172 160 -166l192 -2l64 2c106.667 -6 160 49.333 160 166v195h129v-5h4v-196c0 -116.667 53 -172 159 -166h70l4 -129l-139 2c-68.667 -2 -122.667 17.667 -162 59
c-38.667 -38.667 -92.667 -59 -162 -61l-135 2v2zM614.001 -280v-131h-148v131h148zM710.001 -116v-131h-148v131h148zM526.001 -116v-131h-148v131h148z" />
    <glyph glyph-name="uniFB58" unicode="&#x67e;" horiz-adv-x="342" arabic-form="initial" 
d="M132 -276v-133h-147v133h147zM224 494h129v-267c-14.667 -149.333 -90 -225 -226 -227l-136 2l4 129l69 2c106.667 -6 160 49.333 160 166v195zM43 -112v-133h-147v133h147zM228 -112v-133h-148v133h148z" />
    <glyph glyph-name="uniFB59" unicode="&#x67e;" horiz-adv-x="573" arabic-form="medial" 
d="M120 0l-134.999 2l4 129l67 2c106.667 -6 160 49.333 160 166v195h129v-2h4v-197c0 -116.667 53.333 -172 160 -166h69l4 -129l-135 -2c-72 2 -127.333 23 -166 63c-38.667 -38.667 -92.334 -59 -161.001 -61zM120.001 -276v-133h-147v133h147zM31.001 -112v-133h-147
v133h147zM216.001 -112v-133h-148v133h148z" />
    <glyph glyph-name="uniFB7B" unicode="&#x686;" horiz-adv-x="1044" arabic-form="final" 
d="M888 160c41.333 -20 85.666 -28.999 132.999 -26.999l49 -2l4 -129l-116 -2c-71.333 2 -125.333 22.333 -162 61h-160c-77.333 -9.33301 -151 -29 -221 -59c-99.333 -57.333 -148 -113.666 -146 -168.999c2.66699 -56.667 29.334 -96.334 80.001 -119.001
c52 -22.667 169.667 -8.33398 353 42.999l2 -125c-130 -65.333 -251.667 -82.333 -365 -51c-111.333 30 -176.333 101 -195 213c-16 110 24.333 202 121 276c100 62.667 211.333 103.667 334 123l62 8l-119 180c-126.667 126.667 -260 115.667 -400 -33v141
c74 82 156 123 246 123c92 0 180.667 -58 266 -174l105 -153c26.667 -35.333 69.667 -66 129 -92v-33zM943 -279.999v-131h-147v131h147zM1039 -115.999v-131h-147v131h147zM855 -115.999v-131h-147v131h147z" />
    <glyph glyph-name="uniFB7C" unicode="&#x686;" horiz-adv-x="927" arabic-form="initial" 
d="M922 2l-941.999 -1.99902l3 131h728l-250 270c-62.667 63.333 -132 93.666 -208 90.999c-80.667 -3.33301 -158 -44.333 -232 -123v120c74 82 162.667 123 266 123c105.333 0 207.666 -58 306.999 -174l207 -215c26 -33.333 67.667 -64 125 -92zM334.001 -275.999v-133
h148v133h-148zM246.001 -111.999v-133h148v133h-148zM431.001 -111.999v-133h147v133h-147z" />
    <glyph glyph-name="uniFB7D" unicode="&#x686;" horiz-adv-x="1056" arabic-form="medial" 
d="M932 2v-1.99902h-948l3 131h728l-250 270c-62.667 63.333 -132 93.666 -208 90.999c-80.667 -3.33301 -158 -44.333 -232 -123v120c74 82 162.667 123 266 123c105.333 0 207.666 -58 306.999 -174l207 -215c26.667 -34 75.334 -64.667 146.001 -92l120 4l-4 -133h-135z
M338 -275.999v-133h148v133h-148zM250 -111.999v-133h148v133h-148zM435 -111.999v-133h147v133h-147z" />
    <glyph glyph-name="uniFB8B" unicode="&#x698;" horiz-adv-x="641" arabic-form="final" 
d="M269 776v131h147v-131h-147zM29 -251l-41.001 129c178 0 280.333 78.333 307 235v379l2 2h129v-195c0 -116.667 53.333 -172 160 -166l70 -2l4 -129l-137 -2c-46 -0 -84.333 8.33301 -115 25c-41.333 -184 -167.666 -276 -378.999 -276zM180.999 612v131h147v-131h-147z
M364.999 612v131h147v-131h-147z" />
    <glyph glyph-name="uniFB8F" unicode="&#x6a9;" horiz-adv-x="1347" arabic-form="final" 
d="M482 1l-132.998 -1c-136.667 2 -212.334 77.667 -227.001 227v267l127 -8v-195c0 -116.667 53.333 -172 160 -166h425c134 -2 186.667 20.667 158 68c-26.667 47.333 -93.667 112 -201 194c-107.333 84.667 -164 143.334 -170 176.001c-6.66699 37.333 -3 74.333 11 111
c42 48.667 229 151.667 561 309l-58 -168l-344 -182c-32.667 -18.667 -28.334 -45.334 12.999 -80.001l160 -130l96 -83c43.333 -39.333 72 -81 86 -125c7.33301 -27.333 8 -57.333 2 -90h213v-123l-879 -4v3z" />
    <glyph glyph-name="uniFB90" unicode="&#x6a9;" horiz-adv-x="577" arabic-form="initial" 
d="M561 815l-343.998 -181.999c-32.667 -18.667 -28.334 -45.334 12.999 -80.001l160 -130l96 -83c43.333 -39.333 72 -81 86 -125c13.333 -42.667 6.33301 -90.334 -21 -143.001c-26.667 -51.333 -100.334 -76 -221.001 -74h-340v127h270c134 -2 186.667 20.667 158 68
c-26.667 47.333 -93.667 112 -201 194c-107.333 84.667 -164 143.334 -170 176.001c-6.66699 37.333 -3 74.333 11 111c42 48.667 229 151.667 561 309z" />
    <glyph glyph-name="uniFB91" unicode="&#x6a9;" horiz-adv-x="847" arabic-form="medial" 
d="M488 2c-32.667 -2.66699 -60.666 -4 -83.999 -4h-422v127h352c134 -2 186.667 20.667 158 68c-26.667 47.333 -93.667 112 -201 194c-107.333 84.667 -164 143.334 -170 176.001c-6.66699 37.333 -3 74.333 11 111c42 48.667 229 151.667 561 309l-58 -168l-344 -182
c-32.667 -18.667 -28.334 -45.334 12.999 -80.001l160 -130l96 -83c43.333 -39.333 72 -81 86 -125c7.33301 -27.333 8 -57.333 2 -90h213v-123h-373z" />
    <glyph glyph-name="uniFB93" unicode="&#x6af;" horiz-adv-x="1347" arabic-form="final" 
d="M482 1l-132.998 -1c-136.667 2 -212.334 77.667 -227.001 227v267l127 -8v-195c0 -116.667 53.333 -172 160 -166h425c134 -2 186.667 20.667 158 68c-26.667 47.333 -93.667 112 -201 194c-107.333 84.667 -164 143.334 -170 176.001c-6.66699 37.333 -3 74.333 11 111
c42 48.667 229 151.667 561 309l-58 -168l-344 -182c-32.667 -18.667 -28.334 -45.334 12.999 -80.001l160 -130l96 -83c43.333 -39.333 72 -81 86 -125c7.33301 -27.333 8 -57.333 2 -90h213v-123l-879 -4v3zM1128 1024l-297.001 -145l-194 -109
c-11.333 39.333 -2.66602 81 26.001 125c26 35.333 198 125.333 516 270z" />
    <glyph glyph-name="uniFB94" unicode="&#x6af;" horiz-adv-x="577" arabic-form="initial" 
d="M554 1034l-297.001 -145l-194 -109c-11.333 39.333 -2.66602 81 26.001 125c26 35.333 198 125.333 516 270zM560.999 815l-343.998 -181.999c-32.667 -18.667 -28.334 -45.334 12.999 -80.001l160 -130l96 -83c43.333 -39.333 72 -81 86 -125
c13.333 -42.667 6.33301 -90.334 -21 -143.001c-26.667 -51.333 -100.334 -76 -221.001 -74h-340v127h270c134 -2 186.667 20.667 158 68c-26.667 47.333 -93.667 112 -201 194c-107.333 84.667 -164 143.334 -170 176.001c-6.66699 37.333 -3 74.333 11 111
c42 48.667 229 151.667 561 309z" />
    <glyph glyph-name="uniFB95" unicode="&#x6af;" horiz-adv-x="847" arabic-form="medial" 
d="M488 2c-32.667 -2.66699 -60.666 -4 -83.999 -4h-422v127h352c134 -2 186.667 20.667 158 68c-26.667 47.333 -93.667 112 -201 194c-107.333 84.667 -164 143.334 -170 176.001c-6.66699 37.333 -3 74.333 11 111c42 48.667 229 151.667 561 309l-58 -168l-344 -182
c-32.667 -18.667 -28.334 -45.334 12.999 -80.001l160 -130l96 -83c43.333 -39.333 72 -81 86 -125c7.33301 -27.333 8 -57.333 2 -90h213v-123h-373zM628.001 1024l-297.001 -145l-194 -109c-11.333 39.333 -2.66602 81 26.001 125c26 35.333 198 125.333 516 270z" />
    <glyph glyph-name="uniFBA5" unicode="&#x6c0;" horiz-adv-x="888" arabic-form="final" 
d="M644 612v-313c0 -116.667 53.333 -172 160 -166l111 -2l4 -129l-178 -2c-115.333 2 -187.333 56 -216 162c-50.667 -66 -116.667 -99 -198 -99c-165.333 0 -248 88.333 -248 265c0 189.333 99.667 284 299 284h266zM515 492h-129c-119.333 0 -178 -52.667 -176 -158
c2 -92.667 50.333 -139 145 -139c68 0 121.333 43.667 160 131v166zM371 790h-193l-2 63l61 -4c-16 20.667 -24 40.667 -24 60c0 70.667 32.667 106 98 106c28 0 51.333 -12.333 70 -37l-23 -45c-12 16.667 -27.667 25 -47 25c-28 4 -43 -10.333 -45 -43
c10 -33.333 32 -55.333 66 -66h39v-59z" />
    <glyph glyph-name="uniFBFD" unicode="&#x6cc;" horiz-adv-x="1185" arabic-form="final" 
d="M726 295l84.0029 -58.999v2c85.333 -49.333 114.666 -137.333 87.999 -264s-133.667 -202.334 -321 -227.001v-5c-34.667 2 -58 2 -70 0v5c-255.333 24 -383 173.333 -383 448v186h129v-184c0 -180.667 96.333 -286.334 289 -317.001c126 10 196.333 44.667 211 104
c14 59.333 2.33301 105 -35 137l-78 69c-117.333 54 -159.666 137.333 -126.999 250c63.333 108.667 166.333 172.334 309 191.001v2c4.66699 0.666992 10 1.33398 16 2.00098h15c19.333 2 50 -7.66699 92 -29c41.333 -18.667 73.666 -93 96.999 -223
c40.667 -165.333 89.667 -248 147 -248h22l11 -137l-84 2c-96.667 2 -166.334 89.333 -209.001 262c-14.667 163.333 -56.334 235.666 -125.001 216.999c-156 -44 -182 -105.333 -78 -184z" />
    <glyph glyph-name="uniFBFE" unicode="&#x6cc;" horiz-adv-x="344" arabic-form="initial" 
d="M224 494h129v-267c-14.667 -149.333 -90 -225 -226 -227l-136 2l4 129l69 2c106.667 -6 160 49.333 160 166v195zM-104 -245v133h147v-133h-147zM80 -245v133h148v-133h-148z" />
    <glyph glyph-name="uniFBFF" unicode="&#x6cc;" horiz-adv-x="563" arabic-form="medial" 
d="M111 0l-135 2l5 129l67 2c106 -6 159 49.333 159 166v195h129v-2h4v-197c0 -116.667 53.333 -172 160 -166h70l4 -129l-135 -2c-72.667 2 -128 23 -166 63c-39.333 -38.667 -93.333 -59 -162 -61zM-106 -245v133h147v-133h-147zM78 -245v133h148v-133h-148z" />
    <glyph glyph-name="uniFE82" unicode="&#x622;" horiz-adv-x="491" arabic-form="final" 
d="M358 1161c-4 -32.667 -14.333 -57.333 -31 -74c-17.333 -21.333 -41.666 -32 -72.999 -32c-18 0 -43.333 5.33301 -76 16c-32.667 12.667 -55.334 19 -68.001 19c-25.333 0 -41 -15.333 -47 -46h-49c8 71.333 40 107 96 107c19.333 0 45.333 -6 78 -18
c34.667 -12.667 56.667 -19 66 -19c33.333 0 51 15.667 53 47h51zM415 133.001c-106 -6 -159 49.333 -159 166v686h-129v-758c14 -149.333 89.667 -225 227 -227l156 2l-4 129z" />
    <glyph glyph-name="uniFE84" unicode="&#x623;" horiz-adv-x="491" arabic-form="final" 
d="M274 1063h-193l-2 63l61 -4c-16 20.667 -24 40.667 -24 60c0 70.667 32.667 106 98 106c28 0 51.333 -12.333 70 -37l-23 -45c-12 16.667 -27.667 25 -47 25c-28 4 -43 -10.333 -45 -43c10 -33.333 32 -55.333 66 -66h39v-59zM415 133
c-106.667 -6 -160.001 49.333 -160.001 166v686h-129v-758c14.667 -149.333 90.334 -225 227.001 -227l158 2l-6 129z" />
    <glyph glyph-name="uniFE86" unicode="&#x624;" horiz-adv-x="862" arabic-form="final" 
d="M565 297c10 -110 -2.33398 -166 -37.001 -168h-127c-44 0 -81.667 17.333 -113 52s-47 76.667 -47 126c0 118.667 53.333 178 160 178c102.667 0 157.334 -62.667 164.001 -188zM498.999 739h-191.999l-2 64l61 -4c-16.667 20 -25 39.667 -25 59c0 71.333 33 107 99 107
c28 0 51 -12.333 69 -37l-22 -45c-12.667 16 -28.334 24 -47.001 24c-28 4.66699 -43 -9.66602 -45 -42.999c9.33301 -32.667 31 -54.334 65 -65.001h39v-60zM882 -2l0.00292969 131.001h-186c5.33301 53.333 2.66602 119.666 -8.00098 198.999
c-6.66699 80 -34.667 149 -84 207c-54.667 62.667 -123 94 -205 94c-80.667 0 -149 -32.333 -205 -97c-56 -64 -84 -140.333 -84 -229c0 -95.333 28 -173 84 -233c55.333 -59.333 123.666 -82 204.999 -68l125 -4c-50 -80 -139 -120 -267 -120l41 -129
c201.333 0 325.666 83 372.999 249h211z" />
    <glyph glyph-name="uniFE88" unicode="&#x625;" horiz-adv-x="493" arabic-form="final" 
d="M501 131l6.00098 -129l-158 -2c-136.667 2 -212.334 77.667 -227.001 227v758h129v-686c0 -116.667 53.333 -172 160 -166zM272.001 -247l-193 -0.000976562l-2 63l61 -4c-16 20.667 -24 40.334 -24 59.001c0 71.333 32.667 107 98 107c28 0 51.333 -12.333 70 -37
l-23 -45c-12 16.667 -27.667 25 -47 25c-28 4 -43 -10.333 -45 -43c10 -33.333 32 -55.333 66 -66h39v-59z" />
    <glyph glyph-name="uniFE8A" unicode="&#x626;" horiz-adv-x="1185" arabic-form="final" 
d="M726 295l84.002 -58.999v2c85.333 -49.333 114.666 -137.333 87.999 -264s-134 -202.334 -322 -227.001v-5c-34 2 -57 2 -69 0v5c-255.333 24 -383 173.333 -383 448v186h129v-184c0 -180.667 96 -286.334 288 -317.001c126.667 10 197 44.667 211 104
c14.667 59.333 3 105 -35 137l-77 69c-118 54 -160.333 137.333 -127 250c63.333 108.667 166.333 172.334 309 191.001v2c4.66699 0.666992 9.66699 1.33398 15 2.00098h16c19.333 2 50 -7.66699 92 -29c41.333 -18.667 73.333 -93 96 -223
c40.667 -165.333 89.667 -248 147 -248h23l10 -137l-84 2c-96.667 2 -166.334 89.333 -209.001 262c-14 163.333 -55.667 235.666 -125 216.999c-156 -44 -181.667 -105.333 -77 -184zM296.002 412.001l-193 -0.000976562l-2 63l61 -4c-16 20.667 -24 40.334 -24 59.001
c0 71.333 32.667 107 98 107c28 0 51.333 -12.333 70 -37l-23 -45c-12 16.667 -27.667 25 -47 25c-28 4 -43 -10.333 -45 -43c10 -33.333 32 -55.333 66 -66h39v-59z" />
    <glyph glyph-name="uniFE8B" unicode="&#x626;" horiz-adv-x="339" arabic-form="initial" 
d="M113 0c136 2 211.333 77.666 226 226.999v267h-129v-195c0 -105.333 -43.333 -160.666 -130 -165.999c-9.33301 -0.666992 -19.333 -0.666992 -30 0l-67 -2l-4 -129l101 -2h33zM163 611.999h-190l-5 64l61 -4c-16 18 -24 37.667 -24 59c0 71.333 32.667 107 98 107
c28 0 51.333 -12.333 70 -37l-23 -45c-12 16 -27.667 24 -47 24c-28 2.66699 -43 -11.666 -45 -42.999c10 -32.667 32 -54.334 66 -65.001h39v-60z" />
    <glyph glyph-name="uniFE8C" unicode="&#x626;" horiz-adv-x="567" arabic-form="medial" 
d="M171 612h-190l-5 64l61 -4c-16 18 -24 37.667 -24 59c0 71.333 32.667 107 98 107c28 0 51.333 -12.333 70 -37l-23 -45c-12 16 -27.667 24 -47 24c-28 2.66699 -43 -11.666 -45 -42.999c10 -32.667 32 -54.334 66 -65.001h39v-60zM449 -2l135 2l-4 129h-69
c-106.667 -6 -160 49.333 -160 166v197h-4v2h-129v-195c0 -116.667 -53.333 -172 -160 -166l-67 -2l-4 -129l134 -2c69.333 2 123.333 22.333 162 61c38.667 -40 94 -61 166 -63z" />
    <glyph glyph-name="uniFE8E" unicode="&#x627;" horiz-adv-x="491" arabic-form="final" 
d="M505 131l4.00098 -129l-156 -2c-136.667 2 -212.334 77.667 -227.001 227v758h129v-686c0 -116.667 53.333 -172 160 -166z" />
    <glyph glyph-name="uniFE90" unicode="&#x628;" horiz-adv-x="1177" arabic-form="final" 
d="M468 -247v131h148v-131h-148zM593 2l-245.999 -2c-136.667 2 -212.334 77.667 -227.001 227v267h129v-195c0 -116.667 53.333 -172 160 -166l192 -2l64 2c106.667 -6 160 49.333 160 166v195h129v-5h4v-196c0 -116.667 53 -172 159 -166h70l4 -129l-139 2
c-68.667 -2 -122.667 17.667 -162 59c-38.667 -38.667 -92.667 -59 -162 -61l-135 2v2z" />
    <glyph glyph-name="uniFE91" unicode="&#x628;" horiz-adv-x="321" arabic-form="initial" 
d="M199 494h129v-267c-14 -149.333 -89 -225 -225 -227l-116 2l4 129l48 2c106.667 -6 160 49.333 160 166v195zM-65 -251v133h147v-133h-147z" />
    <glyph glyph-name="uniFE92" unicode="&#x628;" horiz-adv-x="567" arabic-form="medial" 
d="M115 0l-134 2l4 129l67 2c106 -6 159 49.333 159 166v195h129v-2h5v-197c0 -116.667 53 -172 159 -166h70l4 -129l-135 -2c-72.667 2 -128 23 -166 63c-38.667 -38.667 -92.667 -59 -162 -61zM-63 -251v133h147v-133h-147z" />
    <glyph glyph-name="uniFE96" unicode="&#x62a;" horiz-adv-x="1177" arabic-form="final" 
d="M595 2l-245.999 -2c-136.667 2 -212.334 77.667 -227.001 227v267h129v-195c0 -116.667 53.333 -172 160 -166l192 -2l64 2c106.667 -6 160 49.333 160 166v195h129v-5h4v-196c0 -116.667 53 -172 159 -166h70l4 -129l-139 2c-68.667 -2 -122.667 17.667 -162 59
c-38.667 -38.667 -92.667 -59 -162 -61l-135 2v2zM566.001 612v131h148v-131h-148zM382.001 612v131h148v-131h-148z" />
    <glyph glyph-name="uniFE97" unicode="&#x62a;" horiz-adv-x="323" arabic-form="initial" 
d="M212 494h129v-267c-14.667 -149.333 -90 -225 -226 -227l-136 2l4 129l69 2c106.667 -6 160 49.333 160 166v195zM-116 614v131h147v-131h-147zM68 614v131h148v-131h-148z" />
    <glyph glyph-name="uniFE98" unicode="&#x62a;" horiz-adv-x="567" arabic-form="medial" 
d="M120 0l-134.999 2l4 129l67 2c106.667 -6 160 49.333 160 166v195h129v-2h4v-197c0 -116.667 53.333 -172 160 -166h69l4 -129l-135 -2c-72 2 -127.333 23 -166 63c-38.667 -38.667 -92.334 -59 -161.001 -61zM-115.999 614v131h147v-131h-147zM68.001 614v131h148v-131
h-148z" />
    <glyph glyph-name="uniFE9A" unicode="&#x62b;" horiz-adv-x="1177" arabic-form="final" 
d="M595 2l-245.999 -2c-136.667 2 -212.334 77.667 -227.001 227v267h129v-195c0 -116.667 53.333 -172 160 -166l192 -2l64 2c106.667 -6 160 49.333 160 166v195h129v-5h4v-196c0 -116.667 53 -172 159 -166h70l4 -129l-139 2c-68.667 -2 -122.667 17.667 -162 59
c-38.667 -38.667 -92.667 -59 -162 -61l-135 2v2zM470.001 776v131h148v-131h-148zM566.001 612v131h148v-131h-148zM382.001 612v131h148v-131h-148z" />
    <glyph glyph-name="uniFE9B" unicode="&#x62b;" horiz-adv-x="333" arabic-form="initial" 
d="M-25 778v131h147v-131h-147zM214 494h129v-267c-14.667 -149.333 -90 -225 -226 -227l-136 2l4 129l69 2c106.667 -6 160 49.333 160 166v195zM-114 614v131h147v-131h-147zM70 614v131h148v-131h-148z" />
    <glyph glyph-name="uniFE9C" unicode="&#x62b;" horiz-adv-x="573" arabic-form="medial" 
d="M120 0l-134.999 2l-2 129l73 2c106.667 -6 160 49.333 160 166v195h129v-2h4v-197c0 -116.667 53.333 -172 160 -166l73 -4v-125l-135 -2c-72 2 -127.333 23 -166 63c-38.667 -38.667 -92.334 -59 -161.001 -61zM-26.999 778v131h147v-131h-147zM-115.999 614v131h147
v-131h-147zM68.001 614v131h148v-131h-148z" />
    <glyph glyph-name="uniFE9E" unicode="&#x62c;" horiz-adv-x="1040" arabic-form="final" 
d="M657 -188v133h-148v-133h148zM886 160c41.333 -20 85.666 -28.999 132.999 -26.999l49 -2l4 -129l-116 -2c-71.333 2 -125.333 22.333 -162 61h-160c-77.333 -9.33301 -151 -29 -221 -59c-99.333 -57.333 -148 -113.666 -146 -168.999
c2.66699 -56.667 29.334 -96.334 80.001 -119.001c52 -22.667 169.667 -8.33398 353 42.999l2 -125c-130 -65.333 -251.667 -82.333 -365 -51c-111.333 30 -176.333 101 -195 213c-16 110 24.333 202 121 276c100 62.667 211.333 103.667 334 123l62 8l-119 180
c-126.667 126.667 -260 115.667 -400 -33v141c74 82 156 123 246 123c92 0 180.667 -58 266 -174l105 -153c26.667 -35.333 69.667 -66 129 -92v-33z" />
    <glyph glyph-name="uniFE9F" unicode="&#x62c;" horiz-adv-x="851" arabic-form="initial" 
d="M726 223c26.667 -34.667 69.667 -65.333 129 -92l-2 -131h-887l3 131h667l-189 209c-135.333 160 -275.333 162.667 -420 8v141c74 82 156 123 246 123c92 0 194.333 -71.667 307 -215zM408 -250.999v133h-147v-133h147z" />
    <glyph glyph-name="uniFEA0" unicode="&#x62c;" horiz-adv-x="948" arabic-form="medial" 
d="M859 2v-2h-887l3 131h667l-189 209c-135.333 160 -275.333 162.667 -420 8v141c74 82 156 123 246 123c92 0 194.333 -71.667 307 -215l146 -174c26.667 -32.667 67 -62 121 -88h116v-133h-110zM414 -251v133h-147v-133h147z" />
    <glyph glyph-name="uniFEA2" unicode="&#x62d;" horiz-adv-x="1187" arabic-form="final" 
d="M1034 160c41.333 -20 85.666 -28.999 132.999 -26.999l49 -2l4 -129l-116 -2c-71.333 2 -125.333 22.333 -162 61h-160c-77.333 -9.33301 -151 -29 -221 -59c-99.333 -57.333 -148 -113.666 -146 -168.999c2.66699 -56.667 29.334 -96.334 80.001 -119.001
c52 -22.667 169.667 -8.33398 353 42.999l2 -125c-130 -65.333 -251.667 -82.333 -365 -51c-111.333 30 -176.333 101 -195 213c-16 110 24.333 202 121 276c100 62.667 211.333 103.667 334 123l62 8l-119 180c-126.667 126.667 -260 115.667 -400 -33v141
c74 82 156 123 246 123c92 0 180.667 -58 266 -174l105 -153c26.667 -35.333 69.667 -66 129 -92v-33z" />
    <glyph glyph-name="uniFEA3" unicode="&#x62d;" horiz-adv-x="864" arabic-form="initial" 
d="M744 223c26.667 -34.667 69.667 -65.333 129 -92l-2 -131h-887l3 131h667l-189 209c-135.333 160 -275.333 162.667 -420 8v141c74 82 156 123 246 123c92 0 194.333 -71.667 307 -215z" />
    <glyph glyph-name="uniFEA4" unicode="&#x62d;" horiz-adv-x="960" arabic-form="medial" 
d="M867 2v-2h-887l3 131h667l-189 209c-135.333 160 -275.333 162.667 -420 8v141c74 82 156 123 246 123c92 0 194.333 -71.667 307 -215l146 -174c26.667 -32.667 67 -62 121 -88h116v-133h-110z" />
    <glyph glyph-name="uniFEA6" unicode="&#x62e;" horiz-adv-x="1034" arabic-form="final" 
d="M306 739v133h148v-133h-148zM886 160c41.333 -20 85.666 -28.999 132.999 -26.999l49 -2l4 -129l-116 -2c-71.333 2 -125.333 22.333 -162 61h-160c-77.333 -9.33301 -151 -29 -221 -59c-99.333 -57.333 -148 -113.666 -146 -168.999
c2.66699 -56.667 29.334 -96.334 80.001 -119.001c52 -22.667 169.667 -8.33398 353 42.999l2 -125c-130 -65.333 -251.667 -82.333 -365 -51c-111.333 30 -176.333 101 -195 213c-16 110 24.333 202 121 276c100 62.667 211.333 103.667 334 123l62 8l-119 180
c-126.667 126.667 -260 115.667 -400 -33v141c74 82 156 123 246 123c92 0 180.667 -58 266 -174l105 -153c26.667 -35.333 69.667 -66 129 -92v-33z" />
    <glyph glyph-name="uniFEA7" unicode="&#x62e;" horiz-adv-x="858" arabic-form="initial" 
d="M732 223c26.667 -34.667 69.667 -65.333 129 -92l-2 -131h-887l3 131h667l-189 209c-135.333 160 -275.333 162.667 -420 8v141c74 82 156 123 246 123c92 0 194.333 -71.667 307 -215zM226 731.001v133h147v-133h-147z" />
    <glyph glyph-name="uniFEA8" unicode="&#x62e;" horiz-adv-x="966" arabic-form="medial" 
d="M867 2v-2h-887l3 131h667l-189 209c-135.333 160 -275.333 162.667 -420 8v141c74 82 156 123 246 123c92 0 194.333 -71.667 307 -215l146 -174c26.667 -32.667 67 -62 121 -88h116v-133h-110zM209 737v133h148v-133h-148z" />
    <glyph glyph-name="uniFEAA" unicode="&#x62f;" horiz-adv-x="837" arabic-form="final" 
d="M847 0h-41c-120 0 -190.333 32.667 -211 98c-58 -65.333 -140.667 -98 -248 -98h-229v133h223c61.333 0 107 15 137 45c22 24 33 54.667 33 92l-3 24c-2 13.333 -5 26 -9 38l-121 284h141l105 -245c10 -36 19.667 -68 29 -96c12 -36 22 -61.333 30 -76
c25.333 -45.333 65 -67.333 119 -66h45v-133z" />
    <glyph glyph-name="uniFEAC" unicode="&#x630;" horiz-adv-x="841" arabic-form="final" 
d="M381 729v131h147v-131h-147zM862 0h-41c-120 0 -190.333 32.667 -211 98c-58 -65.333 -140.667 -98 -248 -98h-229v133h223c61.333 0 107 15 137 45c22 24 33 54.667 33 92l-3 24c-2 13.333 -5 26 -9 38l-121 284h141l105 -245c10 -36 19.667 -68 29 -96
c12 -36 22 -61.333 30 -76c25.333 -45.333 65 -67.333 119 -66h45v-133z" />
    <glyph glyph-name="uniFEAE" unicode="&#x631;" horiz-adv-x="649" arabic-form="final" 
d="M31 -251l-41.001 129c178 0 280.333 78.333 307 235v379l2 2h129v-195c0 -116.667 53.333 -172 160 -166l70 -2l4 -129l-137 -2c-46 -0 -84.333 8.33301 -115 25c-41.333 -184 -167.666 -276 -378.999 -276z" />
    <glyph glyph-name="uniFEB0" unicode="&#x632;" horiz-adv-x="645" arabic-form="final" 
d="M291 592v131h148v-131h-148zM31 -251l-41.001 129c178 0 280.333 78.333 307 235v379l2 2h129v-195c0 -116.667 53.333 -172 160 -166l70 -2l4 -129l-137 -2c-46 -0 -84.333 8.33301 -115 25c-41.333 -184 -167.666 -276 -378.999 -276z" />
    <glyph glyph-name="uniFEB2" unicode="&#x633;" horiz-adv-x="1679" arabic-form="final" 
d="M1292 2l-32.999 -2.00098c-58.667 4 -104.334 22.333 -137.001 55c-32 -29.333 -70.333 -47 -115 -53l-33 -2c-28.667 2 -57.334 8.66699 -86.001 20c-57.333 -179.333 -186.333 -269 -387 -269c-255.333 0 -383 145 -383 435v189h123v-123
c0 -245.333 86.667 -368 260 -368c183.333 0 270 121.333 260 364l2 246h131v-195c0 -84.667 28 -137.334 84 -158.001c36.667 14.667 61.334 43.334 74.001 86.001v267h137v-265c12 -44 37.333 -73.333 76 -88c54.667 20.667 82 73.334 82 158.001v195h129v-7h4v-194
c0 -116.667 53.333 -172 160 -166l49 -2l4 -129l-117 -2c-72.667 2 -128 23.667 -166 65c-32 -32 -71.333 -51 -118 -57z" />
    <glyph glyph-name="uniFEB3" unicode="&#x633;" horiz-adv-x="903" arabic-form="initial" 
d="M326 494l0.000976562 -195.001c0 -84.667 28 -137.334 84 -158.001c36.667 14.667 61.334 43.334 74.001 86.001v267h137v-265c12 -44 37.333 -73.333 76 -88c54.667 20.667 82 73.334 82 158.001v195h129v-267c-12.667 -133.333 -74.334 -208.333 -185.001 -225l-32 -2
c-58.667 4 -104.667 22.333 -138 55c-31.333 -29.333 -69.333 -47 -114 -53l-33 -2c-64 4 -113 25 -147 63c-38.667 -40 -93.334 -61 -164.001 -63l-117 2l5 129l48 2c106.667 -6 160 49.333 160 166v195h135z" />
    <glyph glyph-name="uniFEB4" unicode="&#x633;" horiz-adv-x="1122" arabic-form="medial" 
d="M735 2l-32.001 -2.00098c-58.667 4 -104.667 22.333 -138 55c-31.333 -29.333 -69.333 -47 -114 -53l-33 -2c-64 4 -113 25 -147 63c-38.667 -40 -93.334 -61 -164.001 -63l-117 2l5 129l48 2c106.667 -6 160 49.333 160 166v195h135v-195
c0 -84.667 28 -137.334 84 -158.001c36.667 14.667 61.334 43.334 74.001 86.001v267h137v-265c12 -44 37.333 -73.333 76 -88c54.667 20.667 82 73.334 82 158.001v195h133v-195c0 -116.667 53.333 -172 160 -166l49 -2l4 -129l-117 -2c-70 2 -124.667 22.333 -164 61
c-31.333 -31.333 -71.666 -51 -120.999 -59z" />
    <glyph glyph-name="uniFEB6" unicode="&#x634;" horiz-adv-x="1681" arabic-form="final" 
d="M1056 776v131h147v-131h-147zM968 612v131h147v-131h-147zM1152 612v131h148v-131h-148zM1296 2l-32.999 -2.00098c-58.667 4 -104.334 22.333 -137.001 55c-32 -29.333 -70.333 -47 -115 -53l-33 -2c-28.667 2 -57.334 8.66699 -86.001 20
c-57.333 -179.333 -186.333 -269 -387 -269c-255.333 0 -383 145 -383 435v189h123v-123c0 -245.333 86.667 -368 260 -368c183.333 0 270 121.333 260 364l2 246h131v-195c0 -84.667 28 -137.334 84 -158.001c36.667 14.667 61.334 43.334 74.001 86.001v267h137v-265
c12 -44 37.333 -73.333 76 -88c54.667 20.667 82 73.334 82 158.001v195h129v-7h4v-194c0 -116.667 53.333 -172 160 -166l49 -2l4 -129l-117 -2c-72.667 2 -128 23.667 -166 65c-32 -32 -71.333 -51 -118 -57z" />
    <glyph glyph-name="uniFEB7" unicode="&#x634;" horiz-adv-x="911" arabic-form="initial" 
d="M482 776v131h147v-131h-147zM328 494l0.000976562 -195.001c0 -84.667 28 -137.334 84 -158.001c36.667 14.667 61.334 43.334 74.001 86.001v267h137v-265c12 -44 37.333 -73.333 76 -88c54.667 20.667 82 73.334 82 158.001v195h129v-267
c-12.667 -133.333 -74.334 -208.333 -185.001 -225l-32 -2c-58.667 4 -104.667 22.333 -138 55c-31.333 -29.333 -69.333 -47 -114 -53l-33 -2c-64 4 -113 25 -147 63c-38.667 -40 -93.334 -61 -164.001 -63l-117 2l5 129l48 2c106.667 -6 160 49.333 160 166v195h135z
M394.001 611.999v131h147v-131h-147zM578.001 611.999v131h147v-131h-147z" />
    <glyph glyph-name="uniFEB8" unicode="&#x634;" horiz-adv-x="1118" arabic-form="medial" 
d="M494 776v131h147v-131h-147zM737 2l-32.001 -2.00098c-58.667 4 -104.667 22.333 -138 55c-31.333 -29.333 -69.333 -47 -114 -53l-33 -2c-64 4 -113 25 -147 63c-38.667 -40 -93.334 -61 -164.001 -63l-117 2l5 129l48 2c106.667 -6 160 49.333 160 166v195h135v-195
c0 -84.667 28 -137.334 84 -158.001c36.667 14.667 61.334 43.334 74.001 86.001v267h137v-265c12 -44 37.333 -73.333 76 -88c54.667 20.667 82 73.334 82 158.001v195h133v-195c0 -116.667 53.333 -172 160 -166l49 -2l4 -129l-117 -2c-70 2 -124.667 22.333 -164 61
c-31.333 -31.333 -71.666 -51 -120.999 -59zM589.999 611.999v131h147v-131h-147zM405.999 611.999v131h147v-131h-147z" />
    <glyph glyph-name="uniFEBA" unicode="&#x635;" horiz-adv-x="1964" arabic-form="final" 
d="M1052 135l446 0.000976562c135.333 0 205 28.667 209 86c6 59.333 -30 118.666 -108 177.999c-56 48 -112.667 79 -170 93c-60 0 -144 -62.333 -252 -187zM1525 2.00098h-587.998c-16.667 -3.33301 -34.334 -4 -53.001 -2c-36.667 -172 -164.334 -258 -383.001 -258
c-255.333 0 -383 145.333 -383 436v205h123v-139c0 -245.333 86.667 -368 260 -368c170 0 254 86.333 252 259l2 244h139v-203c4 -6 57.333 57.667 160 191c137.333 163.333 263 245 377 245c113.333 -14 203.333 -57.667 270 -131c88 -80 135 -181.667 141 -305
c-2 -15.333 -6 -29 -12 -41h148v-137h-457z" />
    <glyph glyph-name="uniFEBB" unicode="&#x635;" horiz-adv-x="1193" arabic-form="initial" 
d="M295 2c-46.667 -10 -88.999 3.66699 -126.999 41c-22.667 -33.333 -61.334 -47 -116.001 -41h-72l5 133h65c43.333 0 65 39 65 117v127h137v-201c-4 -20 49.333 43 160 189c137.333 163.333 263 245 377 245c113.333 -14 203.333 -57.667 270 -131
c88 -80 135.333 -181.667 142 -305c-27.333 -130 -134 -188 -320 -174h-586zM410.001 135l447 0.000976562c134.667 0 204 28.667 208 86c6.66699 59.333 -29.333 118.666 -108 177.999c-56 48 -112.667 79 -170 93c-60 0 -144 -62.333 -252 -187z" />
    <glyph glyph-name="uniFEBC" unicode="&#x635;" horiz-adv-x="1323" arabic-form="medial" 
d="M412 135l447 0.000976562c134.667 0 204 28.667 208 86c6.66699 59.333 -29.333 118.666 -108 177.999c-56 48 -112.667 79 -170 93c-60 0 -144 -62.333 -252 -187zM922 0.000976562h-18.999l-20 2h-586c-46.667 -10 -89 3.66699 -127 41
c-22.667 -33.333 -61.334 -47 -116.001 -41h-72l5 133h65c43.333 0 65 39 65 117v127h137v-201c-4 -20 49.333 43 160 189c137.333 163.333 263 245 377 245c113.333 -14 203.333 -57.667 270 -131c88 -80 135.333 -181.667 142 -305c-2.66699 -15.333 -7 -29 -13 -41h146
v-137h-416z" />
    <glyph glyph-name="uniFEBE" unicode="&#x636;" horiz-adv-x="1968" arabic-form="final" 
d="M1058 135l446 0.000976562c135.333 0 205 28.667 209 86c6 59.333 -30 118.666 -108 177.999c-56 48 -112.667 79 -170 93c-60 0 -144 -62.333 -252 -187zM1367 737.001v131h148v-131h-148zM1531 2.00098h-587.998c-16.667 -3.33301 -34.334 -4 -53.001 -2
c-36.667 -172 -164.334 -258 -383.001 -258c-255.333 0 -383 145.333 -383 436v205h123v-139c0 -245.333 86.667 -368 260 -368c170 0 254 86.333 252 259l2 244h139v-203c4 -6 57.333 57.667 160 191c137.333 163.333 263 245 377 245
c113.333 -14 203.333 -57.667 270 -131c88 -80 135 -181.667 141 -305c-2 -15.333 -6 -29 -12 -41h148v-137h-457z" />
    <glyph glyph-name="uniFEBF" unicode="&#x636;" horiz-adv-x="1202" arabic-form="initial" 
d="M297 2c-46.667 -10 -88.999 3.66699 -126.999 41c-22.667 -33.333 -61.334 -47 -116.001 -41h-72l5 133h65c43.333 0 65 39 65 117v127h137v-201c-4 -20 49.333 43 160 189c137.333 163.333 263 245 377 245c113.333 -14 203.333 -57.667 270 -131
c88 -80 135.333 -181.667 142 -305c-27.333 -130 -134 -188 -320 -174h-586zM412.001 135l447 0.000976562c134.667 0 204 28.667 208 86c6.66699 59.333 -29.333 118.666 -108 177.999c-56 48 -112.667 79 -170 93c-60 0 -144 -62.333 -252 -187zM721.001 737.001v131h148
v-131h-148z" />
    <glyph glyph-name="uniFEC0" unicode="&#x636;" horiz-adv-x="1327" arabic-form="medial" 
d="M410 135l447 0.000976562c134.667 0 204 28.667 208 86c6.66699 59.333 -29.333 118.666 -108 177.999c-56 48 -112.667 79 -170 93c-60 0 -144 -62.333 -252 -187zM719 737.001v131h148v-131h-148zM920 0.000976562h-18.999l-20 2h-586c-46.667 -10 -89 3.66699 -127 41
c-22.667 -33.333 -61.334 -47 -116.001 -41h-72l5 133h65c43.333 0 65 39 65 117v127h137v-201c-4 -20 49.333 43 160 189c137.333 163.333 263 245 377 245c113.333 -14 203.333 -57.667 270 -131c88 -80 135.333 -181.667 142 -305c-2.66699 -15.333 -7 -29 -13 -41h146
v-137h-416z" />
    <glyph glyph-name="uniFEC2" unicode="&#x637;" horiz-adv-x="1456" arabic-form="final" 
d="M550 135l447 0.000976562c134.667 0 204 28.667 208 86c6.66699 59.333 -29.333 118.666 -108 177.999c-56 48 -112.667 79 -170 93c-60 0 -144 -62.333 -252 -187zM1119 2.00098c-30.667 -2 -63.333 -2 -98 0h-901l66 133h69v858h137v-815c-4 -20 49.333 43 160 189
c137.333 163.333 263 245 377 245c113.333 -14 203.333 -57.667 270 -131c88 -80 135.333 -181.667 142 -305c-4 -18 -9.66699 -35 -17 -51h160v-123h-365z" />
    <glyph glyph-name="uniFEC3" unicode="&#x637;" horiz-adv-x="1193" arabic-form="initial" 
d="M-20 2l5 133h130v858h137v-815c-4 -20 49.333 43 160 189c137.333 163.333 263 245 377 245c113.333 -14 203.333 -57.667 270 -131c88 -80 135.333 -181.667 142 -305c-27.333 -130 -134 -188 -320 -174h-901zM410 135l447 0.000976562c134.667 0 204 28.667 208 86
c6.66699 59.333 -29.333 118.666 -108 177.999c-56 48 -112.667 79 -170 93c-60 0 -144 -62.333 -252 -187z" />
    <glyph glyph-name="uniFEC4" unicode="&#x637;" horiz-adv-x="1331" arabic-form="medial" 
d="M410 135l447 0.000976562c134.667 0 204 28.667 208 86c6.66699 59.333 -29.333 118.666 -108 177.999c-56 48 -112.667 79 -170 93c-60 0 -144 -62.333 -252 -187zM979 2.00098c-30.667 -2 -63.333 -2 -98 0h-901l5 133h130v858h137v-815c-4 -20 49.333 43 160 189
c137.333 163.333 263 245 377 245c113.333 -14 203.333 -57.667 270 -131c88 -80 135.333 -181.667 142 -305c-4 -18 -9.66699 -35 -17 -51h160v-123h-365z" />
    <glyph glyph-name="uniFEC6" unicode="&#x638;" horiz-adv-x="1482" arabic-form="final" 
d="M561 135l447 0.000976562c134.667 0 204 28.667 208 86c6.66699 59.333 -29.333 118.666 -108 177.999c-56 48 -112.667 79 -170 93c-60 0 -144 -62.333 -252 -187zM870 737.001v131h148v-131h-148zM1130 2.00098c-30.667 -2 -63.333 -2 -98 0h-901l66 133h69v858h137
v-815c-4 -20 49.333 43 160 189c137.333 163.333 263 245 377 245c113.333 -14 203.333 -57.667 270 -131c88 -80 135.333 -181.667 142 -305c-4 -18 -9.66699 -35 -17 -51h160v-123h-365z" />
    <glyph glyph-name="uniFEC7" unicode="&#x638;" horiz-adv-x="1193" arabic-form="initial" 
d="M-20 2l5 133h130v858h137v-815c-4 -20 49.333 43 160 189c137.333 163.333 263 245 377 245c113.333 -14 203.333 -57.667 270 -131c88 -80 135.333 -181.667 142 -305c-27.333 -130 -134 -188 -320 -174h-901zM410 135l447 0.000976562c134.667 0 204 28.667 208 86
c6.66699 59.333 -29.333 118.666 -108 177.999c-56 48 -112.667 79 -170 93c-60 0 -144 -62.333 -252 -187zM719 737.001v131h148v-131h-148z" />
    <glyph glyph-name="uniFEC8" unicode="&#x638;" horiz-adv-x="1331" arabic-form="medial" 
d="M410 135l447 0.000976562c134.667 0 204 28.667 208 86c6.66699 59.333 -29.333 118.666 -108 177.999c-56 48 -112.667 79 -170 93c-60 0 -144 -62.333 -252 -187zM719 737.001v131h148v-131h-148zM979 2.00098c-30.667 -2 -63.333 -2 -98 0h-901l5 133h130v858h137
v-815c-4 -20 49.333 43 160 189c137.333 163.333 263 245 377 245c113.333 -14 203.333 -57.667 270 -131c88 -80 135.333 -181.667 142 -305c-4 -18 -9.66699 -35 -17 -51h160v-123h-365z" />
    <glyph glyph-name="uniFECA" unicode="&#x639;" horiz-adv-x="907" arabic-form="final" 
d="M696 446c-154 45.333 -296.667 45.334 -428 0.000976562c106.667 -56 179 -130.333 217 -223c92 81.333 162.333 155.666 211 222.999zM88 426.001l0.00292969 113.002c236.667 106.667 492.667 112 768 16v-102c-74 -124 -169 -230.667 -285 -320h17
c6 -0.666992 11.333 -1.33398 16 -2.00098c18.667 -0.666992 46 -0.666992 82 0l236 4l2 -135l-304 -2c-53.333 0 -101 13.667 -143 41c-30.667 -8 -59.334 -18.333 -86.001 -31c-98.667 -57.333 -147 -113.666 -145 -168.999c2 -56.667 28.667 -96.334 80 -119.001
s168.666 -8.33398 351.999 42.999l2 -125c-130 -64.667 -251.667 -81.667 -365 -51c-111.333 30 -176 101 -194 213c-16.667 110 23.666 202 120.999 276c38.667 24.667 83.667 45 135 61c-34.667 112.667 -131 209 -289 289z" />
    <glyph glyph-name="uniFECB" unicode="&#x639;" horiz-adv-x="735" arabic-form="initial" 
d="M744 0l-753.002 -2l-3 137l166 -4c-40 52.667 -56.667 114.334 -50 185.001c6.66699 76.667 39.667 148.667 99 216c84 66 170 99 258 99c118.667 0 214.334 -44.333 287.001 -133l-90 -92c-48 55.333 -111 83 -189 83c-161.333 0 -233.666 -71.667 -216.999 -215
c8 -66.667 47.667 -114.334 119 -143.001h373v-131z" />
    <glyph glyph-name="uniFECC" unicode="&#x639;" horiz-adv-x="915" arabic-form="medial" 
d="M940 135l3 -135l-345 -2c-60.667 -2 -112.334 14.333 -155.001 49c-45.333 -30.667 -89.666 -47 -132.999 -49l-328 4l5 133l128 -4c118.667 -2 198.667 0 240 6c-34.667 112.667 -131 209 -289 289v113c236.667 106.667 492.667 112 768 16v-102
c-74.667 -124 -169.667 -230.667 -285 -320c39.333 -2 116 -2 230 0zM674 446c-154 45.333 -296.667 45.334 -428 0.000976562c106.667 -56 179 -130.333 217 -223c92 81.333 162.333 155.666 211 222.999z" />
    <glyph glyph-name="uniFECE" unicode="&#x63a;" horiz-adv-x="894" arabic-form="final" 
d="M698 446c-154 45.333 -296.667 45.334 -428 0.000976562c106.667 -56 179 -130.333 217 -223c92 81.333 162.333 155.666 211 222.999zM391 737.001v131h148v-131h-148zM90 426.001l0.00292969 113.002c236.667 106.667 492.667 112 768 16v-102
c-74 -124 -169 -230.667 -285 -320h17c6 -0.666992 11.333 -1.33398 16 -2.00098c18.667 -0.666992 46 -0.666992 82 0l236 4l2 -135l-304 -2c-53.333 0 -101 13.667 -143 41c-30.667 -8 -59.334 -18.333 -86.001 -31c-98.667 -57.333 -147 -113.666 -145 -168.999
c2 -56.667 28.667 -96.334 80 -119.001s168.666 -8.33398 351.999 42.999l2 -125c-130 -64.667 -251.667 -81.667 -365 -51c-111.333 30 -176 101 -194 213c-16.667 110 23.666 202 120.999 276c38.667 24.667 83.667 45 135 61c-34.667 112.667 -131 209 -289 289z" />
    <glyph glyph-name="uniFECF" unicode="&#x63a;" horiz-adv-x="739" arabic-form="initial" 
d="M742 0l-753.002 -2l-3 137l166 -4c-40 52.667 -56.667 114.334 -50 185.001c6.66699 76.667 39.667 148.667 99 216c84 66 170 99 258 99c118.667 0 214.334 -44.333 287.001 -133l-90 -92c-48 55.333 -111 83 -189 83c-161.333 0 -233.666 -71.667 -216.999 -215
c8 -66.667 47.667 -114.334 119 -143.001h373v-131zM380.998 717v131h148v-131h-148z" />
    <glyph glyph-name="uniFED0" unicode="&#x63a;" horiz-adv-x="911" arabic-form="medial" 
d="M932 135l3 -135l-345 -2c-60.667 -2 -112.334 14.333 -155.001 49c-45.333 -30.667 -89.666 -47 -132.999 -49l-328 4l5 133l128 -4c118.667 -2 198.667 0 240 6c-34.667 112.667 -131 209 -289 289v113c236.667 106.667 492.667 112 768 16v-102
c-74.667 -124 -169.667 -230.667 -285 -320c39.333 -2 116 -2 230 0zM666 446c-154 45.333 -296.667 45.334 -428 0.000976562c106.667 -56 179 -130.333 217 -223c92 81.333 162.333 155.666 211 222.999zM359 737.001v131h147v-131h-147z" />
    <glyph glyph-name="uniFED2" unicode="&#x641;" horiz-adv-x="1415" arabic-form="final" 
d="M1112 338c14.667 41.333 10 82.332 -14 122.999c-24.667 40.667 -59 61 -103 61c-45.333 0 -78 -21 -98 -63c-20.667 -44 -26 -81 -16 -111s50 -77 120 -141c58.667 46.667 95.667 90.334 111 131.001zM934 740.999v131h147v-131h-147zM530 130.999v3.99902l93 -4
c88.667 -2 169.667 5 243 21c-82 48.667 -125 123 -129 223s33.667 178.333 113 235c79.333 59.333 167.333 68.333 264 27s147.334 -116.333 152.001 -225c4 -109.333 -35 -196.666 -117 -261.999c26.667 -9.33301 99.667 -15 219 -17l59 2l2 -135l-221 -2
c-100.667 -2 -169.667 14.333 -207 49c-50.667 -30.667 -98.334 -47 -143.001 -49l-309 4l-195 -2c-135.333 2 -210.333 77.667 -225 227v267h129v-195c0 -116.667 53.333 -172 160 -166z" />
    <glyph glyph-name="uniFED3" unicode="&#x641;" horiz-adv-x="632" arabic-form="initial" 
d="M599 102c-25.333 -44.667 -66.333 -78.667 -123 -102l-496 2l3 131h439c40 0 64 11 72 33c8 22.667 12 39 12 49v8l-44 -17c-25.333 -7.33301 -48 -11 -68 -11c-81.333 0 -139.333 5.33301 -174 16c-33.333 12 -61.333 29.667 -84 53c-44 44 -66 96.667 -66 158
c0 69.333 24 132 72 188c46.667 54.667 112.667 82 198 82c192.667 0 289 -155 289 -465c0 -48 -10 -89.667 -30 -125zM461 479c-26 52 -63.333 78 -112 78c-57.333 0 -98.666 -13.333 -123.999 -40c-20 -21.333 -30 -51 -30 -89c0 -32 13 -55.667 39 -71
c31.333 -18 86.666 -27 165.999 -27c19.333 0 39.333 3.33301 60 10c18 6 30 12 36 18c0 36.667 -11.667 77 -35 121zM273 737v131h147v-131h-147z" />
    <glyph glyph-name="uniFED4" unicode="&#x641;" horiz-adv-x="856" arabic-form="medial" 
d="M560 338c14.667 41.333 9.66699 82.332 -15 122.999s-58.667 61 -102 61c-45.333 0 -78 -21 -98 -63c-21.333 -44 -27 -81 -17 -111s50.333 -77 121 -141c58.667 46.667 95.667 90.334 111 131.001zM875 134.999l2.00195 -135.001l-221 -2
c-101.333 -2 -170.333 14.333 -207 49c-51.333 -30.667 -99 -47 -143 -49l-328 4v133l92 -4c89.333 -2 170.666 5 243.999 21c-82 48.667 -125 123 -129 223s33.333 178.333 112 235c79.333 59.333 167.666 68.333 264.999 27c96.667 -41.333 147 -116.333 151 -225
c4 -109.333 -35 -196.666 -117 -261.999c26.667 -9.33301 100 -15 220 -17zM381.002 740.998v131h148v-131h-148z" />
    <glyph glyph-name="uniFED6" unicode="&#x642;" horiz-adv-x="1134" arabic-form="final" 
d="M455 307c0 -49.333 15.333 -91.333 46 -126c31.333 -34.667 69 -52 113 -52h127c36.667 2 47.667 61.333 33 178c0 118.667 -53.333 178 -160 178c-106 0 -159 -59.333 -159 -178zM438 737v131h148v-131h-148zM612 2c-80.667 -14 -149.001 8.66797 -205.001 68.001
c-56 60 -84 137.667 -84 233c0 88.667 28 165 84 229c56 64.667 124.333 97 205 97c82 0 150.333 -31.333 205 -94c45.333 -51.333 72 -111 80 -179c11.333 -86 16 -163 14 -231h240v-127h-250c-34.667 -164.667 -163 -247 -385 -247c-255.333 0 -383 104 -383 312v312h123
v-246c0 -163.333 86.667 -245 260 -245c138.667 0 221.334 38.667 248.001 116h-80c-22 -2.66699 -38.333 -3.33398 -49 -2.00098zM621.999 737.001v131h148v-131h-148z" />
    <glyph glyph-name="uniFED7" unicode="&#x642;" horiz-adv-x="636" arabic-form="initial" 
d="M601 102c-25.333 -44.667 -66.333 -78.667 -123 -102l-496 2l3 131h439c40 0 64 11 72 33c8 22.667 12 39 12 49v8l-44 -17c-25.333 -7.33301 -48 -11 -68 -11c-81.333 0 -139.333 5.33301 -174 16c-33.333 12 -61.333 29.667 -84 53c-44 44 -66 96.667 -66 158
c0 69.333 24 132 72 188c46.667 54.667 112.667 82 198 82c192.667 0 289 -155 289 -465c0 -48 -10 -89.667 -30 -125zM463 479c-26 52 -63.333 78 -112 78c-57.333 0 -98.666 -13.333 -123.999 -40c-20 -21.333 -30 -51 -30 -89c0 -32 13 -55.667 39 -71
c31.333 -18 86.666 -27 165.999 -27c19.333 0 39.333 3.33301 60 10c18 6 30 12 36 18c0 36.667 -11.667 77 -35 121zM193 737v131h147v-131h-147zM377 737v131h148v-131h-148z" />
    <glyph glyph-name="uniFED8" unicode="&#x642;" horiz-adv-x="890" arabic-form="medial" 
d="M570 338c14.667 41.333 9.66699 82.332 -15 122.999s-58.667 61 -102 61c-45.333 0 -78 -21 -98 -63c-21.333 -44 -27 -81 -17 -111s50.333 -77 121 -141c58.667 46.667 95.667 90.334 111 131.001zM906 134.999l2.00195 -135.001l-242 -2
c-101.333 -2 -170.333 14.333 -207 49c-51.333 -30.667 -99 -47 -143 -49l-328 4v133l92 -4c89.333 -2 170.666 5 243.999 21c-82 48.667 -125 123 -129 223s33.333 178.333 112 235c79.333 59.333 167.666 68.333 264.999 27c96.667 -41.333 147 -116.333 151 -225
c4 -109.333 -35 -196.666 -117 -261.999c26.667 -9.33301 100 -15 220 -17zM289.002 740.998v131h148v-131h-148zM473.002 740.998v131h148v-131h-148z" />
    <glyph glyph-name="uniFEDE" unicode="&#x644;" horiz-adv-x="1112" arabic-form="final" 
d="M909 299c0 -116.667 53.334 -172 160.001 -166l49 -2l4 -129l-117 -2c-36.667 0 -69.334 6 -98.001 18h-4c-43.333 -178 -172.333 -267 -387 -267c-255.333 0 -383 145 -383 435v189h123v-123c0 -245.333 86.667 -368 260 -368c172 0 258 103.667 258 311v788h135v-684z
" />
    <glyph glyph-name="uniFEDF" unicode="&#x644;" horiz-adv-x="313" arabic-form="initial" 
d="M197 985h129v-758c-14 -149.333 -89 -225 -225 -227l-117 2l7 129l46 2c106.667 -6 160 49.333 160 166v686z" />
    <glyph glyph-name="uniFEE0" unicode="&#x644;" horiz-adv-x="555" arabic-form="medial" 
d="M109 0l-135 2l5 129l67 2c106 -6 159 49.333 159 166v686h129v-2h5v-688c0 -116.667 53 -172 159 -166h70l4 -129l-135 -2c-72.667 2 -128 23 -166 63c-38.667 -38.667 -92.667 -59 -162 -61z" />
    <glyph glyph-name="uniFEE2" unicode="&#x645;" horiz-adv-x="1267" arabic-form="final" 
d="M604 307c0 -49.333 15.667 -91.333 47 -126s69 -52 113 -52s81.667 17.333 113 52s47 76.667 47 126c0 118.667 -53.333 178 -160 178s-160 -59.333 -160 -178zM967 76c-56.667 -62.667 -125.001 -93.999 -205.001 -93.999c-82 0 -150.333 29.333 -205 88
c-30.667 -214 -159.667 -321 -387 -321l-41 129c178 0 280.333 78.333 307 235l41 256h2c10.667 65.333 36.667 120.666 78 165.999c54.667 62.667 123 94 205 94s150.333 -31.333 205 -94c17.333 -21.333 34.333 -47.333 51 -78l4 -4l4 -15
c9.33301 -21.333 16.333 -47.333 21 -78l16 -61c0 -116.667 53.333 -172 160 -166l69 -2l4 -129l-137 -2c-85.333 2 -146 31.333 -182 88c-5.33301 -5.33301 -8.66602 -9.33301 -9.99902 -12z" />
    <glyph glyph-name="uniFEE3" unicode="&#x645;" horiz-adv-x="800" arabic-form="initial" 
d="M349 307c0 -49.333 15.666 -91.333 46.999 -126c30.667 -34.667 68.334 -52 113.001 -52c44 0 81.333 17.333 112 52c31.333 34.667 47 76.667 47 126c0 118.667 -53 178 -159 178c-106.667 0 -160 -59.333 -160 -178zM301.999 532c56 64.667 124 97 204 97
c80.667 0 149 -32.333 205 -97c56 -64 84 -140.333 84 -229c0 -88 -28.667 -163.667 -86 -227c-54.667 -62.667 -122.334 -94 -203.001 -94c-81.333 0 -149.333 31.333 -204 94c-4 4 -9 10 -15 18c-34 -52.667 -90 -86 -168 -100h-145v133h98
c78.667 0 127.334 58.667 146.001 176c0 88.667 28 165 84 229z" />
    <glyph glyph-name="uniFEE4" unicode="&#x645;" horiz-adv-x="1077" arabic-form="medial" 
d="M432 434c-31.333 -35.333 -46.999 -77.666 -46.999 -126.999c0 -47.333 15.667 -89 47 -125c31.333 -35.333 68.333 -53 111 -53c44 0 81.667 17.667 113 53c31.333 36 47 77.667 47 125c0 49.333 -15.667 91.666 -47 126.999c-30.667 34 -68.334 51 -113.001 51
c-43.333 0 -80.333 -17 -111 -51zM545.001 -16l-2 -2c-82 0 -150.333 31.333 -205 94c-4 4 -8.66699 10 -14 18c-34.667 -66.667 -90.667 -100 -168 -100h-166v139h119c78 0 126.333 56.667 145 170c0 88.667 28 165 84 229c56 64.667 124.333 97 205 97h2
c80.667 0 149 -32.333 205 -97c56 -64 84 -140.333 84 -229c18.667 -113.333 67 -170 145 -170h119v-139h-166c-77.333 0 -133.333 33.333 -168 100c-5.33301 -8 -10 -14 -14 -18c-54.667 -62.667 -123 -94 -205 -94v2z" />
    <glyph glyph-name="uniFEE6" unicode="&#x646;" horiz-adv-x="1093" arabic-form="final" 
d="M896 299c0 -116.667 53.334 -172 160.001 -166l49 -2l4 -129l-117 -2c-36.667 0 -69.334 6 -98.001 18h-4c-57.333 -178 -186.333 -267 -387 -267c-255.333 0 -383 145 -383 435v189h123v-123c0 -245.333 86.667 -368 260 -368c172 0 258 103.667 258 311v297h135v-193z
M437.001 614v131h148v-131h-148z" />
    <glyph glyph-name="uniFEE7" unicode="&#x646;" horiz-adv-x="331" arabic-form="initial" 
d="M219 494h129v-267c-14 -149.333 -89 -225 -225 -227l-137 2l4 129l69 2c106.667 -6 160 49.333 160 166v195zM-47 614v131h147v-131h-147z" />
    <glyph glyph-name="uniFEE8" unicode="&#x646;" horiz-adv-x="565" arabic-form="medial" 
d="M122 0l-135 2l4 129l67 2c106.667 -6 160 49.333 160 166v195h129v-2h4v-197c0 -116.667 53.333 -172 160 -166h70l4 -129l-136 -2c-72 2 -127 23 -165 63c-39.333 -38.667 -93.333 -59 -162 -61zM-40 614v131h147v-131h-147z" />
    <glyph glyph-name="uniFEEA" unicode="&#x647;" horiz-adv-x="888" arabic-form="final" 
d="M644 612v-313c0 -116.667 53.333 -172 160 -166l111 -2l4 -129l-178 -2c-115.333 2 -187.333 56 -216 162c-50.667 -66 -116.667 -99 -198 -99c-165.333 0 -248 88.333 -248 265c0 189.333 99.667 284 299 284h266zM515 492h-129c-119.333 0 -178 -52.667 -176 -158
c2 -92.667 50.333 -139 145 -139c68 0 121.333 43.667 160 131v166z" />
    <glyph glyph-name="uniFEEB" unicode="&#x647;" horiz-adv-x="1001" arabic-form="initial" 
d="M277 264c0 -82 41 -123 123 -123c83.333 0 125 41 125 123s-41.667 123 -125 123c-82 0 -123 -41 -123 -123zM717 129c88 0 132.999 28.667 134.999 86c4.66699 58.667 -32.666 129.667 -111.999 213c-81.333 85.333 -183 133 -305 143v144
c180.667 -14.667 321.667 -81 423 -199c100 -116 148 -236 144 -360c-14.667 -108 -89 -162 -223 -162h-792l-3 135h215c-30 40 -45 87.667 -45 143c0 68.667 24 126.667 72 174c47.333 48 105.333 72 174 72c69.333 0 128 -24 176 -72c48 -47.333 72 -105.333 72 -174
c0 -55.333 -15.333 -103 -46 -143h115z" />
    <glyph glyph-name="uniFEEC" unicode="&#x647;" horiz-adv-x="827" arabic-form="medial" 
d="M838 0l-49 -0.000976562c-136 0 -217.333 -23 -244 -69c-26.667 -47.333 -28.667 -104.666 -6 -171.999h-151c-116 81.333 -184.333 163 -205 245c-22 -2.66699 -43.333 -4 -64 -4h-137v135h162l18 4v162c0 106 25 188 75 246c44.667 52 103.667 78 177 78
c132.667 0 199 -75.333 199 -226c0 -168 -105.333 -290 -316 -366c26 -59.333 60.333 -107 103 -143c28.667 108 79.667 175.333 153 202c76 28.667 156 43 240 43h45v-135zM422 228.999c27.333 20.667 45.333 39 54 55c14.667 25.333 22 62.333 22 111
c0 62.667 -26 94 -78 94c-41.333 0 -74.333 -13.333 -99 -40c-29.333 -33.333 -44 -84 -44 -152v-152c27.333 4.66699 54.333 16 81 34z" />
    <glyph glyph-name="uniFEEE" unicode="&#x648;" horiz-adv-x="856" arabic-form="final" 
d="M243 307c0 -49.333 15.668 -91.333 47.001 -126s69 -52 113 -52h127c34.667 2 47 58 37 168c-6.66699 125.333 -61.334 188 -164.001 188c-106.667 0 -160 -59.333 -160 -178zM673.001 -2c-47.333 -166 -171.669 -249.001 -373.002 -249.001l-41 129
c128 0 217 40 267 120l-125 4c-81.333 -14 -149.666 8.66699 -204.999 68c-56 60 -84 137.667 -84 233c0 88.667 28 165 84 229c56 64.667 124.333 97 205 97c82 0 150.333 -31.333 205 -94c49.333 -58 77.333 -127 84 -207
c10.667 -79.333 13.334 -145.666 8.00098 -198.999h186v-131h-211z" />
    <glyph glyph-name="uniFEF0" unicode="&#x649;" horiz-adv-x="1185" arabic-form="final" 
d="M726 295l84.0029 -58.999v2c85.333 -49.333 114.666 -137.333 87.999 -264s-133.667 -202.334 -321 -227.001v-5c-34.667 2 -58 2 -70 0v5c-255.333 24 -383 173.333 -383 448v186h129v-184c0 -180.667 96.333 -286.334 289 -317.001c126 10 196.333 44.667 211 104
c14 59.333 2.33301 105 -35 137l-78 69c-117.333 54 -159.666 137.333 -126.999 250c63.333 108.667 166.333 172.334 309 191.001v2c4.66699 0.666992 10 1.33398 16 2.00098h15c19.333 2 50 -7.66699 92 -29c41.333 -18.667 73.666 -93 96.999 -223
c40.667 -165.333 89.667 -248 147 -248h22l11 -137l-84 2c-96.667 2 -166.334 89.333 -209.001 262c-14.667 163.333 -56.334 235.666 -125.001 216.999c-156 -44 -182 -105.333 -78 -184z" />
    <glyph glyph-name="space" unicode=" " horiz-adv-x="500" 
 />
    <glyph glyph-name="exclam" unicode="!" horiz-adv-x="241" 
d="M241 188l-127 5l2 831h127zM251 0h-135v135h135v-135z" />
    <glyph glyph-name="percent" unicode="%" horiz-adv-x="991" 
d="M481 1024h-162v170h162v-170zM927 1223l-778 -1288l-80 47l778 1290zM702 45h-162v170h162v-170z" />
    <glyph glyph-name="parenleft" unicode="(" horiz-adv-x="550" 
d="M468 -219c-112.667 126.667 -195.333 242.665 -248 347.998c-62.667 123.333 -94 261.333 -94 414c0 248.667 107.333 496.334 322 743.001l88 -82c-179.333 -211.333 -269 -427 -269 -647c0 -277.333 95 -508.666 285 -693.999z" />
    <glyph glyph-name="parenright" unicode=")" horiz-adv-x="536" 
d="M536 522c0 -247.333 -107.334 -494.331 -322.001 -740.998l-86 82c178 206 267 421.667 267 647c0 277.333 -95 508.666 -285 693.999l86 82c112.667 -128.667 195.334 -244.667 248.001 -348c61.333 -126.667 92 -265.334 92 -416.001z" />
    <glyph glyph-name="asterisk" unicode="*" horiz-adv-x="1024" 
d="M915 502l-238 -189l105 -282l-35 -31l-232 193l-233 -193l-35 27l107 284l-240 191l18 43l283 -43l80 293h41l78 -293l282 41z" />
    <glyph glyph-name="plus" unicode="+" horiz-adv-x="935" 
d="M933 348h-346v-348h-117v348h-348v117h348v346h117v-346h346v-117z" />
    <glyph glyph-name="comma" unicode="," horiz-adv-x="430" 
d="M121 32c24 19.333 42.667 42.333 56 69c14.667 34 3.66699 59.333 -33 76c28.667 54.667 67.667 82 117 82c28 0 59.667 -9 95 -27l-77 -147c-16 -31.333 -49 -59 -99 -83z" />
    <glyph glyph-name="hyphen" unicode="-" horiz-adv-x="1017" 
d="M764 389h-703v98h703v-98z" />
    <glyph glyph-name="period" unicode="." horiz-adv-x="649" 
d="M576 410h-506v95h506v-95z" />
    <glyph glyph-name="slash" unicode="/" horiz-adv-x="847" 
d="M723 1268l118 -45l-538 -1268l-119 45z" />
    <glyph glyph-name="zero" unicode="0" horiz-adv-x="481" 
d="M149 270l150 146l155 -154l-151 -147z" />
    <glyph glyph-name="zero" unicode="&#x6f0;" horiz-adv-x="481" 
d="M149 270l150 146l155 -154l-151 -147z" />
    <glyph glyph-name="zero" unicode="&#x660;" horiz-adv-x="481" 
d="M149 270l150 146l155 -154l-151 -147z" />
    <glyph glyph-name="one" unicode="1" horiz-adv-x="296" 
d="M256 53l-123 -53l2 989h125z" />
    <glyph glyph-name="one" unicode="&#x6f1;" horiz-adv-x="296" 
d="M256 53l-123 -53l2 989h125z" />
    <glyph glyph-name="one" unicode="&#x661;" horiz-adv-x="296" 
d="M256 53l-123 -53l2 989h125z" />
    <glyph glyph-name="two" unicode="2" horiz-adv-x="601" 
d="M296 985l1 0.000976562v-194c0 -22.667 -0.333008 -46.334 -1 -71.001c12.667 -43.333 37.667 -72 75 -86c54.667 20 82 72.667 82 158v194h129v-266c-12 -134 -73.333 -209 -184 -225l-33 -2c-28 2 -53 7 -75 15l-2 -508h-145l2 983l23 2v4h125v-3h3v-1z" />
    <glyph glyph-name="two" unicode="&#x6f2;" horiz-adv-x="601" 
d="M296 985l1 0.000976562v-194c0 -22.667 -0.333008 -46.334 -1 -71.001c12.667 -43.333 37.667 -72 75 -86c54.667 20 82 72.667 82 158v194h129v-266c-12 -134 -73.333 -209 -184 -225l-33 -2c-28 2 -53 7 -75 15l-2 -508h-145l2 983l23 2v4h125v-3h3v-1z" />
    <glyph glyph-name="two" unicode="&#x662;" horiz-adv-x="601" 
d="M296 985l1 0.000976562v-194c0 -22.667 -0.333008 -46.334 -1 -71.001c12.667 -43.333 37.667 -72 75 -86c54.667 20 82 72.667 82 158v194h129v-266c-12 -134 -73.333 -209 -184 -225l-33 -2c-28 2 -53 7 -75 15l-2 -508h-145l2 983l23 2v4h125v-3h3v-1z" />
    <glyph glyph-name="three" unicode="3" horiz-adv-x="897" 
d="M168 985l0.00195312 4.00098h125v-4h4v-194c0 -84.667 28 -137.334 84 -158.001c36.667 14 61 42.667 73 86v266h138v-264c12 -44.667 37 -74 75 -88c54.667 20 82 72.667 82 158v194h129v-266c-12 -134 -73.333 -209 -184 -225l-33 -2
c-58.667 4 -104.334 22.333 -137.001 55c-32 -30 -70.333 -47.667 -115 -53l-33 -2c-28.667 1.33301 -57.334 8 -86.001 20l-2 -512h-145l2 983z" />
    <glyph glyph-name="three" unicode="&#x6f3;" horiz-adv-x="897" 
d="M168 985l0.00195312 4.00098h125v-4h4v-194c0 -84.667 28 -137.334 84 -158.001c36.667 14 61 42.667 73 86v266h138v-264c12 -44.667 37 -74 75 -88c54.667 20 82 72.667 82 158v194h129v-266c-12 -134 -73.333 -209 -184 -225l-33 -2
c-58.667 4 -104.334 22.333 -137.001 55c-32 -30 -70.333 -47.667 -115 -53l-33 -2c-28.667 1.33301 -57.334 8 -86.001 20l-2 -512h-145l2 983z" />
    <glyph glyph-name="three" unicode="&#x663;" horiz-adv-x="897" 
d="M168 985l0.00195312 4.00098h125v-4h4v-194c0 -84.667 28 -137.334 84 -158.001c36.667 14 61 42.667 73 86v266h138v-264c12 -44.667 37 -74 75 -88c54.667 20 82 72.667 82 158v194h129v-266c-12 -134 -73.333 -209 -184 -225l-33 -2
c-58.667 4 -104.334 22.333 -137.001 55c-32 -30 -70.333 -47.667 -115 -53l-33 -2c-28.667 1.33301 -57.334 8 -86.001 20l-2 -512h-145l2 983z" />
    <glyph glyph-name="four" unicode="4" horiz-adv-x="821" 
d="M676 499l0.000976562 -2l-278 -2l-33 -2c-28 2 -53 7 -75 15l-2 -508h-145l2 983l23 2v4h125v-3h3v-1h1v-194c0 -22.667 -0.333008 -46.334 -1 -71.001c12.667 -43.333 37.667 -72 75 -86h46c-42.667 58 -64 106 -64 144c-2.66699 59.333 34.333 109 111 149
c43.333 22.667 95 37.334 155 44.001c35.333 8 95.666 5 180.999 -9v-128c-86 20 -148.667 26.333 -188 19c-40 -7.33301 -69 -15.333 -87 -24c-19.333 -12.667 -29 -27 -29 -43c-6 -13.333 -3 -34 9 -62s26 -48.667 42 -62c30 -22.667 72.333 -34 127 -34h144v-129h-142z
" />
    <glyph glyph-name="four" unicode="&#x6f4;" horiz-adv-x="821" 
d="M676 499l0.000976562 -2l-278 -2l-33 -2c-28 2 -53 7 -75 15l-2 -508h-145l2 983l23 2v4h125v-3h3v-1h1v-194c0 -22.667 -0.333008 -46.334 -1 -71.001c12.667 -43.333 37.667 -72 75 -86h46c-42.667 58 -64 106 -64 144c-2.66699 59.333 34.333 109 111 149
c43.333 22.667 95 37.334 155 44.001c35.333 8 95.666 5 180.999 -9v-128c-86 20 -148.667 26.333 -188 19c-40 -7.33301 -69 -15.333 -87 -24c-19.333 -12.667 -29 -27 -29 -43c-6 -13.333 -3 -34 9 -62s26 -48.667 42 -62c30 -22.667 72.333 -34 127 -34h144v-129h-142z
" />
    <glyph glyph-name="four" unicode="&#x664;" horiz-adv-x="821" 
d="M676 499l0.000976562 -2l-278 -2l-33 -2c-28 2 -53 7 -75 15l-2 -508h-145l2 983l23 2v4h125v-3h3v-1h1v-194c0 -22.667 -0.333008 -46.334 -1 -71.001c12.667 -43.333 37.667 -72 75 -86h46c-42.667 58 -64 106 -64 144c-2.66699 59.333 34.333 109 111 149
c43.333 22.667 95 37.334 155 44.001c35.333 8 95.666 5 180.999 -9v-128c-86 20 -148.667 26.333 -188 19c-40 -7.33301 -69 -15.333 -87 -24c-19.333 -12.667 -29 -27 -29 -43c-6 -13.333 -3 -34 9 -62s26 -48.667 42 -62c30 -22.667 72.333 -34 127 -34h144v-129h-142z
" />
    <glyph glyph-name="five" unicode="5" horiz-adv-x="864" 
d="M731 802c71.333 -95.333 107 -213.334 107 -354.001c0 -140 -35.667 -257.667 -107 -353c-38 -62.667 -76 -94 -114 -94c-48 0 -96 49.667 -144 149c-46.667 -100 -94 -150 -142 -150c-37.333 0 -75.333 31.667 -114 95c-69.333 96.667 -104 214.334 -104 353.001
c0 140 34.667 258 104 354c72 98 157.333 147 256 147c102.667 0 188.667 -49 258 -147zM511 305.999c54.667 -117.333 101.669 -148.666 141.002 -93.999c48.667 68 73 149.333 73 244s-23.667 175.334 -71 242.001c-46.667 66.667 -105.334 100 -176.001 100
c-70 0 -128.333 -33.333 -175 -100c-47.333 -66.667 -71 -147.334 -71 -242.001c0 -94 23.667 -175.333 71 -244c39.333 -54.667 86.666 -23.334 141.999 93.999h66z" />
    <glyph glyph-name="five" unicode="&#x6f5;" horiz-adv-x="864" 
d="M731 802c71.333 -95.333 107 -213.334 107 -354.001c0 -140 -35.667 -257.667 -107 -353c-38 -62.667 -76 -94 -114 -94c-48 0 -96 49.667 -144 149c-46.667 -100 -94 -150 -142 -150c-37.333 0 -75.333 31.667 -114 95c-69.333 96.667 -104 214.334 -104 353.001
c0 140 34.667 258 104 354c72 98 157.333 147 256 147c102.667 0 188.667 -49 258 -147zM511 305.999c54.667 -117.333 101.669 -148.666 141.002 -93.999c48.667 68 73 149.333 73 244s-23.667 175.334 -71 242.001c-46.667 66.667 -105.334 100 -176.001 100
c-70 0 -128.333 -33.333 -175 -100c-47.333 -66.667 -71 -147.334 -71 -242.001c0 -94 23.667 -175.333 71 -244c39.333 -54.667 86.666 -23.334 141.999 93.999h66z" />
    <glyph glyph-name="five" unicode="&#x665;" horiz-adv-x="864" 
d="M731 802c71.333 -95.333 107 -213.334 107 -354.001c0 -140 -35.667 -257.667 -107 -353c-38 -62.667 -76 -94 -114 -94c-48 0 -96 49.667 -144 149c-46.667 -100 -94 -150 -142 -150c-37.333 0 -75.333 31.667 -114 95c-69.333 96.667 -104 214.334 -104 353.001
c0 140 34.667 258 104 354c72 98 157.333 147 256 147c102.667 0 188.667 -49 258 -147zM511 305.999c54.667 -117.333 101.669 -148.666 141.002 -93.999c48.667 68 73 149.333 73 244s-23.667 175.334 -71 242.001c-46.667 66.667 -105.334 100 -176.001 100
c-70 0 -128.333 -33.333 -175 -100c-47.333 -66.667 -71 -147.334 -71 -242.001c0 -94 23.667 -175.333 71 -244c39.333 -54.667 86.666 -23.334 141.999 93.999h66z" />
    <glyph glyph-name="six" unicode="6" horiz-adv-x="829" 
d="M717 736l2.00098 -1.99805l2 2l95 -81l-3 -3l16 -16l-542 -636l-110 94l247 291c-31.333 -2.66699 -58.333 4.66602 -81 21.999l-92 81c-73.333 84.667 -71 181.667 7 291l173 202l98 -84l-126 -147c-49.333 -51.333 -74.5 -90.333 -75.5 -117
s33.167 -67.334 102.5 -122.001c17.333 -16 34.166 -22.5 50.499 -19.5s37.5 17.167 63.5 42.5l45 55l126 147l1 -1z" />
    <glyph glyph-name="six" unicode="&#x6f6;" horiz-adv-x="829" 
d="M717 736l2.00098 -1.99805l2 2l95 -81l-3 -3l16 -16l-542 -636l-110 94l247 291c-31.333 -2.66699 -58.333 4.66602 -81 21.999l-92 81c-73.333 84.667 -71 181.667 7 291l173 202l98 -84l-126 -147c-49.333 -51.333 -74.5 -90.333 -75.5 -117
s33.167 -67.334 102.5 -122.001c17.333 -16 34.166 -22.5 50.499 -19.5s37.5 17.167 63.5 42.5l45 55l126 147l1 -1z" />
    <glyph glyph-name="six" unicode="&#x666;" horiz-adv-x="829" 
d="M717 736l2.00098 -1.99805l2 2l95 -81l-3 -3l16 -16l-542 -636l-110 94l247 291c-31.333 -2.66699 -58.333 4.66602 -81 21.999l-92 81c-73.333 84.667 -71 181.667 7 291l173 202l98 -84l-126 -147c-49.333 -51.333 -74.5 -90.333 -75.5 -117
s33.167 -67.334 102.5 -122.001c17.333 -16 34.166 -22.5 50.499 -19.5s37.5 17.167 63.5 42.5l45 55l126 147l1 -1z" />
    <glyph glyph-name="seven" unicode="7" horiz-adv-x="1026" 
d="M987 997l-352 -919.001c-32.667 -48 -64 -72 -94 -72c-11.333 0 -22.333 3.33301 -33 10c-24.667 16.667 -43.334 42.667 -56.001 78l-313 905h156l219 -651c20.667 -75.333 42.334 -76.666 65.001 -3.99902l240 651z" />
    <glyph glyph-name="seven" unicode="&#x6f7;" horiz-adv-x="1026" 
d="M987 997l-352 -919.001c-32.667 -48 -64 -72 -94 -72c-11.333 0 -22.333 3.33301 -33 10c-24.667 16.667 -43.334 42.667 -56.001 78l-313 905h156l219 -651c20.667 -75.333 42.334 -76.666 65.001 -3.99902l240 651z" />
    <glyph glyph-name="seven" unicode="&#x667;" horiz-adv-x="1026" 
d="M987 997l-352 -919.001c-32.667 -48 -64 -72 -94 -72c-11.333 0 -22.333 3.33301 -33 10c-24.667 16.667 -43.334 42.667 -56.001 78l-313 905h156l219 -651c20.667 -75.333 42.334 -76.666 65.001 -3.99902l240 651z" />
    <glyph glyph-name="eight" unicode="8" horiz-adv-x="1017" 
d="M815 0l-239.999 662.001c-22.667 72 -44.334 70.333 -65.001 -5l-223 -655h-156l317 909c22 62.667 48.667 94 80 94c14 0 29 -6 45 -18c20.667 -12.667 40 -32.334 58 -59.001l352 -930z" />
    <glyph glyph-name="eight" unicode="&#x6f8;" horiz-adv-x="1017" 
d="M815 0l-239.999 662.001c-22.667 72 -44.334 70.333 -65.001 -5l-223 -655h-156l317 909c22 62.667 48.667 94 80 94c14 0 29 -6 45 -18c20.667 -12.667 40 -32.334 58 -59.001l352 -930z" />
    <glyph glyph-name="eight" unicode="&#x668;" horiz-adv-x="1017" 
d="M815 0l-239.999 662.001c-22.667 72 -44.334 70.333 -65.001 -5l-223 -655h-156l317 909c22 62.667 48.667 94 80 94c14 0 29 -6 45 -18c20.667 -12.667 40 -32.334 58 -59.001l352 -930z" />
    <glyph glyph-name="nine" unicode="9" horiz-adv-x="776" 
d="M579 401c-44 -34 -95.6689 -51 -155.002 -51c-82 0 -150.333 29.333 -205 88c-56 60 -84 138 -84 234c0 88.667 28 165 84 229s124.333 96 205 96c28.667 0 55.334 -4 80.001 -12c46.667 -14 88.334 -41.333 125.001 -82c56 -64 84 -141 84 -231
c0 -14 -1.66699 -33.333 -5 -58v-612l-129 -2v401zM580.998 721c-6 31.333 -19.332 58.666 -39.999 81.999c-30.667 34 -69 51 -115 51c-106.667 0 -160 -59.333 -160 -178c0 -49.333 15.667 -91.333 47 -126s69 -52 113 -52c43.333 0 80.666 17.667 111.999 53
c22.667 22.667 37 49.334 43 80.001v90z" />
    <glyph glyph-name="nine" unicode="&#x6f9;" horiz-adv-x="776" 
d="M579 401c-44 -34 -95.6689 -51 -155.002 -51c-82 0 -150.333 29.333 -205 88c-56 60 -84 138 -84 234c0 88.667 28 165 84 229s124.333 96 205 96c28.667 0 55.334 -4 80.001 -12c46.667 -14 88.334 -41.333 125.001 -82c56 -64 84 -141 84 -231
c0 -14 -1.66699 -33.333 -5 -58v-612l-129 -2v401zM580.998 721c-6 31.333 -19.332 58.666 -39.999 81.999c-30.667 34 -69 51 -115 51c-106.667 0 -160 -59.333 -160 -178c0 -49.333 15.667 -91.333 47 -126s69 -52 113 -52c43.333 0 80.666 17.667 111.999 53
c22.667 22.667 37 49.334 43 80.001v90z" />
    <glyph glyph-name="nine" unicode="&#x669;" horiz-adv-x="776" 
d="M579 401c-44 -34 -95.6689 -51 -155.002 -51c-82 0 -150.333 29.333 -205 88c-56 60 -84 138 -84 234c0 88.667 28 165 84 229s124.333 96 205 96c28.667 0 55.334 -4 80.001 -12c46.667 -14 88.334 -41.333 125.001 -82c56 -64 84 -141 84 -231
c0 -14 -1.66699 -33.333 -5 -58v-612l-129 -2v401zM580.998 721c-6 31.333 -19.332 58.666 -39.999 81.999c-30.667 34 -69 51 -115 51c-106.667 0 -160 -59.333 -160 -178c0 -49.333 15.667 -91.333 47 -126s69 -52 113 -52c43.333 0 80.666 17.667 111.999 53
c22.667 22.667 37 49.334 43 80.001v90z" />
    <glyph glyph-name="colon" unicode=":" horiz-adv-x="397" 
d="M295 360h-162v170h162v-170zM295 0h-162v170h162v-170z" />
    <glyph glyph-name="equal" unicode="=" horiz-adv-x="1017" 
d="M1013 442h-893v119h893v-119zM1013 150h-893v104h893v-104z" />
    <glyph glyph-name="bracketleft" unicode="[" horiz-adv-x="464" 
d="M469 -202h-332v1427h324v-107h-193l-2 -1214h203v-106z" />
    <glyph glyph-name="bracketright" unicode="]" horiz-adv-x="440" 
d="M112 -96h203l-2 1214h-193v107h324v-1427h-332v106z" />
    <glyph glyph-name="braceleft" unicode="{" horiz-adv-x="647" 
d="M567 -151c0 -14 -0.666992 -23 -2 -27l-48 -4c-113.333 0 -191.666 18.667 -234.999 56c-46.667 32.667 -70 85.667 -70 159v334c0 48.667 -46.333 103 -139 163h4c44 18 77.333 42 100 72c23.333 30 35 60.667 35 92v334c0 150 116 225 348 225c1.33301 -4 2 -12 2 -24
v-37c-92.667 0 -154.667 -11.667 -186 -35c-32.667 -18 -49 -61 -49 -129v-334c0 -47.333 -39.667 -102 -119 -164c79.333 -50 119 -104.333 119 -163v-334c-10.667 -102 68.666 -154.333 237.999 -157c1.33301 -1.33301 2 -5 2 -11v-16z" />
    <glyph glyph-name="braceright" unicode="}" horiz-adv-x="655" 
d="M71 -135c0 6 0.666992 9.66602 2 10.999c168.667 2 248 54.333 238 157v334c0 58 39.333 112.333 118 163c-78.667 61.333 -118 116 -118 164v334c0 67.333 -16.667 110.333 -50 129c-31.333 23.333 -93.333 35 -186 35v37c0 12 0.666992 20 2 24c232 0 348 -75 348 -225
v-334c0 -32 11.667 -62.667 35 -92c24 -30 57.333 -54 100 -72h5c-93.333 -59.333 -140 -113.666 -140 -162.999v-334c0 -74 -23 -127 -69 -159c-43.333 -37.333 -122 -56 -236 -56l-47 4c-1.33301 4 -2 13 -2 27v16z" />
    <glyph glyph-name="copyright" unicode="&#xa9;" horiz-adv-x="1540" 
d="M862 1495c125.333 0 247.5 -32 366.5 -96s211.833 -155.5 278.5 -274.5s100 -243.167 100 -372.5s-32.833 -253.333 -98.5 -372s-157.667 -210.5 -276 -275.5s-241.833 -97.5 -370.5 -97.5c-129.333 0 -252.833 32.5 -370.5 97.5s-209.5 156.833 -275.5 275.5
s-99 242.667 -99 372s33.5 253.5 100.5 372.5s160 210.5 279 274.5s240.833 96 365.5 96zM862 1431c-114 0 -225.169 -29.333 -333.502 -88s-193.166 -142.334 -254.499 -251.001s-92 -222 -92 -340s30 -230.833 90 -338.5s144 -191.667 252 -252s220.667 -90.5 338 -90.5
s230 30.167 338 90.5s192.167 144.333 252.5 252s90.5 220.5 90.5 338.5s-30.667 231.333 -92 340s-146.166 192.334 -254.499 251.001s-219.833 88 -334.5 88zM1230 1230l22 -293.999h-41c-26 83.333 -66.167 145.5 -120.5 186.5s-120.166 61.5 -197.499 61.5
c-58 0 -109.333 -12 -154 -36s-81.334 -55.667 -110.001 -95c-21.333 -30.667 -39 -71 -53 -121s-21 -102 -21 -156c0 -148.667 32 -258.167 96 -328.5s148 -105.5 252 -105.5c136 0 245 56.667 327 170l39 -20c-97.333 -142 -231 -213 -401 -213
c-140.667 0 -257 45.333 -349 136s-138 200.667 -138 330c0 134 49 248.333 147 343s223 142 375 142c33.333 0 60.333 -2 81 -6s59 -15 115 -33c16.667 -6 29 -9 37 -9c11.333 0 21 3.16699 29 9.5s16 19.166 24 38.499h41z" />
    <glyph glyph-name="guillemotleft" unicode="&#xab;" horiz-adv-x="616" 
d="M554 662c-92.667 -93.333 -139 -207.666 -139 -342.999c0 -109.333 43 -216.333 129 -321l-78 -41c-104.667 126 -157 249 -157 369c0 76 15 144 45 204c27.333 55.333 69 112.666 125 171.999zM315 662c-94.667 -92.667 -142 -206.999 -142 -342.999
c0 -108.667 44.667 -215.667 134 -321l-78 -41c-106.667 122.667 -160 245.667 -160 369c0 69.333 15.667 137.333 47 204c24.667 51.333 65.667 108.666 123 171.999z" />
    <glyph glyph-name="guillemotright" unicode="&#xbb;" horiz-adv-x="616" 
d="M554 326c0 -123.333 -52.999 -246.333 -158.999 -369l-78 41c88.667 105.333 133 212.333 133 321c0 136 -47 250.333 -141 343l77 40c59.333 -66.667 99.666 -124 120.999 -172c31.333 -66.667 47 -134.667 47 -204zM315.001 326c0 -120 -52.667 -243.001 -158 -369.001
l-78 41c87.333 103.333 131 210.333 131 321c0 136 -47 250.333 -141 343l78 40c57.333 -63.333 98.333 -120.666 123 -171.999c30 -60 45 -128 45 -204z" />
    <glyph glyph-name="multiply" unicode="&#xd7;" horiz-adv-x="1011" 
d="M679 684c0 -74 -37.667 -111 -113 -111c-73.333 0 -110 37 -110 111s36.667 111 110 111c75.333 0 113 -37 113 -111zM1013 348h-893v117h893v-117zM679 127c0 -74 -37.667 -111 -113 -111c-73.333 0 -110 37 -110 111c0 75.333 36.667 113 110 113
c75.333 0 113 -37.667 113 -113z" />
    <glyph glyph-name="divide" unicode="&#xf7;" horiz-adv-x="907" 
d="M911 63l-80 -79l-322 321l-321 -321l-82 79l324 322l-324 322l82 81l321 -323l322 323l80 -81l-322 -322z" />
    <glyph glyph-name="afii57388" unicode="&#x60c;" horiz-adv-x="430" 
d="M328 387c-66.667 -58 -99 -120.667 -97 -188c2.66699 -36.667 24 -54 64 -52v-147h-162v166c0 60 47.667 133.667 143 221h52z" />
    <glyph glyph-name="afii57403" unicode="&#x61b;" horiz-adv-x="430" 
d="M328 748c-66.667 -58.667 -99 -121.667 -97 -189c2.66699 -36 24 -53 64 -51v-148h-162v166c0 60 47.667 134 143 222h52zM297 0h-162v170h162v-170z" />
    <glyph glyph-name="afii57407" unicode="&#x61f;" horiz-adv-x="774" 
d="M710 801c-55.333 83.333 -118.334 125 -189.001 125c-54 0 -119.333 -21.333 -196 -64c-44 -43.333 -66 -95 -66 -155c0 -72.667 28.667 -135.667 86 -189l178 -129c45.333 -57.333 68 -111.333 68 -162v-71h-131v80c0 32 -29.333 71.333 -88 118l-158 129
c-58.667 58.667 -88 132.667 -88 222c0 100.667 40.333 183 121 247c76.667 60 165.334 90 266.001 90c48 0 98 -12.667 150 -38c41.333 -20 81.333 -57.667 120 -113zM592.999 -8h-133v137h133v-137z" />
    <glyph glyph-name="afii57409" unicode="&#x621;" horiz-adv-x="563" 
d="M541 -4l-412 0.000976562v133h123c-35.333 44 -53 85.667 -53 125c0 154 71 231 213 231c62.667 0 113 -25 151 -75l-49 -99c-26.667 32.667 -60.667 49 -102 49c-58 10 -90.333 -19.333 -97 -88c22.667 -76.667 70 -124.334 142 -143.001h84v-133z" />
    <glyph glyph-name="afii57440" unicode="&#x640;" horiz-adv-x="237" 
d="M-11 127h274v-129l-274 1v128z" />
    <glyph glyph-name="afii57451" unicode="&#x64b;" horiz-adv-x="4" 
d="M425 1141l-3 -89l-390 2v87h393zM429 1271l3 -89l-400 2v92z" />
    <glyph glyph-name="afii57452" unicode="&#x64c;" 
d="M322 1302c0 -46.667 20.667 -70 62 -70c40.667 0 61 23.333 61 70c0 44 -20.333 66 -61 66c-41.333 0 -62 -22 -62 -66zM333 1165c-15.333 3.33301 -33.332 15.667 -53.999 37c-27.333 27.333 -41 59.666 -41 96.999c0 92 47.333 138 142 138c97.333 0 146 -46 146 -138
c0 -37.333 -13.667 -69.666 -41 -96.999c-40.667 -44 -42.334 -42.667 -5.00098 4l-9 -25l-186 -130l-32 59zM113.001 1302c0 -46.667 20.667 -70 62 -70c40.667 0 61 23.333 61 70c0 44 -20.333 66 -61 66c-41.333 0 -62 -22 -62 -66zM124.001 1166
c-14.667 2.66699 -32 14 -52 34c-28.667 28.667 -43 61.667 -43 99c0 92 48 138 144 138c97.333 0 146 -46 146 -138c0 -37.333 -14.333 -70.333 -43 -99c-42.667 -42.667 -44 -41 -4 5l-10 -24l-185 -130l-32 59z" />
    <glyph glyph-name="afii57453" unicode="&#x64d;" 
d="M418 -428l3 -81l-396 -2v83h393zM418 -305l3 -85l-396 -2v87h393z" />
    <glyph glyph-name="afii57454" unicode="&#x64e;" horiz-adv-x="452" 
d="M406 1164l3 -84l-396 -3v87h393z" />
    <glyph glyph-name="afii57455" unicode="&#x64f;" 
d="M123 1283c0 -46 20.667 -69 62 -69c40.667 0 61 23 61 69c0 44 -20.333 66 -61 66c-41.333 0 -62 -22 -62 -66zM132 1147c-10 0.666992 -27.333 13.333 -52 38c-27.333 26.667 -41 58.667 -41 96c0 91.333 48 137 144 137c97.333 0 146 -45.667 146 -137
c0 -37.333 -14 -69.333 -42 -96c-4 -11.333 -9 -19 -15 -23l-185 -130l-32 58z" />
    <glyph glyph-name="afii57456" unicode="&#x650;" 
d="M500 -511l3 -87h-396v87h393z" />
    <glyph glyph-name="afii57457" unicode="&#x651;" 
d="M479 1254l-0.000976562 -95c0 -32 -9 -59.333 -27 -82c-23.333 -27.333 -55.666 -41 -96.999 -41c-44 2 -74 18.667 -90 50c-15.333 -28.667 -47.333 -43 -96 -43c-43.333 -3.33301 -76.333 8.66699 -99 36c-18 22.667 -27 49.334 -27 80.001v95h93v-75
c5.33301 -38.667 21 -57.334 47 -56.001c19.333 2 29 31 29 87v44h95v-44c6 -58 23.333 -87 52 -87c23.333 0 32 19 26 57l3 74h91z" />
    <glyph glyph-name="afii57458" unicode="&#x652;" 
d="M324 1181c2 -94 -42 -142.335 -132 -145.002c-92 0 -139 47 -141 141c-2.66699 96 41 145 131 147c44 2.66699 80.333 -12.666 109 -45.999c22 -29.333 33 -61.666 33 -96.999zM235 1181c0 48 -15.667 72 -47 72c-30 0 -45 -24.667 -45 -74c2 -47.333 18.333 -71 49 -71
c28.667 0 43 24.333 43 73z" />
    <glyph glyph-name="afii61664" unicode="&#x200c;" horiz-adv-x="37" 
 />
    <glyph glyph-name="afii301" unicode="&#x200d;" horiz-adv-x="37" 
 />
    <glyph glyph-name="afii299" unicode="&#x200e;" horiz-adv-x="40" 
d="M274 1456l-122 -125l-29 29l78 78h-160v-1438h-41v1479h197l-74 73l29 29z" />
    <glyph glyph-name="afii300" unicode="&#x200f;" horiz-adv-x="40" 
d="M41 0h-41v1438h-159l78 -78l-29 -29l-123 125l123 125l29 -29l-74 -73h196v-1479z" />
    </font>
</defs>
</svg>
