<?xml version="1.0" standalone="no"?>
<!DOCTYPE svg PUBLIC "-//W3C//DTD SVG 1.1//EN" "http://www.w3.org/Graphics/SVG/1.1/DTD/svg11.dtd" >
<svg>
<metadata>
Created by FontForge 20090914 at Wed Oct 19 00:55:00 2011
 By www-data
(c) by Abolfazl Seilsepour - +98 912 591 3420  -  seilsepor@yahoo.com
</metadata>
<defs>
<font id="FarBassam-Bold" horiz-adv-x="0" >
  <font-face 
    font-family="Far.Bassam"
    font-weight="700"
    font-stretch="normal"
    units-per-em="2048"
    panose-1="0 0 4 0 0 0 0 0 0 0"
    ascent="1638"
    descent="-410"
    bbox="-263 -870.002 2774 2084"
    underline-thickness="100"
    underline-position="-650"
    unicode-range="U+0020-U+FEFC"
  />
<missing-glyph horiz-adv-x="1297" 
d="M92 -65v1827h1112v-1827h-1112zM393 222h510v1252h-510v-1252z" />
    <glyph glyph-name=".notdef" unicode="&#x652;&#x64d;" horiz-adv-x="1297" 
d="M92 -65v1827h1112v-1827h-1112zM393 222h510v1252h-510v-1252z" />
    <glyph glyph-name="copyright" unicode="&#x652;&#x64e;" horiz-adv-x="2845" 
d="M1669 2084c4 -2 7 -3 9 -3v-3h-15c0.666992 4 2.66699 6 6 6zM1660 2078h3c-2 -4 -3 -7 -3 -9h-6v3c0.666992 4 2.66699 6 6 6zM1678 2078l3.00195 0.00390625c2.66699 0 5.33398 -3 8.00098 -9v-12c0 -8 -5.66699 -18.333 -17 -31v-3c25.333 -9.33301 38 -24.333 38 -45
v-9c0 -32.667 -17.667 -49 -53 -49l-3 6c33.333 0 50 16.333 50 49c0 23.333 -16.667 37.333 -50 42h-6c-16.667 0 -29.334 -6 -38.001 -18v-3l9 6h9c-1.33301 -6.66699 -16 -23.667 -44 -51c-2 -14.667 -3 -23 -3 -25c2 -24.667 6 -45.667 12 -63h3v3l-3 15
c2 24 5.66699 36 11 36c0 -2 1 -3 3 -3c-2 -3.33301 -4 -12.333 -6 -27c6.66699 4 11.667 6 15 6l6 -9v-6c0 -5.33301 -2 -14.333 -6 -27l6 -3c0 2.66699 3 5.66699 9 9h3c2.66699 0 5.33398 -3 8.00098 -9c0 -2 -0.666992 -8.33301 -2 -19
c6.66699 -22 13.334 -34 20.001 -36c4.66699 10 9.66699 15 15 15v6c-6 0 -9 2 -9 6v6c0.666992 4 2.66699 6 6 6h6v-18h3c26 11.333 45.333 21.666 58 30.999c2 0 5 1 9 3c8 -3.33301 12 -6.33301 12 -9v-4l-18 -6c-2 4 -3 7.33301 -3 10h-3
c0 -9.33301 -9.66699 -16.666 -29 -21.999c10 -8.66699 15 -14.667 15 -18c-2 0 -3 -1 -3 -3c-14 2.66699 -21 5.66699 -21 9l6 9h-3c-17.333 -5.33301 -26 -16.333 -26 -33c3.33301 2 6.33301 3 9 3l2 -6c0 -4 -3.66699 -6 -11 -6v-6
c7.33301 -13.333 11 -22.666 11 -27.999c11.333 14.667 22.333 22 33 22c7.33301 0 13 -4 17 -12v-3c-6.66699 4 -14.334 6 -23.001 6c-14 -6 -21 -16.333 -21 -31c0 -1.33301 1 -9.33301 3 -24h3c0 12 2 18 6 18h3v-15c8 8 15.667 12 23 12c4 -9.33301 8 -14.333 12 -15
c6 0 12 12 18 36v22c0.666992 4 2.66699 6 6 6c5.33301 -2 8 -8 8 -18c0 -9.33301 -1.66699 -17.666 -5 -24.999h5c10.667 19.333 17.667 36.666 21 51.999v18l-3 15l12 9c7.33301 -2.66699 11 -11.667 11 -27c0 -12 -8.66699 -33.333 -26 -64l-26 -21l-6 3
c0 -8.66699 -7 -14.667 -21 -18c0 2 -1 3 -3 3c0 -2 -3.66699 -8 -11 -18v-3h5c50.667 38 105.667 68.333 165 91c13.333 15.333 20 31.333 20 48c0 13.333 -10.667 25.666 -32 36.999c-10 0 -18 -5.33301 -24 -16v-15c4 -8 8 -12 12 -12v-6h-3
c-2.66699 0 -7.33398 6 -14.001 18v18c4.66699 12.667 12.334 19 23.001 19h9c18.667 0 31.334 -14.333 38.001 -43v-12c0 -11.333 -4 -22.333 -12 -33c47.333 2 71 6 71 12c-5.33301 0 -10.333 7 -15 21v3h12c2.66699 0 6.33398 -4 11.001 -12v-3l-5 -9v-3
c23.333 10.667 35 29.667 35 57c-6 30 -9 51.333 -9 64v6c0 24 8.66699 38.333 26 43c-9.33301 -10 -14 -21.333 -14 -34c0 -8.66699 3.66699 -40 11 -94c-0.666992 -20 -6.33398 -36 -17.001 -48l44 -9c0 2.66699 13.667 7.66699 41 15c0 1.33301 5.66699 6.33301 17 15h3
c14 0 21 -6 21 -18c-4 -6.66699 -6 -12.667 -6 -18c2 0 3 -1 3 -3c4.66699 0 18.334 12 41 36h18c2.66699 0 6.33398 -4 11 -12v-12l-3 -6h3c24.667 15.333 40.334 29.333 47 42h6v-3c-28 -44.667 -57.333 -67 -88 -67v-6c101.333 20 152 48.333 152 85
c5.33301 9.33301 10.333 31.666 15 66.999c10 6.66699 15 10.667 15 12c-6 17.333 -9 26.333 -9 27h6c8 -17.333 12 -28.333 12 -33v-15c0 -10.667 -5 -25 -15 -43v-3h3c15.333 31.333 23 53.666 23 66.999v9c0 49.333 -26.333 84.666 -79 105.999l-17 3
c-36.667 0 -62.334 -23.333 -77 -70v-15c0 -35.333 22.667 -55.333 68 -60l14 3c-1.33301 -6 -7 -9 -17 -9h-12c-2 0 -3 1 -3 3l-6 -3c-34.667 16.667 -52 39.667 -52 69v12c12.667 54.667 42.667 82 90 82v-3c2 0 3 1 3 3c22.667 -1.33301 46.334 -14.333 71 -39
c0 42.667 14.667 68 44 76h6c23.333 -5.33301 35 -17.666 35 -36.999c-1.33301 -16 -9.33301 -24 -24 -24c10.667 9.33301 16.667 18.333 18 27c-5.33301 16.667 -15 25 -29 25c-26 -7.33301 -39 -23.666 -39 -48.999v-9c0 -8.66699 7 -37 21 -85v-18
c0 -29.333 -13.667 -60.666 -41 -93.999v-3h12c48.667 0 79.667 -19.333 93 -58v-18c-4.66699 -36 -21 -54 -49 -54h-6c-20 0 -32.667 12 -38 36h6c0 -12 8.66699 -22 26 -30v9c6.66699 -4 12.667 -6 18 -6c16 0 27.667 13 35 39v12c0 32.667 -24.667 52 -74 58h-8l5 -9
c0 -4 -1.66699 -6 -5 -6h-3c-4 0 -6 2 -6 6l6 9h-9c-4 -0.666992 -6 -2.66699 -6 -6c2 -4 3 -8 3 -12l-6 -3h-6c-4 0 -6 4 -6 12h-3c-58 -44.667 -110.667 -67 -158 -67c54.667 -51.333 82 -109 82 -173c30 -62.667 66.333 -94 109 -94h3
c40.667 9.33301 61 29.666 61 60.999v12c-4 24 -18.667 36 -44 36c-20 0 -32.667 -14 -38 -42c1.33301 -6 6.33301 -14 15 -24v-3h-3c-12 8 -18 18 -18 30v6c6.66699 28.667 20.334 43 41 43h12c27.333 0 44 -19.333 50 -58c-12.667 -52.667 -38 -79 -76 -79h-12
c-37.333 0 -73.666 22.333 -109 67c-16 -53.333 -42.333 -89.666 -79 -108.999c-24.667 -16.667 -56 -25 -94 -25c-60 0 -103 33.333 -129 100c-3.33301 9.33301 -5 22.666 -5 39.999v15c0 44.667 26.333 78 79 100c17.333 2.66699 28 4.66699 32 6c20 -4 39.667 -12 59 -24
v-6h-3c-17.333 14 -38 21 -62 21c-42 0 -72.333 -25.333 -91 -76c-2 -8 -3 -16 -3 -24v-15c0 -66 41 -106.333 123 -121c4.66699 1.33301 17.667 3.33301 39 6v3c-16 0 -26 11 -30 33v15c6 14 17.667 21 35 21c8 -2.66699 12 -5.66699 12 -9v-3h-3l-9 6
c-17.333 -4 -26 -9 -26 -15v-15c4 -18 14.667 -27 32 -27c46 0 81.333 40.333 106 121v36c0 52 -24.333 98.667 -73 140v-6c44.667 -35.333 67 -87 67 -155v-3h-6c0 33.333 -8.66699 59.666 -26 78.999c0 -6 -4 -11 -12 -15h-6c-2.66699 0 -5.66699 5 -9 15l3 15
c0 37.333 -21.333 64.666 -64 81.999h-21c6 -10 9 -18 9 -24v-3c0 -3.33301 -4 -7.33301 -12 -12h-6c-23.333 0 -35 20 -35 60c-7.33301 8 -23 15 -47 21c0 6 -1.66699 9 -5 9v-6c-4 0 -6 2 -6 6c-58 0 -123.667 -26 -197 -78c-60.667 -52.667 -91 -84 -91 -94
c131.333 -102.667 197 -235 197 -397c0 -32.667 -6 -49 -18 -49c-6 4 -9 15 -9 33h-3c0 -46.667 -14.667 -107 -44 -181v-3h3v6h3c3.33301 0 7.33301 -4 12 -12v-3c0 -26 -22.333 -62.667 -67 -110h-9c-3.33301 0 -7.33301 4.33301 -12 13c3.33301 0 6.33301 4 9 12h-3
l-47 -52c6.66699 4 12.667 6 18 6l6 -9c0 -20.667 -31.333 -46 -94 -76v3c-8 -4 -14 -6 -18 -6c0 4 -3 6 -9 6v9c2 0 9 3.33301 21 10v3h-6c-62.667 -36.667 -129 -55 -199 -55v-3c29.333 0 44 -4 44 -12v-3h-6l3 -6c-10.667 -4 -27.334 -6 -50.001 -6
c-168.667 0 -304.667 81.667 -408 245c-42.667 80 -64 160 -64 240c1.33301 38 7.33301 57 18 57c5.33301 -4.66699 8 -14.667 8 -30h3c0 49.333 16.667 111 50 185h-6c0 -8 -3 -12 -9 -12l-8 12c0 2 1 3 3 3l-3 6c5.33301 28.667 27.666 63 66.999 103c0 -2 1 -3 3 -3
c0.666992 4 2.66699 6 6 6c2.66699 0 6.66699 -4 12 -12l-9 -12v-3l53 54h-3l-12 -9h-3c-2.66699 0 -5.66699 3 -9 9v3c7.33301 22 37.666 47.333 90.999 76l6 -3l15 3c7.33301 -3.33301 11 -6.33301 11 -9c-9.33301 -8 -16 -12 -20 -12v-3h3c72 36 137.333 54 196 54v3h-29
c-3.33301 0 -7.33301 4.33301 -12 13v3c2.66699 0 11.334 3 26.001 9h65c2 0 3 -1 3 -3c2 0 3 1 3 3c42 0 106.333 -21.333 193 -64v3l-14 18v3h5c4 0 8 -6 12 -18h3c4 0.666992 8 5.66699 12 15c-4 0 -6 2 -6 6v3c8 0 12 16.333 12 49v6c0 56.667 -15.667 93 -47 109
c-10 -6 -19.667 -9 -29 -9c-8 2.66699 -12 5.66699 -12 9v9c0 4 5.66699 6 17 6v3c0 6.66699 -13.667 14.667 -41 24c-1.33301 0 -13 -5 -35 -15c-2 3.33301 -3 8.33301 -3 15c-16 0 -28.667 -3 -38 -9l-3 6c-29.333 -19.333 -44 -44.333 -44 -75c0 -10.667 7 -20 21 -28
c9.33301 0 14 7.33301 14 22c4 0 6 -3.33301 6 -10c-4.66699 -12 -11.334 -18 -20.001 -18c-3.33301 2 -7.33301 3 -12 3h-3c13.333 -34 36.666 -51 69.999 -51h3c39.333 10 59 30 59 60v9c-4 13.333 -6 21.666 -6 24.999c4.66699 0 8.66699 -11.333 12 -34
c0 -40.667 -25.333 -63.667 -76 -69h-6c-28.667 0 -51.334 21 -68.001 63c-2 4 -4 14.333 -6 31c0 22.667 10 46.667 30 72c-45.333 8.66699 -68 30 -68 64c4 30 17.667 45 41 45c18 -6 27 -16 27 -30v-12c0 -4 -2 -6 -6 -6h-3l3 15v9c-5.33301 10 -13.333 15 -24 15
c-19.333 -4.66699 -29 -17.667 -29 -39c12 -28 27.667 -42 47 -42l-3 6v3h6v-9h15l-3 6v3c0.666992 4 2.66699 6 6 6c3.33301 -0.666992 5 -2.66699 5 -6c-1.33301 -4 -2 -7 -2 -9h8c4 0 6 2 6 6c-4 0 -6 2 -6 6v3c0.666992 4 2.66699 6 6 6h3c4 -0.666992 6 -2.66699 6 -6
v-3l-3 -6h3c9.33301 6 22 9 38 9h9c10.667 0 25.334 -2 44.001 -6c-4 8 -6 14 -6 18h-3c0 -6 -2 -9 -6 -9h-3c-2.66699 0 -6.33398 5 -11.001 15l14 3c0.666992 -4 2.66699 -6 6 -6v3c-2 8 -3 15 -3 21l-15 -3l-8 12l6 3h5l9 -6v30l3 16c-6 0 -9 2 -9 6l6 9v3l-6 -3h-3l3 15
c-11.333 12 -21 18 -29 18h-15c-11.333 -5.33301 -17 -13.333 -17 -24v-9l6 -9v-3h-3c-6 2 -9 8 -9 18v3c0 18.667 11.667 29.667 35 33v-3l6 3c6.66699 0 20.334 -12 41.001 -36c0 13.333 13.667 30.333 41 51c43.333 10.667 65 22 65 34v12c-4 4.66699 -6 7.66699 -6 9v3z
M2328 2069l3 -6l-6 -3l-2 6zM2328 2045l6 -0.000976562c4 -0.666992 6 -2.66699 6 -6s-3 -6.66602 -9 -9.99902c-2.66699 0 -5.33398 3.33301 -8 10c0 4 1.66699 6 5 6zM1689 2036c4 -0.666992 6 -3 6 -7s-2 -6 -6 -6c-3.33301 0 -5 2 -5 6c0 4.66699 1.66699 7 5 7z
M1698 2036h9v-4c0 -4 -2 -6 -6 -6l-3 6v4zM1578 2032l6 -9c6 4 11.667 6 17 6l3 -6c-17.333 -12 -26 -23 -26 -33v-3h-6c0 6.66699 -6.66699 13.667 -20 21v3c5.33301 0 8 1 8 3c-2 4 -3 7 -3 9l9 6l6 -3c0.666992 4 2.66699 6 6 6zM2337 2023h9
c4 -0.666992 6 -2.66699 6 -6v-6c0 -2.66699 -3 -5.66699 -9 -9h-3c-2.66699 0 -5.66699 3 -9 9v6c0.666992 4 2.66699 6 6 6zM2399 1999c9.33301 -5.33301 14 -9.33301 14 -12h-5c-3.33301 0 -6.33301 3 -9 9v3zM1396 1996h3c4.66699 0 10.667 -11 18 -33
c0 -22.667 -8 -34 -24 -34c-2 4 -3 8.33301 -3 13v3h3l6 -3v3c-4 6.66699 -6 12.667 -6 18h3c4.66699 0 7.66699 -5 9 -15h3c0 13.333 -6 26.333 -18 39v3c0.666992 4 2.66699 6 6 6zM2106 1996h8v-18c-3.33301 -26 -14 -39 -32 -39h-6c-4 0 -6 2 -6 6v3
c1.33301 0 5.33301 1 12 3v3h-3c-6 -4 -10.667 -6 -14 -6l-3 6c0 14.667 13.667 24.667 41 30c2 3.33301 3 7.33301 3 12zM1660 1981h6c4 -0.666992 6 -2.66699 6 -6v-6l-6 -9c2 -4 3 -7 3 -9c-2 0 -3 -1 -3 -3c-10 2.66699 -15 9.66699 -15 21c3.33301 8 6.33301 12 9 12z
M1991 1963h12c12 -8 18 -16 18 -24c-1.33301 -6 -6.33301 -11.333 -15 -16c-5.33301 0 -9.33301 11.333 -12 34c-2 0 -3 1 -3 3v3zM2284 1942l9 -13v-6c-2.66699 -18 -11.334 -27 -26 -27h-12c-2.66699 0 -6.66699 4 -12 12v9h6l9 -6c4.66699 20.667 13.334 31 26 31z
M1637 1939c6 -6.66699 11.668 -10 17.001 -10c0 -4 -2 -6 -6 -6c-2.66699 0 -6.33398 4 -11.001 12v4zM1560 1932c4 0 6 -2 6 -6s-2 -6 -6 -6l-5 9zM2276 1920v-3h3c3.33301 0 5 2 5 6v3h-2c-4 -0.666992 -6 -2.66699 -6 -6zM1428 1908
c8 -2.66699 11.999 -5.66699 11.999 -9l-6 -3h-6c-3.33301 0 -5 2 -5 6c0.666992 4 2.33398 6 5.00098 6zM1742 1908c0 -2 1 -3 3 -3c-2 -4 -3 -7 -3 -9l3 -21l-9 -6c-7.33301 2.66699 -11 5.66699 -11 9v15c3.33301 7.33301 9 12.333 17 15zM2059 1899
c4 -0.666992 6 -2.66699 6 -6c0 -18 -8 -27 -24 -27c-8 2.66699 -12 5.66699 -12 9v6c0 2.66699 10 8.66699 30 18zM1610 1884v-9h6v9h-6zM2302 1875h3c-4 -5.33301 -6 -9.33301 -6 -12h-6v3c0 2.66699 3 5.66699 9 9zM2411 1875h5c6 -1.33301 9 -9.33301 9 -24
c0 -22 -6.66699 -35.333 -20 -40v-6h3c9.33301 0 17 13.333 23 40h6c2.66699 0 5.66699 -3.33301 9 -10c0 -6.66699 -5 -16.667 -15 -30h3l15 18c3.33301 -0.666992 5 -2.66699 5 -6v-6c-4.66699 -10 -12.334 -15 -23 -15l-6 3v-6c6 0 11 -4 15 -12c0 -4 -2 -6 -6 -6h-3
l-23 21v3l-6 -3l-3 6l-27 -12l-3 6c9.33301 0 22.333 12 39 36v3l-3 37zM1980 1869l5 -0.000976562c16 0 24 -8 24 -24c0 -3.33301 -3 -6.66602 -9 -9.99902h-6l-23 28zM2346 1863v-9h6c4 0 6 2 6 6l-6 3h-6zM2290 1863h3c0 -4 -2 -6 -6 -6h-3c0.666992 4 2.66699 6 6 6z
M1710 1854h3v-22h-6c-4 0 -6 2.33301 -6 7v6c0 2.66699 3 5.66699 9 9zM1373 1845c14 -20.667 25.667 -35 35 -43v-6c-22 12 -35.667 24 -41 36v7c0.666992 4 2.66699 6 6 6zM1335 1829h3l17 -24h3c-4 6.66699 -6 12.667 -6 18l6 3h3c5.33301 -8.66699 16 -19.667 32 -33
l-6 -3c0 4 -0.666992 6 -2 6c-4 -2 -7 -3 -9 -3c0 2 -1 3 -3 3v-12l9 6h5v-3l-8 -18l3 -18l-6 -3h-3c-4 0 -6 2 -6 6v6l3 15c-4.66699 0 -7.66699 -7 -9 -21l3 -22l-6 -3c-5.33301 0 -9.33301 10.333 -12 31c-3.33301 0 -5 3 -5 9l-6 -3h-6c-4 0 -6 2 -6 6h3
c-4 6.66699 -6 11.667 -6 15c4 0 6 2 6 6l-6 9v3c0.666992 4 2.66699 6 6 6c9.33301 -14 19 -21 29 -21v6c-12 0 -20.667 10 -26 30zM1393 1829h6c2.66699 0 7.66699 -7 15 -21v-3h-3c-2.66699 0 -8.66699 7 -18 21v3zM1417 1826l9 -12v-3h-3c-3.33301 0 -7.33301 4 -12 12z
M2062 1823h6v-3c0 -15.333 -7 -24.333 -21 -27c-8 3.33301 -12 6.33301 -12 9v6c0 3.33301 9 8.33301 27 15zM1420 1802h6l2 -15l-5 -3h-3c0 6 -1 9 -3 9c2 4 3 7 3 9zM1405 1796v-6l-9 -27l3 -6v-22h-6c-5.33301 2 -8 8.33301 -8 19c0 17.333 6.66699 31.333 20 42z
M1349 1766c12 8 18 16 18 24c-12 -4 -18 -12 -18 -24zM1411 1793h6l-3 -15v-12h-3l-6 3c4 15.333 6 23.333 6 24zM1836 1784c4 -0.666992 6 -2.66797 6 -6.00098c-5.33301 -21.333 -18 -39.666 -38 -54.999h-3v3c11.333 12 21 31.333 29 58h6zM1528 1781
c21.333 0 37.001 -16.333 47.001 -49c0 -4 -2 -6 -6 -6s-6 2 -6 6v3l3 7c-4.66699 0 -14.334 9 -29.001 27l-6 3h-3v-3c6 0 11 -4 15 -12c0 -4 -2 -6 -6 -6c-5.33301 12 -12.333 18 -21 18v3c0 2.66699 4 5.66699 12 9zM2114 1772v-6c0.666992 -4 2.66699 -6 6 -6h3
c4 0 6 2 6 6v6c-4 0 -6 1 -6 3c-3.33301 -2 -6.33301 -3 -9 -3zM1557 1775h3c3.33301 0 6.33301 -3 9 -9v-3c-2.66699 0 -6.66699 4 -12 12zM2182 1766v-6c0.666992 -4 2.66699 -6 6 -6c3.33301 2 6.33301 3 9 3v9c0 4 -2 6 -6 6h-3c-4 -0.666992 -6 -2.66699 -6 -6z
M1508 1769h5c8 -3.33301 12 -6.33301 12 -9c0 -4 -2 -6 -6 -6c-7.33301 8.66699 -11 13.667 -11 15zM1856 1769c4 -0.666992 5.99902 -2.66797 5.99902 -6.00098v-3c-2 -5.33301 -10.667 -12.666 -26 -21.999h-6c4.66699 10 13.334 20.333 26.001 31zM2103 1760v-9
c4 0 6 2 6 6zM2381 1763h6v-9c-4 0 -6 2 -6 6v3zM1634 1757h6c21.333 -18.667 32 -47 32 -85h-6c0 22 -12.667 48.333 -38 79v3zM1736 1745c4 -0.666992 6 -3 6 -7v-9h-6v16zM2106 1735v-3c2 0 4.66699 -1 8 -3h3v3c-2 0 -4.66699 1 -8 3h-3zM2302 1732c6 0 12 -6 18 -18
c-2 0 -3 -1 -3 -3c-14 4.66699 -21 8.66699 -21 12v3c0.666992 4 2.66699 6 6 6zM1569 1720l3 -6v-3h-9v3c0.666992 4 2.66699 6 6 6zM1622 1717c20.667 0 36.333 -21.999 47 -65.999h-6l3 -16v-9h-6c0 15.333 -11.667 31.666 -35 48.999v6h6c9.33301 0 19 -7 29 -21v3
c-3.33301 14 -18 29 -44 45v3c0.666992 4 2.66699 6 6 6zM2369 1717v-3c-1.33301 -8 -2 -15 -2 -21h-6v6c1.33301 12 4 18 8 18zM1939 1711c34.667 0 52.001 -9 52.001 -27l-8 -6c-36.667 6 -58.334 9 -65.001 9h-3c-26 0 -60.333 -7 -103 -21v6c54.667 26 97 39 127 39z
M2261 1711c15.333 0 23 -8 23 -24c-21.333 2 -32 6 -32 12v3c0 2.66699 3 5.66699 9 9zM1704 1672v-3h3c0 4.66699 6 14.667 18 30h-3c-6.66699 -2.66699 -12.667 -11.667 -18 -27zM1695 1687l3 -15h3c0 8 1 16 3 24c-2.66699 0 -5.66699 -3 -9 -9zM2205 1693h12
c12 -7.33301 18 -16.333 18 -27l-6 -3c0 2 -4 5 -12 9l-6 -3c-8.66699 4 -13.334 8 -14 12v3c0 2.66699 2.66699 5.66699 8 9zM2132 1684c0.666992 -4 2.66699 -6 6 -6h3c0 4 -2 6 -6 6h-3zM2387 1681h6v-15c-4 0 -6 2 -6 6v9zM2059 1666c2 -4 3 -7 3 -9h6
c3.33301 0 5 2 5 6v3c0 4 -1.66699 6 -5 6zM1710 1660c4 2 7 3 9 3v6c-3.33301 0 -6.33301 -3 -9 -9zM1868 1669h9.00098c27.333 0 48.666 -10.333 63.999 -31v-9c0 -2.66699 -2.66699 -5.66699 -8 -9c-28.667 22.667 -56 34 -82 34l-56 -6c0 8.66699 24.333 15.667 73 21z
M1631 1651h6c15.333 -12 23 -24.333 23 -37v-9h-6c0 10 -9.66699 23.333 -29 40c0.666992 4 2.66699 6 6 6zM1786 1648h3c0 -4 1 -6 3 -6c17.333 0.666992 26 2.66699 26 6c31.333 0 53 -9.33301 65 -28v-3c0 -2.66699 -3 -5.66699 -9 -9h-9c-16 14 -36.333 21 -61 21
l-44 -9v3c17.333 12 26 19.333 26 22v3zM1786 1617c33.333 -4.66699 50.001 -11.667 50.001 -21v-6c0 -4.66699 -5 -7.66699 -15 -9c-14.667 10 -30.334 17 -47.001 21l-47 -9c0 8.66699 19.667 16.667 59 24zM2173 1584l6 -3v9c-4 -0.666992 -6 -2.66699 -6 -6zM1736 1587
h6c23.333 0 35 -4 35 -12c0 -4 -2 -6 -6 -6h-5c-8 6 -17 9 -27 9h-20c2 6 7.66699 9 17 9zM2038 1584h6c37.333 0 63.666 -19.333 79 -58h-3c-18 22.667 -36.333 34 -55 34h-27c-2.66699 0 -5.66699 3 -9 9v6c0 2.66699 3 5.66699 9 9zM2009 1578h9
c4 -0.666992 6 -2.66699 6 -6v-6c0 -3.33301 -3 -6.33301 -9 -9h-6c-2.66699 0 -5.66699 3 -9 9v3c0 2.66699 3 5.66699 9 9zM1722 1569c13.333 -2 20 -5 20 -9v-3c0 -4 -2 -6 -6 -6c-15.333 4.66699 -23 7.66699 -23 9l-6 -3c-4 0 -6 2 -6 6c10 4 17 6 21 6zM2109 1569
c3.33301 -0.666992 5 -2.66699 5 -6v-3c-3.33301 0 -5 2 -5 6v3zM1988 1563c4 -0.666992 6 -2.66699 6 -6v-6c0 -4 -2 -6 -6 -6h-3c-3.33301 0 -5 2 -5 6v3c0 2.66699 2.66699 5.66699 8 9zM2261 1554h12c2.66699 0 5.66699 -4.33301 9 -13c-4 -8.66699 -8 -13.667 -12 -15
h-6c-2.66699 0 -5.66699 3 -9 9v13c0.666992 4 2.66699 6 6 6zM2070 1548h3c18.667 0 35.334 -10.333 50 -31l-6 -3c0 8.66699 -17.333 16.667 -52 24v3c0.666992 4.66699 2.33398 7 5 7zM1965 1532h9v-9h-9v9zM2528 1532h17c3.33301 0 7.33301 -4 12 -12v-3
c0 -2.66699 -3 -5.66699 -9 -9c-1.33301 0 -14 1 -38 3c-15.333 0 -31 -7 -47 -21h3c8 4 20.667 7 38 9l6 -9c0 -4 -2 -6 -6 -6h-8c-2 0 -3 1 -3 3c-20.667 -3.33301 -34.334 -8.33301 -41 -15v15c19.333 30 44.666 45 76 45zM2091 1523c12.667 0 24.334 -8 35 -24l-6 -3
c0 4 -11.667 10 -35 18v3c0.666992 4 2.66699 6 6 6zM2276 1517h3c2.66699 0 5.33398 -3 8 -9v-3c0 -2.66699 -2.66699 -5.66699 -8 -9h-3c-3.33301 0 -6.33301 3 -9 9v3c0 3.33301 3 6.33301 9 9zM2378 1511c0 -4 7 -9 21 -15v-3c0 -2.66699 -3 -5.66699 -9 -9h-9
c-6 2 -9 8 -9 18v3c0.666992 4 2.66699 6 6 6zM2296 1484c4 -0.666992 6 -2.66699 6 -6v-3c0 -4 -2 -6 -6 -6h-3c-4 0 -6 2 -6 6c0 2.66699 3 5.66699 9 9zM2484 1478l3 -6v-3c0 -2.66699 -12.667 -6.66699 -38 -12l-3 6c10 10 22.667 15 38 15zM1173 1226
c42.667 16.667 81 25.001 115 25.001s68 -12.333 102 -37h6l62 212c-36 28.667 -74.333 43 -115 43h-5c-74.667 -8 -112 -20.333 -112 -37c-35.333 -120.667 -53 -189.334 -53 -206.001zM2305 1463h9v-6h-9v6zM2320 1454h3c3.33301 -0.666992 5 -2.66699 5 -6l-5 -3l-3 6v3z
M2126 1423c4 -0.666992 6 -2.66699 6 -6v-3h-6v9zM2252 1414c14 -1.33301 21 -3.33301 21 -6l6 3h5c3.33301 0 6.33301 -3 9 -9l-9 -6c-8 0 -17.667 4 -29 12h-6c0 -12.667 -10.667 -23.667 -32 -33l-3 6v3c23.333 16 35 26 35 30h3zM1426 1187
c40 -26.667 80.002 -40.001 120.002 -40.001c27.333 0 64.333 8.33301 111 25c16 40.667 39.333 112.334 70 215.001c-4.66699 4 -8.33398 6 -11.001 6c-40.667 -18 -73 -27 -97 -27h-26c-34.667 0 -70 14 -106 42h-3c-6.66699 0 -22.334 -55.667 -47.001 -167
c-7.33301 -14.667 -11 -32.667 -11 -54zM2258.01 1396h3l15 -9h29c4 -0.666992 6 -2.66699 6 -6v-3l-3 -6c-21.333 0 -38 7 -50 21v3zM2246.01 1387v-9c-5.33301 -12 -18 -24.333 -38 -37h-3c-4 0 -6 2.33301 -6 7v3c23.333 14 39 26 47 36zM2258.01 1381h3
c20.667 -14 34.334 -21 41 -21h9l35 3l9 -12v-3c0 -6 -9 -10.333 -27 -13c-24 0 -47.333 14.333 -70 43v3zM2252.01 1372l6 0.000976562c-18.667 -56.667 -46 -85 -82 -85c-4 6.66699 -6 12.667 -6 18c48.667 19.333 75 39.666 79 60.999c2 0 3 2 3 6zM2261.01 1357h6
c0 -12.667 13.667 -24 41 -34h6c4 0 7.66699 1 11 3c9.33301 -4 14.333 -8 15 -12v-6c0 -2.66699 -3 -5.66699 -9 -9h-8c-5.33301 0 -14.333 2 -27 6h-3v-3c19.333 -10 33 -15 41 -15c9.33301 4 18.333 6 27 6l6 -9v-6c-3.33301 -8 -11.333 -12 -24 -12
c-20.667 0 -41 12 -61 36v-6c8 -26 24.333 -39 49 -39c12 0 18 -3.33301 18 -10v-3c-2 -6 -8 -9 -18 -9c-31.333 8.66699 -47 21 -47 37h-2v-3c0 -15.333 10.667 -26.666 32 -33.999v-9c0 -4 -2 -6 -6 -6h-3l-15 3c0 -4.66699 -1 -8.66699 -3 -12c-11.333 0 -17 11 -17 33
l-12 -9h-3c-4 0 -6 2 -6 6c18 16 27 26.333 27 31c2 3.33301 3 7.33301 3 12c-2 10.667 -3 19.667 -3 27c-2.66699 0 -8.66699 -17 -18 -51c-19.333 -22.667 -36 -34 -50 -34c-7.33301 3.33301 -11 6.33301 -11 9v6c2.66699 6.66699 17 14 43 22l33 54c-2 0 -3 1 -3 3h3
l11 -6v3l-20 24c0 -36.667 -12.667 -60.667 -38 -72h-9c-2.66699 0 -5.66699 3 -9 9v6c0 2.66699 12.667 10.667 38 24c10 19.333 15 35.666 15 48.999zM2276.01 1244v-3c3.33301 -8.66699 7 -13.667 11 -15v3c-4.66699 10 -8.33398 15 -11 15zM1223.01 1211l-6 3.00098
c-42.667 -8.66699 -64 -20.667 -64 -36c-10 -44.667 -27.667 -111.334 -53 -200.001c2 0 3 -1 3 -3c44 18 80.333 27 109 27c29.333 0 67.333 -13 114 -39l64 218c-40.667 28 -78.667 42 -114 42c-35.333 -1.33301 -53 -5.33301 -53 -12zM1352.01 941.003
c43.333 -28 86.333 -42 129 -42c78.667 6.66699 118 19.667 118 39l55 197c-3.33301 2 -6.33301 3 -9 3c-50.667 -16 -87.667 -24 -111 -24c-39.333 0 -78.333 14.333 -117 43c-7.33301 -7.33301 -29 -79.333 -65 -216zM564.006 626.003h2.99902
c2.66699 0 8.33398 -6 17.001 -18c-7.33301 -12 -14 -18 -20 -18c-8 2.66699 -14 7.66699 -18 15v3c0 2.66699 6 8.66699 18 18zM2155 623.003h3l15 -12c0 3.33301 4 7.33301 12 12h3c9.33301 -5.33301 14 -9.33301 14 -12v-6c0 -2.66699 -4.66699 -7.66699 -14 -15l-15 12
c-7.33301 -6 -14 -9 -20 -9c0 1.33301 -4 6.33301 -12 15c0 2.66699 4.66699 7.66699 14 15zM511.005 614.003l3 -6v-106l3 -15h32c2 0 3 -1 3 -3c21.333 2 32 5 32 9v3l-14 -3h-12c-18 0 -27 8 -27 24c0 27.333 9 46.666 27 57.999h12
c27.333 -7.33301 41 -33.666 41 -78.999c0 -46.667 -23.667 -70 -71 -70h-23c-29.333 0 -44 19.333 -44 58c0 8 -1 16 -3 24h3l-3 6c0 2 1 3 3 3l-3 6v12c0 10.667 -1 28 -3 52c25.333 18 40 27 44 27zM933.005 614.003c8 0 12.001 -25.333 12.001 -76v-42
c-4 -46.667 -11 -70 -21 -70c-10.667 0 -20.334 49.667 -29.001 149c2 0 14.667 13 38 39zM1200.01 614.003l3 -6v-115c0 -2.66699 5.66699 -5.66699 17 -9c9.33301 0 18.333 10 27 30h6c4 -0.666992 8.66699 -9.66699 14 -27c9.33301 0 19.333 -1 30 -3
c7.33301 17.333 13 26.333 17 27h3c9.33301 -18 15.333 -27 18 -27h3c2 0 7.66699 9 17 27h3c4.66699 -0.666992 9.66699 -9.66699 15 -27h12c3.33301 0 5 2 5 6c-2 10.667 -3 18.667 -3 24l15 12h6c4 -18 6 -31 6 -39h-3c0 -2 1 -3 3 -3c-5.33301 -38.667 -17 -58 -35 -58
c-14 2.66699 -21 7.66699 -21 15c-7.33301 -10 -15 -15 -23 -15c-14 2 -21 7 -21 15h-3c0 -10 -6.66699 -15 -20 -15h-12c-7.33301 0 -16 5 -26 15c0 -6 -9 -11 -27 -15h-20c-31.333 0 -47 22.333 -47 67v9c0 2 1 3 3 3l-3 6v9c0 14 -1 36.333 -3 67c25.333 18 40 27 44 27z
M1467.01 614.003c5.33301 -9.33301 8.00098 -27.333 8.00098 -54v-70c-1.33301 -36.667 -8 -58 -20 -64c-8.66699 0 -18.334 48.667 -29.001 146zM1760.01 611.003l3 -17.999v-100c0.666992 -4 2.66699 -6 6 -6h14v9c0 6.66699 3 13.667 9 21c-2 4 -3 7 -3 9
c10.667 26.667 17.667 40 21 40c54.667 -24.667 82 -54 82 -88v-6c-6 -30.667 -17 -46 -33 -46c-5.33301 0 -16 5 -32 15c-14.667 -10 -25.334 -15 -32.001 -15h-29c-29.333 0 -44 19.333 -44 58c-1.33301 11.333 -3.33301 45.666 -6 102.999c20.667 16 35.334 24 44.001 24
zM2114.01 614.004h6.00098v-112c0 -10.667 6 -16.667 18 -18l6 3h3c2 0 3 -1 3 -3l5 3h30c4 0 6 2 6 6v3l-15 -3h-12c-17.333 0 -26 8 -26 24v9c0 27.333 10.667 43.666 32 48.999h3c29.333 -7.33301 44 -32.666 44 -75.999c0 -48.667 -24.333 -73 -73 -73h-9
c-12.667 0 -24.334 6 -35.001 18c-6 -12 -16.667 -18 -32 -18h-9c-5.33301 -20 -11.333 -30 -18 -30h-9c-19.333 0 -32 19 -38 57c-2.66699 0 -5.66699 -3 -9 -9v-33c0 -26 -5.66699 -42 -17 -48h-3c-2.66699 0 -5.66699 3 -9 9v27l-3 15h3l-3 6v52c0 22 16.667 33 50 33
c0 6 2 9 6 9c24 -18 40.667 -27 50 -27h20c0 4 1 6 3 6c-2 23.333 -3 40.333 -3 51v28l-3 15c7.33301 6.66699 20 15.667 38 27zM1109.01 611.004h2.99902c2.66699 0 8.33398 -6 17.001 -18c0 -2.66699 -5.66699 -8.66699 -17 -18h-3c-2.66699 0 -8.66699 6 -18 18
c0 2.66699 6 8.66699 18 18zM1232.01 578.004l6 -0.000976562l12 -9l11 9h6c2.66699 0 7.66699 -5 15 -15c0 -3.33301 -5 -8.66602 -15 -15.999h-3l-11 9h-3l-15 -12c-2.66699 0 -7.66699 5.33301 -15 16v6c0 2.66699 4 6.66699 12 12zM722.007 572.003
c35.333 -22.667 52.999 -51 52.999 -85c0 -40.667 -19.667 -61 -59 -61c-31.333 0 -47 15.333 -47 46c2.66699 24 7.66699 36 15 36c8.66699 -16 17.334 -24 26.001 -24h30l5 3c-0.666992 6.66699 -16 19.667 -46 39v3c12 28.667 19.667 43 23 43zM1036.01 566.003h6
c14 -52.667 26.667 -79 38 -79c13.333 0 20 -1 20 -3c3.33301 2 8.33301 3 15 3v3c-14 14 -21 23 -21 27c14 21.333 21 33.333 21 36h6c8 0 15.667 -18 23 -54h-3l3 -6c0 -2 -1 -3 -3 -3l3 -6c0 -38.667 -18.667 -58 -56 -58h-5c-18.667 0 -31.667 9 -39 27h-2
c-14.667 -20 -29.334 -30 -44.001 -30h-9c-19.333 0 -30 16.333 -32 49c2.66699 22 7.33398 33 14.001 33h3c10 -18 19 -27 27 -27c17.333 2 26 5 26 9c-12 31.333 -18 48.333 -18 51s9 12 27 28zM2463.01 553.003c4.66699 0 29.334 -11 74 -33
c15.333 -2.66699 23 -7.66699 23 -15c-6 -24 -17.667 -36 -35 -36c-4.66699 0 -26.334 -13.333 -65 -40l-29 -3h-26c-31.333 6 -47 21.333 -47 46c-10 0 -19 -13.333 -27 -40v-9c0 -24 20.667 -36 62 -36h15c3.33301 -0.666992 5 -2.66699 5 -6v-3
c-2.66699 -10 -15.334 -15 -38 -15h-32c-44.667 4.66699 -67 21.667 -67 51v9c0 28.667 18.333 50 55 64c8 0 12 2 12 6c0 2.66699 -7.66699 8.66699 -23 18v3c0 19.333 13.667 30.333 41 33h6c15.333 0 27 -7 35 -21v-15l-18 -24c8 0 12 -1 12 -3l6 3h47c2 0 3 -1 3 -3
c2.66699 2 15.334 4 38 6v3c-22 8 -35.667 12 -41 12h-3c-7.33301 -6 -14.333 -9 -21 -9l-3 6v12c15.333 26 29 39 41 39zM555.006 529.003l15 -3c3.33301 2 6 3 8 3c0 3.33301 -3.66699 6.33301 -11 9c-8 -2.66699 -12 -5.66699 -12 -9zM1663.01 541.003h5.99805
c16.667 0 28.334 -13 35.001 -39c-2.66699 -8 -5.66699 -12 -9 -12c-12.667 4 -21.334 6 -26.001 6h-6c-14.667 -2.66699 -22.334 -6.66699 -23.001 -12v-3c42.667 0 64 -14.333 64 -43c0 -42 -24.333 -66 -73 -72c0 -2 -7 -3 -21 -3h-3c-46.667 0 -70 22 -70 66
c4.66699 40.667 11.334 61 20.001 61h3c6 0 9 -4 9 -12c0 -2.66699 -1 -13 -3 -31c0 -15.333 16.667 -24.333 50 -27h15c14.667 0 31.334 3 50.001 9v3c-47.333 0 -71 10.333 -71 31c12.667 52 30.334 78 53.001 78zM2167 538.003l-6 -9l15 -3c4 2 7 3 9 3c-2 6 -8 9 -18 9z
M2724 532.003h9c19.333 0 32 -18 38 -54v-12c-3.33301 -26.667 -14 -40 -32 -40h-3c-12.667 0 -24.334 6 -35 18c0 -9.33301 -8 -15.333 -24 -18h-6l-5 3c0 -31.333 -9 -53.333 -27 -66h-64c-4 0 -6 2 -6 6v6c48.667 28.667 73 49.667 73 63
c-2.66699 0.666992 -11.334 11 -26 31c11.333 26 19 39 23 39c14 -14 25.667 -21 35 -21h12c2.66699 0 6.66699 11 12 33c10 8 18.667 12 26 12zM338.004 529.003c6 -7.33301 9 -16.333 9 -27v-15c0 -40.667 -11.667 -61 -35 -61c-5.33301 0 -12.333 4 -21 12
c-8 -8 -15.667 -12 -23 -12c-5.33301 0 -12.333 4 -21 12c-8 -8 -15.667 -12 -23 -12h-9c-14.667 16 -32.334 24 -53.001 24l-20 -3v-3c5.33301 0 8 -1 8 -3l6 3c29.333 -2.66699 44 -8.66699 44 -18v-15c0 -27.333 -24.333 -43.333 -73 -48h-12c-50.667 0 -76 22 -76 66
c6.66699 34.667 13.667 52 21 52h5c3.33301 0 6.33301 -3 9 -9l-3 -31c4.66699 -18 21.334 -27 50.001 -27h26l36 3v3c-16 0 -24 1 -24 3c-2 0 -3 -1 -3 -3c-25.333 2 -38 7 -38 15v9c0 28.667 34.333 43 103 43l6 -3c3.33301 0 10 9 20 27h3c3.33301 0 8.33301 -8 15 -24
c3.33301 -2 7 -3 11 -3c6.66699 18 11.667 27 15 27h3c4 0 8 -8 12 -24l6 -3h8c4 0 6 2 6 6l-6 21zM426.004 508.003c19.333 -12 29 -37.333 29 -76c0 -30 -9.66699 -53 -29 -69h-65c-3.33301 0 -5 2 -5 6v6c48.667 28.667 73 49.667 73 63
c-3.33301 0.666992 -12.333 11 -27 31c12 26 20 39 24 39zM851.004 508.003l3.00098 -0.000976562c17.333 -13.333 26 -33.666 26 -60.999v-18c0 -28.667 -8.66699 -50.667 -26 -66h-65c-2.66699 0 -5.33398 3 -8.00098 9l70 51l3 6c0 8.66699 -8 21 -24 37
c1.33301 12.667 8.33301 26.667 21 42zM1807 496.002c0 -2.66699 2.66699 -5.66699 8 -9h9c4 0 6 2 6 6v3c0 2.66699 -4 5.66699 -12 9c-7.33301 -3.33301 -11 -6.33301 -11 -9zM2727 493.002c4.66699 -18 11.667 -27 21 -27l3 6v6c0 7.33301 -4 16.333 -12 27
c-3.33301 0 -7.33301 -4 -12 -12zM1854 487.002l-9 -18l20 -6v12c0 2.66699 -3.66699 6.66699 -11 12zM2012 466.002c0 -21.333 7.66699 -32.667 23 -34v9c0 2.66699 -7.66699 11 -23 25zM2490 408.001h2.99902c2.66699 0 8.33398 -6 17.001 -18v-3
c0 -3.33301 -5.66699 -9.33301 -17 -18h-3c-2.66699 0 -8.66699 6 -18 18v3c0 2.66699 6 8.66699 18 18zM48.0039 275.001h407c4 -0.666992 6 -2.66699 6 -6v-197c0 -4.66699 -2 -7 -6 -7h-407c-4 0 -6 2.33301 -6 7v197c0.666992 4 2.66699 6 6 6zM2361 275.001h407
c4 -0.666992 6 -2.66699 6 -6v-197c0 -4.66699 -2 -7 -6 -7h-407c-4 0 -6 2.33301 -6 7v197c0.666992 4 2.66699 6 6 6zM766.004 269.001h6.00098c43.333 0 73.666 -23.333 90.999 -70l3 -18v-12c0 -56 -33.333 -88.333 -100 -97c-52.667 0 -84 33.333 -94 100
c8.66699 64.667 40 97 94 97zM1804 269.001l22.999 -0.000976562c20.667 0 39.334 -9.33301 56.001 -28v-3c0 -2.66699 -7 -9.66699 -21 -21h-3c-14 14 -30.333 21 -49 21c-22 -4.66699 -33 -10.667 -33 -18v-12c0 -6.66699 32.333 -16.667 97 -30
c12 -13.333 18 -26.666 18 -39.999v-3c-7.33301 -42 -34.666 -63 -81.999 -63c-28.667 0 -53.334 12 -74.001 36c0 2.66699 8 10.667 24 24c18 -16 34.667 -24 50 -24h8c16.667 0 28.667 6 36 18v12c0 8.66699 -30.333 19 -91 31c-16 10.667 -24 24.667 -24 42
c0 30.667 21.667 50 65 58zM534.004 266h129c4 -0.666992 6 -3 6 -7v-24c0 -4 -2 -6 -6 -6h-3c-1.33301 0 -2 1 -2 3l-6 -3h-77l-5 3l-3 -6v-36h64c4 -0.666992 6 -2.66699 6 -6v-22c0 -4 -2 -6 -6 -6h-64v-72c0 -4 -2 -6 -6 -6h-27c-3.33301 0 -5 2 -5 6v63l2 6
c-15.333 2 -23 5 -23 9v22c0.666992 4 2.66699 6 6 6h15c0 8 0.666992 12 2 12l-2 6v51c0 4.66699 1.66699 7 5 7zM895.004 266h3l111 -113v106c0.666992 4.66699 2.66699 7 6 7h24c3.33301 -0.666992 5 -3 5 -7v-178c0 -4 -1.66699 -6 -5 -6c0 2 -36.333 39.333 -109 112
v-103c0 -4 -2 -6 -6 -6h-23c-4 0 -6 2 -6 6v182zM1074 266h129c4 -0.666992 6 -3 6 -7v-24c0 -4 -2 -6 -6 -6h-47v-145c0 -4 -2 -6 -6 -6h-23c-4 0 -6 2 -6 6v145c-6 0 -9 1 -9 3l-6 -3h-32c-4 0 -6 2 -6 6v24c0.666992 4.66699 2.66699 7 6 7zM1241 266h129
c4 -0.666992 6 -3 6 -7v-24c0 -4 -2 -6 -6 -6h-97v-21c0 -2 -1 -3 -3 -3c2 -3.33301 3 -8.33301 3 -15h65c3.33301 -0.666992 5 -2.66699 5 -6v-22c0 -4 -1.66699 -6 -5 -6h-62l-6 -3l3 -6v-63c0 -4 -2 -6 -6 -6h-26c-4 0 -6 2 -6 6v72h-15c-4 0 -6 2 -6 6v22c0 4 8 7 24 9
l-3 21v45c0.666992 4.66699 2.66699 7 6 7zM1399 266h65c8.66699 -6 35 -68.667 79 -188h-32c-5.33301 0 -10.333 11 -15 33h-73c-11.333 -22 -18.333 -33 -21 -33h-26l-6 3l61 148h-17l-21 3v27c0.666992 4.66699 2.66699 7 6 7zM1575 266h76c39.333 0 62 -18.333 68 -55
v-21c0 -18 -12.667 -33.333 -38 -46v-3l38 -57v-6h-38l-41 57h-36v-51c0 -4 -1.66699 -6 -5 -6h-24c-4 0 -6 2 -6 6v51h-17c-4 0 -6 2 -6 6v25c0.666992 4 2.66699 6 6 6h11l6 -3v90c0.666992 4.66699 2.66699 7 6 7zM1930 266h23c4 -0.666992 6 -3 6 -7v-175
c0 -4 -2 -6 -6 -6h-23c-4 0 -6 2 -6 6v175c0.666992 4.66699 2.66699 7 6 7zM2085 266h24c3.33301 -0.666992 5 -3 5 -7v-175c0 -4 -1.66699 -6 -5 -6h-24c-4 0 -6 2 -6 6v175c0.666992 4.66699 2.66699 7 6 7zM2167 266l76 -0.000976562c47.333 0 71 -22.333 71 -67
c0 -25.333 -13.667 -43.666 -41 -54.999c0 -1.33301 13.667 -22.333 41 -63l-6 -3h-32c-13.333 10.667 -26 29.667 -38 57h-41v-51c0 -4 -2 -6 -6 -6h-24c-4 0 -6 2 -6 6v51h-14c-4 0 -6 2 -6 6v25c0.666992 4 2.66699 6 6 6h6l5 -3l3 6v84c0.666992 4.66699 2.66699 7 6 7z
M710.004 180.999l-0.000976562 -15c6.66699 -38.667 25.334 -58 56.001 -58h6c32.667 0 52 22.333 58 67c0 29.333 -20.333 49.333 -61 60c-39.333 -9.33301 -59 -27.333 -59 -54zM1607 231.999l-3 -6v-54h36c1.33301 0 2 -1 2 -3l6 3c2 0 3 -1 3 -3
c22 2.66699 33 11.667 33 27v15c0 9.33301 -13 16.333 -39 21l-5 -3h-27zM2217 228.999h-20v-54l2 -6l6 3h47c18 2.66699 27 11.667 27 27c0 22 -14.667 33 -44 33zM1455 204.999l-21 -61h47c-14 40 -22.667 60.333 -26 61zM2021 110.999c11.333 0 17.001 -7 17.001 -21
c-4.66699 -12 -11.334 -18 -20.001 -18c-12 4 -18 12 -18 24c2.66699 10 9.66699 15 21 15zM842.004 -13.001l18.0029 0.000976562c4 -0.666992 6 -2.66699 6 -6v-82c0 -22.667 10.667 -34 32 -34c10 3.33301 15 10.666 15 21.999v27c0 4 1.66699 6 5 6h18
c2.66699 0 6.66699 -15 12 -45c8 -6.66699 15.667 -10 23 -10c5.33301 0.666992 10.333 6 15 16l-3 6v27c0.666992 4 2.66699 6 6 6h20c2.66699 0 6.66699 -16 12 -48l15 -4c7.33301 3.33301 11 10.666 11 21.999v21c0.666992 4 2.66699 6 6 6h15
c4.66699 0 8.66699 -13 12 -39l11 -10h9c1.33301 0 4.33301 3.33301 9 10c-8 20.667 -12 32.667 -12 36c11.333 8 19.333 12 24 12c11.333 -17.333 17 -32.333 17 -45v-6c0 -28.667 -13.667 -43 -41 -43c-8 0 -18.667 6 -32 18c-6.66699 -12 -15.334 -18 -26.001 -18h-6
c-8.66699 0 -18.667 5 -30 15c0 -6 -8.66699 -11 -26 -15h-15c-8 0 -17.667 5 -29 15c-4.66699 -10 -12.334 -15 -23.001 -15h-24c-6.66699 0 -13.334 3 -20.001 9c0 -37.333 -13.667 -61.666 -41 -72.999l-21 -3h-20c-28 0 -45.667 23.333 -53 70
c3.33301 26.667 8 40 14 40c6.66699 -4.66699 12.667 -7 18 -7l-3 -42c0 -14.667 12.667 -23.667 38 -27c27.333 0 41 14 41 42l-3 6v134c0.666992 4 2.66699 6 6 6zM1320.01 -13c2 0 2.99902 -1.00098 2.99902 -3.00098l6 3c3.33301 -2 7.33301 -3 12 -3v-70
c0 -32.667 7.66699 -49 23 -49h9c5.33301 0.666992 10 6 14 16l-2 6v21c0 4 1.66699 6 5 6h21c4 0 7 -13 9 -39h6c28.667 40 55 60 79 60h3c20.667 0 33.334 -15 38.001 -45v-22l20 -3h24c-8 8.66699 -12 17 -12 25v12c0 16 10.667 26 32 30h9c25.333 -2 38 -15 38 -39
c0 -1.33301 -4 -10.666 -12 -27.999h18c14.667 0 22.334 3.33301 23.001 10v106c0.666992 4 2.66699 6 6 6h3c2 0 3 -1 3 -3l6 3h6c4 -0.666992 6 -2.66699 6 -6v-116c-3.33301 -22 -14 -33 -32 -33h-33c-10 0 -21.667 4 -35 12c-13.333 -8 -25 -12 -35 -12h-26
c-7.33301 0 -16.333 4 -27 12c0 -5.33301 -7.66699 -9.33301 -23 -12h-65c-12 0 -22.667 5 -32 15h-3c0 -10 -8.66699 -15 -26 -15h-18c-6.66699 0 -13.334 3 -20.001 9c-3.33301 -48.667 -19 -73 -47 -73c0 -2 -4 -3 -12 -3h-18c-36.667 6.66699 -55 26 -55 58v21
c2 20.667 5.66699 31 11 31l21 -10c-4 -14 -6 -26 -6 -36c0 -16.667 12.667 -26.667 38 -30c27.333 0 41 11 41 33v149c0.666992 4 2.66699 6 6 6zM1493.01 -13.001c4.66699 0 8.66699 -1 12 -3c3.33301 2 6 3 8 3l3 -6v-22c0 -4 -1.66699 -6 -5 -6h-18c-4 0 -6 2 -6 6v22
c0.666992 4 2.66699 6 6 6zM1739.01 -13.001h6c2 0 3 -1 3 -3l6 3h6c4 -0.666992 6 -2.66699 6 -6v-143c0 -4 -2 -6 -6 -6h-21c-4 0 -6 2 -6 6v143c0.666992 4 2.66699 6 6 6zM1988.01 -13.001h6c4 -0.666992 6 -2.66699 6 -6v-143c0 -4 -2 -6 -6 -6h-20c-4 0 -6 2 -6 6v146
zM2346.01 -13.001h18c3.33301 -0.666992 5 -2.66699 5 -6v-143c0 -4 -1.66699 -6 -5 -6h-18c-4 0 -6 2 -6 6v143c0.666992 4 2.66699 6 6 6zM2542.01 -13.001l6 -0.000976562c2 0 3 -1 3 -3l6 3c4 -0.666992 6 -2.66699 6 -6v-82c22.667 24 42.334 36 59 36h5
c20 0 33 -16 39 -48v-3c-4.66699 -34.667 -20.334 -52 -47 -52h-115c-6.66699 0 -14.334 4 -23 12h-3c-10 -25.333 -40.333 -50.666 -91 -75.999c-8 14.667 -12 24 -12 28c34.667 20 59.334 39 74 57v15c0 4 -5 17.333 -15 40c12 8 20.667 12 26 12h3
c12 -36.667 29.667 -55 53 -55h3c8.66699 4 13.667 8.33301 15 13v100c0 2.66699 2.66699 5.66699 8 9zM1607.01 -25.002h18c4 -0.666992 6 -3 6 -7v-21c0 -4 -2 -6 -6 -6c-2 0 -3 1 -3 3l-6 -3h-9c-4 0 -6 2 -6 6v21c0.666992 4.66699 2.66699 7 6 7zM2202.01 -62.002
l9 -0.000976562c22.667 0 59 -1 109 -3c2 -4 3 -7 3 -9c0 -18 -10 -27 -30 -27c-60.667 -27.333 -91 -55.666 -91 -84.999c6.66699 -26 22.334 -39 47 -39c10 0 27.667 4 53 12c4.66699 0 9.66699 -9.33301 15 -28c-20 -12 -39.667 -18 -59 -18h-20
c-40.667 0 -63.334 24.333 -68 73c0 34 23.333 63.333 70 88v3h-14c-16.667 -2 -30.334 -3 -41 -3l-9 15v6c0 6 8.66699 11 26 15zM268.006 -65.0029c15.333 -26 23 -43 23 -51v-6c0 -34 -31.333 -66.333 -94 -97c-7.33301 10.667 -11 19.667 -11 27v3
c30.667 12.667 55 31.667 73 57v4c0 6 -5 22 -15 48zM646.006 -74.0029c11.333 -19.333 17.002 -35.3311 17.002 -47.998v-3c0 -28.667 -12.667 -43 -38 -43c-10.667 0 -22.334 5 -35.001 15c-10 -10 -18.667 -15 -26 -15h-6c-8.66699 0 -18.334 5 -29.001 15
c-10.667 -10 -19.667 -15 -27 -15h-14c-8.66699 0 -18.667 5 -30 15c-4.66699 -10 -12.334 -15 -23.001 -15h-38c0 -24.667 -27.333 -51 -82 -79h-9l-12 25c44.667 22.667 67 40.667 67 54c-3.33301 0 -5 1 -5 3l-6 -3c-27.333 7.33301 -41 23.666 -41 48.999v3
c6 22 16.667 33 32 33h6c33.333 -6.66699 50 -24 50 -52h14c18 0 27 6.33301 27 19l-3 6v3c0 2 1 3 3 3l-3 6v12c0.666992 4 2.66699 6 6 6h8c2 0 3 -1 3 -3l6 3h3c4 -0.666992 6 -2.66699 6 -6v-21c0 -18.667 9.66699 -28 29 -28c8 3.33301 12 6.66602 12 9.99902v39
c0.666992 4 2.66699 6 6 6h20c2.66699 0 6.66699 -16 12 -48l15 -4c4 0 8 7.33301 12 22l-3 6v6c0 2 1 3 3 3l-3 6c0.666992 4 2.33398 6 5.00098 6h18c2.66699 0 7.66699 -15 15 -45l14 -4h3c4 0 6 2.33301 6 7v3c0 4.66699 -3 16.667 -9 36c11.333 8 19.333 12 24 12z
M2073.01 -74.001h3c2 0 3 -1 3 -3l6 3h12c4 -0.666992 6 -2.66699 6 -6v-24c0 -4 -2 -6 -6 -6h-24c-3.33301 0 -5 2 -5 6v24c0 4 1.66699 6 5 6zM1930.01 -77.001c13.333 -20.667 20.002 -35.667 20.002 -45v-16c-2.66699 -20 -12.334 -30 -29.001 -30h-47
c-10.667 -19.333 -20.334 -33.333 -29.001 -42c-19.333 -18 -40 -31.333 -62 -40c-2 2.66699 -6.66699 12 -14 28c36.667 18 59 36 67 54c-35.333 0 -53 15.333 -53 46v6c0 17.333 11.667 29.333 35 36c23.333 0 41 -18.333 53 -55h32l15 3v4c0 6.66699 -5 17.667 -15 33
c9.33301 7.33301 18.333 13.333 27 18zM1455.01 -135.001h26c23.333 0 35 7.33301 35 22v6c-2 6 -7.66699 9 -17 9c-12 0 -26.667 -12.333 -44 -37zM1604.01 -104.001v-6c0 -3.33301 4 -7.33301 12 -12c3.33301 0 7.33301 4 12 12v6c0 4 -2 6 -6 6h-12
c-4 -0.666992 -6 -2.66699 -6 -6zM2575.01 -135.001h35c14.667 0 23.334 4.33301 26 13v15c-2 6 -7.66699 9 -17 9c-11.333 0 -26 -12.333 -44 -37zM338.01 -116.001v-9c0 -4.66699 6 -8 18 -10c3.33301 2 6 3 8 3v4c-5.33301 10 -11 15 -17 15c-4 -2 -7 -3 -9 -3z
M1810.01 -122.001c0 -6.66699 6.66699 -11 20 -13c4 2 7 3 9 3c-2.66699 8.66699 -7.66699 15 -15 19h-6c-1.33301 0 -4 -3 -8 -9zM2073.01 -135.001h24c4 0 6 -2 6 -6l-3 -6c2 -3.33301 3 -7.33301 3 -12c-2 0 -3 -1 -3 -3c2 0 3 -1 3 -3l-6 -3h-24c-3.33301 0 -5 2 -5 6
v21c0 4 1.66699 6 5 6zM432.01 -183.001h14c4 -0.666992 6 -2.66699 6 -6v-15c0 -4 -2 -6 -6 -6h-14c-4 0 -6 2 -6 6v15c0.666992 4 2.66699 6 6 6zM464.01 -183.001h15c4 -0.666992 6 -2.66699 6 -6v-15c0 -4 -2 -6 -6 -6h-15c-4 0 -6 2 -6 6v15c0.666992 4 2.66699 6 6 6z
M904.01 -189.001h17c4 -0.666992 6 -2.66699 6 -6v-15c0 -4 -2 -6 -6 -6h-17c-4 0 -6 2 -6 6v15c0.666992 4 2.66699 6 6 6zM939.01 -189.001h15c3.33301 -0.666992 5 -2.66699 5 -6v-15c0 -4 -1.66699 -6 -5 -6h-15c-4 0 -6 2 -6 6v15c0.666992 4 2.66699 6 6 6z
M1912.01 -189.001h18c4 -0.666992 6 -2.66699 6 -6v-18c0 -4 -2 -6 -6 -6h-18c-4 0 -6 2 -6 6v18c0.666992 4 2.66699 6 6 6zM446.01 -213.001h17.999c4 -0.666992 6 -2.66699 6 -6v-16c0 -2.66699 -3 -5.66699 -9 -9h-15c-3.33301 0 -5 2 -5 6v19
c0.666992 4 2.33398 6 5.00098 6zM106.009 -313.001v-3l6 3c22.667 0 40.334 -8.33301 53.001 -25v-3c0 -2.66699 -5 -7.66699 -15 -15h-5c-11.333 10 -23.333 15 -36 15h-6c-15.333 0 -23 -7 -23 -21v-3c0 -4.66699 26.333 -12.667 79 -24c9.33301 -12 14.333 -23 15 -33
c0 -28 -19.667 -45.333 -59 -52h-14c-20.667 0 -38.334 9 -53.001 27v3c0 3.33301 5.66699 9.33301 17 18c18 -14 33.667 -21 47 -21c20 0 30 8.33301 30 25v3c-4 5.33301 -29.667 13.333 -77 24c-11.333 8 -17 20 -17 36c0 22.667 19.333 38 58 46zM593.009 -313.001
c25.333 0 44.001 -8.33398 56.001 -25.001v-3c0 -2.66699 -6 -8.66699 -18 -18c-11.333 12 -24 18 -38 18h-6c-14.667 -2 -22.334 -6 -23.001 -12v-12c0 -4 25.333 -12 76 -24c8 -6 14 -17 18 -33c0 -27.333 -19.667 -44.666 -59 -51.999h-9c-26.667 0 -46.334 9 -59.001 27
v3c0 3.33301 6 9.33301 18 18c14.667 -14 31.334 -21 50.001 -21c17.333 4.66699 26 13 26 25c0 8 -26.333 17 -79 27c-10 11.333 -15 23.333 -15 36c8 30.667 28.667 46 62 46zM1036.01 -313.002c52.667 -9.33301 79.001 -34.666 79.001 -75.999v-3
c-7.33301 -54.667 -31 -82 -71 -82h-8c-52.667 7.33301 -79 32.666 -79 75.999c7.33301 56.667 33.666 85 78.999 85zM1367.01 -313.002c48.667 -8 72.998 -30.332 72.998 -66.999c-6 -40.667 -22.667 -61 -50 -61h-8c-4 0 -6 3 -6 9c-10 -6 -18 -9 -24 -9
c-21.333 3.33301 -32 14.666 -32 33.999v12c6.66699 28 19.334 42 38.001 42h9c6.66699 0 13.334 -3 20.001 -9c0.666992 4 2.66699 6 6 6h15c0 -9.33301 -4 -30.333 -12 -63h9c6 0 11 9 15 27v9c0 27.333 -16.667 43.333 -50 48h-6c-33.333 0 -52 -21 -56 -63v-3
c9.33301 -36.667 29 -55 59 -55c22 4 37.667 10 47 18h14v-6c-12.667 -20 -33 -30 -61 -30h-9c-36.667 0 -61 26.333 -73 79c0 44.667 27.333 72 82 82zM1971.01 -313.001v-3l6 3c48.667 -12 73 -35.333 73 -70v-21c0 -36 -23.333 -59.333 -70 -70h-15
c-36 0 -59.333 23.333 -70 70v18c0 38 25.333 62.333 76 73zM2147.01 -313.001c40.667 0 66 -27.332 76 -81.999v-3c0 -43.333 -26.333 -68.666 -79 -75.999h-9c-46.667 11.333 -70 35.666 -70 72.999v15c0 39.333 27.333 63.666 82 72.999zM2372.01 -313
c43.333 -7.33301 65.001 -19.667 65.001 -37l-21 -15c-14 14 -25.667 21 -35 21h-6c-31.333 -6 -47 -20 -47 -42v-15c0 -24 16.667 -39.333 50 -46c15.333 3.33301 28 10.333 38 21c11.333 -8 18.333 -12 21 -12v-6c-13.333 -20 -34 -30 -62 -30
c-52.667 6 -79 33.333 -79 82c11.333 52.667 36.666 79 75.999 79zM2528.01 -313.001c54.667 -9.33301 82 -35.667 82 -79c-6.66699 -54.667 -33 -82 -79 -82h-9c-46.667 12 -70 36.333 -70 73v6c6.66699 54.667 32 82 76 82zM206.01 -316.002h103
c4 -0.666992 6 -2.66699 6 -6v-19c0 -4 -2 -6 -6 -6h-79v-30h52c4 -0.666992 6 -2.66699 6 -6v-18c0 -4 -2 -6 -6 -6h-52v-37h79c4 -0.666992 6 -2.66699 6 -6v-15c0 -4 -2 -6 -6 -6h-103c-4 0 -6 2 -6 6v58c-11.333 0 -17 2 -17 6v15c0 6 5.66699 9 17 9v55
c0.666992 4 2.66699 6 6 6zM344.01 -316.002l6 -3l17 3l3 -6v-143c0 -4 -2 -6 -6 -6h-20c-4 0 -6 2 -6 6v143c0.666992 4 2.66699 6 6 6zM408.01 -316.002h3c2 0 3 -1 3 -3l6 3c3.33301 -2 7.33301 -3 12 -3v-125h56v31c0 4 1.66699 6 5 6h18c4 -0.666992 6 -2.66699 6 -6
v-52c0 -4 -2 -6 -6 -6h-103c-4 0 -6 2 -6 6v143c0.666992 4 2.66699 6 6 6zM690.01 -316.002h102c4 -0.666992 6 -2.66699 6 -6v-16c0 -2.66699 -3 -5.66699 -9 -9h-76v-30h38l21 -3v-21c0 -4 -2 -6 -6 -6h-53v-37h79c4 -0.666992 6 -2.66699 6 -6v-15c0 -4 -2 -6 -6 -6
h-102c-4 0 -6 2 -6 6v58c-12 0 -18 2 -18 6v18c0.666992 4 2.66699 6 6 6c2 0 3 -1 3 -3c4 2 7 3 9 3v55c0.666992 4 2.66699 6 6 6zM830.01 -316.002h41.999c50.667 0 76 -17.333 76 -52v-6c-4 -32 -19.667 -48 -47 -48h-47v-43c0 -4 -2 -6 -6 -6h-18c-3.33301 0 -5 2 -5 6
v43c-12 0 -18 2 -18 6v15c0 4 6 6 18 6v73c0.666992 4 2.33398 6 5.00098 6zM1147.01 -316.002h50c44.667 0 67 -17.333 67 -52v-3c0 -21.333 -10.667 -36.333 -32 -45l32 -52l-6 -3h-23l-38 49h-26v-43c0 -4 -2 -6 -6 -6h-18c-4 0 -6 2 -6 6v43c-11.333 0 -17 2 -17 6v15
c0 4 5.66699 6 17 6v73c0.666992 4 2.66699 6 6 6zM1458.01 -316.002h8.99902c2 0 3 -1 3 -3l5 3c12.667 0 26.334 -18.333 41.001 -55l6 -3c18 34 30.667 53.333 38 58h21l6 -3c-33.333 -54.667 -50 -85 -50 -91v-55c0 -4 -2 -6 -6 -6h-18c-3.33301 0 -5 2 -5 6v61
c-33.333 50.667 -50 80 -50 88zM1613.01 -316.002l50 0.000976562c6 0 27.333 -50.667 64 -152v-3h-23c-5.33301 0 -10.333 9 -15 27h-61c-4.66699 -18 -9.66699 -27 -15 -27h-20l-6 3c33.333 75.333 50 115.666 50 120.999h-24c-4 0 -6 2 -6 6v19c0.666992 4 2.66699 6 6 6
zM1769.01 -316.001c2.66699 0 5.33301 -3 8 -9v-52h47c2 0 3 -1 3 -3c3.33301 2 8.33301 3 15 3v55c0.666992 4 2.66699 6 6 6h3l20 -3v-146c0 -4 -2 -6 -6 -6h-17c-4 0 -6 2 -6 6v58h-65v-58c0 -4 -2 -6 -6 -6h-17c-4 0 -6 2 -6 6v58c-12 0 -18 2 -18 6v21c12 0 18 2 18 6
v55zM2636.01 -316.001c37.333 -42.667 57 -64 59 -64h3l61 64l3 -6v-143c0 -4 -2 -6 -6 -6h-17c-4 0 -6 2 -6 6v85c-21.333 -24 -33 -36 -35 -36h-3l-35 36v-85c0 -4 -2 -6 -6 -6h-18c-4 0 -6 2 -6 6v143c0.666992 4 2.66699 6 6 6zM989.007 -386.001v-11.999
c5.33301 -32.667 21 -49 47 -49c31.333 7.33301 47 21.666 47 42.999v18c0 22.667 -15.667 36.667 -47 42c-31.333 -5.33301 -47 -19.333 -47 -42zM1924.01 -395c6.66699 -34.667 22.334 -52 47.001 -52c33.333 6 50 23.333 50 52v6c-7.33301 30 -22 45 -44 45h-9
c-24.667 0 -39.334 -17 -44.001 -51zM2094.01 -395c8 -34.667 23.668 -52 47.001 -52c33.333 6.66699 50 22 50 46v9c-4.66699 32 -20.334 48 -47.001 48h-6c-23.333 0 -38 -17 -44 -51zM2481.01 -398c8.66699 -32.667 24.334 -49 47 -49c33.333 6.66699 50 22 50 46v9
c-5.33301 32 -21 48 -47 48h-6c-29.333 -6 -44 -24 -44 -54zM854.008 -347v-48h35c19.333 0 29 8 29 24s-7.66699 24 -23 24h-41zM1171.01 -347v-48h35c19.333 0 29 8 29 24s-7.66699 24 -23 24h-41zM1657.01 -368l-17 -48h38v3c-12 26.667 -18 41.667 -18 45h-3z
M1343.01 -401v-6c0 -3.33301 3 -6.33301 9 -9h6c11.333 0 19.333 8 24 24c-1.33301 10 -7.33301 15 -18 15h-6c-10 -5.33301 -15 -13.333 -15 -24zM2255.01 -444h9c4 -0.666992 8 -5.66699 12 -15c-4 -9.33301 -8 -14.333 -12 -15h-9c-2.66699 0 -6.66699 4 -12 12v6
c0 3.33301 4 7.33301 12 12z" />
    <glyph glyph-name="uniE818" unicode="&#x651;&#x64b;" 
d="M457 1788l-2 -88l-360 3v85h362zM461 1918l2 -87l-368 2v90zM477 1656l-0.000976562 -87c0 -28 -8.33301 -52.333 -25 -73c-22 -26 -53 -39 -93 -39c-42.667 2 -69 12.667 -79 32c-9.33301 -17.333 -37.333 -26 -84 -26c-41.333 -3.33301 -72.666 8.33398 -93.999 35.001
c-16.667 20 -25 43.667 -25 71v87h98v-70c4 -30.667 14.667 -45.667 32 -45c12.667 1.33301 19 25.666 19 72.999v42h99v-42c5.33301 -48.667 18 -73 38 -73c14.667 0 19.667 15.667 15 47l2 68h97z" />
    <glyph glyph-name="uniFC5E" unicode="&#x651;&#x64c;" arabic-form="isolated" 
d="M534 1539v-88c0 -28.667 -8 -53 -24 -73c-22.667 -26 -53.667 -39 -93 -39c-43.333 1.33301 -70 12.333 -80 33c-9.33301 -18 -37 -27 -83 -27c-42 -3.33301 -73.667 8.33398 -95 35.001c-16 20 -24 43.667 -24 71v88h97v-71c4.66699 -30.667 15.667 -45.334 33 -44.001
c12 0.666992 18 24.667 18 72v43h100v-43c4.66699 -48 17 -72 37 -72c14.667 0 19.667 15.333 15 46l3 69h96zM440 1857c-30.667 0 -46 -18 -46 -54c0 -37.333 15.333 -56 46 -56c31.333 0 47 18.667 47 56c0 36 -15.667 54 -47 54zM257 1857c-30.667 0 -46 -18 -46 -54
c0 -37.333 15.333 -56 46 -56s46 18.667 46 56c0 36 -15.333 54 -46 54zM351 1704c2.66699 6 2.66602 8 -0.000976562 6l-7 -7l-3 -7l-174 -124l-32 63l65 46c-8.66699 1.33301 -22.667 12 -42 32c-24.667 24.667 -37 54 -37 88c0 83.333 44.667 125 134 125
c42.667 0 73.334 -7.66699 92.001 -23c18.667 15.333 49.334 23 92.001 23c90.667 0 136 -41.667 136 -125c0 -34 -12.667 -63.333 -38 -88l-187 -141l-31 63l64 46c-8 1.33301 -21 11 -39 29c-0.666992 1.33301 1.66602 -0.666992 6.99902 -6z" />
    <glyph glyph-name="uniFC5F" unicode="&#x651;&#x64d;" arabic-form="isolated" 
d="M487 1915l-0.00195312 -89c0 -28 -8.33301 -52 -25 -72c-21.333 -26.667 -52.666 -40 -93.999 -40c-42 2.66699 -68 13.667 -78 33c-9.33301 -18 -37.333 -27 -84 -27c-41.333 -3.33301 -72.666 8.66699 -93.999 36c-16.667 20.667 -25 44 -25 70v89h98v-71
c4 -31.333 14.667 -46 32 -44c12.667 0 19 24 19 72v43h99v-43c5.33301 -48 18 -72 38 -72c14.667 0 19.667 15.333 15 46l2 69h97zM458.998 1564l2 -88l-364 3v85h362zM457.998 1688v-88l-357 -2l-6 90h363z" />
    <glyph glyph-name="uniFC60" unicode="&#x651;&#x64e;" horiz-adv-x="1" arabic-form="isolated" 
d="M476 1751l-0.00195312 -87c0 -29.333 -8.33301 -54 -25 -74c-21.333 -26.667 -52.666 -40 -93.999 -40c-42 2.66699 -68 14 -78 34c-9.33301 -18 -37.333 -27 -84 -27c-41.333 -3.33301 -72.666 8.33398 -93.999 35.001c-16.667 21.333 -25 45.333 -25 72v87h98v-71
c4 -30.667 14.667 -45.334 32 -44.001c12.667 0.666992 19 24.667 19 72v43h99v-43c5.33301 -48 18 -72 38 -72c14.667 0 19.667 15.333 15 46l2 69h97zM459.998 1870l2 -77h-366l2 77h362z" />
    <glyph glyph-name="uniFC61" unicode="&#x651;&#x64f;" arabic-form="isolated" 
d="M266 1828c0 -38 15.667 -57 47 -57c30 0 45 19 45 57c0 36.667 -15 55 -45 55c-31.333 0 -47 -18.333 -47 -55zM401 1729l-4 -8l-174 -123l-34 62l66 46c-8 1.33301 -21 11 -39 29c-26.667 26.667 -40 57 -40 91c0 84 45 126 135 126s135 -42 135 -126
c0 -34 -12 -63 -36 -87zM495 1572l-0.000976562 -88c0 -28.667 -8.33301 -53.334 -25 -74.001c-22 -25.333 -53 -38 -93 -38c-42.667 1.33301 -69 12 -79 32c-9.33301 -17.333 -37.333 -26 -84 -26c-41.333 -3.33301 -72.666 8.33398 -93.999 35.001
c-16.667 20.667 -25 44.334 -25 71.001v88h98v-71c4 -30.667 14.667 -45.667 32 -45c12.667 1.33301 19 25.666 19 72.999v43h99v-44c5.33301 -48 18 -72 38 -72c14.667 0 19.667 15.667 15 47l2 69h97z" />
    <glyph glyph-name="uniFC62" unicode="&#x651;&#x650;" horiz-adv-x="1" arabic-form="isolated" 
d="M494 1880l-0.00195312 -88.999c0 -28.667 -8.33301 -53 -25 -73c-21.333 -26.667 -52.666 -40 -93.999 -40c-42 2.66699 -68 14 -78 34c-9.33301 -18 -37.333 -27 -84 -27c-41.333 -3.33301 -72.666 8.66699 -93.999 36c-16.667 20.667 -25 44 -25 70v89h98v-72
c4 -30.667 14.667 -45.334 32 -44.001c12.667 0.666992 19 24.667 19 72v44h99v-44c5.33301 -48 18 -72 38 -72c14.667 0 19.667 15.333 15 46l2 70h97zM478.998 1651l2 -77h-365l3 77h360z" />
    <glyph glyph-name="uniFD3F" unicode="&#x652;&#x64b;" horiz-adv-x="909" 
d="M826 243c-54 73.333 -105.999 133.666 -155.999 180.999c-13.333 12.667 -30 26.334 -50 41.001c-8 -10.667 -18.667 -21 -32 -31c12 -17.333 26 -34.666 42 -51.999c48.667 -51.333 108.667 -103.333 180 -156c-82.667 14.667 -158.667 22 -228 22
c-34.667 -138 -95.334 -260.333 -182.001 -367l-242 -300c8.66699 72 17.334 154.333 26.001 247c1.33301 32.667 -1.33398 58 -8.00098 76c-10.667 29.333 -34.667 65.333 -72 108c84.667 0 144.667 12.667 180 38c43.333 29.333 83.333 95.333 120 198
c-61.333 0 -133.333 -7.33301 -216 -22c72.667 54.667 132.667 106.667 180 156c15.333 16.667 29.333 34 42 52c-12.667 8.66699 -23.334 19 -32.001 31c-20 -14 -37.333 -27.667 -52 -41c-50.667 -47.333 -103 -107.666 -157 -180.999c15.333 83.333 23 162.333 23 237
v148c0 76 -7.66699 155.333 -23 238c56 -75.333 108.333 -136 157 -182c12 -10.667 29.333 -24 52 -40c9.33301 12 20 22.667 32 32c-12.667 17.333 -26.667 34.666 -42 51.999c-47.333 49.333 -107.333 101.333 -180 156c85.333 -15.333 157.333 -23 216 -23
c-36.667 102 -76.667 168 -120 198c-35.333 24.667 -95.333 37 -180 37c37.333 44 61.333 80.667 72 110c6.66699 17.333 9.33398 42.666 8.00098 75.999l-26 247l242 -301c86.667 -106.667 147.334 -229 182.001 -367c66 0 142 7.66699 228 23
c-71.333 -53.333 -131.333 -105.333 -180 -156c-16 -16 -30.667 -33.333 -44 -52c13.333 -9.33301 24.666 -20 33.999 -32c20 14 36.667 27.333 50 40c50 48 102 108.667 156 182c-14.667 -86 -22 -165.333 -22 -238v-148c0 -72 7.33301 -151 22 -237zM608.001 555
c0 29.333 -10.833 54.833 -32.5 76.5s-47.167 32.5 -76.5 32.5c-30 0 -55.667 -10.833 -77 -32.5s-32 -47.167 -32 -76.5c0 -30 10.5 -55.667 31.5 -77s46.833 -32 77.5 -32c29.333 0 54.833 10.667 76.5 32s32.5 47 32.5 77z" />
    <glyph glyph-name="uniFDF2" unicode="&#xfedf;&#xfee0;&#xfeea;" horiz-adv-x="1820" arabic-form="isolated" 
d="M492 403c-4 28.667 -11.332 72.002 -21.999 130.002c-10.667 -12.667 -59.334 -44.334 -146.001 -95.001c16.667 -12.667 43.667 -21.334 81 -26.001c54 -6 83 -9 87 -9zM641.001 1.00195c-43.333 0 -77.668 38 -103.001 114l-49 161l-56 -176h-68
c-47.333 0 -106.666 21.167 -177.999 63.5s-107 85.166 -107 128.499c0 36.667 16.667 92.834 50 168.501s63 128.834 89 159.501c10.667 10.667 47 25.167 109 43.5s105.333 47.666 130 87.999l118 186.5l-3 -65c-4.66699 -235.333 22 -381.333 80 -438
c3.33301 -2.66699 25 -13.334 65 -32.001h319c-8.66699 140.667 -25.667 400 -51 778l3 46c19.333 30.667 75.333 91.334 168 182.001l62 -1006h356c0 4 -17.333 276.333 -52 817c-2 24.667 56.667 95 176 211l39 -515c17.333 -208 26 -379 26 -513v-402h-1123z" />
    <glyph glyph-name="uniFEF5" unicode="&#xfedf;&#xfe82;" horiz-adv-x="857" arabic-form="isolated" 
d="M776 911c2.66699 -122 -29.667 -229.668 -97 -323.001c64.667 -84 97 -146.667 97 -188v-399h-531v402c128.667 43.333 214.667 103 258 179l-434 502c26.667 74 55.667 145.333 87 214c132 -136 273 -319.667 423 -551c10.667 10.667 16 44.334 16 101.001
c0 27.333 -3.33301 70.833 -10 130.5s-10 104.5 -10 134.5c0 94 16.333 160 49 198l145 133zM632.999 408.999c-14.667 30.667 -35.333 54.667 -62 72l-87 -72h149zM562 1659c-12 -70.667 -42.499 -131.167 -91.499 -181.5s-107.167 -75.5 -174.5 -75.5
c-24.667 0 -63.334 6.33301 -116.001 19s-91.667 19 -117 19c-64 0 -132.667 -25.333 -206 -76c38.667 160 136.334 240 293.001 240c22 0 57.667 -5.33301 107 -16s86 -16 110 -16c63.333 0 125.666 27 186.999 81z" />
    <glyph glyph-name="uniFEF6" unicode="&#xfee0;&#xfe82;" horiz-adv-x="1268" arabic-form="final" 
d="M1299 1l-65.0039 0.000976562c-120 0 -194.333 74.333 -223 223l-25 367l-59 -269c-28.667 -104.667 -66.667 -181.667 -114 -231c-60 -64 -144.333 -96 -253 -96c-75.333 0 -241.666 21.333 -498.999 64c86.667 30.667 203.834 94.667 351.501 192
s251.167 179 310.5 245c-88.667 220.667 -179.667 373.334 -273 458.001c-36.667 -2 -80 13.333 -130 46l-114 87v319c149.333 -56 283.166 -164.833 401.499 -326.5s182.5 -322.167 192.5 -481.5c50 41.333 87 141.666 111 300.999c10.667 112.667 22.334 226 35.001 340
l159 179c4.66699 -49.333 11.334 -207 20.001 -473c6.66699 -196.667 25.334 -352.667 56.001 -468c10 -40.667 35.667 -65.334 77 -74.001h41v-402zM657.996 1795c-12 -70.667 -42.4971 -131 -91.4971 -181s-107.167 -75 -174.5 -75c-24.667 0 -63.334 6.33301 -116.001 19
s-91.667 19 -117 19c-64.667 0 -133.334 -25.333 -206.001 -76c38 159.333 135.667 239 293 239c22 0 57.667 -5.33301 107 -16s86 -16 110 -16c63.333 0 125.666 27 186.999 81z" />
    <glyph glyph-name="uniFEF7" unicode="&#xfedf;&#xfe84;" horiz-adv-x="857" arabic-form="isolated" 
d="M774 911c3.33301 -122 -28.667 -229.668 -96 -323.001c64 -84 96 -146.667 96 -188v-399h-530v402c128.667 43.333 214.667 103 258 179l-434 502c26.667 74 55.667 145.333 87 214c132 -136 273 -319.667 423 -551c10.667 10.667 16 44.334 16 101.001
c0 27.333 -3.5 70.833 -10.5 130.5s-10.5 104.5 -10.5 134.5c0 94 16.333 160 49 198l146 133zM632 408.999c-14.667 30.667 -35.333 54.667 -62 72l-87 -72h149zM358.001 1700c-2 -32.667 -14.334 -76 -37.001 -130c-53.333 -47.333 -130.666 -119.666 -231.999 -216.999
c-2.66699 6.66699 -4 13 -4 19c0 61.333 20.667 110 62 146c-30.667 11.333 -47 18.333 -49 21c-10.667 6 -16 20.667 -16 44c0 45.333 15.667 95.666 47 150.999s67.333 83 108 83c4.66699 -22 7 -39.333 7 -52c0 -8 -1.16699 -20.333 -3.5 -37s-3.5 -28 -3.5 -34
c-10 4 -20.333 6 -31 6c-20 0 -41.667 -16.333 -65 -49c16.667 -10.667 36 -16 58 -16c34 0 87 21.667 159 65z" />
    <glyph glyph-name="uniFEF8" unicode="&#xfee0;&#xfe84;" horiz-adv-x="1268" arabic-form="final" 
d="M1300 1l-65.002 0.00195312c-120.667 0 -195.334 74.333 -224.001 223c-8 123.333 -16.333 245.666 -25 366.999l-59 -269c-28 -104.667 -66 -181.667 -114 -231c-60 -64 -144.333 -96 -253 -96c-75.333 0 -241.666 21.333 -498.999 64
c86.667 30.667 203.834 94.667 351.501 192s251.167 179 310.5 245c-88.667 220.667 -179.334 373.334 -272.001 458.001c-37.333 -2 -80.666 13.333 -129.999 46l-114 87v319c148.667 -56 282.167 -164.833 400.5 -326.5s182.833 -322.167 193.5 -481.5
c49.333 41.333 86.333 141.666 111 300.999c10 112.667 21.333 226 34 340l159 179c5.33301 -49.333 12 -207 20 -473c6.66699 -196.667 25.334 -352.667 56.001 -468c10.667 -40.667 36.667 -65.334 78 -74.001h41v-402zM396.998 1827c-2 -32.667 -14.334 -76 -37.001 -130
c-53.333 -47.333 -130.666 -119.666 -231.999 -216.999c-2.66699 6.66699 -4 13 -4 19c0 61.333 20.667 110 62 146c-30.667 11.333 -47 18 -49 20c-10.667 6.66699 -16 21.667 -16 45c0 45.333 15.667 95.666 47 150.999s67.333 83 108 83c4.66699 -22 7 -39.333 7 -52
c0 -8.66699 -1.16699 -21.167 -3.5 -37.5s-3.5 -27.5 -3.5 -33.5c-10 4 -20.333 6 -31 6c-20 0 -41.667 -16.333 -65 -49c16.667 -10.667 36 -16 58 -16c34 0 87 21.667 159 65z" />
    <glyph glyph-name="uniFEF9" unicode="&#xfedf;&#xfe88;" horiz-adv-x="857" arabic-form="isolated" 
d="M774 911c3.33301 -122 -28.667 -229.668 -96 -323.001c64 -84 96 -146.667 96 -188v-399h-530v402c128.667 43.333 214.667 103 258 179l-434 502c26.667 74 55.667 145.333 87 214c132 -136 273 -319.667 423 -551c10.667 10.667 16 44.334 16 101.001
c0 27.333 -3.5 70.833 -10.5 130.5s-10.5 104.5 -10.5 134.5c0 94 16.333 160 49 198l146 133zM632 408.999c-14.667 30.667 -35.333 54.667 -62 72l-87 -72h149zM534.001 -187.001c-2 -33.333 -14.333 -76.666 -37 -129.999c-54 -48 -131.667 -121 -233 -219
c-2 7.33301 -3 14.333 -3 21c0 60 20.667 108.333 62 145c-30.667 10.667 -47 17 -49 19c-10.667 6.66699 -16 22 -16 46c0 45.333 15.667 95.5 47 150.5s67.333 82.5 108 82.5c4.66699 -20.667 7 -37.334 7 -50.001c0 -10 -1.16699 -22.833 -3.5 -38.5
s-3.5 -27.167 -3.5 -34.5c-10.667 5.33301 -21 8 -31 8c-20 0 -41.667 -16.667 -65 -50c16.667 -10 36 -15 58 -15c34 0 87 21.667 159 65z" />
    <glyph glyph-name="uniFEFA" unicode="&#xfee0;&#xfe88;" horiz-adv-x="1268" arabic-form="final" 
d="M1300 1l-65.002 0.00195312c-120.667 0 -195.334 74.333 -224.001 223c-8 123.333 -16.333 245.666 -25 366.999l-59 -269c-28 -104.667 -66 -181.667 -114 -231c-60 -64 -144.333 -96 -253 -96c-75.333 0 -241.666 21.333 -498.999 64
c86.667 30.667 203.834 94.667 351.501 192s251.167 179 310.5 245c-88.667 220.667 -179.334 373.334 -272.001 458.001c-37.333 -2 -80.666 13.333 -129.999 46l-114 87v319c148.667 -56 282.167 -164.833 400.5 -326.5s182.833 -322.167 193.5 -481.5
c49.333 41.333 86.333 141.666 111 300.999c10 112.667 21.333 226 34 340l159 179c5.33301 -49.333 12 -207 20 -473c6.66699 -196.667 25.334 -352.667 56.001 -468c10.667 -40.667 36.667 -65.334 78 -74.001h41v-402zM534.998 -186.998
c-2.66699 -33.333 -14.999 -76.666 -36.999 -129.999c-54 -48 -131.667 -121 -233 -219c-2 7.33301 -3 14.333 -3 21c0 60 20.667 108.333 62 145c-30.667 10.667 -47 17 -49 19c-10.667 6.66699 -16 22 -16 46c0 45.333 15.5 95.5 46.5 150.5s67.167 82.5 108.5 82.5
c4.66699 -20.667 7 -37.334 7 -50.001c0 -10 -1.16699 -22.833 -3.5 -38.5s-3.5 -27.167 -3.5 -34.5c-10.667 5.33301 -21 8 -31 8c-20.667 0 -42.334 -16.667 -65.001 -50c16.667 -10 36 -15 58 -15c34 0 87 21.667 159 65z" />
    <glyph glyph-name="uniFEFB" unicode="&#xfedf;&#xfe8e;" horiz-adv-x="857" arabic-form="isolated" 
d="M774 911c3.33301 -122 -28.667 -229.668 -96 -323.001c64 -84 96 -146.667 96 -188v-399h-530v402c128.667 43.333 214.667 103 258 179l-434 502c26.667 74 55.667 145.333 87 214c132 -136 273 -319.667 423 -551c10.667 10.667 16 44.334 16 101.001
c0 27.333 -3.5 70.833 -10.5 130.5s-10.5 104.5 -10.5 134.5c0 94 16.333 160 49 198l146 133zM632 408.999c-14.667 30.667 -35.333 54.667 -62 72l-87 -72h149z" />
    <glyph glyph-name="uniFEFC" unicode="&#xfee0;&#xfe8e;" horiz-adv-x="1268" arabic-form="final" 
d="M1300 1l-65.002 0.00195312c-120.667 0 -195.334 74.333 -224.001 223c-8 123.333 -16.333 245.666 -25 366.999l-59 -269c-28 -104.667 -66 -181.667 -114 -231c-60 -64 -144.333 -96 -253 -96c-75.333 0 -241.666 21.333 -498.999 64
c86.667 30.667 203.834 94.667 351.501 192s251.167 179 310.5 245c-88.667 220.667 -179.334 373.334 -272.001 458.001c-37.333 -2 -80.666 13.333 -129.999 46l-114 87v319c148.667 -56 282.167 -164.833 400.5 -326.5s182.833 -322.167 193.5 -481.5
c49.333 41.333 86.333 141.666 111 300.999c10 112.667 21.333 226 34 340l159 179c5.33301 -49.333 12 -207 20 -473c6.66699 -196.667 25.334 -352.667 56.001 -468c10.667 -40.667 36.667 -65.334 78 -74.001h41v-402z" />
    <glyph glyph-name="afii57410" unicode="&#x622;" horiz-adv-x="423" arabic-form="isolated" 
d="M340 309c0 -47.333 -21.667 -101.669 -65 -163.002c-34 -49.333 -69.333 -97.666 -106 -144.999l-56 1248c0 16 58.667 90 176 222c0 -16 10.667 -210 32 -582c12.667 -233.333 19 -426.666 19 -579.999zM560 1805c-12 -70.667 -42.499 -131.167 -91.499 -181.5
s-107.167 -75.5 -174.5 -75.5c-24.667 0 -63.334 6.33301 -116.001 19s-91.667 19 -117 19c-64 0 -132.667 -25.333 -206 -76c38.667 159.333 136.334 239 293.001 239c22 0 57.667 -5.16699 107 -15.5s86 -15.5 110 -15.5c63.333 0 125.666 26.667 186.999 80z" />
    <glyph glyph-name="afii57411" unicode="&#x623;" horiz-adv-x="419" arabic-form="isolated" 
d="M338 309c0 -47.333 -21.332 -101.669 -63.999 -163.002c-34.667 -49.333 -70.334 -97.666 -107.001 -144.999l-56 1248c0 16 58.667 90 176 222c0 -16 10.667 -210 32 -582c12.667 -233.333 19 -426.666 19 -579.999zM357.001 1836
c-2.66699 -32.667 -14.333 -75.666 -35 -128.999c-55.333 -48 -133.666 -120.333 -234.999 -217c-2 6 -3 12.333 -3 19c0 60.667 20.667 109 62 145c-30.667 12 -47 19 -49 21c-10.667 6 -16 20.667 -16 44c0 45.333 15.5 95.833 46.5 151.5s67.167 83.5 108.5 83.5
c4.66699 -22.667 7 -40.334 7 -53.001c0 -8 -1.16699 -20.167 -3.5 -36.5s-3.5 -27.833 -3.5 -34.5c-10.667 4 -21 6 -31 6c-20.667 0 -42.334 -16.333 -65.001 -49c16.667 -10 36 -15 58 -15c34 0 87 21.333 159 64z" />
    <glyph glyph-name="afii57412" unicode="&#x624;" horiz-adv-x="787" arabic-form="isolated" 
d="M717 186c0 -97.333 -28.3311 -219 -84.998 -365c-66.667 -169.333 -138 -261.333 -214 -276l-480 149c74 16.667 172 62.5 294 137.5s203.667 139.833 245 194.5c-8.66699 0 -24.334 -1 -47.001 -3s-39.334 -3 -50.001 -3c-143.333 0 -215 81.333 -215 244
c0 64 29.333 155.667 88 275c64.667 130 125 195 181 195c104.667 0 181.667 -69.333 231 -208c34.667 -98.667 52 -212 52 -340zM516.002 400c-28.667 49.333 -64.666 74 -107.999 74c-14.667 0 -32.834 -7.66699 -54.501 -23s-32.5 -30.333 -32.5 -45
c0 -28.667 30.333 -43 91 -43c53.333 0 88 12.333 104 37zM408.003 1307c-2 -32.667 -13.999 -75.666 -35.999 -128.999l-233 -217c-2 6 -3 12.333 -3 19c0 60.667 20.667 109 62 145c-30.667 12 -47 19 -49 21c-10.667 6 -16 20.667 -16 44
c0 45.333 15.5 95.833 46.5 151.5s67.167 83.5 108.5 83.5c4 -22.667 6 -40.334 6 -53.001c0 -8 -1 -20.167 -3 -36.5s-3 -27.833 -3 -34.5c-10.667 4 -21.334 6 -32.001 6c-20 0 -41.667 -16.333 -65 -49c17.333 -10.667 37 -16 59 -16c34 0 86.667 21.667 158 65z" />
    <glyph glyph-name="afii57413" unicode="&#x625;" horiz-adv-x="421" arabic-form="isolated" 
d="M340 309c0 -47.333 -21.332 -101.669 -63.999 -163.002c-34.667 -49.333 -70.334 -97.666 -107.001 -144.999l-56 1248c0 16 58.667 90 176 222c0 -16 10.667 -210 32 -582c12.667 -233.333 19 -426.666 19 -579.999zM386.001 -172.003
c-2.66699 -32.667 -14.333 -75.667 -35 -129c-55.333 -48 -133.666 -121 -234.999 -219c-2 7.33301 -3 14.333 -3 21c0 60 20.667 108.333 62 145c-30.667 10.667 -47 17 -49 19c-10.667 6.66699 -16 22 -16 46c0 45.333 15.5 95.5 46.5 150.5s67.167 82.5 108.5 82.5
c4.66699 -21.333 7 -38.333 7 -51c0 -9.33301 -1.16699 -21.833 -3.5 -37.5s-3.5 -27.167 -3.5 -34.5c-10.667 4.66699 -21 7 -31 7c-20.667 0 -42.334 -16.333 -65.001 -49c16.667 -10.667 36 -16 58 -16c34 0 87 21.667 159 65z" />
    <glyph glyph-name="afii57414" unicode="&#x626;" horiz-adv-x="1242" arabic-form="isolated" 
d="M444 1168l-42.999 -132.999c-86.667 -66.667 -162.334 -137 -227.001 -211l-3 13c0 61.333 19.667 112.666 59 153.999c-43.333 14.667 -65 34 -65 58c0 47.333 14.667 98 44 152c35.333 62.667 74.666 91.667 117.999 87v-123c-4.66699 0 -11.167 1 -19.5 3
s-15.166 3 -20.499 3c-10.667 0 -31.667 -15.667 -63 -47c14.667 -18 33.667 -27 57 -27c34.667 0 89 23.667 163 71zM1177 905.001c-38.667 -99.333 -68.3359 -177.999 -89.0029 -235.999c-29.333 64.667 -65.666 97 -108.999 97c-28.667 0 -61.5 -15.667 -98.5 -47
s-58.5 -60 -64.5 -86c14 -10.667 83 -31.334 207 -62.001c98.667 -25.333 148 -64 148 -116c0 -183.333 -62.833 -338.833 -188.5 -466.5s-279.5 -191.5 -461.5 -191.5c-129.333 0 -228.666 39.167 -297.999 117.5s-104 182.5 -104 312.5c0 108.667 26 230 78 364
c58 151.333 127 246.666 207 285.999c-94.667 -151.333 -142 -284.666 -142 -399.999c0 -88.667 35.667 -158.667 107 -210c62.667 -48 140.334 -72 233.001 -72c119.333 0 233 41.333 341 124l-178 65c-69.333 25.333 -104 67.666 -104 126.999
c0 88.667 38 195.334 114 320.001c84 138 165.667 207 245 207c66 0 118.333 -44.333 157 -133z" />
    <glyph glyph-name="afii57415" unicode="&#x627;" horiz-adv-x="420" arabic-form="isolated" 
d="M339 309c0 -47.333 -21.667 -101.669 -65 -163.002c-34 -49.333 -69.667 -97.666 -107 -144.999l-55 1248c0 16 58.667 90 176 222c0 -16 10.667 -210 32 -582c12.667 -233.333 19 -426.666 19 -579.999z" />
    <glyph glyph-name="afii57416" unicode="&#x628;" horiz-adv-x="1369" arabic-form="isolated" 
d="M1299 1h-1174v373c0 240 71.333 388 214 444c-60 -90.667 -90 -175 -90 -253c0 -46 15 -85.5 45 -118.5s67.667 -49.5 113 -49.5l740 6c-4.66699 26.667 -16.334 59 -35.001 97c-26.667 54.667 -42 87.334 -46 98.001l93 226c43.333 -45.333 78.333 -114.333 105 -207
c23.333 -82.667 35 -161.334 35 -236.001v-380zM871.001 -254l-152.002 -157l-146 157c86.667 101.333 137.334 152 152.001 152c8.66699 0 57.334 -50.667 146.001 -152z" />
    <glyph glyph-name="afii57417" unicode="&#x629;" horiz-adv-x="813" arabic-form="isolated" 
d="M727 4l-409 -0.000976562c-134 0 -201 70 -201 210c0 86.667 29 200.334 87 341.001l154 331c134 -88.667 229 -183.667 285 -285s84 -232.333 84 -393v-204zM548 408.999c-14.667 26.667 -45.833 63.167 -93.5 109.5s-83.5 72.833 -107.5 79.5l-42 -79
c-15.333 -28 -23 -52.333 -23 -73c0 -16 2.66699 -26 8 -30h35c30 0 104.333 -2.33301 223 -7zM486.001 1406c-2 -32.667 -13.999 -76 -35.999 -130l-233 -217c-2 6 -3 12.333 -3 19c0 61.333 20.333 109.666 61 144.999c-30.667 12 -47 19 -49 21
c-10.667 6.66699 -16 21.334 -16 44.001c0 46 15.667 96.667 47 152s67.666 83 108.999 83c4 -22 6 -39.333 6 -52c0 -8.66699 -1 -21.167 -3 -37.5s-3 -27.833 -3 -34.5c-10.667 4.66699 -21.334 7 -32.001 7c-20 0 -41.667 -16.333 -65 -49
c16.667 -10.667 36.334 -16 59.001 -16c33.333 0 86 21.667 158 65z" />
    <glyph glyph-name="afii57418" unicode="&#x62a;" horiz-adv-x="1382" arabic-form="isolated" 
d="M1026 932c-27.333 -32.667 -75.667 -83.334 -145 -152.001l-149 128c-43.333 -45.333 -91 -90.666 -143 -135.999l-158 139l152 167l142 -137c17.333 13.333 67 61 149 143zM1299 1l-1174 -0.000976562v359c0 249.333 71.333 402 214 458c-60 -76 -90 -160.333 -90 -253
c0 -39.333 14.5 -77.166 43.5 -113.499s62.833 -54.5 101.5 -54.5h762l-90 198l100 229c88.667 -118 133 -261.667 133 -431v-392z" />
    <glyph glyph-name="afii57419" unicode="&#x62b;" horiz-adv-x="1354" arabic-form="isolated" 
d="M808 1100c0 -14.667 -40 -57 -120 -127l-114 114l108 127c84 -56 126 -94 126 -114zM989 886l-152 -158l-136 136l-149 -136l-152 152l152 152c29.333 -25.333 76.666 -70.666 141.999 -135.999l143 136c16.667 -12.667 67.334 -61.334 152.001 -146.001zM1268 1
l-1174 -0.000976562v334c0 68.667 10.667 146.334 32 233.001c24 100 54.667 169 92 207l87 43c-58 -108 -87 -195.667 -87 -263c0 -34.667 15.5 -69.667 46.5 -105s63.833 -53 98.5 -53h762l-90 201l93 226c93.333 -132 140 -267 140 -405v-418z" />
    <glyph glyph-name="afii57420" unicode="&#x62c;" horiz-adv-x="1065" arabic-form="isolated" 
d="M771 -67l-159.999 -158l-146 158c95.333 96.667 146 145 152 145c5.33301 0 56.666 -48.333 153.999 -145zM1053 -396l-114.002 -195c-50 -88.667 -79 -152.667 -87 -192c-35.333 -6 -80.666 -9 -135.999 -9c-202 0 -345.5 43.167 -430.5 129.5
s-127.5 230.833 -127.5 433.5c0 246 89.667 434 269 564c-22 6 -46.667 9 -74 9c-136.667 0 -201.667 -44.333 -195 -133c-30.667 26.667 -46 70 -46 130c0 177.333 61.667 267 185 269l726 7c-30 -60.667 -69.667 -159 -119 -295
c-199.333 -38.667 -335.666 -77.667 -408.999 -117c-143.333 -74 -215 -188.333 -215 -343c0 -99.333 59.667 -176 179 -230c92.667 -39.333 196.667 -59 312 -59c88.667 0 182.667 10.333 282 31z" />
    <glyph glyph-name="afii57421" unicode="&#x62d;" horiz-adv-x="1078" arabic-form="isolated" 
d="M1054 -396l-113 -194.999c-52.667 -93.333 -79 -157.333 -79 -192c-33.333 -6 -81.666 -9 -144.999 -9c-207.333 0 -350.666 40.833 -429.999 122.5s-119 228.5 -119 440.5c0 126 19 229.833 57 311.5s105.667 165.834 203 252.501c-14.667 6 -43.667 9 -87 9
c-121.333 0 -182 -43.333 -182 -130l-43 56v28c-14.667 208 49.333 312 192 312l724 7c-24.667 -34.667 -47.334 -83.334 -68.001 -146.001c-28.667 -80 -48.334 -129.667 -59.001 -149c-90.667 -24 -182.667 -46.667 -276 -68c-105.333 -30.667 -184.333 -70.667 -237 -120
c-66.667 -64.667 -100 -155.334 -100 -272.001c0 -101.333 58.667 -178 176 -230c90.667 -39.333 193 -59 307 -59c84.667 0 177.667 10.333 279 31z" />
    <glyph glyph-name="afii57422" unicode="&#x62e;" horiz-adv-x="1027" arabic-form="isolated" 
d="M619 854l-159 -160l-147 160l153 152zM1021 -396l-117 -186c-43.333 -76 -71.333 -143 -84 -201c-32.667 -6 -79.334 -9 -140.001 -9c-203.333 0 -345.5 41.333 -426.5 124s-121.5 228 -121.5 436c0 241.333 88.667 430.333 266 567c-18 6 -44.667 9 -80 9
c-132 0 -195 -43.333 -189 -130l-49 62c6.66699 113.333 15 185.666 25 216.999c26.667 78 82.334 117 167.001 117l716 7c-32 -60.667 -70.667 -160 -116 -298c-410.667 -49.333 -616 -201.666 -616 -456.999c0 -106 61.333 -183.667 184 -233c86 -34.667 192 -52 318 -52
c22 0 67.333 5 136 15c58 12 100.333 16 127 12z" />
    <glyph glyph-name="afii57423" unicode="&#x62f;" horiz-adv-x="774" arabic-form="isolated" 
d="M704 -2h-477.001c-58 0 -87 67 -87 201c0 96.667 8.33301 186.334 25 269.001l37 35v-10c0 -18.667 8.66699 -37.834 26 -57.501s34.333 -29.5 51 -29.5l289 6c-19.333 43.333 -51.666 94.333 -96.999 153l-111 142l81 219c36.667 -30.667 89.667 -105.5 159 -224.5
s104 -198.833 104 -239.5v-464z" />
    <glyph glyph-name="afii57424" unicode="&#x630;" horiz-adv-x="769" arabic-form="isolated" 
d="M564 1124l-159.001 -160c-36.667 36.667 -85 90 -145 160c92.667 99.333 143.334 149 152.001 149c4 0 54.667 -49.667 152 -149zM705.999 -2h-476.999c-62 0 -93 64.667 -93 194c0 64.667 10.667 156.667 32 276l33 35v-10c0 -64 58.667 -96 176 -96
c27.333 0 62.166 1.5 104.499 4.5s68.833 4.5 79.5 4.5v0c2 0 3 3.33301 3 10c0 20 -33.5 73 -100.5 159s-100.5 131.667 -100.5 137c0 -3.33301 27.333 68 82 214c51.333 -57.333 105 -133.333 161 -228c66.667 -114.667 100 -197.667 100 -249v-451z" />
    <glyph glyph-name="afii57425" unicode="&#x631;" horiz-adv-x="683" arabic-form="isolated" 
d="M611 127c0 -124 -15.667 -238.332 -47 -342.999c-41.333 -138 -105.333 -231 -192 -279l-461 121c84.667 43.333 188.667 117.666 312 222.999c146.667 122 220 215.667 220 281c0 35.333 -28.167 88 -84.5 158s-84.5 108.333 -84.5 115l133 260
c136 -188 204 -366.667 204 -536z" />
    <glyph glyph-name="afii57426" unicode="&#x632;" horiz-adv-x="689" arabic-form="isolated" 
d="M554 1029l-160 -152l-146 152l152 152zM611 149c0 -330 -81.666 -544.667 -244.999 -644l-455 121c105.333 56 207.333 127.333 306 214c112 101.333 187.333 198 226 290c-10.667 33.333 -69.334 123.333 -176.001 270l133 263c140.667 -190 211 -361.333 211 -514z" />
    <glyph glyph-name="afii57427" unicode="&#x633;" horiz-adv-x="1813" arabic-form="isolated" 
d="M989 1c-45.333 -149.333 -89.666 -251.002 -132.999 -305.002c-69.333 -82 -171 -123 -305 -123s-243.167 38.833 -327.5 116.5s-126.5 182.5 -126.5 314.5c0 99.333 22.667 219.333 68 360c56 170.667 121 263.667 195 279c-102 -138.667 -153 -279.334 -153 -422.001
c0 -82 33.667 -148 101 -198c60.667 -44.667 133 -67 217 -67c119.333 0 247 44 383 132l-71 166c-28.667 62.667 -59 114.334 -91 155.001l146 273c26 -67.333 47.667 -117 65 -149c34.667 -60.667 71.334 -104 110.001 -130h107c76 4 125.667 11.667 149 23
c43.333 19.333 76 62.333 98 129c0 4.66699 24.667 19 74 43c-12.667 -39.333 -34.334 -95.666 -65.001 -168.999c67.333 -24 127 -41.333 179 -52v10c0 12.667 -3.83301 30.334 -11.5 53.001s-11.5 39.334 -11.5 50.001c0 13.333 49.667 68.666 149 165.999l13 -208
c0 -66.667 -10.667 -146.667 -32 -240c-26 -110 -56.333 -182.333 -91 -217c-6.66699 -6 -25 -9 -55 -9c-10.667 0 -26.834 3.16699 -48.501 9.5s-38.167 9.5 -49.5 9.5h-483z" />
    <glyph glyph-name="afii57428" unicode="&#x634;" horiz-adv-x="1813" arabic-form="isolated" 
d="M1404 1123c0 -10.667 -37.667 -54 -113 -130c-41.333 32.667 -81.333 74 -120 124l113 126c80 -67.333 120 -107.333 120 -120zM989 1c-45.333 -149.333 -89.666 -251.002 -132.999 -305.002c-69.333 -82 -171 -123 -305 -123s-243.167 38.833 -327.5 116.5
s-126.5 182.5 -126.5 314.5c0 99.333 22.667 219.333 68 360c56 170.667 121 263.667 195 279c-102 -138.667 -153 -279.334 -153 -422.001c0 -82 33.667 -148 101 -198c60.667 -44.667 133 -67 217 -67c119.333 0 247 44 383 132l-71 166
c-28.667 62.667 -59 114.334 -91 155.001l146 273c26 -67.333 47.667 -117 65 -149c34.667 -60.667 71.334 -104 110.001 -130h107c76 4 125.667 11.667 149 23c43.333 19.333 76 62.333 98 129c0 4.66699 24.667 19 74 43
c-12.667 -39.333 -34.334 -95.666 -65.001 -168.999c67.333 -24 127 -41.333 179 -52v10c0 12.667 -3.83301 30.334 -11.5 53.001s-11.5 39.334 -11.5 50.001c0 13.333 49.667 68.666 149 165.999l13 -208c0 -66.667 -10.667 -146.667 -32 -240
c-26 -110 -56.333 -182.333 -91 -217c-6.66699 -6 -25 -9 -55 -9c-10.667 0 -26.834 3.16699 -48.501 9.5s-38.167 9.5 -49.5 9.5h-483zM1586 911.998c-62.667 -71.333 -113.333 -124.333 -152 -159c-17.333 13.333 -63 56.666 -137 129.999
c-30 -24 -77.333 -69.333 -142 -136c-102 90.667 -153 142.334 -153 155.001c0 6.66699 48.667 58.667 146 156l143 -143l143 143c32 -26 82.667 -74.667 152 -146z" />
    <glyph glyph-name="afii57429" unicode="&#x635;" horiz-adv-x="1928" arabic-form="isolated" 
d="M1683 413c-14.667 30 -40.5 60.667 -77.5 92s-70.5 47 -100.5 47c-56 0 -119.667 -46.333 -191 -139h369zM989 1c-45.333 -149.333 -89.668 -251 -133.001 -305c-69.333 -82 -171 -123 -305 -123s-243.167 38.833 -327.5 116.5s-126.5 182.5 -126.5 314.5
c0 99.333 22.667 219.333 68 360c56 170.667 121 263.667 195 279c-102 -138.667 -153 -279.334 -153 -422.001c0 -82 33.667 -148 101 -198c60.667 -44.667 133 -67 217 -67c119.333 0 247 44 383 132l-71 166c-28.667 62.667 -59 114.334 -91 155.001l146 273
c26 -67.333 47.667 -117 65 -149c34.667 -60.667 71.334 -104 110.001 -130h91c43.333 8.66699 113.666 73.667 210.999 195c90.667 116.667 169.334 175 236.001 175c67.333 0 127.5 -33.5 180.5 -100.5s79.5 -136.5 79.5 -208.5v-463h-876z" />
    <glyph glyph-name="afii57430" unicode="&#x636;" horiz-adv-x="1928" arabic-form="isolated" 
d="M1683 413c-14.667 30 -40.5 60.667 -77.5 92s-70.5 47 -100.5 47c-56 0 -119.667 -46.333 -191 -139h369zM1398 1045c-43.333 -52 -94.332 -104 -152.999 -156c-34.667 30.667 -83.334 82.667 -146.001 156l153 153zM989.001 1
c-45.333 -149.333 -89.668 -251 -133.001 -305c-69.333 -82 -171 -123 -305 -123s-243.167 38.833 -327.5 116.5s-126.5 182.5 -126.5 314.5c0 99.333 22.667 219.333 68 360c56 170.667 121 263.667 195 279c-102 -138.667 -153 -279.334 -153 -422.001
c0 -82 33.667 -148 101 -198c60.667 -44.667 133 -67 217 -67c119.333 0 247 44 383 132l-71 166c-28.667 62.667 -59 114.334 -91 155.001l146 273c26 -67.333 47.667 -117 65 -149c34.667 -60.667 71.334 -104 110.001 -130h91c43.333 8.66699 113.666 73.667 210.999 195
c90.667 116.667 169.334 175 236.001 175c67.333 0 127.5 -33.5 180.5 -100.5s79.5 -136.5 79.5 -208.5v-463h-876z" />
    <glyph glyph-name="afii57431" unicode="&#x637;" horiz-adv-x="1437" arabic-form="isolated" 
d="M1342 1h-952.999l-295 402h470l-61 795c69.333 101.333 125.666 179 168.999 233l45 -925c162 156 294 234 396 234c80 0 140.667 -45.333 182 -136c31.333 -67.333 47 -146.333 47 -237v-366zM1128 406c-62 80 -115.666 120.001 -160.999 120.001
c-28.667 0 -67.834 -13.833 -117.501 -41.5s-86.167 -53.834 -109.5 -78.501h388z" />
    <glyph glyph-name="afii57432" unicode="&#x638;" horiz-adv-x="1410" arabic-form="isolated" 
d="M1210 1035l-154 -152.001c-18.667 14.667 -67 65.334 -145 152.001c12.667 18 61 70.333 145 157zM1340 0.999023h-962l-291 402h474l-59 782c0 10.667 52.667 92.667 158 246l53 -925c158 156 289 234 393 234c156 0 234 -148.333 234 -445v-294zM1125 405.999
c-66.667 80 -121.667 120 -165 120c-65.333 0 -140 -40 -224 -120h389z" />
    <glyph glyph-name="afii57433" unicode="&#x639;" horiz-adv-x="890" arabic-form="isolated" 
d="M1037 -461c-10.667 -16 -86.335 -147.002 -227.002 -393.002c-45.333 -10.667 -90.666 -16 -135.999 -16c-350.667 0 -526 190 -526 570c0 166.667 41.333 313.334 124 440.001c-138.667 99.333 -208 193.333 -208 282c0 92.667 28 181.334 84 266.001
c63.333 95.333 138.333 143 225 143c92.667 0 185.667 -66 279 -198l-92 3c-52 2 -114.667 -5 -188 -21s-128.333 -38 -165 -66c16.667 -39.333 55.334 -84.333 116.001 -135s109.667 -76 147 -76c47.333 0 165 56 353 168l-91 -311c-306.667 -110.667 -460 -252 -460 -424
c0 -98.667 58.333 -171 175 -217c84.667 -34.667 185 -52 301 -52c60.667 0 157 12.333 289 37z" />
    <glyph glyph-name="afii57434" unicode="&#x63a;" horiz-adv-x="929" arabic-form="isolated" 
d="M548 1041l-163 -152l-145 152c12.667 18 61 70.333 145 157zM1070 -461l-232.997 -400.001c-12.667 0 -33.834 -1.5 -63.501 -4.5s-51.834 -4.5 -66.501 -4.5c-350.667 0 -526 191 -526 573c0 186 43.333 331.667 130 437c-84.667 72 -130 111 -136 117
c-52 54 -78 107 -78 159c0 90.667 29 180.334 87 269.001c65.333 97.333 140.333 146 225 146c47.333 0 100.166 -22.833 158.499 -68.5s98.5 -91.167 120.5 -136.5c-30.667 6.66699 -61.334 10 -92.001 10c-134 0 -250.667 -29 -350 -87
c12.667 -39.333 49.334 -84.333 110.001 -135s110.667 -76 150 -76c51.333 0 170 56 356 168c-36 -112 -66 -215.667 -90 -311c-311.333 -110.667 -467 -252 -467 -424c0 -98.667 60.667 -172 182 -220c86.667 -32.667 187 -49 301 -49c82 0 176 12.333 282 37z" />
    <glyph glyph-name="afii57441" unicode="&#x641;" horiz-adv-x="1336" arabic-form="isolated" 
d="M1138 1120l-152.001 -159l-146 159c86.667 97.333 137.334 146 152.001 146c14 0 62.667 -48.667 146 -146zM1268 1l-1174 -0.000976562v437c0 30.667 17.333 88 52 172c30 76 57 133.667 81 173c21.333 8.66699 54.666 20.334 99.999 35.001
c-68.667 -66.667 -103 -153.334 -103 -260.001c0 -36.667 11.333 -70.667 34 -102s51.334 -47 86.001 -47h461l10 7c-10 26 -15 68 -15 126c0 62.667 21.667 134 65 214c48 88.667 100.333 133 157 133c75.333 0 138.333 -73.333 189 -220
c38 -115.333 57 -222.666 57 -321.999v-346zM1132 427.999v43c0 23.333 -15.667 54.5 -47 93.5s-59 58.5 -83 58.5c-48 0 -72 -23.667 -72 -71c0 -23.333 20.667 -49.833 62 -79.5s75.333 -44.5 102 -44.5h38z" />
    <glyph glyph-name="afii57442" unicode="&#x642;" horiz-adv-x="1187" arabic-form="isolated" 
d="M1034 1029l-154 -152.001l-142 129c-6.66699 -4 -54.334 -49.333 -143.001 -136l-158 146l145 158c60.667 -51.333 110.334 -96.666 149.001 -135.999l143 143zM1118 28.999c0 -143.333 -58.832 -272.833 -176.499 -388.5s-248.5 -173.5 -392.5 -173.5
c-138 0 -245.333 41 -322 123s-115 193 -115 333c0 155.333 59.667 346.333 179 573l78 30l-102 -188c-33.333 -76 -50 -143 -50 -201c0 -168 109.667 -252 329 -252c206 0 351.333 41.667 436 125l-37 81c-64 -56 -135.333 -84 -214 -84c-56 0 -103 19.5 -141 58.5
s-57 86.5 -57 142.5c0 88.667 29.667 193.667 89 315c66.667 140.667 139 211 217 211c97.333 0 171.666 -98.667 222.999 -296c37.333 -138.667 56 -275 56 -409zM883.001 362.999c-22.667 66 -58.002 99 -106.002 99c-43.333 0 -75 -20.667 -95 -62
c9.33301 -28.667 41 -43 95 -43c10.667 0 27.834 1 51.501 3s41.834 3 54.501 3z" />
    <glyph glyph-name="afii57443" unicode="&#x643;" horiz-adv-x="1169" arabic-form="isolated" 
d="M110 1l-0.000976562 463.999c0 68.667 20 136.5 60 203.5s88 114.833 144 143.5c-49.333 -95.333 -74 -177.666 -74 -246.999c0 -104 50.667 -158 152 -162h602c-19.333 68.667 -82.333 139 -189 211c-88.667 60 -173.667 102 -255 126v59c0 29.333 6.33301 92 19 188
l257 227c122.667 103.333 213.334 154 272.001 152l-20 -188l-38 14c-30.667 -12 -91.334 -53.333 -182.001 -124c-76 -61.333 -133 -111 -171 -149c128.667 -69.333 220.334 -125.666 275.001 -168.999c103.333 -84.667 155 -172.334 155 -263.001v-486h-1007z" />
    <glyph glyph-name="afii57444" unicode="&#x644;" horiz-adv-x="1097" arabic-form="isolated" 
d="M1029 412c10 -146.667 -34.333 -282.666 -133 -407.999c-104 -130.667 -228.333 -196 -373 -196c-119.333 0 -213 34.667 -281 104s-102 163.666 -102 282.999c0 84.667 16.333 181 49 289c43.333 136 96.333 206 159 210c-60.667 -101.333 -91 -191 -91 -269
c0 -140.667 97.333 -211 292 -211c43.333 0 105 15.333 185 46c90.667 32.667 135 66 133 100l-71 848c-2 16.667 53 91 165 223z" />
    <glyph glyph-name="afii57445" unicode="&#x645;" horiz-adv-x="956" arabic-form="isolated" 
d="M901 347c-39.333 -70.667 -101.668 -173.997 -187.001 -309.997c-32.667 -7.33301 -76 -7.33301 -130 0c-69.333 6.66699 -112.666 10 -129.999 10c-78 0 -136.333 -8 -175 -24c-2.66699 -42 9.5 -107.833 36.5 -197.5s40.5 -157.167 40.5 -202.5
c0 -52 -7.33301 -107.667 -22 -167c-20 -70.667 -44.667 -118 -74 -142c-4.66699 67.333 -27.667 180.666 -69 339.999c-36.667 148 -55 261.667 -55 341c0 148.667 20 245.167 60 289.5s132.333 74.166 277 89.499c-43.333 40.667 -93 61 -149 61
c-30 0 -59.333 -10.667 -88 -32l76 152c31.333 63.333 64.666 106.666 99.999 129.999l33 3c40 4 114.333 -42.333 223 -139c142.667 -126 220.334 -193.333 233.001 -202z" />
    <glyph glyph-name="afii57446" unicode="&#x646;" horiz-adv-x="1181" arabic-form="isolated" 
d="M739 1049l-152 -153c-97.333 86 -146 137 -146 153c0 6.66699 23.667 33.167 71 79.5s74.333 69.5 81 69.5zM1098 397c0 -158.667 -45.334 -299.001 -136.001 -421.001c-101.333 -136.667 -228.666 -205 -381.999 -205c-130 0 -237.167 42 -321.5 126
s-126.5 191 -126.5 321c0 108.667 24.667 227.334 74 356.001c58.667 148 127 241.333 205 280c-66.667 -119.333 -101 -182 -103 -188c-39.333 -78 -59 -147.333 -59 -208c0 -183.333 116.667 -275 350 -275c132 0 248.667 41 350 123c0 34 -24.167 103.5 -72.5 208.5
s-72.5 158.5 -72.5 160.5c0 37.333 51.667 122 155 254c92.667 -150 139 -327.333 139 -532z" />
    <glyph glyph-name="afii57470" unicode="&#x647;" horiz-adv-x="813" arabic-form="isolated" 
d="M727 4l-409 -0.000976562c-134 0 -201 70 -201 210c0 86.667 29 200.334 87 341.001l154 331c134 -88.667 229 -183.667 285 -285s84 -232.333 84 -393v-204zM548 408.999c-14.667 26.667 -45.833 63.167 -93.5 109.5s-83.5 72.833 -107.5 79.5l-42 -79
c-15.333 -28 -23 -52.333 -23 -73c0 -16 2.66699 -26 8 -30h35c30 0 104.333 -2.33301 223 -7z" />
    <glyph glyph-name="afii57448" unicode="&#x648;" horiz-adv-x="787" arabic-form="isolated" 
d="M717 186c0 -97.333 -28.3311 -219 -84.998 -365c-66.667 -169.333 -138 -261.333 -214 -276l-480 149c74 16.667 172 62.5 294 137.5s203.667 139.833 245 194.5c-8.66699 0 -24.334 -1 -47.001 -3s-39.334 -3 -50.001 -3c-143.333 0 -215 81.333 -215 244
c0 64 29.333 155.667 88 275c64.667 130 125 195 181 195c104.667 0 181.667 -69.333 231 -208c34.667 -98.667 52 -212 52 -340zM516.002 400c-28.667 49.333 -64.666 74 -107.999 74c-14.667 0 -32.834 -7.66699 -54.501 -23s-32.5 -30.333 -32.5 -45
c0 -28.667 30.333 -43 91 -43c53.333 0 88 12.333 104 37z" />
    <glyph glyph-name="afii57449" unicode="&#x649;" horiz-adv-x="1238" arabic-form="isolated" 
d="M1177 905c-22 -52 -51.667 -130.664 -89 -235.997c-40.667 64.667 -77 97 -109 97c-54 0 -109.333 -42.333 -166 -127c18 -16.667 87 -39.334 207 -68.001c100.667 -21.333 151 -59 151 -113c0 -183.333 -62.333 -336.5 -187 -459.5s-277.667 -184.5 -459 -184.5
c-128 0 -227.667 36.333 -299 109s-107 174 -107 304c0 106.667 27 228 81 364c61.333 151.333 131.333 246.666 210 285.999c-98.667 -144.667 -148 -278 -148 -400c0 -84 36.667 -152 110 -204c66.667 -47.333 143.334 -71 230.001 -71c126 0 239.667 40 341 120l-178 62
c-67.333 27.333 -101 69.666 -101 126.999c0 85.333 38 192 114 320c82 138 161.667 207 239 207c61.333 0 114.666 -44.333 159.999 -133z" />
    <glyph glyph-name="afii57450" unicode="&#x64a;" horiz-adv-x="1238" arabic-form="isolated" 
d="M1177 905c-22 -52 -51.667 -130.664 -89 -235.997c-40.667 64.667 -77 97 -109 97c-54 0 -109.333 -42.333 -166 -127c18 -16.667 87 -39.334 207 -68.001c100.667 -21.333 151 -59 151 -113c0 -183.333 -62.333 -336.5 -187 -459.5s-277.667 -184.5 -459 -184.5
c-128 0 -227.667 36.333 -299 109s-107 174 -107 304c0 106.667 27 228 81 364c61.333 151.333 131.333 246.666 210 285.999c-98.667 -144.667 -148 -278 -148 -400c0 -84 36.667 -152 110 -204c66.667 -47.333 143.334 -71 230.001 -71c126 0 239.667 40 341 120l-178 62
c-67.333 27.333 -101 69.666 -101 126.999c0 85.333 38 192 114 320c82 138 161.667 207 239 207c61.333 0 114.666 -44.333 159.999 -133z" />
    <glyph glyph-name="afii57506" unicode="&#x67e;" horiz-adv-x="1336" arabic-form="isolated" 
d="M1268 1l-1174 0.00195312v380c0 235.333 71.333 381 214 437c-60 -90.667 -90 -176.334 -90 -257.001c0 -112 77.333 -168 232 -168c82.667 0 193 1.33301 331 4c165.333 2 276 4 332 6c0 6 -26 71 -78 195l93 226c93.333 -92.667 140 -247.334 140 -464.001v-359z
M983 -259.998c0 -14 -48.666 -64.332 -145.999 -150.999c-8.66699 7.33301 -56.334 54 -143.001 140c-6 -6.66699 -53.333 -53.334 -142 -140.001l-152 157l145 158l149 -142l137 136c101.333 -110 152 -162.667 152 -158zM808.001 -478.997l-120 -112.001
c-76 74.667 -114 116.667 -114 126c0 2.66699 38 43.334 114 122.001z" />
    <glyph glyph-name="afii57507" unicode="&#x686;" horiz-adv-x="1057" arabic-form="isolated" 
d="M1006 -12c-43.333 -49.333 -93.001 -97.667 -149.001 -145c-9.33301 6 -58.333 51.333 -147 136c-6 -4 -53.667 -49.333 -143 -136l-155 152l149 161c30.667 -25.333 80.334 -73 149.001 -143l139 136zM826.999 -229.001c-25.333 -25.333 -66.333 -63.333 -123 -114
c-75.333 76 -113 119.333 -113 130l113 121zM1025 -411.001c-49.333 -83.333 -118.334 -216.334 -207.001 -399.001h-263c-287.333 0 -431 187.333 -431 562c0 244 89.667 439.333 269 586c-28.667 6 -60.334 9 -95.001 9c-120 0 -180 -35.333 -180 -106
c0 -9.33301 1 -19.333 3 -30c-28.667 22.667 -43 70.334 -43 143.001c0 173.333 61.667 261 185 263l734 6c-41.333 -86.667 -81.666 -186 -120.999 -298l-278 -71c-111.333 -32.667 -192.666 -74 -243.999 -124c-72 -67.333 -108 -160 -108 -278
c0 -105.333 62.667 -184 188 -236c91.333 -36.667 198.666 -55 321.999 -55c84.667 0 174.334 9.33301 269.001 28z" />
    <glyph glyph-name="afii57508" unicode="&#x698;" horiz-adv-x="682" arabic-form="isolated" 
d="M611 127c0 -124 -15.667 -238.332 -47 -342.999c-41.333 -138 -105.333 -231 -192 -279l-461 121c84.667 43.333 188.667 117.666 312 222.999c146.667 122 220 215.667 220 281c0 35.333 -28.167 88 -84.5 158s-84.5 108.333 -84.5 115l133 260
c136 -188 204 -366.667 204 -536zM456 1139c-25.333 -26 -63.332 -68.001 -113.999 -126.001c-27.333 18.667 -69 56.667 -125 114l112 127c43.333 -35.333 85.666 -73.666 126.999 -114.999zM638.001 926l-152 -160l-144 136c-43.333 -45.333 -91 -90.666 -143 -135.999
c-16.667 13.333 -67.334 61.666 -152.001 144.999c93.333 106.667 144 160 152 160l137 -136l150 136c16.667 -12.667 67.334 -61 152.001 -145z" />
    <glyph glyph-name="afii57509" unicode="&#x6af;" horiz-adv-x="1169" arabic-form="isolated" 
d="M110 1l-0.000976562 463.999c0 68.667 20 136.5 60 203.5s88 114.833 144 143.5c-49.333 -95.333 -74 -177.666 -74 -246.999c0 -104 50.667 -158 152 -162h602c-19.333 68.667 -82.333 139 -189 211c-88.667 60 -173.667 102 -255 126v59c0 29.333 6.33301 92 19 188
l257 227c122.667 103.333 213.334 154 272.001 152l-20 -188l-38 14c-30.667 -12 -91.334 -53.333 -182.001 -124c-76 -61.333 -133 -111 -171 -149c128.667 -69.333 220.334 -125.666 275.001 -168.999c103.333 -84.667 155 -172.334 155 -263.001v-486h-1007z
M572.999 1103v152c92.667 78 184.334 151.333 275.001 220c119.333 81.333 208.666 124.333 267.999 129l-26 -154c-56.667 -2 -131 -36.333 -223 -103l-184 -154z" />
    <glyph glyph-name="uniFB57" unicode="&#x67e;" horiz-adv-x="1352" arabic-form="final" 
d="M1384 1l-1278 0.000976562v470c0 41.333 36 137.333 108 288c14.667 10.667 31.167 21.5 49.5 32.5s35.166 15.5 50.499 13.5c-64.667 -78 -97 -159.333 -97 -244c0 -58 22.667 -102.333 68 -133c32 -18.667 210.333 -28 535 -28c118.667 0 195.334 10.333 230.001 31
c45.333 28.667 73.333 97 84 205l71 46c-4 -14.667 -6 -32.334 -6 -53.001c0 -150.667 45.333 -226 136 -226h49v-402zM1014 -259.999c-40.667 -50 -89.332 -100.332 -145.999 -150.999c-8.66699 7.33301 -56.334 54 -143.001 140
c-6 -6.66699 -53.333 -53.334 -142 -140.001l-152 157l145 158l149 -142l137 136zM839.002 -478.998c-40.667 -43.333 -80.667 -80.668 -120 -112.001c-76 74.667 -114 116.667 -114 126c0 2.66699 38 43.334 114 122.001z" />
    <glyph glyph-name="uniFB58" unicode="&#x67e;" horiz-adv-x="656" arabic-form="initial" 
d="M586 1l-610 0.000976562v402h455c-2.66699 4 -18 35 -46 93c-26.667 52 -40 80.667 -40 86c0 27.333 33.667 108 101 242c28.667 -58 55.667 -117 81 -177c39.333 -84.667 59 -143.334 59 -176.001v-470zM599 -240.999c-12.667 -20 -61.332 -71.666 -145.999 -154.999
c-62.667 53.333 -112.334 99.666 -149.001 138.999l-143 -139l-153 155l147 158l149 -142l136 136zM418.002 -457.998c-28.667 -26.667 -68.668 -66.999 -120.001 -120.999c-43.333 41.333 -83.666 83.666 -120.999 126.999l114 124c2 -2.66699 44.333 -46 127 -130z" />
    <glyph glyph-name="uniFB59" unicode="&#x67e;" horiz-adv-x="633" arabic-form="medial" 
d="M687 403v-401.998h-344c-9.33301 0 -33 15.333 -71 46c-41.333 -30.667 -69 -46 -83 -46h-223v402h74c99.333 0 168.666 16.333 207.999 49c20 16.667 37.333 52 52 106c10.667 47.333 32.334 79 65.001 95c-2 -11.333 -1.33301 -28.333 2 -51s5 -39.334 5 -50.001
c0 -56 21.333 -95 64 -117c21.333 -10.667 68 -21.334 140 -32.001h111zM634 -250.998c-42.667 -49.333 -91.999 -97.667 -147.999 -145l-151 136c-40 -45.333 -87.333 -90.666 -142 -135.999c-34 31.333 -83.667 79.666 -149 144.999c24 35.333 73.667 89.333 149 162
c7.33301 -6.66699 54.666 -53.334 141.999 -140.001c7.33301 6.66699 55.333 53.334 144 140.001zM449.001 -464.999c0 -13.333 -38 -52.334 -114 -117.001l-119 124c17.333 20.667 55 60.334 113 119.001c80 -66.667 120 -108.667 120 -126z" />
    <glyph glyph-name="uniFB7B" unicode="&#x686;" horiz-adv-x="1107" arabic-form="final" 
d="M1142 1l-281.002 -0.000976562c-68.667 0 -103 94 -103 282c0 32.667 1.16699 68.5 3.5 107.5s3.5 57.5 3.5 55.5c-146.667 -26.667 -265.667 -79 -357 -157c-108.667 -90.667 -163 -205.667 -163 -345c0 -188.667 154.667 -283 464 -283c28.667 0 76.5 4.33301 143.5 13
s115.5 12 145.5 10c-32 -63.333 -65.333 -126 -100 -188c-39.333 -76 -64.333 -142 -75 -198l-169 -10c-192 0 -327.333 42.833 -406 128.5s-118 226.834 -118 423.501c0 124 21.667 241.333 65 352c49.333 126 120.333 220 213 282c-15.333 2 -34.666 3 -57.999 3
c-76 0 -123.667 -2 -143 -6c-51.333 -12.667 -79.666 -45 -84.999 -97c-21.333 34 -32 63.333 -32 88c0 196 55 294 165 294h743l-97 -304h-105c-6 -2 -8 -7.66699 -6 -17l52 -32h300v-402zM757.998 12.999c-16.667 -20.667 -54.667 -60.001 -114 -118.001l-103 103
c-13.333 -8.66699 -50 -43 -110 -103l-114 118c0 6.66699 16.833 27.334 50.5 62.001s54.834 52 63.501 52c4 0 38.667 -32.667 104 -98c21.333 16 55.666 48.667 102.999 98c24 -20 64 -58 120 -114zM621.998 -148.002c-6 -12.667 -35 -43.668 -87 -93.001
c-20 18.667 -49.667 49.667 -89 93c26.667 34.667 53.667 66.334 81 95.001c3.33301 -2 35 -33.667 95 -95z" />
    <glyph glyph-name="uniFB7C" unicode="&#x686;" horiz-adv-x="923" arabic-form="initial" 
d="M892 393l-195 -391.999h-727v402h461c-24 32.667 -69.667 72.167 -137 118.5s-115.666 69.5 -144.999 69.5c-20 0 -40.333 -15.833 -61 -47.5s-31 -56.834 -31 -75.501c-10.667 56 -16 88.333 -16 97c0 52.667 20.667 108 62 166s86.666 87 135.999 87
c86.667 0 195 -68.167 325 -204.5s239.333 -209.833 328 -220.5zM638 -247.999c-26 -32.667 -74.335 -84.666 -145.002 -155.999l-143 141c-7.33301 -8 -54.666 -55 -141.999 -141c-63.333 54.667 -112.666 106.667 -147.999 156c43.333 58.667 90 111.667 140 159
c18 -12.667 68 -60.334 150 -143.001l136 136zM455.998 -464.998c-18.667 -22 -56 -61.999 -112 -119.999c-30.667 25.333 -71 67.666 -121 126.999l113 123c54.667 -56.667 94.667 -100 120 -130z" />
    <glyph glyph-name="uniFB7D" unicode="&#x686;" horiz-adv-x="859" arabic-form="medial" 
d="M898 1h-928v402h461c-113.333 121.333 -207.333 182 -282 182c-57.333 0 -91 -34.667 -101 -104l-26 61c39.333 115.333 61 177.333 65 186c34 60 88 90 162 90c80 0 177 -59.667 291 -179c130 -136 228.667 -214.667 296 -236h62v-402zM703 -260l-145 -151
c-28.667 22.667 -79 69.334 -151 140.001c-6 -6.66699 -53.333 -53.334 -142 -140.001l-152 157l152 158l142 -142l136 136zM521 -479l-120 -112.001c-52 53.333 -91.667 95.333 -119 126c45.333 43.333 83 83 113 119c53.333 -49.333 95.333 -93.666 126 -132.999z" />
    <glyph glyph-name="uniFB8B" unicode="&#x698;" horiz-adv-x="656" arabic-form="final" 
d="M699 1l-114 -0.000976562c-6.66699 -12.667 -10 -31.667 -10 -57c0 -63.333 -22.667 -146.666 -68 -249.999c-51.333 -119.333 -103 -179 -155 -179c-32.667 0 -105 15.333 -217 46c-121.333 32.667 -203.666 51 -246.999 55c95.333 56 202.666 135.667 321.999 239
c154.667 132 232 226 232 282c0 28.667 -63.667 120.334 -191 275.001l126 260c35.333 -16.667 67.5 -53.834 96.5 -111.501s46.5 -110.167 52.5 -157.5h173v-402zM455 1139c-25.333 -26 -63.332 -68.001 -113.999 -126.001c-27.333 18.667 -69 56.667 -125 114l112 127
c43.333 -35.333 85.666 -73.666 126.999 -114.999zM637.001 925.998l-151.999 -160l-144 136c-43.333 -45.333 -91 -90.666 -143 -135.999c-16.667 13.333 -67.334 61.666 -152.001 144.999c93.333 106.667 144 160 152 160l137 -136l150 136
c17.333 -12.667 68 -61 152 -145z" />
    <glyph glyph-name="uniFB8F" unicode="&#x6a9;" horiz-adv-x="1202" arabic-form="final" 
d="M110 1l-0.00195312 482.999c0 32.667 40 133.334 120 302.001c35.333 14.667 63.333 25.334 84 32.001c-53.333 -97.333 -80 -187 -80 -269c0 -97.333 60.667 -146 182 -146h616c-39.333 78 -103.833 151.667 -193.5 221s-176.167 111.333 -259.5 126
c12.667 67.333 23.334 148.666 32.001 243.999c274 248 436 372 486 372l33 -16c0 -51.333 -6.66699 -108.666 -20 -171.999l-42 11c-28 0 -85.333 -37 -172 -111l-168 -152l3 -7c94.667 -38.667 172.334 -95 233.001 -169c38.667 -47.333 77.667 -112.333 117 -195
s68.333 -133.334 87 -152.001h65v-402h-1123z" />
    <glyph glyph-name="uniFB90" unicode="&#x6a9;" horiz-adv-x="630" arabic-form="initial" 
d="M580 1h-604.001v402h480c-19.333 68.667 -82.333 139 -189 211c-88.667 60 -173.667 102 -255 126v59c0 29.333 6.33301 92 19 188l257 227c122.667 103.333 213.334 154 272.001 152l-20 -188l-38 14c-30.667 -12 -91.334 -53.333 -182.001 -124
c-76 -61.333 -133 -111 -171 -149c128.667 -69.333 220.334 -125.666 275.001 -168.999c104 -84.667 156 -172.334 156 -263.001v-486z" />
    <glyph glyph-name="uniFB91" unicode="&#x6a9;" horiz-adv-x="614" arabic-form="medial" 
d="M647 1l-681.001 0.000976562v402h480c-39.333 78 -103.833 151.667 -193.5 221s-176.167 111.333 -259.5 126c12.667 67.333 23.334 148.666 32.001 243.999c274 248 436 372 486 372l33 -16c0 -51.333 -6.66699 -108.666 -20 -171.999l-42 11
c-28 0 -85.333 -37 -172 -111l-168 -152l3 -7c95.333 -38.667 173 -95 233 -169c38.667 -47.333 77.667 -112.333 117 -195s68.333 -133.334 87 -152.001h65v-402z" />
    <glyph glyph-name="uniFB93" unicode="&#x6af;" horiz-adv-x="1202" arabic-form="final" 
d="M110 1l-0.00195312 482.999c0 32.667 40 133.334 120 302.001c35.333 14.667 63.333 25.334 84 32.001c-53.333 -97.333 -80 -187 -80 -269c0 -97.333 60.667 -146 182 -146h616c-39.333 78 -103.833 151.667 -193.5 221s-176.167 111.333 -259.5 126
c12.667 67.333 23.334 148.666 32.001 243.999c274 248 436 372 486 372l33 -16c0 -51.333 -6.66699 -108.666 -20 -171.999l-42 11c-28 0 -85.333 -37 -172 -111l-168 -152l3 -7c94.667 -38.667 172.334 -95 233.001 -169c38.667 -47.333 77.667 -112.333 117 -195
s68.333 -133.334 87 -152.001h65v-402h-1123zM603.998 1103l0.000976562 152l276 220c119.333 81.333 208.666 124.333 267.999 129l-26 -154c-56.667 -2 -131 -36.333 -223 -103l-184 -154z" />
    <glyph glyph-name="uniFB94" unicode="&#x6af;" horiz-adv-x="630" arabic-form="initial" 
d="M580 1h-604.001v402h480c-19.333 68.667 -82.333 139 -189 211c-88.667 60 -173.667 102 -255 126v59c0 29.333 6.33301 92 19 188l257 227c122.667 103.333 213.334 154 272.001 152l-20 -188l-38 14c-30.667 -12 -91.334 -53.333 -182.001 -124
c-76 -61.333 -133 -111 -171 -149c128.667 -69.333 220.334 -125.666 275.001 -168.999c104 -84.667 156 -172.334 156 -263.001v-486zM34.999 1103v152c92.667 78 184.334 151.333 275.001 220c119.333 81.333 208.666 124.333 267.999 129l-25 -154
c-57.333 -2 -132 -36.333 -224 -103l-184 -154z" />
    <glyph glyph-name="uniFB95" unicode="&#x6af;" horiz-adv-x="614" arabic-form="medial" 
d="M647 1l-681.001 0.000976562v402h480c-39.333 78 -103.833 151.667 -193.5 221s-176.167 111.333 -259.5 126c12.667 67.333 23.334 148.666 32.001 243.999c274 248 436 372 486 372l33 -16c0 -51.333 -6.66699 -108.666 -20 -171.999l-42 11
c-28 0 -85.333 -37 -172 -111l-168 -152l3 -7c95.333 -38.667 173 -95 233 -169c38.667 -47.333 77.667 -112.333 117 -195s68.333 -133.334 87 -152.001h65v-402zM17.999 1103l0.000976562 152l276 220c119.333 81.333 208.666 124.333 267.999 129l-26 -154
c-56.667 -2 -131 -36.333 -223 -103l-184 -154z" />
    <glyph glyph-name="uniFBA5" unicode="&#x6c0;" horiz-adv-x="786" arabic-form="final" 
d="M826 403l-0.00195312 -401.999h-185c-43.333 0 -77.666 38 -102.999 114l-49 161l-56 -176h-68c-47.333 0 -106.666 21.167 -177.999 63.5s-107 85.166 -107 128.499c0 36.667 16.667 92.834 50 168.501s63 128.834 89 159.501c10.667 10.667 47 25.167 109 43.5
s105.333 47.666 130 87.999l118 186.5l-3 -65c-4.66699 -235.333 22 -381.333 80 -438c3.33301 -2.66699 25 -13.334 65 -32.001h108zM491.998 403.001c-4 28.667 -11.332 72.002 -21.999 130.002c-10.667 -12.667 -59.334 -44.334 -146.001 -95.001
c16.667 -12.667 43.667 -21.334 81 -26.001c54 -6 83 -9 87 -9zM483.999 1406c-2 -32.667 -14.332 -76 -36.999 -130l-232 -217c-2.66699 6 -4 12.333 -4 19c0 61.333 20.667 109.666 62 144.999c-30.667 12 -47 19 -49 21c-10.667 6.66699 -16 21.334 -16 44.001
c0 46 15.667 96.667 47 152s67.666 83 108.999 83c4 -22 6 -39.333 6 -52c0 -8.66699 -1 -21.167 -3 -37.5s-3 -27.833 -3 -34.5c-10.667 4.66699 -21.334 7 -32.001 7c-20 0 -41.667 -16.333 -65 -49c16.667 -10.667 36.334 -16 59.001 -16c33.333 0 86 21.667 158 65z" />
    <glyph glyph-name="uniFBFD" unicode="&#x6cc;" horiz-adv-x="1205" arabic-form="final" 
d="M1234 1h-68v15c2 30.667 -11.5 66.167 -40.5 106.5s-58.833 60.5 -89.5 60.5l-29 -7c64.667 -60.667 97 -121 97 -181c0 -144.667 -69.333 -265.667 -208 -363c-124.667 -88.667 -261.667 -133 -411 -133c-112 0 -202 43.333 -270 130c-60 78 -90 175 -90 291
c0 66.667 23.167 166.5 69.5 299.5s91.166 225.167 134.499 276.5l94 69c-103.333 -175.333 -155 -316 -155 -422c0 -80 31.667 -141 95 -183c56 -37.333 125 -56 207 -56c90.667 0 199.334 31.333 326.001 94c-27.333 55.333 -113.333 91 -258 107l152 298h444v-402z" />
    <glyph glyph-name="uniFBFE" unicode="&#x6cc;" horiz-adv-x="637" arabic-form="initial" 
d="M580 1h-610v402h448c0 4 2.33301 8.33301 7 13l-92 175l101 246c97.333 -190 146 -312 146 -366v-470zM586 -216c0 -2 -48.667 -53.667 -146 -155l-148 133l-137 -139l-158 139c79.333 107.333 129 161 149 161c4 0 50.333 -43 139 -129l149 136
c101.333 -77.333 152 -126 152 -146z" />
    <glyph glyph-name="uniFBFF" unicode="&#x6cc;" horiz-adv-x="637" arabic-form="medial" 
d="M684 403v-402l-348 3c-12.667 0 -34.334 15.333 -65.001 46c-29.333 -30.667 -50.333 -46 -63 -46l-238 -3v402h87c102.667 6 167.667 22.333 195 49c12.667 10.667 24 38.667 34 84s35.667 82.333 77 111c14.667 -110.667 33.334 -178 56.001 -202s82.667 -38 180 -42
h85zM651 -232l-152 -155l-143 133l-142 -139l-160 139l146 168c63.333 -54 113.333 -99.333 150 -136l143 142z" />
    <glyph glyph-name="uniFE82" unicode="&#x622;" horiz-adv-x="426" arabic-form="final" 
d="M451 1h-173.001c-39.333 0 -74.666 40 -105.999 120c-26.667 66.667 -40 123.667 -40 171v974c37.333 45.333 91.333 102.333 162 171l6 -746c3.33301 -78 8 -133 14 -165c12.667 -63.333 41.667 -104.333 87 -123h50v-402zM559.999 1805
c-12 -70.667 -42.499 -131.167 -91.499 -181.5s-107.167 -75.5 -174.5 -75.5c-24.667 0 -63.334 6.33301 -116.001 19s-91.667 19 -117 19c-64 0 -132.667 -25.333 -206 -76c38.667 159.333 136.334 239 293.001 239c22 0 57.667 -5.16699 107 -15.5s86 -15.5 110 -15.5
c63.333 0 125.666 26.667 186.999 80z" />
    <glyph glyph-name="uniFE84" unicode="&#x623;" horiz-adv-x="423" arabic-form="final" 
d="M447 1h-172c-39.333 0 -74.666 40 -105.999 120c-26.667 66.667 -40 123.667 -40 171v974c37.333 45.333 91.666 102.333 162.999 171l7 -746c2 -78 6 -133 12 -165c12.667 -63.333 41.667 -104.333 87 -123h49v-402zM356 1836
c-2.66699 -32.667 -14.333 -75.666 -35 -128.999c-55.333 -48 -133.666 -120.333 -234.999 -217c-2 6 -3 12.333 -3 19c0 60.667 20.667 109 62 145c-30.667 12 -47 19 -49 21c-10.667 6 -16 20.667 -16 44c0 45.333 15.5 95.833 46.5 151.5s67.167 83.5 108.5 83.5
c4.66699 -22.667 7 -40.334 7 -53.001c0 -8 -1.16699 -20.167 -3.5 -36.5s-3.5 -27.833 -3.5 -34.5c-10.667 4 -21 6 -31 6c-20.667 0 -42.334 -16.333 -65.001 -49c16.667 -10 36 -15 58 -15c34 0 87 21.333 159 64z" />
    <glyph glyph-name="uniFE86" unicode="&#x624;" horiz-adv-x="769" arabic-form="final" 
d="M817 1l-98.999 -0.000976562c-62 -287.333 -149.667 -446.333 -263 -477l-489 133c231.333 106.667 405.666 220.334 522.999 341.001c-74 4 -149 9 -225 15c-66.667 18 -100 81 -100 189c0 76 28 177.333 84 304c63.333 145.333 126 218 188 218
c117.333 0 207.333 -107 270 -321h111v-402zM520.001 366.999c-47.333 65.333 -83.668 98 -109.001 98c-13.333 0 -30.833 -8.16699 -52.5 -24.5s-32.5 -30.833 -32.5 -43.5s3 -18 9 -16c26.667 -18 56.334 -27 89.001 -27c25.333 0 57.333 4.33301 96 13zM407.999 1307
c-2 -32.667 -13.999 -75.666 -35.999 -128.999l-233 -217c-2.66699 6 -4 12.333 -4 19c0 60.667 20.667 109 62 145c-30.667 12 -47 19 -49 21c-10.667 6 -16 20.667 -16 44c0 45.333 15.667 95.833 47 151.5s67.666 83.5 108.999 83.5c4 -22.667 6 -40.334 6 -53.001
c0 -8 -1 -20.167 -3 -36.5s-3 -27.833 -3 -34.5c-10.667 4 -21.334 6 -32.001 6c-20 0 -41.667 -16.333 -65 -49c16.667 -10.667 36.334 -16 59.001 -16c33.333 0 86 21.667 158 65z" />
    <glyph glyph-name="uniFE88" unicode="&#x625;" horiz-adv-x="426" arabic-form="final" 
d="M449 1h-172.001c-39.333 0 -74.666 40 -105.999 120c-26.667 66.667 -40 123.667 -40 171v974c36.667 45.333 90.667 102.333 162 171l6 -746c3.33301 -78 8 -133 14 -165c12.667 -63.333 41.667 -104.333 87 -123h49v-402zM415.999 -219c-2 -32.667 -14 -76 -36 -130
c-54 -47.333 -131.667 -120.333 -233 -219c-2 8 -3 15 -3 21c0 60 20.333 108.667 61 146c-30 10.667 -46.333 17 -49 19c-10 6 -15 21.333 -15 46c0 45.333 15.5 95.5 46.5 150.5s67.167 82.5 108.5 82.5c4 -21.333 6 -38.333 6 -51c0 -9.33301 -1 -22 -3 -38
s-3 -27.667 -3 -35c-10.667 5.33301 -21.334 8 -32.001 8c-20 0 -41.667 -16.333 -65 -49c16.667 -10.667 36.334 -16 59.001 -16c33.333 0 86 21.667 158 65z" />
    <glyph glyph-name="uniFE8A" unicode="&#x626;" horiz-adv-x="1211" arabic-form="final" 
d="M455 818c-2 -32.667 -13.998 -76 -35.998 -130c-54 -47.333 -131.667 -119.666 -233 -216.999c-2 6.66699 -3 13 -3 19c0 61.333 20.667 110 62 146c-30.667 11.333 -47.334 18 -50.001 20c-10 6.66699 -15 21.667 -15 45c0 45.333 15.5 95.666 46.5 150.999
s67.167 83 108.5 83c4 -22 6 -39.333 6 -52c0 -8.66699 -1 -21.167 -3 -37.5s-3 -27.5 -3 -33.5c-10.667 4 -21.334 6 -32.001 6c-20 0 -41.667 -16.333 -65 -49c17.333 -10.667 37 -16 59 -16c34 0 86.667 21.667 158 65zM1238 1l-68 -0.000976562v19
c2 30.667 -12.333 65.5 -43 104.5s-59.667 58.5 -87 58.5l-30 -3c65.333 -63.333 98 -126 98 -188c0 -147.333 -69.333 -270.333 -208 -369c-123.333 -86.667 -262 -130 -416 -130c-114 0 -205 43.333 -273 130c-60 78 -90 176 -90 294c0 105.333 29 224 87 356
c61.333 140.667 131.666 239 210.999 295l-100 -208c-36.667 -81.333 -55 -154.666 -55 -219.999c0 -78 32.667 -139 98 -183c58 -39.333 128 -59 210 -59c116.667 0 228.334 35.333 335.001 106c-22.667 28.667 -62.5 52.667 -119.5 72s-107.167 30 -150.5 32
c101.333 200.667 152 299 152 295h449v-402z" />
    <glyph glyph-name="uniFE8B" unicode="&#x626;" horiz-adv-x="648" arabic-form="initial" 
d="M527 1136c-8.66699 -30.667 -22.335 -75 -41.002 -133c-72 -56 -149.333 -124 -232 -204v44c0 24.667 19.667 62.667 59 114c-43.333 10.667 -65 35.667 -65 75c0 36.667 11.833 77.667 35.5 123s51.834 75.666 84.501 90.999c12.667 2 31.334 6.66699 56.001 14
c-8.66699 -37.333 -13 -79.666 -13 -126.999c-13.333 6.66699 -25.333 10 -36 10c-17.333 0 -40 -18.667 -68 -56c16.667 -10.667 36 -16 58 -16c37.333 0 91.333 21.667 162 65zM581.999 1h-616v402h448c0 4 1 8.33301 3 13l-85 175l101 246l91 -190
c38.667 -86.667 58 -152.667 58 -198v-448z" />
    <glyph glyph-name="uniFE8C" unicode="&#x626;" horiz-adv-x="627" arabic-form="medial" 
d="M436 1090c-4 -30.667 -17.665 -73.667 -40.998 -129c-52.667 -46 -129.667 -117.333 -231 -214c6 78 25.333 132.667 58 164c-43.333 18 -65 42.333 -65 73c0 48 15.333 95.667 46 143c34 56 72.667 84 116 84c5.33301 -12.667 8 -28 8 -46l-8 -75
c-12.667 4.66699 -24.334 7 -35.001 7c-16.667 0 -37.334 -16 -62.001 -48c6.66699 -16 21 -24 43 -24c34 0 91 21.667 171 65zM667.002 1h-351.003c-8.66699 0 -27.667 15.333 -57 46l-68 -46h-238v402h78c86.667 0 147.334 14.333 182.001 43
c18.667 12.667 37.834 43.167 57.501 91.5s46.834 84.833 81.501 109.5l-3 -46c-4 -76 13.333 -128.667 52 -158c30 -22.667 79.667 -36 149 -40h117v-402z" />
    </font>
</defs>
</svg>
