<?xml version="1.0" standalone="no"?>
<!DOCTYPE svg PUBLIC "-//W3C//DTD SVG 1.1//EN" "http://www.w3.org/Graphics/SVG/1.1/DTD/svg11.dtd" >
<svg>
<metadata>
Created by FontForge 20090914 at Wed Oct 19 01:01:30 2011
 By www-data
(c) by Abolfazl Seilsepour - +98 912 591 3420  -  seilsepor@yahoo.com
</metadata>
<defs>
<font id="FarCheshmeh" horiz-adv-x="0" >
  <font-face 
    font-family="Far.Cheshmeh"
    font-weight="400"
    font-stretch="normal"
    units-per-em="2048"
    panose-1="0 0 4 0 0 0 0 0 0 0"
    ascent="1638"
    descent="-410"
    bbox="-346.001 -1183 1935 2217"
    underline-thickness="40"
    underline-position="-980"
    unicode-range="U+0020-U+FEFC"
  />
<missing-glyph horiz-adv-x="1024" 
d="M128 0v1335h768v-1335h-768zM256 128h512v1079h-512v-1079z" />
    <glyph glyph-name="uE818" unicode="&#x651;&#x64b;" 
d="M420 1602c-4 -24 -9.33301 -40.3291 -16 -48.9961c-4 -5.33301 -19 -13.333 -45 -24c-17.333 -6.66699 -31.333 -10 -42 -10c-16.667 0 -32.334 6 -47.001 18c-10 8.66699 -24.333 25.667 -43 51c-2 2 -3 4.33301 -3 7c0 6 3 13.667 9 23c13.333 18.667 20.333 29 21 31
c0 -2.66699 -2.66699 -1.33398 -8 3.99902c2 0.666992 5.33301 1 10 1c16 0 24 -3 24 -9v-8v-6c0 -4.66699 0.333008 -11.334 1 -20.001s1 -15 1 -19c0 -18.667 -6 -34 -18 -46c-26 -26.667 -57.333 -40 -94 -40c-46.667 9.33301 -80 35.666 -100 78.999
c-5.33301 10.667 -8 20.667 -8 30c0 10 5.5 27.667 16.5 53s16.5 45.666 16.5 60.999v8c0 2 0.333008 3.66699 1 5l18 -94c6.66699 -31.333 13 -55.666 19 -72.999l6 -23c2 -4 5 -6 9 -6c10.667 0 23 9.66699 37 29s26.333 29 37 29c13.333 0 25 -5 35 -15
c18.667 -18.667 29 -28.667 31 -30c4.66699 -2.66699 9.33398 -4 14.001 -4c16 0 29.333 12.333 40 37c8.66699 19.333 13 38.333 13 57c0 3.33301 11 17 33 41c2 -0.666992 10 -14.334 24 -41.001c6.66699 -13.333 10 -24 10 -32c0 -5.33301 -0.666992 -10.333 -2 -15z
M473 2178l-92.999 -58.002c-18 -8.66699 -37 -15 -57 -19c-52 -10 -84 -17.667 -96 -23c-27.333 -11.333 -46.333 -19.666 -57 -24.999c-28.667 -14.667 -54 -31.667 -76 -51c-6.66699 -8 -17.334 -20 -32.001 -36c0 14.667 28 53.334 84 116.001
c25.333 28.667 47 47.667 65 57c30 14.667 72.5 29 127.5 43s98.833 21 131.5 21c14.667 0 22 -2.66699 22 -8c0 -3.33301 -6.33301 -9 -19 -17zM473.001 1992l-92.999 -58.002c-18 -8.66699 -37 -15 -57 -19c-52 -10 -84 -17.667 -96 -23
c-27.333 -11.333 -46.333 -19.666 -57 -24.999c-28.667 -14.667 -54 -31.667 -76 -51c-6.66699 -8 -17.334 -20 -32.001 -36c0 14.667 28 53.334 84 116.001c25.333 28.667 47 47.667 65 57c30 14.667 72.5 29 127.5 43s98.833 21 131.5 21c14.667 0 22 -2.66699 22 -8
c0 -3.33301 -6.33301 -9 -19 -17z" />
    <glyph glyph-name="uFC5E" unicode="&#x651;&#x64c;" arabic-form="isolated" 
d="M407 1601c-3.33301 -24.667 -8.33594 -40.9961 -15.0029 -48.9961c-4.66699 -5.33301 -19.667 -13.333 -45 -24c-17.333 -7.33301 -31.666 -11 -42.999 -11c-16.667 0 -32.334 6.33301 -47.001 19c-9.33301 8.66699 -23.666 25.334 -42.999 50.001
c-1.33301 2 -2 4.66699 -2 8c0 6 3 13.333 9 22c12.667 19.333 19.334 29.666 20.001 30.999c0 -2 -2.66699 -0.333008 -8 5c2.66699 0.666992 6 1 10 1c16.667 0 25 -3.33301 25 -10c-0.666992 -2 -1 -4.33301 -1 -7v-7c0 -4 0.333008 -10.333 1 -19s1 -15.334 1 -20.001
c0 -18 -6 -33.333 -18 -46c-25.333 -26 -56.666 -39 -93.999 -39c-46 8.66699 -79 34.667 -99 78c-5.33301 11.333 -8 21.666 -8 30.999s5.33301 26.666 16 51.999s16 45.666 16 60.999v8c0 2.66699 0.333008 4.66699 1 6l19 -94c6 -32 12.333 -56.333 19 -73l6 -23
c2 -4 5 -6 9 -6c10 0 22.167 9.66699 36.5 29s26.5 29 36.5 29c13.333 0 25 -5 35 -15l31 -31c5.33301 -2 10.333 -3 15 -3c16 0 29 12 39 36c8.66699 20 13 39 13 57c0 4 11 17.667 33 41c2.66699 0 10.667 -13.333 24 -40c7.33301 -13.333 11 -24 11 -32
c0 -5.33301 -1 -10.333 -3 -15zM455.997 2002c2 -6 3.00195 -10.333 3.00195 -13c0 -8 -5.66699 -17 -17 -27c-6.66699 -3.33301 -13.334 -5 -20.001 -5c-10.667 0 -19.334 5 -26.001 15c-0.666992 5.33301 -1 9.33301 -1 12c0 14.667 5.33301 26.667 16 36
c7.33301 2 13.333 3 18 3c13.333 0 22.333 -7 27 -21zM371.999 2203c-3.33301 -13.333 -13.665 -25.999 -30.998 -37.999c-11.333 -7.33301 -20 -14 -26 -20c-12.667 -13.333 -36 -30.333 -70 -51c-48.667 -30 -76.334 -64.333 -83.001 -103c-0.666992 -4 -1 -8 -1 -12
c0 -8.66699 1.66699 -17.667 5 -27c7.33301 -23.333 11 -38 11 -44c0 -24 -6 -42.333 -18 -55c-6 -6.66699 -13.333 -10 -22 -10c-9.33301 0 -14 6.33301 -14 19c0 5.33301 8.66699 32 26 80c4 13.333 18 31.666 42 54.999c12 11.333 20 23.333 24 36
c3.33301 12 -12.334 24.333 -47.001 37c-4 0 -8 0.666992 -12 2c2.66699 -2 4 -4.66699 4 -8c0 -2.66699 -0.833008 -7 -2.5 -13s-2.5 -10.333 -2.5 -13c0 -3.33301 1 -6 3 -8c10.667 -11.333 23 -17 37 -17c10 0 42.667 15.667 98 47c20 10.667 39.667 39 59 85
c16.667 38 25 62 25 72zM439 2027c-16 2 -28.3301 -14.6689 -36.9971 -50.002c-0.666992 -5.33301 -1 -10.333 -1 -15c0 -7.33301 3.33301 -22 10 -44c4 -10.667 6 -20 6 -28c0 -8.66699 -2.33301 -19 -7 -31c-11.333 -30 -37.333 -57.333 -78 -82
c-32.667 -20 -56.334 -37.333 -71.001 -52l-33 -24c-12 -11.333 -19.667 -22.666 -23 -33.999c-0.666992 -1.33301 -2.33398 -6 -5.00098 -14c0 9.33301 8.33301 33.333 25 72c19.333 46 39 74.333 59 85l63 37c12.667 6.66699 24.667 10 36 10c14 0 26.333 -5.66699 37 -17
c2 -2 3 -5 3 -9c0 -2.66699 -0.833008 -7 -2.5 -13s-2.5 -10 -2.5 -12c0 -4 1.33301 -6.66699 4 -8c-4 0.666992 -7.66699 1.33398 -11 2.00098c-36 12.667 -52.333 25.334 -49 38.001c3.33301 11.333 17.666 29.333 42.999 54c11.333 10.667 19.333 23 24 37
c4.66699 10.667 10.167 24.5 16.5 41.5s9.5 29.5 9.5 37.5c0 11.333 -5.33301 17.666 -16 18.999zM183.003 1898l-0.000976562 -11c0 -15.333 -5 -27.666 -15 -36.999c-6.66699 -2 -13 -3 -19 -3c-13.333 0 -22 7 -26 21c-2 4 -3 8.33301 -3 13
c0 9.33301 6.33301 18.666 19 27.999c6.66699 3.33301 12.334 5 17.001 5c10 0 19 -5.33301 27 -16z" />
    <glyph glyph-name="uFC5F" unicode="&#x651;&#x64d;" arabic-form="isolated" 
d="M408 2034c-4 -24 -9.33301 -40.333 -16 -49c-4 -5.33301 -19 -13.333 -45 -24c-17.333 -6.66699 -31.333 -10 -42 -10c-16.667 0 -32.334 6 -47.001 18c-10 8.66699 -24.333 25.334 -43 50.001c-2 2.66699 -3 5.33398 -3 8.00098c0 6 3 13.333 9 22
c13.333 19.333 20.333 30 21 32c0 -2.66699 -2.66699 -1.33398 -8 4c2 0.666992 5.33301 1 10 1c16 0 24 -3.33301 24 -10v-7v-6c0 -4.66699 0.333008 -11.334 1 -20.001s1 -15 1 -19c0 -18.667 -6 -34 -18 -46c-26 -26.667 -57.333 -40 -94 -40
c-46.667 9.33301 -80 35.333 -100 78c-5.33301 11.333 -8 21.666 -8 30.999c0 10 5.5 27.667 16.5 53s16.5 45.333 16.5 60v9c0 2 0.333008 3.66699 1 5l18 -94c6.66699 -31.333 13 -55.666 19 -72.999l6 -23c2 -4 5 -6 9 -6c10.667 0 23 9.66699 37 29s26.333 29 37 29
c13.333 0 25 -5 35 -15c18.667 -18.667 29 -28.667 31 -30c4.66699 -2.66699 9.33398 -4 14.001 -4c16 0 29.333 12.333 40 37c8.66699 19.333 13 38.333 13 56.999c0 3.33301 11 16.666 33 40c2 0 10 -13.333 24 -40c6.66699 -13.333 10 -24 10 -32
c0 -5.33301 -0.666992 -10.333 -2 -15zM406 1877l-92.999 -58.001c-18 -8 -37 -14 -57 -18c-52 -10.667 -84 -18.334 -96 -23.001c-27.333 -11.333 -46.333 -19.666 -57 -24.999c-28.667 -15.333 -54 -32.333 -76 -51c-6.66699 -8.66699 -17.334 -21 -32.001 -37
c0 14.667 28 53.334 84 116.001c25.333 29.333 47 48.333 65 57c30 15.333 72.5 29.833 127.5 43.5s98.833 20.5 131.5 20.5c14.667 0 22 -2.33301 22 -7c0 -4 -6.33301 -10 -19 -18zM406.001 1691l-92.999 -58.001c-18 -8 -37 -14 -57 -18
c-52 -10.667 -84 -18.334 -96 -23.001c-27.333 -11.333 -46.333 -19.666 -57 -24.999c-28.667 -15.333 -54 -32.333 -76 -51c-6.66699 -8.66699 -17.334 -21 -32.001 -37c0 14.667 28 53.334 84 116.001c25.333 29.333 47 48.333 65 57c30 15.333 72.5 29.833 127.5 43.5
s98.833 20.5 131.5 20.5c14.667 0 22 -2.33301 22 -7c0 -4 -6.33301 -10 -19 -18z" />
    <glyph glyph-name="uFC60" unicode="&#x651;&#x64e;" arabic-form="isolated" 
d="M420 1614c-4 -24 -9.33301 -40.3291 -16 -48.9961c-4 -5.33301 -19 -13.333 -45 -24c-17.333 -6.66699 -31.333 -10 -42 -10c-16.667 0 -32.334 6 -47.001 18c-10 8.66699 -24.333 25.667 -43 51c-2 2 -3 4.33301 -3 7c0 6 3 13.667 9 23c13.333 18.667 20.333 29 21 31
c0 -2.66699 -2.66699 -1.33398 -8 3.99902c2 0.666992 5.33301 1 10 1c16 0 24 -3 24 -9v-8v-6c0 -4.66699 0.333008 -11.334 1 -20.001s1 -15 1 -19c0 -18.667 -6 -34 -18 -46c-26 -26.667 -57.333 -40 -94 -40c-46.667 9.33301 -80 35.666 -100 78.999
c-5.33301 10.667 -8 20.667 -8 30c0 10 5.5 27.667 16.5 53s16.5 45.666 16.5 60.999v8c0 2 0.333008 3.66699 1 5l18 -94c6.66699 -31.333 13 -55.666 19 -72.999l6 -23c2 -4 5 -6 9 -6c10.667 0 23 9.66699 37 29s26.333 29 37 29c13.333 0 25 -5 35 -15
c18.667 -18.667 29 -28.667 31 -30c4.66699 -2.66699 9.33398 -4 14.001 -4c16 0 29.333 12.333 40 37c8.66699 19.333 13 38.333 13 57c0 3.33301 11 17 33 41c2 -0.666992 10 -14.334 24 -41.001c6.66699 -13.333 10 -24 10 -32c0 -5.33301 -0.666992 -10.333 -2 -15z
M447 1953l-92.999 -58.002c-18 -8.66699 -37.333 -15 -58 -19c-51.333 -10 -83 -17.667 -95 -23c-28 -11.333 -47 -19.666 -57 -24.999c-28.667 -14.667 -54 -31.667 -76 -51c-7.33301 -8 -18 -20.333 -32 -37c0 15.333 27.667 54.333 83 117c26 28.667 48 47.667 66 57
c29.333 14.667 71.666 28.834 126.999 42.501s99 20.5 131 20.5c15.333 0 23 -2.33301 23 -7c0 -3.33301 -6.33301 -9 -19 -17z" />
    <glyph glyph-name="uFC61" unicode="&#x651;&#x64f;" arabic-form="isolated" 
d="M414 1620c-4 -24 -9.33301 -40.3291 -16 -48.9961c-4 -5.33301 -19 -13.333 -45 -24c-17.333 -6.66699 -31.333 -10 -42 -10c-16.667 0 -32.334 6 -47.001 18c-10 8.66699 -24.333 25.667 -43 51c-2 2 -3 4.33301 -3 7c0 6 3 13.667 9 23c13.333 18.667 20.333 29 21 31
c0 -2.66699 -2.66699 -1.33398 -8 3.99902c2 0.666992 5.33301 1 10 1c16 0 24 -3 24 -9v-8v-6c0 -4.66699 0.333008 -11.334 1 -20.001s1 -15 1 -19c0 -18.667 -6 -34 -18 -46c-26 -26.667 -57.333 -40 -94 -40c-46.667 9.33301 -80 35.666 -100 78.999
c-5.33301 10.667 -8 20.667 -8 30c0 10 5.5 27.667 16.5 53s16.5 45.666 16.5 60.999v8c0 2 0.333008 3.66699 1 5l18 -94c6.66699 -31.333 13 -55.666 19 -72.999l6 -23c2 -4 5 -6 9 -6c10.667 0 23 9.66699 37 29s26.333 29 37 29c13.333 0 25 -5 35 -15
c18.667 -18.667 29 -28.667 31 -30c4.66699 -2.66699 9.33398 -4 14.001 -4c16 0 29.333 12.333 40 37c8.66699 19.333 13 38.333 13 57c0 3.33301 11 17 33 41c2 -0.666992 10 -14.334 24 -41.001c6.66699 -13.333 10 -24 10 -32c0 -5.33301 -0.666992 -10.333 -2 -15z
M380 2086c2 -6 3.00195 -10 3.00195 -12c0 -8.66699 -5.66699 -17.667 -17 -27c-6.66699 -4 -13.334 -6 -20.001 -6c-10.667 0 -19.334 5 -26.001 15c-0.666992 5.33301 -1 9.33301 -1 12c0 14.667 5.33301 26.667 16 36c7.33301 2 13.666 3 18.999 3
c12.667 0 21.334 -7 26.001 -21zM363.002 2111c-16 2.66699 -28 -14.0049 -36 -50.0049c-1.33301 -5.33301 -2 -10.333 -2 -15c0 -7.33301 3.66699 -22 11 -44c3.33301 -10.667 5 -19.667 5 -27c0 -4 -0.333008 -8 -1 -12c-6.66699 -38 -34.334 -72 -83.001 -102
c-33.333 -20 -57 -37 -71 -51c-19.333 -14.667 -30.666 -23 -33.999 -25c-12 -11.333 -19.667 -22.666 -23 -33.999c0 -1.33301 -1.33301 -5.66602 -4 -12.999c0 8.66699 8 32.334 24 71.001c20 46 39.667 74.333 59 85c14 8.66699 35.333 21 64 37
c12 6.66699 23.667 10 35 10c14 0 26.667 -5.66699 38 -17c2 -2 3 -5 3 -9c0 -2.66699 -1 -7 -3 -13s-3 -10 -3 -12c0 -3.33301 1.33301 -6 4 -8c-4 0.666992 -7.66699 1.33398 -11 2.00098c-36 12.667 -52.333 25.334 -49 38.001c4 11.333 18.667 29.333 44 54
c10.667 10.667 18.667 23 24 37l15.5 41.5c6.33301 17 9.5 29.5 9.5 37.5c0 11.333 -5.33301 17.666 -16 19z" />
    <glyph glyph-name="uFC62" unicode="&#x651;&#x650;" arabic-form="isolated" 
d="M420 1848c-4 -24 -9.33301 -40.3301 -16 -48.9971c-4 -5.33301 -19 -13.333 -45 -24c-17.333 -6.66699 -31.333 -10 -42 -10c-16.667 0 -32.334 6 -47.001 18c-10 8.66699 -24.333 25.667 -43 51c-2 2 -3 4.33301 -3 7c0 6 3 13.667 9 23c13.333 18.667 20.333 29 21 31
c0 -2.66699 -2.66699 -1.33398 -8 3.99902c2 0.666992 5.33301 1 10 1c16 0 24 -3 24 -9v-8v-6c0 -4.66699 0.333008 -11.334 1 -20.001s1 -15 1 -19c0 -18.667 -6 -34 -18 -46c-26 -26.667 -57.333 -40 -94 -40c-46.667 9.33301 -80 35.666 -100 78.999
c-5.33301 10.667 -8 20.667 -8 30c0 10 5.5 27.667 16.5 53s16.5 45.333 16.5 60v9c0 2 0.333008 3.66699 1 5l18 -94c6.66699 -31.333 13 -55.666 19 -72.999l6 -23c2 -4 5 -6 9 -6c10.667 0 23 9.66699 37 29s26.333 29 37 29c13.333 0 25 -5 35 -15
c18.667 -18.667 29 -28.667 31 -30c4.66699 -2.66699 9.33398 -4 14.001 -4c16 0 29.333 12.333 40 37c8.66699 19.333 13 38.333 13 57c0 3.33301 11 16.666 33 39.999c2 0 10 -13.333 24 -40c6.66699 -13.333 10 -24 10 -32c0 -5.33301 -0.666992 -10.333 -2 -15z
M404 1680c-24 -14 -54.999 -33.334 -92.999 -58.001c-18 -8 -37.333 -14 -58 -18c-51.333 -10.667 -83 -18.334 -95 -23.001c-27.333 -11.333 -46.333 -19.666 -57 -24.999c-28.667 -15.333 -54 -32.333 -76 -51l-32 -37c0 14.667 27.667 53.334 83 116.001
c26 29.333 48 48.333 66 57c29.333 15.333 71.666 29.833 126.999 43.5s99 20.5 131 20.5c15.333 0 23 -2.33301 23 -7c0 -4 -6.33301 -10 -19 -18z" />
    <glyph glyph-name="uFDF2" unicode="&#xfedf;&#xfee0;&#xfeea;" horiz-adv-x="1549" arabic-form="isolated" 
d="M1063 1612c0 -5.33301 0.667969 -12.667 2.00098 -22s2 -16.333 2 -21c0 -18.667 -6.33301 -30.667 -19 -36c-2.66699 -1.33301 -5 -2 -7 -2c-18 0 -35 33 -51 99c-1.33301 4.66699 -2 11.667 -2 21c0 17.333 6 46 18 86c13.333 46 25.666 69 36.999 69
c3.33301 0 5 -5.33301 5 -16s-3.66699 -28.667 -11 -54c-4 -14 -6 -25.333 -6 -34c0 -11.333 5.33301 -26.5 16 -45.5s16 -33.833 16 -44.5zM1148 1337c-14 -5.33301 -28.333 -8.00195 -43 -8.00195c-60 0 -92.667 23.667 -98 71v15c0 34 8.66699 53 26 57h9
c30.667 0 46 -14 46 -42c0 -21.333 -10.833 -46.166 -32.5 -74.499s-54.834 -42.5 -99.501 -42.5c-60 0 -99.333 40.667 -118 122c-2.66699 13.333 -4 26.666 -4 39.999c0 42 15.333 66.333 46 73c4 0.666992 7.33301 1 10 1c17.333 0 26 -18.667 26 -56v-19.5v-20.5
c0 -24.667 3 -45.334 9 -62.001c6.66699 -21.333 14.667 -32 24 -32c2.66699 0 15.667 15.333 39 46c10 13.333 20.333 19.333 31 18c7.33301 -1.33301 16.333 -9.16602 27 -23.499s20.334 -21.5 29.001 -21.5c16.667 0 29 10.333 37 31c12.667 33.333 20.667 52.333 24 57
l17 30c6 10.667 13.333 15 22 13l14 -6c18 -11.333 27 -30 27 -56c0 -5.33301 -0.333008 -10.666 -1 -15.999c-6.66699 -47.333 -29 -78.666 -67 -93.999zM1469 391.997c-10 -40 -25.998 -100.001 -47.998 -180.001c-18.667 -67.333 -42 -118.666 -70 -153.999
c-33.333 -43.333 -76 -65 -128 -65h-12h-7c-46.667 4 -76.667 42.333 -90 115l-18 198c-6.66699 70.667 -26.334 106 -59.001 106c-10 0 -20 -2 -30 -6c-32.667 -12.667 -55 -37.667 -67 -75l-19 -109c-8 -44.667 -24 -79.334 -48 -104.001l-79 -86
c-29.333 -30 -58.666 -45 -87.999 -45c-12 0 -24.667 2.66699 -38 8c-38 15.333 -61 51.666 -69 108.999c-2 20 -5.33301 50.333 -10 91c-0.666992 4.66699 -1.66699 12.334 -3 23.001v15c0 23.333 11 71.333 33 144c10 34 15 64 15 90
c0 8.66699 -0.666992 18.334 -2 29.001c-6 56 -13.333 100 -22 132c-22.667 85.333 -68 153.333 -136 204c-26.667 20 -49 30 -67 30c-38 0 -59.667 -49 -65 -147c-2 -70 -5.66699 -174.667 -11 -314c-7.33301 -126.667 -31.666 -224 -72.999 -292l-40 -70
c-30 -48.667 -61.333 -73 -94 -73c-36 0 -54 54.667 -54 164c0 39.333 2.66699 104.666 8 195.999c2 35.333 3 62.333 3 81c0 130.667 12.667 257.334 38 380.001c12.667 60 25.334 90 38.001 90c8 0 15.167 -12.333 21.5 -37s9.5 -49 9.5 -73
c0 -31.333 -6.66699 -68.333 -20 -111l-39 -106c-14 -42 -21 -83 -21 -123c0 -15.333 -0.333008 -37.666 -1 -66.999s-1 -50.666 -1 -63.999c-0.666992 -64.667 8.33301 -125 27 -181c12 -35.333 25.333 -53 40 -53c29.333 0 66.333 81 111 243l123 452
c47.333 162 90.333 243 129 243c16.667 0 32.667 -16.333 48 -49c21.333 -43.333 32 -90.333 32 -141c0 -27.333 -3 -57.666 -9 -90.999l-19 -101c-6 -34.667 -9 -66.334 -9 -95.001c0 -24.667 2.33301 -58 7 -100c6 -50 9.66699 -83.333 11 -100
c3.33301 -59.333 10 -102.333 20 -129c14 -39.333 38.667 -70.666 74 -93.999c23.333 -15.333 45.666 -23 66.999 -23c72 0 132.667 98 182 294c6.66699 27.333 22 99.333 46 216c4 20 6 39.333 6 58c0 29.333 -4.66699 60.666 -14 93.999l-26 96
c-9.33301 36 -14 66.667 -14 92c0 33.333 7.5 65.833 22.5 97.5s25.5 52.5 31.5 62.5c12 18 27.667 35.667 47 53c14.667 13.333 26.334 20 35.001 20c11.333 0 17 -13.667 17 -41c0 -12.667 -11.333 -93.667 -34 -243c-8 -49.333 -12 -90.666 -12 -123.999
c0 -15.333 1 -30 3 -44c3.33301 -23.333 10.666 -111 21.999 -263c8.66699 -115.333 21.334 -199.666 38.001 -252.999c22.667 -75.333 57 -113 103 -113c19.333 0 41 6 65 18c31.333 16.667 57.666 37 78.999 61c12.667 14 33 41.667 61 83
c34.667 51.333 52 106.666 52 165.999c0 51.333 -14 111 -42 179c-18.667 41.333 -45.334 103.666 -80.001 186.999c-28.667 71.333 -43 140 -43 206c0 7.33301 0.5 18.666 1.5 33.999s1.5 26.666 1.5 33.999c0 14.667 -2 47 -6 97c-2 24.667 -3 43 -3 55
c0 48.667 12 73 36 73c5.33301 0 11.666 -1.33301 18.999 -4c26 -8 46 -24.667 60 -50c8 -14.667 18 -41.334 30 -80.001l17 -58c6.66699 -19.333 10 -35.666 10 -48.999c0 -24 -10.333 -41.333 -31 -52c-8.66699 -2 -21.334 -5.33301 -38.001 -10
c-48 -14.667 -72 -43 -72 -85c0 -28.667 13 -70.667 39 -126l71 -152c26 -59.333 39 -112 39 -158c0 -20 -2.66699 -38.667 -8 -56z" />
    <glyph glyph-name="uFEF5" unicode="&#xfedf;&#xfe82;" horiz-adv-x="1519" arabic-form="isolated" 
d="M522 1199c-62 -42.667 -103.335 -64.001 -124.002 -64.001c-15.333 0 -31.666 3.66699 -48.999 11c-38.667 16.667 -63.334 25 -74.001 25c-5.33301 0 -12 -1 -20 -3l-195 -40l57 61c25.333 25.333 48.333 38 69 38c2 0.666992 5.33301 1 10 1
c14.667 0 42.334 -8.66699 83.001 -26c22 -9.33301 40.333 -13.666 55 -12.999c130.667 6.66699 193.334 10 188.001 10zM1402 885.999c-12.667 9.33301 -23.6641 13.998 -32.9971 13.998c-22.667 0 -34 -33 -34 -99c0 -36 5.66699 -112.667 17 -230c4 -42 6 -74.667 6 -98
c0 -31.333 3.66699 -66.333 11 -105c15.333 -82.667 23 -135 23 -157c0 -19.333 -1.33301 -38.333 -4 -57c-14.667 -97.333 -45.334 -181.333 -92.001 -252c-42 -63.333 -105 -127.333 -189 -192l-123 -101c-56 -46.667 -100.333 -81 -133 -103
c-46.667 -32 -82.334 -48 -107.001 -48c-28 0 -42 21.667 -42 65c0 32.667 16 51.667 48 57l86 6c67.333 14 146.666 60.667 237.999 140l118 104c78 72 132 154.333 162 247c14 44.667 21 93.334 21 146.001c0 34 -3 71.333 -9 112c-1.33301 8 -8.33301 44 -21 108
c-7.33301 40.667 -12.333 74.667 -15 102c-2 22.667 -3 47.334 -3 74.001c0 22 0.833008 54.5 2.5 97.5s2.5 75.5 2.5 97.5c0 78.667 -8.33301 148 -25 208c-2 6.66699 -5.33301 12.667 -10 18c-18.667 20 -28 36.667 -28 50c0 40 32.667 77 98 111
c4.66699 2 8.66699 3 12 3c8.66699 0 13 -13.667 13 -41c0 -43.333 3.33301 -75.333 10 -96l65 -181c9.33301 -29.333 14 -48 14 -56c0 -7.33301 -2 -11 -6 -11c-5.33301 0 -12 4 -20 12zM1075 8.99707c-14 0 -36.332 38.333 -66.999 115l-53 141
c-26 64 -51.333 104 -76 120l-215 127c-71.333 46.667 -135.333 98.334 -192 155.001c-18.667 18.667 -39 42 -61 70c-17.333 22 -44.666 49.333 -81.999 82c-41.333 36 -69.333 62.333 -84 79c-26.667 28.667 -40 53.667 -40 75c0 18 9 35 27 51c4.66699 4.66699 10 7 16 7
c8.66699 0 22 -7.33301 40 -22c22 -18 39.333 -29 52 -33c61.333 -21.333 96.333 -34 105 -38c34 -14 51 -27.333 51 -40c0 -8 -6 -15.667 -18 -23c-4.66699 -2.66699 -15 -7.33398 -31 -14.001c-24 -9.33301 -41.667 -21.666 -53 -36.999c-6 -8.66699 -9 -18.667 -9 -30
c0 -26 25 -57.333 75 -94c24 -17.333 78.667 -51 164 -101c73.333 -42.667 126.333 -77.334 159 -104.001c20.667 -16.667 54.5 -38.5 101.5 -65.5s80.833 -49.167 101.5 -66.5c33.333 -28 58.666 -61.5 75.999 -100.5s28.666 -65.833 33.999 -80.5
c11.333 -29.333 17 -55.333 17 -78c0 -20.667 -4 -41.667 -12 -63s-16.667 -32 -26 -32z" />
    <glyph glyph-name="uFEF6" unicode="&#xfee0;&#xfe82;" horiz-adv-x="1539" arabic-form="final" 
d="M1652 0h-160.001c-11.333 0 -26 6.66699 -44 20l-73 57c-25.333 -96.667 -75.333 -183.334 -150 -260.001c-33.333 -34 -74.333 -69.667 -123 -107l-123 -101c-56 -46.667 -100.333 -81 -133 -103c-46.667 -32 -82.334 -48 -107.001 -48c-28 0 -42 21.667 -42 65
c0 37.333 13.333 56 40 56c6 0 14.667 -0.5 26 -1.5s20 -1.5 26 -1.5c44.667 0 99.334 20.667 164.001 62c39.333 25.333 78 54.666 116 87.999l118 104c78 72 132 154.333 162 247c14 44.667 21 93.334 21 146.001c0 34 -3 71.333 -9 112c-1.33301 8 -8.33301 44 -21 108
c-7.33301 40.667 -12.333 74.667 -15 102c-2 22.667 -3 47.334 -3 74.001c0 22 0.833008 54.5 2.5 97.5s2.5 75.5 2.5 97.5c0 78.667 -8.33301 148 -25 208c-2 6.66699 -5.33301 12.667 -10 18c-18.667 20 -28 36.667 -28 50c0 40 32.667 77 98 111
c3.33301 1.33301 6.33301 2 9 2c12.667 0 22.334 -23.667 29.001 -71c5.33301 -34 9.33301 -55.667 12 -65l40 -122c17.333 -54 26 -89.667 26 -107c0 -12 -3 -18 -9 -18c-4.66699 0 -11 3.33301 -19 10l-53 56c-12.667 9.33301 -24.667 14 -36 14c-46 0 -75 -85 -87 -255
c-3.33301 -52 -5 -109.333 -5 -172c0 -34 10 -68.333 30 -103l55 -92c20.667 -35.333 31 -68.333 31 -99c0 -4 -0.5 -10 -1.5 -18s-1.5 -14 -1.5 -18c0 2 0.666992 -8.33301 2 -31c0 -2.66699 -0.333008 -5.66699 -1 -9c24 -8.66699 97.667 -13 221 -13h48v-90z
M516.999 1199c-62 -42.667 -103.335 -64.001 -124.002 -64.001c-15.333 0 -31.666 3.66699 -48.999 11c-38.667 16.667 -63.334 25 -74.001 25c-5.33301 0 -12 -1 -20 -3l-195 -40l57 61c25.333 25.333 48.333 38 69 38c2 0.666992 5.33301 1 10 1
c14.667 0 42.334 -8.66699 83.001 -26c22 -9.33301 40.333 -13.666 55 -12.999c130.667 6.66699 193.334 10 188.001 10zM1119 -28.001c-10 0 -21.6689 36 -35.002 108c-22 122.667 -35.333 193.334 -40 212.001c-19.333 80 -41 128 -65 144
c-21.333 13.333 -63 27.666 -125 42.999c-88.667 23.333 -144.667 39 -168 47c-78 26 -151 73 -219 141c-18.667 18.667 -39 42 -61 70c-17.333 22 -44.666 49.333 -81.999 82c-41.333 36 -69.333 62.333 -84 79c-26.667 28.667 -40 53.667 -40 75c0 18 9 35 27 51
c4.66699 4.66699 9.66699 7 15 7c7.33301 0 17 -5.33301 29 -16c27.333 -25.333 49.333 -42 66 -50c6 -3.33301 32 -12.333 78 -27c50 -16.667 75 -30.667 75 -42c0 -6.66699 -5.66699 -13.667 -17 -21c-4 -2.66699 -14.333 -7.33398 -31 -14.001
c-24 -9.33301 -41.667 -21.666 -53 -36.999c-6 -8.66699 -9 -18.667 -9 -30c0 -26 25 -57.333 75 -94c24 -17.333 78.667 -51 164 -101c73.333 -42.667 126.333 -77.334 159 -104.001c20.667 -16.667 54.5 -38.5 101.5 -65.5s80.833 -49.167 101.5 -66.5
c32 -27.333 57.333 -60.666 76 -99.999c6 -12.667 18 -36 36 -70c34.667 -67.333 52 -118 52 -152c0 -10.667 -2.33301 -24 -7 -40c-5.33301 -19.333 -11.666 -29 -18.999 -29z" />
    <glyph glyph-name="uFEF7" unicode="&#xfedf;&#xfe84;" horiz-adv-x="1550" arabic-form="isolated" 
d="M304 1199c0 6 -1.00098 8.99902 -3.00098 8.99902s-11.333 -11.5 -28 -34.5s-29 -33.833 -37 -32.5c-86.667 13.333 -132 54.666 -136 123.999c-0.666992 20.667 18 32.667 56 36c46.667 3.33301 75 11 85 23c4.66699 4.66699 7.33398 7.66699 8.00098 9
c2.66699 4 3 7.33301 1 10c-2 3.33301 -3.66699 5.33301 -5 6c-2 0 -6.5 -10.833 -13.5 -32.5s-11.5 -33.167 -13.5 -34.5c-4 -3.33301 -12 -7.66602 -24 -12.999c-18 -8 -27 -18 -27 -30v-9c0 -9.33301 2.33301 -20.333 7 -33c11.333 -28.667 17 -46 17 -52
c0 -4 -0.333008 -7 -1 -9c-1.33301 -8 -9.33301 -17.5 -24 -28.5s-22 -21.167 -22 -30.5c-0.666992 -6 -1 -9.33301 -1 -10c-0.666992 0.666992 -1 1.33398 -1 2.00098c0 18 3 38.333 9 61c9.33301 39.333 26.333 59 51 59c4.66699 0 11.667 -0.5 21 -1.5
s16.333 -1.5 21 -1.5c11.333 0 20 1.66699 26 5c4 2 7.66699 2.66699 11 2c10 0 14.667 0 14 0c6 0 9 2 9 6zM1382 885.999c-12.667 9.33301 -23.6641 13.998 -32.9971 13.998c-22.667 0 -34 -33 -34 -99c0 -36 5.66699 -112.667 17 -230c4 -42 6 -74.667 6 -98
c0 -31.333 3.66699 -66.333 11 -105c15.333 -82.667 23 -135 23 -157c0 -19.333 -1.33301 -38.333 -4 -57c-14.667 -97.333 -45.334 -181.333 -92.001 -252c-42 -63.333 -105 -127.333 -189 -192l-123 -101c-56 -46.667 -100.333 -81 -133 -103
c-46.667 -32 -82.334 -48 -107.001 -48c-28 0 -42 21.667 -42 65c0 32.667 16 51.667 48 57l86 6c67.333 14 146.666 60.667 237.999 140l118 104c78 72 132 154.333 162 247c14 44.667 21 93.334 21 146.001c0 34 -3 71.333 -9 112c-1.33301 8 -8.33301 44 -21 108
c-7.33301 40.667 -12.333 74.667 -15 102c-2 22.667 -3 47.334 -3 74.001c0 22 0.833008 54.5 2.5 97.5s2.5 75.5 2.5 97.5c0 78.667 -8.33301 148 -25 208c-2 6.66699 -5.33301 12.667 -10 18c-18.667 20 -28 36.667 -28 50c0 40 32.667 77 98 111
c4.66699 2 8.66699 3 12 3c8.66699 0 13 -13.667 13 -41c0 -43.333 3.33301 -75.333 10 -96l65 -181c9.33301 -29.333 14 -48 14 -56c0 -7.33301 -2 -11 -6 -11c-5.33301 0 -12 4 -20 12zM1055 8.99707c-14 0 -36.332 38.333 -66.999 115l-53 141
c-26 64 -51.333 104 -76 120l-215 127c-71.333 46.667 -135.333 98.334 -192 155.001c-18.667 18.667 -39 42 -61 70c-17.333 22 -44.666 49.333 -81.999 82c-41.333 36 -69.333 62.333 -84 79c-26.667 28.667 -40 53.667 -40 75c0 18 9 35 27 51c4.66699 4.66699 10 7 16 7
c8.66699 0 22 -7.33301 40 -22c22 -18 39.333 -29 52 -33c61.333 -21.333 96.333 -34 105 -38c34 -14 51 -27.333 51 -40c0 -8 -6 -15.667 -18 -23c-4.66699 -2.66699 -15 -7.33398 -31 -14.001c-24 -9.33301 -41.667 -21.666 -53 -36.999c-6 -8.66699 -9 -18.667 -9 -30
c0 -26 25 -57.333 75 -94c24 -17.333 78.667 -51 164 -101c73.333 -42.667 126.333 -77.334 159 -104.001c20.667 -16.667 54.5 -38.5 101.5 -65.5s80.833 -49.167 101.5 -66.5c33.333 -28 58.666 -61.5 75.999 -100.5s28.666 -65.833 33.999 -80.5
c11.333 -29.333 17 -55.333 17 -78c0 -20.667 -4 -41.667 -12 -63s-16.667 -32 -26 -32z" />
    <glyph glyph-name="uFEF8" unicode="&#xfee0;&#xfe84;" horiz-adv-x="1524" arabic-form="final" 
d="M1637 0h-160.001c-11.333 0 -26 6.66699 -44 20l-73 57c-25.333 -96.667 -75.333 -183.334 -150 -260.001c-33.333 -34 -74.333 -69.667 -123 -107l-123 -101c-56 -46.667 -100.333 -81 -133 -103c-46.667 -32 -82.334 -48 -107.001 -48c-28 0 -42 21.667 -42 65
c0 37.333 13.333 56 40 56c6 0 14.667 -0.5 26 -1.5s20 -1.5 26 -1.5c44.667 0 99.334 20.667 164.001 62c39.333 25.333 78 54.666 116 87.999l118 104c78 72 132 154.333 162 247c14 44.667 21 93.334 21 146.001c0 34 -3 71.333 -9 112c-1.33301 8 -8.33301 44 -21 108
c-7.33301 40.667 -12.333 74.667 -15 102c-2 22.667 -3 47.334 -3 74.001c0 22 0.833008 54.5 2.5 97.5s2.5 75.5 2.5 97.5c0 78.667 -8.33301 148 -25 208c-2 6.66699 -5.33301 12.667 -10 18c-18.667 20 -28 36.667 -28 50c0 40 32.667 77 98 111
c3.33301 1.33301 6.33301 2 9 2c12.667 0 22.334 -23.667 29.001 -71c5.33301 -34 9.33301 -55.667 12 -65l40 -122c17.333 -54 26 -89.667 26 -107c0 -12 -3 -18 -9 -18c-4.66699 0 -11 3.33301 -19 10l-53 56c-12.667 9.33301 -24.667 14 -36 14c-46 0 -75 -85 -87 -255
c-3.33301 -52 -5 -109.333 -5 -172c0 -34 10 -68.333 30 -103l55 -92c20.667 -35.333 31 -68.333 31 -99c0 -4 -0.5 -10 -1.5 -18s-1.5 -14 -1.5 -18c0 2 0.666992 -8.33301 2 -31c0 -2.66699 -0.333008 -5.66699 -1 -9c24 -8.66699 97.667 -13 221 -13h48v-90z
M303.999 1199c0 6 -1.00098 8.99902 -3.00098 8.99902s-11.333 -11.5 -28 -34.5s-29 -33.833 -37 -32.5c-86.667 13.333 -132 54.666 -136 123.999c-0.666992 20.667 18 32.667 56 36c46.667 3.33301 75 11 85 23c4.66699 4.66699 7.33398 7.66699 8.00098 9
c2.66699 4 3 7.33301 1 10c-2 3.33301 -3.66699 5.33301 -5 6c-2 0 -6.5 -10.833 -13.5 -32.5s-11.5 -33.167 -13.5 -34.5c-4 -3.33301 -12 -7.66602 -24 -12.999c-18 -8 -27 -18 -27 -30v-9c0 -9.33301 2.33301 -20.333 7 -33c11.333 -28.667 17 -46 17 -52
c0 -4 -0.333008 -7 -1 -9c-1.33301 -8 -9.33301 -17.5 -24 -28.5s-22 -21.167 -22 -30.5c-0.666992 -6 -1 -9.33301 -1 -10c-0.666992 0.666992 -1 1.33398 -1 2.00098c0 18 3 38.333 9 61c9.33301 39.333 26.333 59 51 59c4.66699 0 11.667 -0.5 21 -1.5
s16.333 -1.5 21 -1.5c11.333 0 20 1.66699 26 5c4 2 7.66699 2.66699 11 2c10 0 14.667 0 14 0c6 0 9 2 9 6zM1104 -28.001c-10 0 -21.6689 36 -35.002 108c-22 122.667 -35.333 193.334 -40 212.001c-19.333 80 -41 128 -65 144c-21.333 13.333 -63 27.666 -125 42.999
c-88.667 23.333 -144.667 39 -168 47c-78 26 -151 73 -219 141c-18.667 18.667 -39 42 -61 70c-17.333 22 -44.666 49.333 -81.999 82c-41.333 36 -69.333 62.333 -84 79c-26.667 28.667 -40 53.667 -40 75c0 18 9 35 27 51c4.66699 4.66699 9.66699 7 15 7
c7.33301 0 17 -5.33301 29 -16c27.333 -25.333 49.333 -42 66 -50c6 -3.33301 32 -12.333 78 -27c50 -16.667 75 -30.667 75 -42c0 -6.66699 -5.66699 -13.667 -17 -21c-4 -2.66699 -14.333 -7.33398 -31 -14.001c-24 -9.33301 -41.667 -21.666 -53 -36.999
c-6 -8.66699 -9 -18.667 -9 -30c0 -26 25 -57.333 75 -94c24 -17.333 78.667 -51 164 -101c73.333 -42.667 126.333 -77.334 159 -104.001c20.667 -16.667 54.5 -38.5 101.5 -65.5s80.833 -49.167 101.5 -66.5c32 -27.333 57.333 -60.666 76 -99.999
c6 -12.667 18 -36 36 -70c34.667 -67.333 52 -118 52 -152c0 -10.667 -2.33301 -24 -7 -40c-5.33301 -19.333 -11.666 -29 -18.999 -29z" />
    <glyph glyph-name="uFEF9" unicode="&#xfedf;&#xfe88;" horiz-adv-x="1453" arabic-form="isolated" 
d="M1300 886c-12.667 9.33301 -23.6641 13.998 -32.9971 13.998c-22.667 0 -34 -33 -34 -99c0 -36 5.66699 -112.667 17 -230c4 -42 6 -74.667 6 -98c0 -31.333 3.66699 -66.333 11 -105c15.333 -82.667 23 -135 23 -157c0 -19.333 -1.33301 -38.333 -4 -57
c-14.667 -97.333 -45.334 -181.333 -92.001 -252c-42 -63.333 -105 -127.333 -189 -192l-123 -101c-56 -46.667 -100.333 -81 -133 -103c-46.667 -32 -82.334 -48 -107.001 -48c-28 0 -42 21.667 -42 65c0 32.667 16 51.667 48 57l86 6
c67.333 14 146.666 60.667 237.999 140l118 104c78 72 132 154.333 162 247c14 44.667 21 93.334 21 146.001c0 34 -3 71.333 -9 112c-1.33301 8 -8.33301 44 -21 108c-7.33301 40.667 -12.333 74.667 -15 102c-2 22.667 -3 47.334 -3 74.001c0 22 0.833008 54.5 2.5 97.5
s2.5 75.5 2.5 97.5c0 78.667 -8.33301 148 -25 208c-2 6.66699 -5.33301 12.667 -10 18c-18.667 20 -28 36.667 -28 50c0 40 32.667 77 98 111c4.66699 2 8.66699 3 12 3c8.66699 0 13 -13.667 13 -41c0 -43.333 3.33301 -75.333 10 -96l65 -181
c9.33301 -29.333 14 -48 14 -56c0 -7.33301 -2 -11 -6 -11c-5.33301 0 -12 4 -20 12zM973.003 8.99805c-14 0 -36.332 38.333 -66.999 115l-53 141c-26 64 -51.333 104 -76 120l-215 127c-71.333 46.667 -135.333 98.334 -192 155.001c-18.667 18.667 -39 42 -61 70
c-17.333 22 -44.666 49.333 -81.999 82c-41.333 36 -69.333 62.333 -84 79c-26.667 28.667 -40 53.667 -40 75c0 18 9 35 27 51c4.66699 4.66699 10 7 16 7c8.66699 0 22 -7.33301 40 -22c22 -18 39.333 -29 52 -33c61.333 -21.333 96.333 -34 105 -38
c34 -14 51 -27.333 51 -40c0 -8 -6 -15.667 -18 -23c-4.66699 -2.66699 -15 -7.33398 -31 -14.001c-24 -9.33301 -41.667 -21.666 -53 -36.999c-6 -8.66699 -9 -18.667 -9 -30c0 -26 25 -57.333 75 -94c24 -17.333 78.667 -51 164 -101
c73.333 -42.667 126.333 -77.334 159 -104.001c20.667 -16.667 54.5 -38.5 101.5 -65.5s80.833 -49.167 101.5 -66.5c33.333 -28 58.666 -61.5 75.999 -100.5s28.666 -65.833 33.999 -80.5c11.333 -29.333 17 -55.333 17 -78c0 -20.667 -4 -41.667 -12 -63
s-16.667 -32 -26 -32zM1360 -427.002c-1.33301 5.33301 -2.66797 8 -4.00098 8c-0.666992 0 -7.5 -13 -20.5 -39s-23.5 -39 -31.5 -39c-86 0 -138 33.333 -156 100c-1.33301 4.66699 -2 8.66699 -2 12c0 14 18.333 25 55 33c41.333 10 66.666 22 75.999 36
c4.66699 8 7 13.667 7 17c-1.33301 5.33301 -3.66602 8.33301 -6.99902 9c-1.33301 0 -3.83301 -11.5 -7.5 -34.5s-6.5 -35.167 -8.5 -36.5c-18 -19.333 -27 -40.666 -27 -63.999c0 -10.667 4.16699 -24.834 12.5 -42.501s12.5 -31.5 12.5 -41.5
c0 -8.66699 -6 -19.5 -18 -32.5s-17.667 -24.167 -17 -33.5v-7c0 -2 -0.333008 -3.33301 -1 -4c0 0.666992 -0.333008 2.66699 -1 6c-2 12 -3 23 -3 33c0 50 9.33301 79 28 87c18.667 0 46.334 6.66699 83.001 20c0.666992 0.666992 6.66699 2 18 4
c8.66699 1.33301 12.667 4.33301 12 9z" />
    <glyph glyph-name="uFEFA" unicode="&#xfee0;&#xfe88;" horiz-adv-x="1432" arabic-form="final" 
d="M1545 0h-160.001c-11.333 0 -26 6.66699 -44 20l-73 57c-25.333 -96.667 -75.333 -183.334 -150 -260.001c-33.333 -34 -74.333 -69.667 -123 -107l-123 -101c-56 -46.667 -100.333 -81 -133 -103c-46.667 -32 -82.334 -48 -107.001 -48c-28 0 -42 21.667 -42 65
c0 37.333 13.333 56 40 56c6 0 14.667 -0.5 26 -1.5s20 -1.5 26 -1.5c44.667 0 99.334 20.667 164.001 62c39.333 25.333 78 54.666 116 87.999l118 104c78 72 132 154.333 162 247c14 44.667 21 93.334 21 146.001c0 34 -3 71.333 -9 112c-1.33301 8 -8.33301 44 -21 108
c-7.33301 40.667 -12.333 74.667 -15 102c-2 22.667 -3 47.334 -3 74.001c0 22 0.833008 54.5 2.5 97.5s2.5 75.5 2.5 97.5c0 78.667 -8.33301 148 -25 208c-2 6.66699 -5.33301 12.667 -10 18c-18.667 20 -28 36.667 -28 50c0 40 32.667 77 98 111
c3.33301 1.33301 6.33301 2 9 2c12.667 0 22.334 -23.667 29.001 -71c5.33301 -34 9.33301 -55.667 12 -65l40 -122c17.333 -54 26 -89.667 26 -107c0 -12 -3 -18 -9 -18c-4.66699 0 -11 3.33301 -19 10l-53 56c-12.667 9.33301 -24.667 14 -36 14c-46 0 -75 -85 -87 -255
c-3.33301 -52 -5 -109.333 -5 -172c0 -34 10 -68.333 30 -103l55 -92c20.667 -35.333 31 -68.333 31 -99c0 -4 -0.5 -10 -1.5 -18s-1.5 -14 -1.5 -18c0 2 0.666992 -8.33301 2 -31c0 -2.66699 -0.333008 -5.66699 -1 -9c24 -8.66699 97.667 -13 221 -13h48v-90zM1012 -28
c-10 0 -21.6689 36 -35.002 108c-22 122.667 -35.333 193.334 -40 212.001c-19.333 80 -41 128 -65 144c-21.333 13.333 -63 27.666 -125 42.999c-88.667 23.333 -144.667 39 -168 47c-78 26 -151 73 -219 141c-18.667 18.667 -39 42 -61 70
c-17.333 22 -44.666 49.333 -81.999 82c-41.333 36 -69.333 62.333 -84 79c-26.667 28.667 -40 53.667 -40 75c0 18 9 35 27 51c4.66699 4.66699 9.66699 7 15 7c7.33301 0 17 -5.33301 29 -16c27.333 -25.333 49.333 -42 66 -50c6 -3.33301 32 -12.333 78 -27
c50 -16.667 75 -30.667 75 -42c0 -6.66699 -5.66699 -13.667 -17 -21c-4 -2.66699 -14.333 -7.33398 -31 -14.001c-24 -9.33301 -41.667 -21.666 -53 -36.999c-6 -8.66699 -9 -18.667 -9 -30c0 -26 25 -57.333 75 -94c24 -17.333 78.667 -51 164 -101
c73.333 -42.667 126.333 -77.334 159 -104.001c20.667 -16.667 54.5 -38.5 101.5 -65.5s80.833 -49.167 101.5 -66.5c32 -27.333 57.333 -60.666 76 -99.999c6 -12.667 18 -36 36 -70c34.667 -67.333 52 -118 52 -152c0 -10.667 -2.33301 -24 -7 -40
c-5.33301 -19.333 -11.666 -29 -18.999 -29zM1352 -391c-1.33301 5.33301 -3 8 -5 8l-19.5 -39c-13 -26 -23.5 -39 -31.5 -39c-86.667 0 -138.667 33.333 -156 100c-1.33301 4.66699 -2 8.66699 -2 12c0 14 18.333 25 55 33c41.333 10 66.666 22 75.999 36
c4.66699 8 7 13.667 7 17c-2 5.33301 -4.33301 8.33301 -7 9c-1.33301 0 -3.83301 -11.5 -7.5 -34.5s-6.5 -35.167 -8.5 -36.5c-18 -19.333 -27 -40.666 -27 -63.999c0 -10.667 4.16699 -24.834 12.5 -42.501s12.5 -31.5 12.5 -41.5c0 -8.66699 -6.16699 -19.5 -18.5 -32.5
s-17.833 -24.167 -16.5 -33.5v-7c0 -2 -0.333008 -3.33301 -1 -4c-0.666992 0.666992 -1 2.66699 -1 6c-2 12 -3 23 -3 33c0 50 9.33301 79 28 87c18.667 0 46.334 6.66699 83.001 20c0.666992 0.666992 6.66699 2 18 4c8.66699 1.33301 12.667 4.33301 12 9z" />
    <glyph glyph-name="uFEFB" unicode="&#xfedf;&#xfe8e;" horiz-adv-x="1453" arabic-form="isolated" 
d="M1310 886c-12.667 9.33301 -23.6641 13.998 -32.9971 13.998c-22.667 0 -34 -33 -34 -99c0 -36 5.66699 -112.667 17 -230c4 -42 6 -74.667 6 -98c0 -31.333 3.66699 -66.333 11 -105c15.333 -82.667 23 -135 23 -157c0 -19.333 -1.33301 -38.333 -4 -57
c-14.667 -97.333 -45.334 -181.333 -92.001 -252c-42 -63.333 -105 -127.333 -189 -192l-123 -101c-56 -46.667 -100.333 -81 -133 -103c-46.667 -32 -82.334 -48 -107.001 -48c-28 0 -42 21.667 -42 65c0 32.667 16 51.667 48 57l86 6
c67.333 14 146.666 60.667 237.999 140l118 104c78 72 132 154.333 162 247c14 44.667 21 93.334 21 146.001c0 34 -3 71.333 -9 112c-1.33301 8 -8.33301 44 -21 108c-7.33301 40.667 -12.333 74.667 -15 102c-2 22.667 -3 47.334 -3 74.001c0 22 0.833008 54.5 2.5 97.5
s2.5 75.5 2.5 97.5c0 78.667 -8.33301 148 -25 208c-2 6.66699 -5.33301 12.667 -10 18c-18.667 20 -28 36.667 -28 50c0 40 32.667 77 98 111c4.66699 2 8.66699 3 12 3c8.66699 0 13 -13.667 13 -41c0 -43.333 3.33301 -75.333 10 -96l65 -181
c9.33301 -29.333 14 -48 14 -56c0 -7.33301 -2 -11 -6 -11c-5.33301 0 -12 4 -20 12zM983.003 8.99805c-14 0 -36.332 38.333 -66.999 115l-53 141c-26 64 -51.333 104 -76 120l-215 127c-71.333 46.667 -135.333 98.334 -192 155.001c-18.667 18.667 -39 42 -61 70
c-17.333 22 -44.666 49.333 -81.999 82c-41.333 36 -69.333 62.333 -84 79c-26.667 28.667 -40 53.667 -40 75c0 18 9 35 27 51c4.66699 4.66699 10 7 16 7c8.66699 0 22 -7.33301 40 -22c22 -18 39.333 -29 52 -33c61.333 -21.333 96.333 -34 105 -38
c34 -14 51 -27.333 51 -40c0 -8 -6 -15.667 -18 -23c-4.66699 -2.66699 -15 -7.33398 -31 -14.001c-24 -9.33301 -41.667 -21.666 -53 -36.999c-6 -8.66699 -9 -18.667 -9 -30c0 -26 25 -57.333 75 -94c24 -17.333 78.667 -51 164 -101
c73.333 -42.667 126.333 -77.334 159 -104.001c20.667 -16.667 54.5 -38.5 101.5 -65.5s80.833 -49.167 101.5 -66.5c33.333 -28 58.666 -61.5 75.999 -100.5s28.666 -65.833 33.999 -80.5c11.333 -29.333 17 -55.333 17 -78c0 -20.667 -4 -41.667 -12 -63
s-16.667 -32 -26 -32z" />
    <glyph glyph-name="uFEFC" unicode="&#xfee0;&#xfe8e;" horiz-adv-x="1447" arabic-form="final" 
d="M1560 0h-160.001c-11.333 0 -26 6.66699 -44 20l-73 57c-25.333 -96.667 -75.333 -183.334 -150 -260.001c-33.333 -34 -74.333 -69.667 -123 -107l-123 -101c-56 -46.667 -100.333 -81 -133 -103c-46.667 -32 -82.334 -48 -107.001 -48c-28 0 -42 21.667 -42 65
c0 37.333 13.333 56 40 56c6 0 14.667 -0.5 26 -1.5s20 -1.5 26 -1.5c44.667 0 99.334 20.667 164.001 62c39.333 25.333 78 54.666 116 87.999l118 104c78 72 132 154.333 162 247c14 44.667 21 93.334 21 146.001c0 34 -3 71.333 -9 112c-1.33301 8 -8.33301 44 -21 108
c-7.33301 40.667 -12.333 74.667 -15 102c-2 22.667 -3 47.334 -3 74.001c0 22 0.833008 54.5 2.5 97.5s2.5 75.5 2.5 97.5c0 78.667 -8.33301 148 -25 208c-2 6.66699 -5.33301 12.667 -10 18c-18.667 20 -28 36.667 -28 50c0 40 32.667 77 98 111
c3.33301 1.33301 6.33301 2 9 2c12.667 0 22.334 -23.667 29.001 -71c5.33301 -34 9.33301 -55.667 12 -65l40 -122c17.333 -54 26 -89.667 26 -107c0 -12 -3 -18 -9 -18c-4.66699 0 -11 3.33301 -19 10l-53 56c-12.667 9.33301 -24.667 14 -36 14c-46 0 -75 -85 -87 -255
c-3.33301 -52 -5 -109.333 -5 -172c0 -34 10 -68.333 30 -103l55 -92c20.667 -35.333 31 -68.333 31 -99c0 -4 -0.5 -10 -1.5 -18s-1.5 -14 -1.5 -18c0 2 0.666992 -8.33301 2 -31c0 -2.66699 -0.333008 -5.66699 -1 -9c24 -8.66699 97.667 -13 221 -13h48v-90zM1027 -28
c-10 0 -21.6689 36 -35.002 108c-22 122.667 -35.333 193.334 -40 212.001c-19.333 80 -41 128 -65 144c-21.333 13.333 -63 27.666 -125 42.999c-88.667 23.333 -144.667 39 -168 47c-78 26 -151 73 -219 141c-18.667 18.667 -39 42 -61 70
c-17.333 22 -44.666 49.333 -81.999 82c-41.333 36 -69.333 62.333 -84 79c-26.667 28.667 -40 53.667 -40 75c0 18 9 35 27 51c4.66699 4.66699 9.66699 7 15 7c7.33301 0 17 -5.33301 29 -16c27.333 -25.333 49.333 -42 66 -50c6 -3.33301 32 -12.333 78 -27
c50 -16.667 75 -30.667 75 -42c0 -6.66699 -5.66699 -13.667 -17 -21c-4 -2.66699 -14.333 -7.33398 -31 -14.001c-24 -9.33301 -41.667 -21.666 -53 -36.999c-6 -8.66699 -9 -18.667 -9 -30c0 -26 25 -57.333 75 -94c24 -17.333 78.667 -51 164 -101
c73.333 -42.667 126.333 -77.334 159 -104.001c20.667 -16.667 54.5 -38.5 101.5 -65.5s80.833 -49.167 101.5 -66.5c32 -27.333 57.333 -60.666 76 -99.999c6 -12.667 18 -36 36 -70c34.667 -67.333 52 -118 52 -152c0 -10.667 -2.33301 -24 -7 -40
c-5.33301 -19.333 -11.666 -29 -18.999 -29z" />
    <glyph glyph-name="u0652_u064E.liga" unicode="&#x652;&#x64e;" horiz-adv-x="1" 
d="M135 1180c0.666992 -14.667 1.99805 -36.667 3.99805 -66c-1.33301 -12 -3.66602 -24 -6.99902 -36c-10 -30 -15.333 -48.667 -16 -56c-2 -18 -3.33301 -30.333 -4 -37c-0.666992 -31.333 3 -55.333 11 -72c0.666992 -1.33301 2 -5 4 -11
c-8 4.66699 -20.333 30.667 -37 78c-7.33301 22 -11 39 -11 51c2.66699 56.667 16.667 108 42 154c4.66699 8 8.33398 11.333 11.001 10c1.33301 -1.33301 2.33301 -6.33301 3 -15z" />
    <glyph glyph-name="u0652_u064B.liga" unicode="&#x652;&#x64b;" horiz-adv-x="1" 
d="M403 856c-14.667 -6 -33.667 -8.99902 -57 -8.99902c-12 0 -18 3 -18 9c0 4 4 11.333 12 22c20.667 26.667 33 45.667 37 57c3.33301 9.33301 5 21 5 35c0 4.66699 -0.333008 11.667 -1 21s-1 15.666 -1 18.999c-0.666992 10.667 1.33301 16 6 16
c3.33301 0 7.33301 -1.66699 12 -5c42 -29.333 63 -60.333 63 -93c0 -34 -19.333 -58 -58 -72zM193 856.001c-14.667 -6 -33.667 -8.99902 -57 -8.99902c-12 0 -18 3 -18 9c0 4 4 11.333 12 22c20.667 26.667 33 45.667 37 57c3.33301 9.33301 5 21 5 35
c0 4.66699 -0.333008 11.667 -1 21s-1 15.666 -1 18.999c-0.666992 10.667 1.33301 16 6 16c3.33301 0 7.33301 -1.66699 12 -5c42 -29.333 63 -60.333 63 -93c0 -34 -19.333 -58 -58 -72z" />
    <glyph glyph-name="u0652_u064D.liga" unicode="&#x652;&#x64d;" horiz-adv-x="1" 
d="M543 -861c-14.667 -5.33301 -33.668 -7.99902 -57.001 -7.99902c-12.667 0 -19 2.66699 -19 8c0 4.66699 4 12 12 22c20.667 27.333 33.334 46.666 38.001 57.999c2.66699 8.66699 4 20 4 34v20c-0.666992 10 -1 17 -1 21c-0.666992 10 1.33301 15 6 15
c3.33301 0 7.33301 -1.33301 12 -4c42 -30 63 -61.333 63 -94c0 -34 -19.333 -58 -58 -72zM332.999 -860.999c-14.667 -5.33301 -33.668 -7.99902 -57.001 -7.99902c-12.667 0 -19 2.66699 -19 8c0 4.66699 4 12 12 22c20.667 27.333 33.334 46.666 38.001 57.999
c2.66699 8.66699 4 20 4 34v20c-0.666992 10 -1 17 -1 21c-0.666992 10 1.33301 15 6 15c3.33301 0 7.33301 -1.33301 12 -4c42 -30 63 -61.333 63 -94c0 -34 -19.333 -58 -58 -72z" />
    <glyph glyph-name="u0622" unicode="&#x622;" horiz-adv-x="456" arabic-form="isolated" 
d="M523 1380c-51.333 -35.333 -85.668 -53 -103.001 -53c-12.667 0 -30.167 4.83301 -52.5 14.5s-39.166 14.5 -50.499 14.5c-5.33301 0 -10.666 -0.666992 -15.999 -2l-163 -33c27.333 30 43 47 47 51c21.333 20.667 40.666 31 57.999 31h10
c12.667 0 31.667 -5.33301 57 -16s44.333 -15.667 57 -15c110.667 5.33301 162.667 8 156 8zM453.998 853c-14.667 20 -25.667 31.998 -33 35.998c-12.667 8 -23 12 -31 12c-23.333 0 -35 -31.333 -35 -94c0 -28.667 2 -63.667 6 -105l12 -127l9 -173c2 -14.667 4 -37 6 -67
c1.33301 -16 -2.33398 -47.333 -11.001 -94c-2.66699 -18.667 -4 -58 -4 -118c0 -92.667 -10 -139 -30 -139c-8.66699 18.667 -13 37.334 -13 56.001c0 6.66699 3.66699 34 11 82c4 26 6 48.667 6 68c0 43.333 0.333008 81.333 1 114l4 176c0 28.667 -1 66.334 -3 113.001
l-6 139c-2 46.667 -3 85 -3 115c0 -11.333 1 23.667 3 105c0.666992 31.333 -8 61.333 -26 90c-7.33301 4.66699 -15.666 13 -24.999 25c-1.33301 4 -2 7 -2 9c0 6.66699 4.33301 13 13 19c23.333 15.333 36.833 25.5 40.5 30.5s8.5 20.5 14.5 46.5
c4.66699 18.667 11 28 19 28c15.333 0 23 -12.667 23 -38c0 -12.667 -1.5 -31.5 -4.5 -56.5s-4.5 -43.833 -4.5 -56.5c0 -12 1 -22.333 3 -31c4.66699 -21.333 15 -45 31 -71c45.333 -74.667 68 -113 68 -115c0 -2.66699 -1 -4 -3 -4c-11.333 0 -23.333 8.33301 -36 25z" />
    <glyph glyph-name="u0623" unicode="&#x623;" horiz-adv-x="456" arabic-form="isolated" 
d="M392 1327c0 5.33301 -0.668945 8.33301 -2.00195 9c-38 -44 -61.333 -65 -70 -63c-82.667 20 -124 65.667 -124 137c0 21.333 13 32 39 32c5.33301 0 13.833 -0.5 25.5 -1.5s20.5 -1.5 26.5 -1.5c26 0 47 8.33301 63 25c2.66699 3.33301 3.33398 6.66602 2.00098 9.99902
s-3 5.33301 -5 6c-1.33301 0 -5.33301 -9.33301 -12 -28c-7.33301 -20.667 -14.333 -33 -21 -37c-24 -14.667 -38.333 -32.667 -43 -54c-1.33301 -6 -2 -11.667 -2 -17c0 -6 1.33301 -14.667 4 -26s4 -20 4 -26c0 -18.667 -10 -33.667 -30 -45
c-10 -6 -18.667 -18.667 -26 -38c-0.666992 0.666992 -1 4 -1 10c0 6.66699 4.33301 23 13 49c12 34.667 26 53.334 42 56.001c2.66699 0.666992 5.33398 1 8.00098 1c6 0 17 -1.66699 33 -5c10 -2 17.333 -3 22 -3c7.33301 0 14 1 20 3c3.33301 1.33301 6.33301 2 9 2
c2 0 5 -0.333008 9 -1s7 -1 9 -1c4.66699 0 7 2.33301 7 7zM453.998 853c-14.667 20 -25.667 31.998 -33 35.998c-12.667 8 -23 12 -31 12c-23.333 0 -35 -31.333 -35 -94c0 -28.667 2 -63.667 6 -105l12 -127l9 -173c2 -14.667 4 -37 6 -67
c1.33301 -16 -2.33398 -47.333 -11.001 -94c-2.66699 -18.667 -4 -58 -4 -118c0 -92.667 -10 -139 -30 -139c-8.66699 18.667 -13 37.334 -13 56.001c0 6.66699 3.66699 34 11 82c4 26 6 48.667 6 68c0 43.333 0.333008 81.333 1 114l4 176c0 28.667 -1 66.334 -3 113.001
l-6 139c-2 46.667 -3 85 -3 115c0 -11.333 1 23.667 3 105c0.666992 31.333 -8 61.333 -26 90c-7.33301 4.66699 -15.666 13 -24.999 25c-1.33301 4 -2 7 -2 9c0 6.66699 4.33301 13 13 19c23.333 15.333 36.833 25.5 40.5 30.5s8.5 20.5 14.5 46.5
c4.66699 18.667 11 28 19 28c15.333 0 23 -12.667 23 -38c0 -12.667 -1.5 -31.5 -4.5 -56.5s-4.5 -43.833 -4.5 -56.5c0 -12 1 -22.333 3 -31c4.66699 -21.333 15 -45 31 -71c45.333 -74.667 68 -113 68 -115c0 -2.66699 -1 -4 -3 -4c-11.333 0 -23.333 8.33301 -36 25z" />
    <glyph glyph-name="u0624" unicode="&#x624;" horiz-adv-x="847" arabic-form="isolated" 
d="M468 578c-0.666992 5.33301 -2.00098 8 -4.00098 8c-0.666992 0 -7.5 -13 -20.5 -39s-23.5 -39 -31.5 -39c-86 0 -138 33.333 -156 100c-1.33301 4.66699 -2 8.66699 -2 12c0 14 18.333 25 55 33c41.333 10 66.666 22 75.999 36c4.66699 8 7 13.667 7 17
c-1.33301 5.33301 -3.66602 8.33301 -6.99902 9c-0.666992 0 -3 -11.5 -7 -34.5s-6.66699 -35.167 -8 -36.5c-18.667 -19.333 -28 -40.666 -28 -63.999c0 -10.667 4.16699 -24.834 12.5 -42.501s12.5 -31.5 12.5 -41.5c0 -8.66699 -6 -19.5 -18 -32.5
s-17.667 -24.167 -17 -33.5v-8c0 -1.33301 -0.333008 -2.33301 -1 -3c0 0.666992 -0.333008 2.66699 -1 6c-1.33301 12 -2 23 -2 33c0 50 9 79 27 87c18.667 0 46.334 6.66699 83.001 20c1.33301 0.666992 7.33301 2 18 4c8.66699 1.33301 12.667 4.33301 12 9zM763.999 -92
c-18 38.667 -54.667 61.666 -110 68.999c-30.667 2.66699 -77 7 -139 13c-45.333 10 -68 36.667 -68 80c0 94 44.667 151.333 134 172c8.66699 2 17 3 25 3c48.667 0 88 -34 118 -102c26 -60 39 -127.667 39 -203c0 -118 -60.333 -214.333 -181 -289
c-17.333 -10.667 -77.333 -42.667 -180 -96l-289.5 -157.5c-131.667 -73 -223.5 -122.833 -275.5 -149.5c-88.667 -44 -144.667 -66 -168 -66c-10 0 -15 3 -15 9c0 18 17.667 42 53 72c26.667 22.667 51.667 40.667 75 54l203 117l61 34c116 63.333 250.667 115 404 155
c120.667 30.667 200 55.334 238 74.001c66 32 99 73.667 99 125c0 26 -7.66699 54.667 -23 86zM712.999 86.999c0 25.333 -15.666 47.333 -46.999 66c-28 16.667 -55.667 25 -83 25s-55 -8.66699 -83 -26c-32 -20 -48 -42.667 -48 -68c0 -22.667 10 -38 30 -46
c8.66699 -3.33301 18.667 -5 30 -5c8 0 19.667 0.833008 35 2.5s26.666 2.5 33.999 2.5c8 0 19.833 -0.666992 35.5 -2s27.5 -2 35.5 -2c12.667 0 23 1.66699 31 5c20 8.66699 30 24.667 30 48z" />
    <glyph glyph-name="u0625" unicode="&#x625;" horiz-adv-x="456" arabic-form="isolated" 
d="M454 853c-14.667 20 -25.667 31.998 -33 35.998c-12.667 8 -23 12 -31 12c-23.333 0 -35 -31.333 -35 -94c0 -28.667 2 -63.667 6 -105l12 -127l9 -173c2 -14.667 4 -37 6 -67c1.33301 -16 -2.33398 -47.333 -11.001 -94c-2.66699 -18.667 -4 -58 -4 -118
c0 -92.667 -10 -139 -30 -139c-8.66699 18.667 -13 37.334 -13 56.001c0 6.66699 3.66699 34 11 82c4 26 6 48.667 6 68c0 43.333 0.333008 81.333 1 114l4 176c0 28.667 -1 66.334 -3 113.001l-6 139c-2 46.667 -3 85 -3 115c0 -11.333 1 23.667 3 105
c0.666992 31.333 -8 61.333 -26 90c-7.33301 4.66699 -15.666 13 -24.999 25c-1.33301 4 -2 7 -2 9c0 6.66699 4.33301 13 13 19c23.333 15.333 36.833 25.5 40.5 30.5s8.5 20.5 14.5 46.5c4.66699 18.667 11 28 19 28c15.333 0 23 -12.667 23 -38
c0 -12.667 -1.5 -31.5 -4.5 -56.5s-4.5 -43.833 -4.5 -56.5c0 -12 1 -22.333 3 -31c4.66699 -21.333 15 -45 31 -71c45.333 -74.667 68 -113 68 -115c0 -2.66699 -1 -4 -3 -4c-11.333 0 -23.333 8.33301 -36 25zM430 -244.002c-1.33301 5.33301 -3 8.33301 -5 9l-19.5 -39
c-13 -26 -23.5 -39 -31.5 -39c-86.667 0 -138.667 33 -156 99c-1.33301 4.66699 -2 8.66699 -2 12c0 14 18.333 25.333 55 34c41.333 9.33301 66.666 21.333 75.999 36c4.66699 7.33301 7 12.666 7 15.999c-2 5.33301 -4.33301 8.33301 -7 9
c-1.33301 0 -3.83301 -11.333 -7.5 -34s-6.5 -35 -8.5 -37c-18 -19.333 -27 -40.666 -27 -63.999c0 -10 4.16699 -24 12.5 -42s12.5 -32 12.5 -42c0 -8 -6.16699 -18.5 -18.5 -31.5s-17.833 -24.5 -16.5 -34.5v-7c0 -1.33301 -0.333008 -2.33301 -1 -3
c-0.666992 0.666992 -1 2.66699 -1 6c-2 12 -3 22.667 -3 32c0 50 9.33301 79.333 28 88c18.667 0 46.334 6.33301 83.001 19c0.666992 0.666992 6.66699 2 18 4c8.66699 1.33301 12.667 4.33301 12 9z" />
    <glyph glyph-name="u0626" unicode="&#x626;" horiz-adv-x="1174" arabic-form="isolated" 
d="M1089 526c0 -4 0.665039 -9.33594 1.99805 -16.0029c4 -15.333 6 -24.333 6 -27c0 -6 -3 -9 -9 -9c-8 0 -15 6.33301 -21 19c-6.66699 15.333 -12.334 24.333 -17.001 27c-20 12 -41.667 18 -65 18c-61.333 0 -115.666 -35.333 -162.999 -106
c-43.333 -64 -65 -128.333 -65 -193v-15c0 -2.66699 1 -9.33398 3 -20.001c6.66699 -42 33.334 -69.333 80.001 -82c30.667 -6 77 -16.167 139 -30.5s98.333 -49.5 109 -105.5c2 -10 3 -19.667 3 -29c0 -66 -51.333 -131 -154 -195
c-23.333 -15.333 -66.666 -39.333 -129.999 -72l-104 -55c-82 -43.333 -154 -65 -216 -65c-34.667 0 -68.667 5.66699 -102 17c-182 61.333 -273 182 -273 362c0 23.333 -3.16699 57.833 -9.5 103.5s-9.5 80.167 -9.5 103.5c0 34 7 51 21 51c17.333 0 31 -9.66699 41 -29
c4.66699 -8 7 -16.667 7 -26c0 -14 -7.83301 -39.667 -23.5 -77s-23.5 -65.666 -23.5 -84.999c0 -10.667 1.66699 -20.667 5 -30c62.667 -183.333 175 -284.666 337 -303.999c14 -2 27.667 -3 41 -3c49.333 0 107.333 16.333 174 49l86 42
c21.333 10.667 67 29.334 137 56.001c46 18 78.333 35.333 97 52c26 22.667 42.333 54.667 49 96c0.666992 4.66699 1 8.33398 1 11.001v9c0 37.333 -22 65.333 -66 84l-134 50c-79.333 32 -119 91 -119 177c0 69.333 21.667 145 65 227c50 94.667 106.333 142 169 142
c25.333 0 48.333 -10 69 -30l43 -41c13.333 -15.333 20 -32.333 20 -51zM278.998 526.997c-1.33301 5.33301 -3 8 -5 8l-19.5 -39c-13 -26 -23.5 -39 -31.5 -39c-86.667 0 -138.667 33.333 -156 100c-1.33301 4.66699 -2 8.66699 -2 12c0 14 18.333 25 55 33
c41.333 10 66.666 22 75.999 36c4.66699 8 7 13.667 7 17c-2 5.33301 -4.33301 8.33301 -7 9c-1.33301 0 -3.83301 -11.5 -7.5 -34.5s-6.5 -35.167 -8.5 -36.5c-18 -19.333 -27 -40.666 -27 -63.999c0 -10.667 4.16699 -24.834 12.5 -42.501s12.5 -31.5 12.5 -41.5
c0 -8.66699 -6.16699 -19.5 -18.5 -32.5s-17.833 -24.167 -16.5 -33.5v-8c0 -1.33301 -0.333008 -2.33301 -1 -3c-0.666992 0.666992 -1 2.66699 -1 6c-2 12 -3 23 -3 33c0 50 9.33301 79 28 87c18.667 0 46.334 6.66699 83.001 20c0.666992 0.666992 6.66699 2 18 4
c8.66699 1.33301 12.667 4.33301 12 9z" />
    <glyph glyph-name="u0627" unicode="&#x627;" horiz-adv-x="456" arabic-form="isolated" 
d="M454 853c-14.667 20 -25.667 31.998 -33 35.998c-12.667 8 -23 12 -31 12c-23.333 0 -35 -31.333 -35 -94c0 -28.667 2 -63.667 6 -105l12 -127l9 -173c2 -14.667 4 -37 6 -67c1.33301 -16 -2.33398 -47.333 -11.001 -94c-2.66699 -18.667 -4 -58 -4 -118
c0 -92.667 -10 -139 -30 -139c-8.66699 18.667 -13 37.334 -13 56.001c0 6.66699 3.66699 34 11 82c4 26 6 48.667 6 68c0 43.333 0.333008 81.333 1 114l4 176c0 28.667 -1 66.334 -3 113.001l-6 139c-2 46.667 -3 85 -3 115c0 -11.333 1 23.667 3 105
c0.666992 31.333 -8 61.333 -26 90c-7.33301 4.66699 -15.666 13 -24.999 25c-1.33301 4 -2 7 -2 9c0 6.66699 4.33301 13 13 19c23.333 15.333 36.833 25.5 40.5 30.5s8.5 20.5 14.5 46.5c4.66699 18.667 11 28 19 28c15.333 0 23 -12.667 23 -38
c0 -12.667 -1.5 -31.5 -4.5 -56.5s-4.5 -43.833 -4.5 -56.5c0 -12 1 -22.333 3 -31c4.66699 -21.333 15 -45 31 -71c45.333 -74.667 68 -113 68 -115c0 -2.66699 -1 -4 -3 -4c-11.333 0 -23.333 8.33301 -36 25z" />
    <glyph glyph-name="u0628" unicode="&#x628;" horiz-adv-x="1361" arabic-form="isolated" 
d="M1293 421c-0.666992 62.667 -11.333 93.998 -32 93.998s-35.667 -12 -45 -36c-6 -14.667 -9 -32.667 -9 -54c0 -44 7.33301 -79 22 -105c16 -28.667 26.333 -50 31 -64c10 -32.667 15 -60 15 -82c0 -42.667 -28 -72 -84 -88
c-77.333 -21.333 -164.333 -37.666 -261 -48.999c-60 -7.33301 -119 -11 -177 -11c-88.667 0 -171 9.66699 -247 29l-188 46c-68.667 18.667 -121.667 42.667 -159 72c-46.667 36.667 -75.667 87.667 -87 153c-0.666992 4.66699 -1 10 -1 16s0.666992 14 2 24l5 -52
c1.33301 -18.667 2 -33.667 2 -45v-15c-1.33301 -8 -2 -15.667 -2 -23v-13c0 -122.667 102.333 -193.667 307 -213c50.667 -4.66699 130 -7 238 -7c138.667 0 237 2.33301 295 7c256 21.333 384 103.333 384 246c0 12 -0.333008 21 -1 27
c-1.33301 8.66699 -3 21.834 -5 39.501s-3 52.167 -3 103.5zM718.001 -262.002c-14.667 -5.33301 -33.667 -7.99902 -57 -7.99902c-12.667 0 -19 2.66699 -19 8c0 4.66699 4 12.334 12 23.001c20.667 26.667 33 45.667 37 57c3.33301 9.33301 5 20.666 5 33.999
c0 5.33301 -0.166992 12.666 -0.5 21.999s-0.833008 15.666 -1.5 18.999c0 10.667 2.33301 16 7 16c3.33301 0 7 -1.66699 11 -5c42 -29.333 63 -60.666 63 -93.999s-19 -57.333 -57 -72z" />
    <glyph glyph-name="u0629" unicode="&#x629;" horiz-adv-x="633" arabic-form="isolated" 
d="M571 714c0 -17.333 -3.33301 -40.665 -10 -69.998c-6.66699 -31.333 -25.667 -60 -57 -86l-80 -65c-26.667 -26.667 -40 -56.334 -40 -89.001c0 -27.333 10.333 -53 31 -77c14 -13.333 34 -34 60 -62c21.333 -24 32 -50 32 -78c0 -45.333 -15 -89 -45 -131
c-32.667 -46 -70.667 -69 -114 -69c-47.333 0 -82.333 23 -105 69c-10.667 20.667 -17.667 49.667 -21 87c-0.666992 4 -1 8.33301 -1 13c0 20.667 18.333 58 55 112c16.667 26 25 49.333 25 70c0 6 -0.333008 12.333 -1 19c-18 99.333 -78.667 168 -182 206
c-10 1.33301 -25 5 -45 11c-14 6.66699 -21 18.667 -21 36c0 22.667 11.667 48.334 35 77.001c10 12.667 26.667 19 50 19c26 0 57.333 -8.66699 94 -26c41.333 -20.667 62 -42.334 62 -65.001c0 -13.333 -14 -24 -42 -32c-33.333 -8.66699 -50 -26.334 -50 -53.001
c0 -38 34 -74.667 102 -110c8.66699 -4.66699 18.334 -7 29.001 -7c32.667 0 64 33 94 99c13.333 28.667 35.666 90.667 66.999 186c22 66.667 38.667 100 50 100c18.667 0 28 -28 28 -84zM469 160.001c-10 78.667 -44.333 118.001 -103 118.001
c-30.667 0 -57 -18.667 -79 -56c-18.667 -32.667 -28 -65.667 -28 -99c0 -40.667 11.667 -68.334 35 -83.001c12.667 -8.66699 27.667 -13 45 -13c33.333 0 63.333 12.167 90 36.5s40 52.833 40 85.5v11zM450 823.002c-0.666992 5.33301 -1.99609 8.33398 -3.99609 9.00098
c-0.666992 0 -7.33398 -13 -20.001 -39s-23.334 -39 -32.001 -39c-86 0 -138 33 -156 99c-0.666992 4.66699 -1 8.66699 -1 12c0 14 18 25.333 54 34c42 9.33301 67.333 21.333 76 36c5.33301 7.33301 8 12.666 8 15.999c-2 5.33301 -4.66699 8.33301 -8 9
c-0.666992 0 -3 -11.333 -7 -34s-6.66699 -35 -8 -37c-18.667 -19.333 -28 -40.666 -28 -63.999c0 -10 4.16699 -24 12.5 -42s12.5 -32 12.5 -42c0 -8.66699 -6 -19.334 -18 -32.001s-17.333 -24 -16 -34v-7c-0.666992 -2 -1.33398 -3 -2.00098 -3l-1 6
c-1.33301 12 -2 22.667 -2 32c0 50 9 79.333 27 88c19.333 0 47 6.33301 83 19c1.33301 0.666992 7.66602 2 18.999 4c8 1.33301 11.667 4.33301 11 9z" />
    <glyph glyph-name="u062A" unicode="&#x62a;" horiz-adv-x="1366" arabic-form="isolated" 
d="M819 461c-14.667 -5.33301 -33.667 -8.00098 -57 -8.00098c-12.667 0 -19 2.66699 -19 8c0 4.66699 4 12.334 12 23.001c20.667 26.667 33 45.667 37 57c3.33301 9.33301 5 20.666 5 33.999c0 5.33301 -0.166992 12.5 -0.5 21.5s-0.833008 15.5 -1.5 19.5
c0 10.667 2.33301 16 7 16c3.33301 0 7 -1.66699 11 -5c42 -29.333 63 -60.666 63 -93.999s-19 -57.333 -57 -72zM609 460.999c-14.667 -5.33301 -33.667 -8.00098 -57 -8.00098c-12.667 0 -19 2.66699 -19 8c0 4.66699 4 12.334 12 23.001c20.667 26.667 33 45.667 37 57
c3.33301 9.33301 5 20.666 5 33.999c0 5.33301 -0.166992 12.5 -0.5 21.5s-0.833008 15.5 -1.5 19.5c0 10.667 2.33301 16 7 16c3.33301 0 7 -1.66699 11 -5c42 -29.333 63 -60.666 63 -93.999s-19 -57.333 -57 -72zM1298 420.998
c-0.666992 62.667 -11.333 93.998 -32 93.998s-35.667 -12 -45 -36c-6 -14.667 -9 -32.667 -9 -54c0 -44 7.33301 -79 22 -105c16 -28.667 26.333 -50 31 -64c10 -32.667 15 -60 15 -82c0 -42.667 -28 -72 -84 -88c-77.333 -21.333 -164.333 -37.666 -261 -48.999
c-60 -7.33301 -119 -11 -177 -11c-88.667 0 -171 9.66699 -247 29l-188 46c-68.667 18.667 -121.667 42.667 -159 72c-46.667 36.667 -75.667 87.667 -87 153c-0.666992 4.66699 -1 10 -1 16s0.666992 14 2 24l5 -52c1.33301 -18.667 2 -33.667 2 -45v-15
c-1.33301 -8 -2 -15.667 -2 -23v-13c0 -122.667 102.333 -193.667 307 -213c50.667 -4.66699 130 -7 238 -7c138.667 0 237 2.33301 295 7c256 21.333 384 103.333 384 246c0 12 -0.333008 21 -1 27c-1.33301 8.66699 -3 21.834 -5 39.501s-3 52.167 -3 103.5z" />
    <glyph glyph-name="u062B" unicode="&#x62b;" horiz-adv-x="1356" arabic-form="isolated" 
d="M683 713c-14.667 -5.33301 -33.668 -8.00098 -57.001 -8.00098c-12.667 0 -19 2.66699 -19 8c0 4.66699 4 12.334 12 23.001c20.667 26.667 33.334 45.667 38.001 57c2.66699 9.33301 4 20.666 4 33.999v21c-0.666992 9.33301 -1 16 -1 20
c-0.666992 10.667 1.33301 16 6 16c3.33301 0 7.33301 -1.66699 12 -5c42 -29.333 63 -60.666 63 -93.999s-19.333 -57.333 -58 -72zM779.999 437.999c-14.667 -5.33301 -33.667 -7.99902 -57 -7.99902c-12 0 -18 2.66699 -18 8c0 4.66699 4 12 12 22
c20.667 27.333 33 46.666 37 57.999c3.33301 8.66699 5 20 5 34c0 5.33301 -0.333008 12.5 -1 21.5s-1 15.5 -1 19.5c-0.666992 10 1.33301 15 6 15c3.33301 0 7.33301 -1.33301 12 -4c42 -30 63 -61.333 63 -94c0 -34 -19.333 -58 -58 -72zM539.999 438
c-14.667 -5.33301 -33.667 -7.99902 -57 -7.99902c-12 0 -18 2.66699 -18 8c0 4.66699 4 12 12 22c20.667 27.333 33 46.666 37 57.999c3.33301 8.66699 5 20 5 34c0 5.33301 -0.333008 12.5 -1 21.5s-1 15.5 -1 19.5c-0.666992 10 1.33301 15 6 15
c3.33301 0 7.33301 -1.33301 12 -4c42 -30 63 -61.333 63 -94c0 -34 -19.333 -58 -58 -72zM1293 421.001c-0.666992 62.667 -11.333 93.998 -32 93.998s-35.667 -12 -45 -36c-6 -14.667 -9 -32.667 -9 -54c0 -44 7.33301 -79 22 -105c16 -28.667 26.333 -50 31 -64
c10 -32.667 15 -60 15 -82c0 -42.667 -28 -72 -84 -88c-77.333 -21.333 -164.333 -37.666 -261 -48.999c-60 -7.33301 -119 -11 -177 -11c-88.667 0 -171 9.66699 -247 29l-188 46c-68.667 18.667 -121.667 42.667 -159 72c-46.667 36.667 -75.667 87.667 -87 153
c-0.666992 4.66699 -1 10 -1 16s0.666992 14 2 24l5 -52c1.33301 -18.667 2 -33.667 2 -45v-15c-1.33301 -8 -2 -15.667 -2 -23v-13c0 -122.667 102.333 -193.667 307 -213c50.667 -4.66699 130 -7 238 -7c138.667 0 237 2.33301 295 7c256 21.333 384 103.333 384 246
c0 12 -0.333008 21 -1 27c-1.33301 8.66699 -3 21.834 -5 39.501s-3 52.167 -3 103.5z" />
    <glyph glyph-name="u062C" unicode="&#x62c;" horiz-adv-x="1220" arabic-form="isolated" 
d="M1403 -722c6.66699 -8 9.99707 -15.667 9.99707 -23c0 -42.667 -105 -64 -315 -64c-128 0 -235 8.33301 -321 25c-210 40 -359.667 114.667 -449 224c-70 84.667 -105 175.334 -105 272.001c0 54.667 17.333 114.667 52 180c31.333 58 69.333 108.333 114 151l128 116
c47.333 42 80 73.667 98 95c26 30.667 39 56.334 39 77.001c0 29.333 -26 52.666 -78 69.999c-30.667 10 -62.667 15 -96 15c-10 0 -24.833 -0.5 -44.5 -1.5s-34.5 -1.5 -44.5 -1.5c-26.667 0 -55 -5.66699 -85 -17c-68 -26 -113.333 -38.667 -136 -38
c-53.333 0.666992 -80 9.66699 -80 27c0 8.66699 16.333 18 49 28c9.33301 2.66699 45.666 11.334 108.999 26.001c47.333 10.667 81.666 20 102.999 28c30.667 11.333 62 17 94 17c22.667 0 84.334 -11.667 185.001 -35c34.667 -8 67 -12 97 -12
c34.667 0 80.334 13.667 137.001 41c3.33301 1.33301 50.333 26.666 141 75.999c50 28 84 42 102 42c16.667 0 25 -10 25 -30c0 -7.33301 -1.33301 -17 -4 -29c-8.66699 -38 -28.667 -72.333 -60 -103l-49 -42c-32 -26.667 -67.333 -45 -106 -55l-105 -17
c-69.333 -10.667 -144.333 -49 -225 -115c-60.667 -50.667 -124 -118.334 -190 -203.001l-96 -124c-32 -44 -48 -92 -48 -144c0 -13.333 1 -27.333 3 -42c13.333 -101.333 55.333 -181 126 -239c60 -48.667 141.333 -84.667 244 -108c16.667 -4 113.334 -23.333 290.001 -58
c47.333 -10 82 -16.667 104 -20c37.333 -6.66699 70.333 -10 99 -10c26 0 49.667 3 71 9c10.667 4 39.334 17 86.001 39c19.333 9.33301 36.333 14 51 14c8.66699 0 16.334 -1 23.001 -3c22 -7.33301 41 -20 57 -38zM674.997 -346
c-14.667 -5.33301 -33.667 -7.99902 -57 -7.99902c-12 0 -18 2.66699 -18 8c0 4.66699 4 12.334 12 23.001c20.667 26.667 33 45.667 37 57c3.33301 9.33301 5 20.666 5 33.999c0 5.33301 -0.333008 12.666 -1 21.999s-1 15.666 -1 18.999c-0.666992 10.667 1.33301 16 6 16
c3.33301 0 7.33301 -1.66699 12 -5c42 -29.333 63 -60.666 63 -93.999s-19.333 -57.333 -58 -72z" />
    <glyph glyph-name="u062D" unicode="&#x62d;" horiz-adv-x="1204" arabic-form="isolated" 
d="M1403 -722c6.66699 -8 10.001 -15.668 10.001 -23.001c0 -42.667 -105 -64 -315 -64c-128 0 -235 8.33301 -321 25c-210 40 -359.667 114.667 -449 224c-70 84.667 -105 175.334 -105 272.001c0 54.667 17.333 114.667 52 180c31.333 58 69.333 108.333 114 151l128 116
c47.333 42 80 73.667 98 95c26 30.667 39 56.334 39 77.001c0 29.333 -26 52.666 -78 69.999c-30.667 10 -62.667 15 -96 15c-10 0 -24.833 -0.5 -44.5 -1.5s-34.5 -1.5 -44.5 -1.5c-26.667 0 -55 -5.66699 -85 -17c-68 -26 -113.333 -38.667 -136 -38
c-53.333 0.666992 -80 9.66699 -80 27c0 8.66699 16.333 18 49 28c9.33301 2.66699 45.666 11.334 108.999 26.001c47.333 10.667 81.666 20 102.999 28c29.333 11.333 60 17 92 17c25.333 0 92 -13 200 -39c36 -9.33301 69.667 -14 101 -14c34.667 0 79.334 14 134.001 42
c10 5.33301 55.333 32 136 80c47.333 28 79.333 42 96 42c14.667 0 22 -9.33301 22 -28c0 -8 -1.33301 -18 -4 -30c-8.66699 -38 -28.667 -72.333 -60 -103l-49 -42c-32 -26.667 -67.333 -45 -106 -55l-105 -17c-69.333 -10.667 -144.333 -49 -225 -115
c-60.667 -50.667 -124 -118.334 -190 -203.001l-96 -124c-32 -44 -48 -92 -48 -144c0 -13.333 1 -27.333 3 -42c13.333 -101.333 55.333 -181 126 -239c60 -48.667 141.333 -84.667 244 -108l290 -58c49.333 -10 98.333 -15 147 -15c47.333 0 91.666 5 132.999 15
c9.33301 2 29.333 9 60 21c24.667 8.66699 44.667 13 60 13c10 0 19.667 -1 29 -3c24.667 -6.66699 45.334 -20 62.001 -40z" />
    <glyph glyph-name="u062E" unicode="&#x62e;" horiz-adv-x="1220" arabic-form="isolated" 
d="M794 631c-14.667 -5.33301 -33.667 -7.99902 -57 -7.99902c-12.667 0 -19 2.66699 -19 8c0 4.66699 4 12 12 22c20.667 27.333 33 46.666 37 57.999c3.33301 8.66699 5 20 5 34c0 5.33301 -0.166992 12.5 -0.5 21.5s-0.833008 15.5 -1.5 19.5c0 10.667 2.33301 16 7 16
c3.33301 0 7 -1.66699 11 -5c42 -30 63 -61.333 63 -94c0 -33.333 -19 -57.333 -57 -72zM1413 -721.999c6.66699 -8 10.001 -15.668 10.001 -23.001c0 -42.667 -105 -64 -315 -64c-128 0 -235 8.33301 -321 25c-210 40 -359.667 114.667 -449 224
c-70 84.667 -105 175.334 -105 272.001c0 54.667 17.333 114.667 52 180c31.333 58 69.333 108.333 114 151l128 116c47.333 42 80 73.667 98 95c26 30.667 39 56.334 39 77.001c0 29.333 -26 52.666 -78 69.999c-30.667 10 -62.667 15 -96 15
c-10 0 -24.833 -0.5 -44.5 -1.5s-34.5 -1.5 -44.5 -1.5c-26.667 0 -55 -5.66699 -85 -17c-68 -26 -113.333 -38.667 -136 -38c-53.333 0.666992 -80 9.66699 -80 27c0 8.66699 16.333 18 49 28c9.33301 2.66699 45.666 11.334 108.999 26.001c46.667 10.667 81 20 103 28
c31.333 11.333 65 17 101 17c30 0 64.333 -4 103 -12l117 -23c40 -8 75 -12 105 -12c35.333 0 78.333 13.667 129 41c15.333 8 56.333 33.333 123 76c42.667 28 71 42 85 42c12.667 0 19 -8.66699 19 -26c0 -8 -1.66699 -19 -5 -33c-8.66699 -38 -28.667 -72.333 -60 -103
l-49 -42c-32 -26.667 -67.333 -45 -106 -55l-105 -17c-69.333 -10.667 -144.333 -49 -225 -115c-60.667 -50.667 -124 -118.334 -190 -203.001l-96 -124c-32 -44 -48 -92 -48 -144c0 -13.333 1 -27.333 3 -42c13.333 -101.333 55.333 -181 126 -239
c60 -48.667 141.333 -84.667 244 -108l290 -58c29.333 -6 60.333 -9 93 -9c30 0 61 2.33301 93 7c18 3.33301 47.333 9.66602 88 18.999l41 10c29.333 8 52.333 12 69 12c14 0 26.667 -1.66699 38 -5c27.333 -7.33301 50.333 -21.666 69 -42.999z" />
    <glyph glyph-name="u062F" unicode="&#x62f;" horiz-adv-x="1090" arabic-form="isolated" 
d="M1015 361c6.66699 -26 9.99805 -52.6689 9.99805 -80.002c0 -82 -29 -161 -87 -237c-50.667 -67.333 -115.667 -122.333 -195 -165c-81.333 -44.667 -161.333 -67 -240 -67c-81.333 0 -148.666 24.333 -201.999 73c-40 36.667 -62 57.334 -66 62.001
c-25.333 28.667 -43.333 75.334 -54 140.001c-3.33301 22 -5 42.333 -5 61c0 64 19 96 57 96c24 0 36 -15.333 36 -46c0 -8 -4 -37.667 -12 -89c-4 -24 -6 -43.667 -6 -59c0 -27.333 5 -48.666 15 -63.999c41.333 -65.333 105.333 -98 192 -98c99.333 0 206 38.667 320 116
c142.667 98 214 204.333 214 319c0 64 -17.333 109.667 -52 137c-22.667 17.333 -52.334 31 -89.001 41c-23.333 5.33301 -57.666 14 -102.999 26c-120.667 32.667 -195.667 96 -225 190c-5.33301 15.333 -14 38.666 -26 69.999c-18.667 50.667 -28 87.667 -28 111
c0 28.667 10 52.667 30 72c12 12 29.333 18 52 18c32.667 0 69.334 -12.667 110.001 -38c46 -27.333 69 -55.666 69 -84.999c0 -26.667 -22 -42.667 -66 -48c-37.333 -4.66699 -64.333 -17 -81 -37c-6.66699 -8.66699 -10 -17.334 -10 -26.001c0 -24 34.333 -56.667 103 -98
c118.667 -70.667 186 -112 202 -124c77.333 -56.667 123 -113.667 137 -171z" />
    <glyph glyph-name="u0630" unicode="&#x630;" horiz-adv-x="1100" arabic-form="isolated" 
d="M328 1031c-15.333 -6 -34.334 -8.99902 -57.001 -8.99902c-12.667 0 -19 3 -19 9c0 4 4 11.333 12 22c20.667 27.333 33 46.666 37 57.999c3.33301 8.66699 5 20 5 34c0 4.66699 -0.333008 11.667 -1 21s-1 16 -1 20c0 10 2.33301 15 7 15
c2.66699 0 6.33398 -1.66699 11.001 -5c42 -29.333 63 -60.333 63 -93c0 -34 -19 -58 -57 -72zM1015 361.001c6.66699 -26 9.99805 -52.6689 9.99805 -80.002c0 -82 -29 -161 -87 -237c-50.667 -67.333 -115.667 -122.333 -195 -165c-81.333 -44.667 -161.333 -67 -240 -67
c-81.333 0 -148.666 24.333 -201.999 73c-40 36.667 -62 57.334 -66 62.001c-25.333 28.667 -43.333 75.334 -54 140.001c-3.33301 22 -5 42.333 -5 61c0 64 19 96 57 96c24 0 36 -15.333 36 -46c0 -8 -4 -37.667 -12 -89c-4 -24 -6 -43.667 -6 -59
c0 -27.333 5 -48.666 15 -63.999c41.333 -65.333 105.333 -98 192 -98c99.333 0 206 38.667 320 116c142.667 98 214 204.333 214 319c0 64 -17.333 109.667 -52 137c-22.667 17.333 -52.334 31 -89.001 41c-23.333 5.33301 -57.666 14 -102.999 26
c-120.667 32.667 -195.667 96 -225 190c-5.33301 15.333 -14 38.666 -26 69.999c-18.667 50.667 -28 87.667 -28 111c0 28.667 10 52.667 30 72c12 12 29.333 18 52 18c32.667 0 69.334 -12.667 110.001 -38c46 -27.333 69 -55.666 69 -84.999
c0 -26.667 -22 -42.667 -66 -48c-37.333 -4.66699 -64.333 -17 -81 -37c-6.66699 -8.66699 -10 -17.334 -10 -26.001c0 -24 34.333 -56.667 103 -98c118.667 -70.667 186 -112 202 -124c77.333 -56.667 123 -113.667 137 -171z" />
    <glyph glyph-name="u0631" unicode="&#x631;" horiz-adv-x="875" arabic-form="isolated" 
d="M709 145l-101.999 51.999c-42.667 23.333 -75.334 73.333 -98.001 150c-6.66699 23.333 -10 43.333 -10 60c0 22 5.66699 42 17 60s30.666 27 57.999 27c30 0 65.333 -11.333 106 -34c45.333 -25.333 68 -51.333 68 -78c0 -11.333 -5.33301 -20.333 -16 -27l-105 -33
c-19.333 -15.333 -29 -32.333 -29 -51c0 -19.333 37.333 -70 112 -152c30.667 -34 51.334 -66.333 62.001 -97c13.333 -35.333 20 -68.333 20 -99c0 -66.667 -32 -124.667 -96 -174c-46 -35.333 -121.667 -73.666 -227 -114.999c-149.333 -59.333 -236.333 -95 -261 -107
c-52.667 -25.333 -107 -59.333 -163 -102l-116 -90c-34.667 -25.333 -69 -38 -103 -38c-31.333 0 -65 12 -101 36c-26.667 17.333 -40 31 -40 41c0 12 34 24.667 102 38c42.667 6.66699 85 13.667 127 21c103.333 20.667 225.666 76 366.999 166
c54 34 133.667 74.667 239 122c98.667 44 164.334 78.333 197.001 103c54 41.333 81 90.666 81 147.999c0 82.667 -29.667 140.334 -89 173.001z" />
    <glyph glyph-name="u0632" unicode="&#x632;" horiz-adv-x="843" arabic-form="isolated" 
d="M371 637c-14.667 -6 -33.667 -8.99902 -57 -8.99902c-12.667 0 -19 3 -19 9c0 4 4 11.333 12 22c20.667 26.667 33 45.667 37 57c3.33301 9.33301 5 21 5 35c0 4.66699 -0.166992 11.667 -0.5 21s-0.833008 15.666 -1.5 18.999c0 10.667 2.33301 16 7 16
c3.33301 0 7 -1.66699 11 -5c42 -29.333 63 -60.333 63 -93c0 -34 -19 -58 -57 -72zM680 145.001l-101.999 51.999c-42.667 23.333 -75.334 73.333 -98.001 150c-6.66699 23.333 -10 43.333 -10 60c0 22 5.66699 42 17 60s30.666 27 57.999 27c30 0 65.333 -11.333 106 -34
c45.333 -25.333 68 -51.333 68 -78c0 -11.333 -5.33301 -20.333 -16 -27l-105 -33c-19.333 -15.333 -29 -32.333 -29 -51c0 -19.333 37.333 -70 112 -152c30.667 -34 51.334 -66.333 62.001 -97c13.333 -35.333 20 -68.333 20 -99c0 -66.667 -32 -124.667 -96 -174
c-46 -35.333 -121.667 -73.666 -227 -114.999c-149.333 -59.333 -236.333 -95 -261 -107c-52.667 -25.333 -107 -59.333 -163 -102l-116 -90c-34.667 -25.333 -69 -38 -103 -38c-31.333 0 -65 12 -101 36c-26.667 17.333 -40 31 -40 41c0 12 34 24.667 102 38
c42.667 6.66699 85 13.667 127 21c103.333 20.667 225.666 76 366.999 166c54 34 133.667 74.667 239 122c98.667 44 164.334 78.333 197.001 103c54 41.333 81 90.666 81 147.999c0 82.667 -29.667 140.334 -89 173.001z" />
    <glyph glyph-name="u0633" unicode="&#x633;" horiz-adv-x="1777" arabic-form="isolated" 
d="M1686 196c0 -46.667 -14.335 -91.9971 -43.002 -135.997c-32.667 -48.667 -71 -73 -115 -73c-24.667 0 -56 22 -94 66c-14 16.667 -29.333 25.667 -46 27c-57.333 0 -110.666 -31.333 -159.999 -94c-17.333 -22.667 -29.333 -54.334 -36 -95.001
c-8.66699 -52 -16.334 -87 -23.001 -105c-54 -132.667 -131.333 -243 -232 -331c-113.333 -98 -236.333 -147 -369 -147c-102.667 0 -219.334 40.333 -350.001 121c-95.333 59.333 -147.333 136.666 -156 231.999c-2 21.333 -3 40.666 -3 57.999
c0 115.333 36.333 194.666 109 237.999c12.667 8 22.334 12 29.001 12c9.33301 0 14 -7.33301 14 -22c0 -13.333 -3.66699 -35.333 -11 -66c-12 -52 -19 -83 -21 -93c-7.33301 -39.333 -11 -73 -11 -101c0 -68 36.667 -133 110 -195c68.667 -58.667 138 -97.667 208 -117
c45.333 -12 91.333 -18 138 -18c86.667 0 169.334 18.333 248.001 55c82 38 147.333 90.333 196 157c52.667 72 79 152.333 79 241v30c0 106.667 -10.333 176.334 -31 209.001c-8 11.333 -25 23.333 -51 36c-20.667 10 -31 24 -31 42c0 4.66699 0.333008 8.66699 1 12
c1.33301 17.333 4 43 8 77c6 40.667 24.333 61 55 61c16 0 29 -17 39 -51c5.33301 -22 14.333 -54.667 27 -98c12 -36.667 30.667 -57.667 56 -63c4 -0.666992 7.66699 -1 11 -1c24.667 0 49.334 20.333 74.001 61c7.33301 11.333 26.333 49 57 113
c20 40.667 35.667 61 47 61c8 0 15.667 -7 23 -21c5.33301 -10 8 -22.333 8 -37c0 -8.66699 -1.66699 -21.334 -5 -38.001s-5 -29 -5 -37c0 -17.333 7.66699 -34.666 23 -51.999c38 -43.333 70.333 -65 97 -65c13.333 0 36.833 15.167 70.5 45.5s51.834 52.5 54.501 66.5
c0.666992 2.66699 1 5.66699 1 9c0 8 -5.66699 23 -17 45c-6.66699 13.333 -10.334 28 -11.001 44c-0.666992 4 -1 7.33301 -1 10c0 43.333 12 65 36 65c14 0 21 -8.66699 21 -26c0 -11.333 -3 -29.833 -9 -55.5s-9 -44.5 -9 -56.5z" />
    <glyph glyph-name="u0634" unicode="&#x634;" horiz-adv-x="1763" arabic-form="isolated" 
d="M1403 775c-14.667 -6 -33.667 -8.99902 -57 -8.99902c-12.667 0 -19 3 -19 9c0 4 4 11.333 12 22c20.667 26.667 33 45.667 37 57c3.33301 9.33301 5 21 5 35c0 4.66699 -0.166992 11.667 -0.5 21s-0.833008 15.666 -1.5 18.999c0 10.667 2.33301 16 7 16
c3.33301 0 7 -1.66699 11 -5c42 -29.333 63 -60.333 63 -93c0 -34 -19 -58 -57 -72zM1500 499.001c-14.667 -5.33301 -33.668 -7.99902 -57.001 -7.99902c-12.667 0 -19 2.66699 -19 8c0 4.66699 4 12 12 22c20.667 27.333 33.334 46.666 38.001 57.999
c2.66699 8.66699 4 20 4 34v21c-0.666992 9.33301 -1 16 -1 20c-0.666992 10.667 1.33301 16 6 16c3.33301 0 7.33301 -1.66699 12 -5c42 -30 63 -61.333 63 -94c0 -33.333 -19.333 -57.333 -58 -72zM1260 499.002c-14.667 -5.33301 -33.668 -7.99902 -57.001 -7.99902
c-12.667 0 -19 2.66699 -19 8c0 4.66699 4 12 12 22c20.667 27.333 33.334 46.666 38.001 57.999c2.66699 8.66699 4 20 4 34v21c-0.666992 9.33301 -1 16 -1 20c-0.666992 10.667 1.33301 16 6 16c3.33301 0 7.33301 -1.66699 12 -5c42 -30 63 -61.333 63 -94
c0 -33.333 -19.333 -57.333 -58 -72zM1697 196.003c0 -46.667 -14.335 -91.998 -43.002 -135.998c-32.667 -48.667 -71 -73 -115 -73c-24.667 0 -56 22 -94 66c-14 16.667 -29.333 25.667 -46 27c-57.333 0 -110.666 -31.333 -159.999 -94
c-17.333 -22.667 -29.333 -54.334 -36 -95.001c-8.66699 -52 -16.334 -87 -23.001 -105c-54 -132.667 -131.333 -243 -232 -331c-113.333 -98 -236.333 -147 -369 -147c-102.667 0 -219.334 40.333 -350.001 121c-95.333 59.333 -147.333 136.666 -156 231.999
c-2 21.333 -3 40.666 -3 57.999c0 115.333 36.333 194.666 109 237.999c12.667 8 22.334 12 29.001 12c8.66699 0 13 -7.33301 13 -22l-28 -141c-9.33301 -44.667 -14 -82.667 -14 -114c0 -67.333 36.667 -133.666 110 -198.999c66 -58.667 135.333 -98 208 -118
c45.333 -12 91.333 -18 138 -18c86.667 0 169.334 18.333 248.001 55c82 38 147.333 90.333 196 157c52.667 72 79 152.333 79 241v30c0 106.667 -10.333 176.334 -31 209.001c-8 11.333 -25 23.333 -51 36c-20.667 10 -31 24 -31 42c0 4.66699 0.333008 8.66699 1 12
c1.33301 17.333 4 43 8 77c6 40.667 24.333 61 55 61c16 0 29 -17 39 -51c5.33301 -22 14.333 -54.667 27 -98c12 -36.667 30.667 -57.667 56 -63c4 -0.666992 7.66699 -1 11 -1c24.667 0 49.334 20.333 74.001 61c7.33301 11.333 26.333 49 57 113
c20 40.667 35.667 61 47 61c8 0 15.667 -7 23 -21c5.33301 -10 8 -22.333 8 -37c0 -8.66699 -1.66699 -21.334 -5 -38.001s-5 -29 -5 -37c0 -17.333 7.66699 -34.666 23 -51.999c38 -43.333 70.333 -65 97 -65c13.333 0 36.833 15.167 70.5 45.5s51.834 52.5 54.501 66.5
c0.666992 2.66699 1 5.66699 1 9c0 8 -5.66699 23 -17 45c-6.66699 13.333 -10.334 28 -11.001 44c-0.666992 4 -1 7.33301 -1 10c0 43.333 12 65 36 65c14 0 21 -8.66699 21 -26c0 -11.333 -3 -29.833 -9 -55.5s-9 -44.5 -9 -56.5z" />
    <glyph glyph-name="u0635" unicode="&#x635;" horiz-adv-x="1977" arabic-form="isolated" 
d="M1917 283c1.33301 -12 1.99707 -23.332 1.99707 -33.999c0 -73.333 -35.667 -130.666 -107 -171.999c-38.667 -22.667 -106.667 -46.667 -204 -72c-12.667 -3.33301 -28.667 -5 -48 -5c-12.667 0 -50.334 3 -113.001 9c-29.333 2.66699 -53.666 4 -72.999 4
c-116.667 0 -175 -45.667 -175 -137c0 -5.33301 0.333008 -12.833 1 -22.5s1 -17.167 1 -22.5c0 -7.33301 -1 -16.333 -3 -27c-9.33301 -50 -31.666 -85 -66.999 -105c-22 -12.667 -66.333 -25 -133 -37c-68.667 -12.667 -124.334 -28.334 -167.001 -47.001
c-55.333 -31.333 -139.666 -75.333 -252.999 -132c-46.667 -18.667 -90 -28 -130 -28c-33.333 0 -66 5.33301 -98 16c-116 41.333 -195.667 92.333 -239 153c-28 39.333 -44.333 86 -49 140c-2 16.667 -3 35.334 -3 56.001c0 114.667 36.333 193.334 109 236.001
c12 6.66699 20.667 10 26 10c6 0 9 -4.33301 9 -13c-37.333 -127.333 -56 -210.333 -56 -249c0 -64.667 26.667 -125.334 80 -182.001c50 -52.667 101.333 -83.334 154 -92.001c12.667 -2 25.667 -3 39 -3c32 0 66.667 8 104 24l112 47c34 12.667 119 32.667 255 60
c98.667 20 167.334 43.333 206.001 70c56 38.667 84 98.667 84 180c0 14 3 29.667 9 47c12.667 41.333 19 65.666 19 72.999c0 10.667 -2.33301 20 -7 28c-6.66699 10 -22.667 22.333 -48 37c-46 27.333 -69 51 -69 71v8v8c0 8 -0.666992 17.667 -2 29
c-2.66699 26 -4 41.333 -4 46c0 22 7.33301 31.667 22 29c14 -2 23 -18.667 27 -50c4.66699 -34.667 11.667 -55.667 21 -63c14 -10.667 28.667 -16 44 -16c24.667 0 51.334 16.667 80.001 50c16 19.333 40.333 54.666 73 105.999c29.333 46 51.833 76 67.5 90l70.5 63
c56 48.667 111.333 73 166 73c7.33301 0 16 -0.666992 26 -2c60.667 -7.33301 111.667 -29 153 -65c50.667 -43.333 80 -105.666 88 -186.999zM1882 310.001c-65.333 98.667 -149.332 148 -251.999 148h-13c-86 0 -159 -31 -219 -93
c-56.667 -57.333 -91.334 -129.666 -104.001 -216.999c-1.33301 -8.66699 -2 -15.667 -2 -21c0 -41.333 26.333 -62 79 -62c27.333 0 70.333 6.66699 129 20l93 21c80 17.333 130.333 28.666 151 33.999c105.333 30 158 68 158 114c0 17.333 -6.66699 36 -20 56z" />
    <glyph glyph-name="u0636" unicode="&#x636;" horiz-adv-x="1993" arabic-form="isolated" 
d="M1228 588c-14.667 -5.33301 -33.667 -7.99902 -57 -7.99902c-12 0 -18 2.66699 -18 8c0 4.66699 4 12 12 22c20.667 27.333 33 46.666 37 57.999c3.33301 8.66699 5 20 5 34c0 5.33301 -0.333008 12.5 -1 21.5s-1 15.5 -1 19.5c-0.666992 10 1.33301 15 6 15
c3.33301 0 7.33301 -1.33301 12 -4c42 -30 63 -61.333 63 -94c0 -34 -19.333 -58 -58 -72zM1928 283.001c1.33301 -12 1.99707 -23.335 1.99707 -34.002c0 -73.333 -35.667 -130.666 -107 -171.999c-38.667 -22.667 -106.667 -46.667 -204 -72
c-12.667 -3.33301 -28.667 -5 -48 -5c-12.667 0 -50.334 3 -113.001 9c-29.333 2.66699 -53.666 4 -72.999 4c-116.667 0 -175 -45.667 -175 -137c0 -5.33301 0.333008 -12.833 1 -22.5s1 -17.167 1 -22.5c0 -7.33301 -1 -16.333 -3 -27
c-9.33301 -50 -31.666 -85 -66.999 -105c-22 -12.667 -66.333 -25 -133 -37c-68.667 -12.667 -124.334 -28.334 -167.001 -47.001c-55.333 -31.333 -139.666 -75.333 -252.999 -132c-46.667 -18.667 -90 -28 -130 -28c-33.333 0 -66 5.33301 -98 16
c-116 41.333 -195.667 92.333 -239 153c-28 39.333 -44.333 86 -49 140c-2 16.667 -3 35.334 -3 56.001c0 115.333 36.333 194 109 236c10.667 6 18.667 9 24 9s8 -4.33301 8 -13c-39.333 -130.667 -59 -213.334 -59 -248.001c0 -66.667 27.333 -128 82 -184
c50 -50.667 102.667 -80.667 158 -90c12.667 -2 25.667 -3 39 -3c32 0 66.667 8 104 24l112 47c34 12.667 119 32.667 255 60c98.667 20 167.334 43.333 206.001 70c56 38.667 84 98.667 84 180c0 6.66699 0.333008 16.334 1 29.001v30c0 36.667 -7.33301 66.334 -22 89.001
c-1.33301 2.66699 -16.333 18.667 -45 48c-20.667 20.667 -31 39.667 -31 57c0 2 0.333008 4 1 6v13c0 8 -0.666992 17.667 -2 29c-2.66699 26 -4 41.333 -4 46c0 22 7.33301 31.667 22 29c14 -2 23 -18.667 27 -50c4.66699 -34.667 11.667 -55.667 21 -63
c14 -10.667 28.667 -16 44 -16c24.667 0 51.334 16.667 80.001 50c16 19.333 40.333 54.666 73 105.999c29.333 46 51.833 76 67.5 90l70.5 63c56 48.667 111.333 73 166 73c7.33301 0 16 -0.666992 26 -2c60.667 -7.33301 111.667 -29 153 -65
c50.667 -43.333 80 -105.666 88 -186.999zM1905 309.999c-65.333 98.667 -149.332 148 -251.999 148h-13c-86 0 -159 -31 -219 -93c-56.667 -57.333 -91.334 -129.666 -104.001 -216.999c-1.33301 -8.66699 -2 -15.667 -2 -21c0 -41.333 26.333 -62 79 -62
c27.333 0 70.333 6.66699 129 20l93 21c80 17.333 130.333 28.666 151 33.999c105.333 30 158 68 158 114c0 17.333 -6.66699 36 -20 56z" />
    <glyph glyph-name="u0637" unicode="&#x637;" horiz-adv-x="1368" arabic-form="isolated" 
d="M1299 278c6 -16 8.99902 -31.3281 8.99902 -45.9951c0 -38.667 -23 -71.334 -69 -98.001c-34 -19.333 -87 -38.333 -159 -57l-173 -45c-52 -14.667 -93.667 -24 -125 -28s-69.666 -6 -114.999 -6c-22 0 -51.333 0.333008 -88 1l-59 1h-414c-30 0 -45 15 -45 45v45h253
c8.66699 0 21.334 -0.333008 38.001 -1h38c43.333 0 76.333 4 99 12c31.333 11.333 53.666 32.333 66.999 63c5.33301 12.667 8 26 8 40c0 9.33301 -4.33301 32.666 -13 69.999c-4.66699 17.333 -7 33.333 -7 48c0 18.667 2.66699 51 8 97c3.33301 22.667 5 43 5 61
c0 32 2.33301 64.333 7 97l15 99c5.33301 32.667 8 61.667 8 87c0 22 -1.5 45.333 -4.5 70l-13.5 111c-6 35.333 -21.667 68 -47 98c-7.33301 5.33301 -15.666 13.333 -24.999 24c-1.33301 4 -2 7.33301 -2 10c0 6.66699 4 13 12 19c26 17.333 40 27.333 42 30
c4.66699 18 15.667 43 33 75c6.66699 6.66699 11.667 10 15 10c5.33301 0 8 -7.33301 8 -22c0 -12 -1 -26 -3 -42c-4.66699 -48 -7 -77.333 -7 -88c0 -18 1.33301 -31.333 4 -40c4.66699 -18 15.667 -42 33 -72c7.33301 -12.667 22.333 -37.334 45 -74.001
c15.333 -24.667 23 -39.334 23 -44.001c-0.666992 -2.66699 -2 -3.66699 -4 -3c-10.667 1.33301 -25 13.333 -43 36c-13.333 18 -27.333 30.333 -42 37c-8 4 -15 6 -21 6c-26 0 -39 -32.333 -39 -97c0 -43.333 5.33301 -97 16 -161c2.66699 -12 13.334 -63 32.001 -153
l25 -140c16 -58.667 49 -88 99 -88c21.333 0 43 10.333 65 31c59.333 58 94.333 89 105 93c42.667 17.333 68.667 27.666 78 30.999c27.333 8.66699 53.333 13 78 13h11c5.33301 -0.666992 9.66602 -1 12.999 -1c117.333 -10.667 192.666 -62 225.999 -154zM1208 314.005
c-11.333 6.66699 -25.333 10 -42 10c-6.66699 0 -31.667 -3 -75 -9c-23.333 -3.33301 -42.666 -5 -57.999 -5c-127.333 0 -241 -24.667 -341 -74c-49.333 -24 -74 -49 -74 -75c0 -34 28 -59.333 84 -76c20 -6 41.667 -9 65 -9c12.667 0 75 9.33301 187 28
c57.333 10 99.666 18.333 126.999 25c50.667 12.667 90 27.667 118 45c32.667 20 49 42.667 49 68c0 32.667 -13.333 56.667 -40 72z" />
    <glyph glyph-name="u0638" unicode="&#x638;" horiz-adv-x="1380" arabic-form="isolated" 
d="M975 642c-14.667 -5.33301 -33.668 -7.99902 -57.001 -7.99902c-12.667 0 -19 2.66699 -19 8c0 4.66699 4 12 12 22c20.667 27.333 33.334 46.666 38.001 57.999c2.66699 8.66699 4 20 4 34v20c-0.666992 10 -1 17 -1 21c-0.666992 10 1.33301 15 6 15
c3.33301 0 7.33301 -1.33301 12 -4c42 -30 63 -61.333 63 -94c0 -34 -19.333 -58 -58 -72zM1310 278.001c6 -16 8.99902 -31.3281 8.99902 -45.9951c0 -38.667 -23 -71.334 -69 -98.001c-34 -19.333 -87 -38.333 -159 -57l-173 -45c-52 -14.667 -93.667 -24 -125 -28
s-69.666 -6 -114.999 -6c-22 0 -51.333 0.333008 -88 1l-59 1h-414c-30 0 -45 15 -45 45v45h253c8.66699 0 21.334 -0.333008 38.001 -1h38c43.333 0 76.333 4 99 12c31.333 11.333 53.666 32.333 66.999 63c5.33301 12.667 8 26 8 40c0 9.33301 -4.33301 32.666 -13 69.999
c-4.66699 17.333 -7 33.333 -7 48c0 18.667 2.66699 51 8 97c3.33301 22.667 5 43 5 61c0 32 2.33301 64.333 7 97l15 99c5.33301 32.667 8 61.667 8 87c0 22 -1.5 45.333 -4.5 70l-13.5 111c-6 35.333 -21.667 68 -47 98c-7.33301 5.33301 -15.666 13.333 -24.999 24
c-1.33301 4 -2 7.33301 -2 10c0 6.66699 4 13 12 19c26 17.333 40 27.333 42 30c4.66699 18 15.667 43 33 75c6.66699 6.66699 11.667 10 15 10c5.33301 0 8 -7.33301 8 -22c0 -12 -1 -26 -3 -42c-4.66699 -48 -7 -77.333 -7 -88c0 -18 1.33301 -31.333 4 -40
c4.66699 -18 15.667 -42 33 -72c7.33301 -12.667 22.333 -37.334 45 -74.001c15.333 -24.667 23 -39.334 23 -44.001c-0.666992 -2.66699 -2 -3.66699 -4 -3c-10.667 1.33301 -25 13.333 -43 36c-13.333 18 -27.333 30.333 -42 37c-8 4 -15 6 -21 6
c-26 0 -39 -32.333 -39 -97c0 -43.333 5.33301 -97 16 -161c2.66699 -12 13.334 -63 32.001 -153l25 -140c16 -58.667 49 -88 99 -88c21.333 0 43 10.333 65 31c59.333 58 94.333 89 105 93c42.667 17.333 68.667 27.666 78 30.999c27.333 8.66699 53.333 13 78 13h11
c5.33301 -0.666992 9.66602 -1 12.999 -1c117.333 -10.667 192.666 -62 225.999 -154zM1219 314.006c-11.333 6.66699 -25.333 10 -42 10c-6.66699 0 -31.667 -3 -75 -9c-23.333 -3.33301 -42.666 -5 -57.999 -5c-127.333 0 -241 -24.667 -341 -74
c-49.333 -24 -74 -49 -74 -75c0 -34 28 -59.333 84 -76c20 -6 41.667 -9 65 -9c12.667 0 75 9.33301 187 28c57.333 10 99.666 18.333 126.999 25c50.667 12.667 90 27.667 118 45c32.667 20 49 42.667 49 68c0 32.667 -13.333 56.667 -40 72z" />
    <glyph glyph-name="u0639" unicode="&#x639;" horiz-adv-x="894" arabic-form="isolated" 
d="M1348 -1061c6.66699 -8 9.99707 -15.6689 9.99707 -23.002c0 -42.667 -105 -64 -315 -64c-128 0 -235 8.33301 -321 25c-202 38.667 -351 116.334 -447 233.001c-55.333 66.667 -90.333 144.334 -105 233.001c-4 27.333 -6 53.333 -6 78c0 16 2 49.667 6 101
c4.66699 55.333 24 110 58 164l90 138c31.333 50.667 47 99.667 47 147c0 72 -30 130.667 -90 176l-115 83c-38.667 34.667 -58 74.334 -58 119.001c0 81.333 27.5 151.333 82.5 210s122.833 88 203.5 88c76.667 0 167.334 -32.667 272.001 -98
c40.667 -25.333 61 -45 61 -59c0 -9.33301 -11.333 -14 -34 -14c-26.667 0 -52.334 7.33301 -77.001 22l-65 41c-24.667 15.333 -50.667 23 -78 23c-123.333 0 -211 -18.667 -263 -56c-35.333 -24.667 -58.666 -59 -69.999 -103c-3.33301 -12 -5 -25.667 -5 -41
c0 -65.333 41.667 -119 125 -161c73.333 -36.667 155.333 -55 246 -55c46 0 100 28.667 162 86c36 33.333 84 86 144 158c47.333 57.333 75 86 83 86c6 0 9 -5.66699 9 -17c0 -5.33301 -1.33301 -14.333 -4 -27c-11.333 -58 -36.333 -109.667 -75 -155
c-14 -16 -35.667 -38.333 -65 -67c-27.333 -26 -58.333 -45.333 -93 -58l-96 -33c-38 -13.333 -70.667 -31.333 -98 -54c-105.333 -87.333 -177 -199.333 -215 -336c-7.33301 -41.333 -21.666 -112.333 -42.999 -213c-8 -41.333 -12 -92.333 -12 -153
c0 -102.667 35.333 -183.667 106 -243c60 -50.667 144.667 -88.334 254 -113.001l300 -60c28 -5.33301 58.667 -8 92 -8c58 0 118 8.66699 180 26l58 16c20 6 37 9 51 9c12.667 0 25.334 -2 38.001 -6c30.667 -9.33301 54.667 -24.333 72 -45z" />
    <glyph glyph-name="u063A" unicode="&#x63a;" horiz-adv-x="884" arabic-form="isolated" 
d="M245 777c-14 -10 -27 -14.999 -39 -14.999c-21.333 0 -32 9.66699 -32 29c0 7.33301 5.66699 19.166 17 35.499s18 27.5 20 33.5c0 22.667 7 52 21 88c4.66699 4.66699 9.66699 7 15 7c28.667 0 43 -31.667 43 -95c0 -33.333 -15 -61 -45 -83zM1338 -1061
c6.66699 -8 9.99707 -15.6689 9.99707 -23.002c0 -42.667 -105 -64 -315 -64c-128 0 -235 8.33301 -321 25c-202 38.667 -351 116.334 -447 233.001c-55.333 66.667 -90.333 144.334 -105 233.001c-4 27.333 -6 53.333 -6 78c0 16 2 49.667 6 101
c4.66699 55.333 24 110 58 164l90 138c31.333 50.667 47 99.667 47 147c0 72 -30 130.667 -90 176l-115 83c-38.667 34.667 -58 74.334 -58 119.001c0 81.333 27.5 151.333 82.5 210s122.833 88 203.5 88c76.667 0 167.334 -32.667 272.001 -98
c40.667 -25.333 61 -45 61 -59c0 -9.33301 -11.333 -14 -34 -14c-26.667 0 -52.334 7.33301 -77.001 22l-65 41c-24.667 15.333 -50.667 23 -78 23c-123.333 0 -211 -18.667 -263 -56c-35.333 -24.667 -58.666 -59 -69.999 -103c-3.33301 -12 -5 -25.667 -5 -41
c0 -65.333 41.667 -119 125 -161c73.333 -36.667 155.333 -55 246 -55c46 0 100 28.667 162 86c36 33.333 84 86 144 158c47.333 57.333 75 86 83 86c6 0 9 -5.66699 9 -17c0 -5.33301 -1.33301 -14.333 -4 -27c-11.333 -58 -36.333 -109.667 -75 -155
c-14 -16 -35.667 -38.333 -65 -67c-27.333 -26 -58.333 -45.333 -93 -58l-96 -33c-38 -13.333 -70.667 -31.333 -98 -54c-105.333 -87.333 -177 -199.333 -215 -336c-7.33301 -41.333 -21.666 -112.333 -42.999 -213c-8 -41.333 -12 -92.333 -12 -153
c0 -102.667 35.333 -183.667 106 -243c60 -50.667 144.667 -88.334 254 -113.001l300 -60c28 -5.33301 58.667 -8 92 -8c58 0 118 8.66699 180 26l58 16c20 6 37 9 51 9c12.667 0 25.334 -2 38.001 -6c30.667 -9.33301 54.667 -24.333 72 -45z" />
    <glyph glyph-name="u0641" unicode="&#x641;" horiz-adv-x="1478" arabic-form="isolated" 
d="M1230 728c-14.667 -5.33301 -33.667 -8.00098 -57 -8.00098c-12 0 -18 2.66699 -18 8c0 4.66699 4 12.334 12 23.001c20.667 26.667 33 45.667 37 57c3.33301 9.33301 5 20.666 5 33.999c0 5.33301 -0.333008 12.5 -1 21.5s-1 15.5 -1 19.5
c-0.666992 10.667 1.33301 16 6 16c3.33301 0 7.33301 -1.66699 12 -5c42 -29.333 63 -60.666 63 -93.999s-19.333 -57.333 -58 -72zM1410 321.999c0 -117.333 -71.335 -211.003 -214.002 -281.003c-31.333 -15.333 -92.666 -40.666 -183.999 -75.999
c-64.667 -25.333 -128 -38 -190 -38c-58.667 0 -126 11.667 -202 35l-112 36l-189 52c-76.667 22 -132.667 45.333 -168 70c-48.667 34.667 -73 79.334 -73 134.001c0 14 1 27.333 3 40c1.33301 7.33301 2 18.666 2 33.999c0 12 -0.833008 30.167 -2.5 54.5
s-2.5 42.5 -2.5 54.5c0 22 3 33 9 33c16 0 24 -13 24 -39c0 -9.33301 -4.33301 -25.666 -13 -48.999s-13 -41 -13 -53c0 -6 0.666992 -11.333 2 -16c12.667 -58 40.667 -102 84 -132c32 -23.333 79.333 -42.333 142 -57l168 -40c42.667 -11.333 103.334 -26 182.001 -44
c53.333 -9.33301 107 -14 161 -14c61.333 0 140.333 8.66699 237 26c32 4 79.667 11 143 21c56.667 8.66699 98.667 21.667 126 39c37.333 24 59.333 60 66 108c0.666992 6 1 11 1 15c0 35.333 -25.333 57.333 -76 66c-31.333 4 -78.333 10.667 -141 20
c-50.667 12 -76 37.667 -76 77c0 2.66699 -0.333008 6 -1 10v7c0 44.667 15.833 84.334 47.5 119.001s69.5 52 113.5 52h15c87.333 -10.667 131 -98.667 131 -264zM1386 447.996c0 25.333 -16 47.333 -48 66c-28 16.667 -55.667 25 -83 25
c-26.667 0 -54.334 -8.66699 -83.001 -26c-32 -20 -48 -42.667 -48 -68c0 -22 10.333 -37.333 31 -46c8 -3.33301 17.667 -5 29 -5c8 0 19.833 1 35.5 3s27.167 3 34.5 3s18.833 -0.833008 34.5 -2.5s27.5 -2.5 35.5 -2.5c12.667 0 23.334 1.66699 32.001 5
c20 8.66699 30 24.667 30 48z" />
    <glyph glyph-name="u0642" unicode="&#x642;" horiz-adv-x="1300" arabic-form="isolated" 
d="M1140 483c-14.667 -5.33301 -33.667 -7.99902 -57 -7.99902c-12 0 -18 2.66699 -18 8c0 4.66699 4 12 12 22c20.667 27.333 33 46.666 37 57.999c3.33301 8.66699 5 20 5 34c0 5.33301 -0.333008 12.5 -1 21.5s-1 15.5 -1 19.5c-0.666992 10 1.33301 15 6 15
c3.33301 0 7.33301 -1.33301 12 -4c42 -30 63 -61.333 63 -94c0 -34 -19.333 -58 -58 -72zM930 483.001c-14.667 -5.33301 -33.667 -7.99902 -57 -7.99902c-12 0 -18 2.66699 -18 8c0 4.66699 4 12 12 22c20.667 27.333 33 46.666 37 57.999c3.33301 8.66699 5 20 5 34
c0 5.33301 -0.333008 12.5 -1 21.5s-1 15.5 -1 19.5c-0.666992 10 1.33301 15 6 15c3.33301 0 7.33301 -1.33301 12 -4c42 -30 63 -61.333 63 -94c0 -34 -19.333 -58 -58 -72zM1215 8.00195c4.66699 -27.333 6.99902 -54.334 6.99902 -81.001
c0 -96.667 -32.333 -186.667 -97 -270c-58.667 -74.667 -135 -134.667 -229 -180c-96 -46.667 -193.667 -70 -293 -70c-90 0 -168.667 19.333 -236 58c-63.333 36.667 -108.333 64.667 -135 84c-96 70 -144 155 -144 255c0 20 -1.5 49.833 -4.5 89.5s-4.5 69.5 -4.5 89.5
c0 44 6.33301 66 19 66c5.33301 0 11.666 -3.66699 18.999 -11c12 -11.333 18 -24.666 18 -39.999c0 -14.667 -8.16699 -40.5 -24.5 -77.5s-24.5 -64.833 -24.5 -83.5c0 -8.66699 1 -16.667 3 -24c23.333 -88 76 -158 158 -210c29.333 -18.667 70.333 -40.667 123 -66
c44.667 -20.667 100.667 -31 168 -31c93.333 0 194.333 20 303 60s199.667 90 273 150c76.667 62 115 119.667 115 173c0 41.333 -23.333 76.333 -70 105l-163 62l-65 36c-35.333 22 -53 54.667 -53 98c0 42 20.333 80 61 114c38.667 32 79.334 48 122.001 48
c62.667 0 105.334 -63.667 128.001 -191zM1146 191.001c0 25.333 -16.001 47.332 -48.001 65.999c-28 16.667 -55.667 25 -83 25c-26.667 0 -53.667 -7.66699 -81 -23c-31.333 -18 -47 -39.333 -47 -64c0 -23.333 12 -39.666 36 -48.999c10 -4 22.333 -6 37 -6
c5.33301 0 15.333 0.666992 30 2l24 1c7.33301 0 18.833 -0.833008 34.5 -2.5s27.5 -2.5 35.5 -2.5c12.667 0 23.334 1.66699 32.001 5c20 8.66699 30 24.667 30 48z" />
    <glyph glyph-name="u0643" unicode="&#x643;" horiz-adv-x="1458" arabic-form="isolated" 
d="M130 131c-14.667 16 -26.334 43.999 -35.001 83.999c-4 17.333 -6 34 -6 50c0 14.667 2 34.334 6 59.001c5.33301 28.667 8.33301 48 9 58l2 20l-9 -49c-6.66699 -42 -10 -85 -10 -129c0 -42.667 3.66699 -73.834 11 -93.501s18.333 -42.834 33 -69.501
c18 -17.333 42.333 -37.666 73 -60.999h922c69.333 0 131.333 31 186 93c18 44 27 86.667 27 128c0 80.667 -32 123.667 -96 129c-50.667 4.66699 -121.667 15.667 -213 33c-261.333 50.667 -398.333 99.667 -411 147c-6 25.333 -9 48 -9 68c0 44.667 15.333 85 46 121
c20.667 23.333 56.667 52 108 86c58 38 98.333 67.333 121 88c26.667 24 64 63.833 112 119.5s86 95.834 114 120.501c38.667 35.333 72 53 100 53c28.667 0 54.667 -18.667 78 -56c14 -22.667 21 -48 21 -76c0 -11.333 -1.33301 -26 -4 -44c-5.33301 -39.333 -8 -64 -8 -74
c0 -34 10 -67.333 30 -100c21.333 -35.333 38.333 -53 51 -53c19.333 0 29 30.667 29 92c0 54.667 -7.33301 110.667 -22 168c-17.333 70 -41.333 119.667 -72 149c-46.667 45.333 -92.667 68 -138 68c-44 0 -84.667 -17.667 -122 -53
c-25.333 -24.667 -60.333 -68.667 -105 -132s-82 -109 -112 -137c-22 -20 -72.667 -62 -152 -126c-56 -44.667 -95.333 -82.334 -118 -113.001c-31.333 -43.333 -47 -90.666 -47 -141.999c0 -20 2.33301 -42 7 -66c16 -45.333 92.667 -73.333 230 -84
c44.667 -4 98.334 -6 161.001 -6c4.66699 0 22 0.333008 52 1l61 1c64 0 120 -11.333 168 -34c62 -28.667 93 -71.334 93 -128.001c0 -49.333 -24 -88 -72 -116c-40 -23.333 -86.333 -35 -139 -35h-888c-14.667 6.66699 -35.667 20.334 -63 41.001z" />
    <glyph glyph-name="u0644" unicode="&#x644;" horiz-adv-x="1058" arabic-form="isolated" 
d="M974 853c-18 21.333 -29 33.3359 -33 36.0029c-17.333 14 -31.333 21 -42 21c-14.667 0 -22 -16.667 -22 -50c0 -22 3.66699 -57 11 -105l23 -150c8 -50.667 12 -94.667 12 -132c0 -34 -3 -63 -9 -87l-49 -192c-39.333 -131.333 -105.333 -232 -198 -302
c-41.333 -31.333 -71 -53 -89 -65c-66.667 -45.333 -128 -68 -184 -68c-22 0 -44.667 3 -68 9c-105.333 26.667 -183 107.667 -233 243c-12.667 33.333 -19 88 -19 164c0 46 3 89 9 129c1.33301 -2 2 -9.66699 2 -23c0 -11.333 -0.5 -28.333 -1.5 -51s-1.5 -39.667 -1.5 -51
c0 -26.667 3 -52.334 9 -77.001c33.333 -128.667 93.666 -211 180.999 -247c29.333 -12 58.333 -18 87 -18c46.667 0 103.334 19 170.001 57l87 52c48 28 83.333 50 106 66c66 46.667 113 107 141 181c14 34.667 21 71.667 21 111c0 14.667 -2.66699 49.334 -8 104.001
c-2.66699 29.333 -4 53.333 -4 72l-1 156l-12 224v11c0 13.333 0.333008 25 1 35l5 55c0 31.333 -9 58.333 -27 81c-8 5.33301 -16.667 13.333 -26 24c-1.33301 4 -2 7.33301 -2 10c0 6.66699 4.33301 13 13 19c25.333 17.333 39 27.333 41 30c4.66699 18 16 43 34 75
c6 6.66699 11 10 15 10c4.66699 0 7 -7.33301 7 -22c0 -12 -1 -26 -3 -42c-4.66699 -48 -7 -77.333 -7 -88c0 -18 1.33301 -31.333 4 -40c4.66699 -18 15.667 -42 33 -72c7.33301 -12.667 22.333 -37.334 45 -74.001c15.333 -24.667 23 -39.334 23 -44.001
c0 -2.66699 -1.33301 -3.66699 -4 -3c-10 1.33301 -22.333 10.666 -37 27.999z" />
    <glyph glyph-name="u0645" unicode="&#x645;" horiz-adv-x="1552" arabic-form="isolated" 
d="M1392 25l-108.002 -27c-38.667 -13.333 -60.667 -38 -66 -74v-10c0 -4.66699 0.5 -11.667 1.5 -21s1.5 -16.333 1.5 -21c0 4.66699 -1.66699 -10.333 -5 -45c-3.33301 -17.333 -10.333 -26 -21 -26c-2 0.666992 -3 3.33398 -3 8.00098c4.66699 35.333 7 59.333 7 72
c0 32 -7.33301 59 -22 81c-55.333 0 -113.666 -18.667 -174.999 -56c-39.333 -24 -94 -66.333 -164 -127c-77.333 -66 -133.5 -110.667 -168.5 -134s-73.833 -61.666 -116.5 -114.999c-54.667 -68 -87.667 -107.667 -99 -119c-36.667 -37.333 -73 -56 -109 -56
c-18.667 0 -38 4.66699 -58 14c-86 39.333 -140.667 121 -164 245c-3.33301 18.667 -5 39.667 -5 63c0 126.667 31.667 251.334 95 374.001c26.667 50.667 50.667 76 72 76c16 0 28.333 -15.333 37 -46c3.33301 -13.333 5 -27 5 -41c0 -44 -22.333 -83.667 -67 -119
l-125 -91c-44.667 -34.667 -67 -70.334 -67 -107.001c0 -18 4.66699 -36 14 -54c37.333 -74.667 74 -132.334 110 -173.001c44 -49.333 91 -74 141 -74c38 0 77 17.667 117 53c16 14 51.667 53.667 107 119c46.667 54.667 87.334 94.667 122.001 120
c40 36 101.667 88 185 156c34.667 25.333 70.667 45.666 108 60.999c12 4.66699 31.333 9 58 13c52 7.33301 83 27.333 93 60c2 6.66699 3 13 3 19c0 14.667 -9.66699 40.167 -29 76.5s-29 64.166 -29 83.499c0 36 14 67 42 93c14.667 13.333 38.667 27 72 41
c19.333 8.66699 41 13 65 13c54.667 0 106 -18.333 154 -55c51.333 -39.333 77 -85.666 77 -138.999c0 -58 -28.667 -95 -86 -111zM1443 162c0 72 -74.332 108.001 -222.999 108.001h-18c-18.667 0 -34.334 -4.33301 -47.001 -13c-17.333 -10.667 -26 -27.667 -26 -51
c0 -29.333 12.5 -60.333 37.5 -93s52.167 -55 81.5 -67c18.667 -8 37.667 -12 57 -12c32.667 0 61.667 9.33301 87 28c34 25.333 51 58.666 51 99.999z" />
    <glyph glyph-name="u0646" unicode="&#x646;" horiz-adv-x="1383" arabic-form="isolated" 
d="M622 356c-15.333 -6 -34.668 -8.99902 -58.001 -8.99902c-12 0 -18 3 -18 9c0 4 4 11.333 12 22c20.667 27.333 33 46.666 37 57.999c3.33301 8.66699 5 20 5 34c0 4.66699 -0.333008 11.667 -1 21s-1 16 -1 20c0 10 2.33301 15 7 15
c2.66699 0 6.33398 -1.66699 11.001 -5c42 -29.333 63 -60.333 63 -93c0 -34 -19 -58 -57 -72zM1284 454.001c-6.66699 0 -22.002 6.00195 -46.002 18.002c-12 6 -23 9 -33 9c-32.667 0 -49 -12 -49 -36c0 -18.667 10.333 -48.667 31 -90l58 -116
c20.667 -44.667 31 -83.667 31 -117v-32v-15c0.666992 -8 1 -13.333 1 -16c0 -38.667 -4.33301 -76 -13 -112c-28 -114.667 -95 -203 -201 -265c-93.333 -54.667 -203 -82 -329 -82c-108 0 -210 21 -306 63c-63.333 27.333 -113 52.666 -149 75.999
c-95.333 61.333 -155 142.666 -179 243.999c-11.333 47.333 -17 106.333 -17 177c0 88 9 132 27 132c14 0 25.333 -16.667 34 -50c2.66699 -10 4 -20 4 -30c0 -14 -8.33301 -48 -25 -102c-8 -26 -12 -48 -12 -66c0 -14 2 -27.667 6 -41c26.667 -88.667 84.667 -158 174 -208
c30.667 -17.333 76.334 -38 137.001 -62c76.667 -30.667 161.334 -46 254.001 -46c94.667 0 184.667 16 270 48c94.667 35.333 169.667 86 225 152c58 68.667 87 147 87 235c0 202 -62.667 332 -188 390c-17.333 1.33301 -39.333 9 -66 23c-6 7.33301 -9 15 -9 23
c0 18.667 10.333 35.5 31 50.5s40.667 22.5 60 22.5h5c14.667 0 43.667 -19.667 87 -59l80 -53c33.333 -22 50 -38.333 50 -49s-10 -16 -30 -16z" />
    <glyph glyph-name="u0647" unicode="&#x647;" horiz-adv-x="644" arabic-form="isolated" 
d="M591 714c0 -17.333 -3.00098 -40.666 -9.00098 -69.999c-6.66699 -31.333 -25.667 -60 -57 -86l-80 -65c-27.333 -26.667 -41 -56.334 -41 -89.001c0 -27.333 10.667 -53 32 -77l59 -62c22 -24 33 -50 33 -78c0 -45.333 -15 -89 -45 -131
c-33.333 -46 -71.666 -69 -114.999 -69c-47.333 0 -82.333 23 -105 69c-10 20.667 -17 49.667 -21 87v13c0 20.667 18 58 54 112c17.333 26 26 49.333 26 70c0 6 -0.666992 12.333 -2 19c-17.333 99.333 -78 168 -182 206c-10 1.33301 -25 5 -45 11
c-13.333 6.66699 -20 18.667 -20 36c0 23.333 11.333 49 34 77c4.66699 5.33301 9.66699 8 15 8c8 0 25 -9.33301 51 -28c21.333 -15.333 52 -28.666 92 -39.999c31.333 -8.66699 47 -15.667 47 -21c0 -8 -13.333 -15.667 -40 -23c-33.333 -8.66699 -50 -26.334 -50 -53.001
c0 -38 33.667 -74.667 101 -110c9.33301 -4.66699 19.333 -7 30 -7c32 0 63.333 33 94 99c12.667 28.667 34.667 90.667 66 186c22 66.667 38.667 100 50 100c18.667 0 28 -28 28 -84zM488.999 160c-9.33301 78.667 -43.332 118.001 -101.999 118.001
c-30.667 0 -57 -18.667 -79 -56c-19.333 -32.667 -29 -65.667 -29 -99c0 -40.667 11.667 -68.334 35 -83.001c13.333 -8.66699 28.666 -13 45.999 -13c32.667 0 62.5 12.167 89.5 36.5s40.5 52.833 40.5 85.5c0 4 -0.333008 7.66699 -1 11z" />
    <glyph glyph-name="u0648" unicode="&#x648;" horiz-adv-x="874" arabic-form="isolated" 
d="M764 -92c-18 38.667 -54.668 61.666 -110.001 68.999c-31.333 2.66699 -77.666 7 -138.999 13c-45.333 10 -68 36.667 -68 80c0 94 44.667 151.333 134 172c8.66699 2 17 3 25 3c48.667 0 87.667 -34 117 -102c26 -60 39 -127.667 39 -203c0 -118 -60 -214.333 -180 -289
c-17.333 -10.667 -77.333 -42.667 -180 -96l-290 -157.5c-131.333 -73 -223.333 -122.833 -276 -149.5c-88 -44 -144 -66 -168 -66c-9.33301 0 -14 3 -14 9c0 18 17.667 42 53 72c26 22.667 51 40.667 75 54l203 117c20 12 40 23.333 60 34c116 63.333 251 115 405 155
c120 30.667 199 55.334 237 74.001c66 32 99 73.667 99 125c0 26 -7.33301 54.667 -22 86zM712.999 86.999c0 25.333 -16.002 47.333 -48.002 66c-28 16.667 -55.333 25 -82 25c-27.333 0 -55.333 -8.66699 -84 -26c-32 -20 -48 -42.667 -48 -68
c0 -22.667 10.333 -38 31 -46c8.66699 -3.33301 18.334 -5 29.001 -5c8 0 19.833 0.833008 35.5 2.5s27.167 2.5 34.5 2.5c8 0 19.667 -0.666992 35 -2s27 -2 35 -2c12.667 0 23.334 1.66699 32.001 5c20 8.66699 30 24.667 30 48z" />
    <glyph glyph-name="u0649" unicode="&#x649;" horiz-adv-x="1134" arabic-form="isolated" 
d="M1074 526c0 -4 0.998047 -9.33691 2.99805 -16.0039c3.33301 -15.333 5.33301 -24.333 6 -27c0 -6 -3 -9 -9 -9c-8 0 -15 6.33301 -21 19c-7.33301 15.333 -13 24.333 -17 27c-20 12 -41.667 18 -65 18c-61.333 0 -116 -35.333 -164 -106
c-42.667 -64 -64 -128.333 -64 -193v-15c0 -2.66699 0.666992 -9.33398 2 -20.001c6.66699 -42 33.667 -69.333 81 -82c30.667 -6 76.334 -16 137.001 -30c63.333 -14.667 100.333 -50 111 -106c2 -10 3 -19.667 3 -29c0 -66 -51.333 -131 -154 -195
c-24 -15.333 -67.333 -39.333 -130 -72l-104 -55c-82 -43.333 -154.333 -65 -217 -65c-34 0 -67.667 5.66699 -101 17c-182 61.333 -273 182 -273 362c0 23.333 -3.16699 57.833 -9.5 103.5s-9.5 80.167 -9.5 103.5c0 34 7 51 21 51c16.667 0 30.334 -9.66699 41.001 -29
c4 -8 6 -16.667 6 -26c0 -14 -7.83301 -39.667 -23.5 -77s-23.5 -65.666 -23.5 -84.999c0 -10.667 1.66699 -20.667 5 -30c63.333 -183.333 176 -284.666 338 -303.999c13.333 -2 26.666 -3 39.999 -3c50 0 108.333 16.333 175 49l86 42c20.667 10.667 66 29.334 136 56.001
c46.667 18 79.334 35.333 98.001 52c25.333 22.667 41.666 54.667 48.999 96c0.666992 4.66699 1 8.33398 1 11.001v9c0 37.333 -22.333 65.333 -67 84c-30 10.667 -74.333 27.334 -133 50.001c-80 32 -120 91 -120 177c0 69.333 21.667 145 65 227
c50 94.667 106.667 142 170 142c24.667 0 47.334 -10 68.001 -30l43 -41c13.333 -15.333 20 -32.333 20 -51z" />
    <glyph glyph-name="u064A" unicode="&#x64a;" horiz-adv-x="1129" arabic-form="isolated" 
d="M1069 526c0 -4 0.665039 -9.33594 1.99805 -16.0029c4 -15.333 6 -24.333 6 -27c0 -6 -3 -9 -9 -9c-8 0 -15 6.33301 -21 19c-6.66699 15.333 -12.334 24.333 -17.001 27c-20 12 -41.667 18 -65 18c-61.333 0 -115.666 -35.333 -162.999 -106
c-43.333 -64 -65 -128.333 -65 -193v-15c0 -2.66699 1 -9.33398 3 -20.001c6.66699 -42 33.334 -69.333 80.001 -82c30.667 -6 77 -16.167 139 -30.5s98.333 -49.5 109 -105.5c2 -10 3 -19.667 3 -29c0 -66 -51.333 -131 -154 -195
c-23.333 -15.333 -66.666 -39.333 -129.999 -72l-104 -55c-82 -43.333 -154 -65 -216 -65c-34.667 0 -68.667 5.66699 -102 17c-182 61.333 -273 182 -273 362c0 23.333 -3.16699 57.833 -9.5 103.5s-9.5 80.167 -9.5 103.5c0 34 7 51 21 51c17.333 0 31 -9.66699 41 -29
c4.66699 -8 7 -16.667 7 -26c0 -14 -7.83301 -39.667 -23.5 -77s-23.5 -65.666 -23.5 -84.999c0 -10.667 1.66699 -20.667 5 -30c62.667 -183.333 175 -284.666 337 -303.999c14 -2 27.667 -3 41 -3c49.333 0 107.333 16.333 174 49l86 42
c21.333 10.667 67 29.334 137 56.001c46 18 78.333 35.333 97 52c26 22.667 42.333 54.667 49 96c0.666992 4.66699 1 8.33398 1 11.001v9c0 37.333 -22 65.333 -66 84l-134 50c-79.333 32 -119 91 -119 177c0 69.333 21.667 145 65 227c50 94.667 106.333 142 169 142
c25.333 0 48.333 -10 69 -30l43 -41c13.333 -15.333 20 -32.333 20 -51z" />
    <glyph glyph-name="u067E" unicode="&#x67e;" horiz-adv-x="1356" arabic-form="isolated" 
d="M679 -505c-14.667 -5.33301 -33.666 -8.00098 -56.999 -8.00098c-12.667 0 -19 2.66699 -19 8c0 4.66699 4 12.334 12 23.001c20.667 26.667 33 45.667 37 57c3.33301 9.33301 5 20.666 5 33.999v21c-0.666992 10 -1.33398 16.667 -2.00098 20c0 10.667 2.33301 16 7 16
c3.33301 0 7 -1.66699 11 -5c42 -29.333 63 -60.666 63 -93.999s-19 -57.333 -57 -72zM800.001 -264.001c-14.667 -5.33301 -33.667 -7.99902 -57 -7.99902c-12.667 0 -19 2.66699 -19 8c0 4.66699 4 12 12 22c21.333 27.333 34 46.666 38 57.999c2.66699 8.66699 4 20 4 34
v20c-0.666992 10 -1 17 -1 21c-0.666992 10 1.33301 15 6 15c3.33301 0 7.33301 -1.33301 12 -4c42 -30 63 -61.333 63 -94c0 -34 -19.333 -58 -58 -72zM560.001 -264c-14.667 -5.33301 -33.667 -7.99902 -57 -7.99902c-12.667 0 -19 2.66699 -19 8c0 4.66699 4 12 12 22
c21.333 27.333 34 46.666 38 57.999c2.66699 8.66699 4 20 4 34v20c-0.666992 10 -1 17 -1 21c-0.666992 10 1.33301 15 6 15c3.33301 0 7.33301 -1.33301 12 -4c42 -30 63 -61.333 63 -94c0 -34 -19.333 -58 -58 -72zM1288 421.001
c-0.666992 62.667 -11.333 93.998 -32 93.998s-35.667 -12 -45 -36c-6 -14.667 -9 -32.667 -9 -54c0 -44 7.33301 -79 22 -105c16 -28.667 26.333 -50 31 -64c10 -32.667 15 -60 15 -82c0 -42.667 -28 -72 -84 -88c-77.333 -21.333 -164.333 -37.666 -261 -48.999
c-60 -7.33301 -119 -11 -177 -11c-88.667 0 -171 9.66699 -247 29l-188 46c-68.667 18.667 -121.667 42.667 -159 72c-46.667 36.667 -75.667 87.667 -87 153c-0.666992 4.66699 -1 10 -1 16s0.666992 14 2 24l5 -52c1.33301 -18.667 2 -33.667 2 -45v-15
c-1.33301 -8 -2 -15.667 -2 -23v-13c0 -122.667 102.333 -193.667 307 -213c50.667 -4.66699 130 -7 238 -7c138.667 0 237 2.33301 295 7c256 21.333 384 103.333 384 246c0 12 -0.333008 21 -1 27c-1.33301 8.66699 -3 21.834 -5 39.501s-3 52.167 -3 103.5z" />
    </font>
</defs>
</svg>
