<?xml version="1.0" standalone="no"?>
<!DOCTYPE svg PUBLIC "-//W3C//DTD SVG 1.1//EN" "http://www.w3.org/Graphics/SVG/1.1/DTD/svg11.dtd" >
<svg>
<metadata>
Created by FontForge 20090914 at Wed Oct 19 00:55:44 2011
 By www-data
(c) by Abolfazl Seilsepour - +98 912 591 3420  -  seilsepor@yahoo.com
</metadata>
<defs>
<font id="FarBita" horiz-adv-x="0" >
  <font-face 
    font-family="Far.Bita"
    font-weight="400"
    font-stretch="normal"
    units-per-em="2048"
    panose-1="0 0 7 0 0 0 0 0 0 0"
    ascent="1638"
    descent="-410"
    bbox="-188 -683 2774 2084"
    underline-thickness="100"
    underline-position="-550"
    unicode-range="U+0020-U+FEFC"
  />
<missing-glyph horiz-adv-x="1024" 
d="M128 0v1298h768v-1298h-768zM256 128h512v1042h-512v-1042z" />
    <glyph glyph-name="uniE818" unicode="&#x651;&#x64b;" 
d="M431 1160c4 -30 6 -58.001 6 -84.001c0 -122 -42 -183 -126 -183c-42 0 -70.333 27.667 -85 83c-34 -75.333 -79.667 -113 -137 -113c-51.333 0 -77 31 -77 93c0 40.667 12.333 82 37 124h46c-12.667 -33.333 -19 -58.666 -19 -75.999c0 -28 15.667 -42 47 -42
c24.667 0 45.334 18.333 62.001 55c11.333 26.667 18.666 55.667 21.999 87l56 21c0.666992 -40.667 2.66699 -68 6 -82c8 -32 25.333 -48 52 -48c40 0 60 24.333 60 73c0 19.333 -2.66699 43.333 -8 72zM413 1422l-381 -103l-15 65l380 108zM422 1273l-382 -103l-15 64
l381 108z" />
    <glyph glyph-name="uniFC5E" unicode="&#x651;&#x64c;" arabic-form="isolated" 
d="M452 1205c4 -30 6 -58.001 6 -84.001c0 -122 -41.667 -183 -125 -183c-42 0 -70.333 27.667 -85 83c-34.667 -75.333 -80.667 -113 -138 -113c-51.333 0 -77 31.333 -77 94c0 40 12.333 81 37 123h46c-12 -33.333 -18 -58.666 -18 -75.999c0 -28 15.333 -42 46 -42
c25.333 0 46 18.333 62 55c11.333 26.667 19 55.667 23 87l55 21c0.666992 -40.667 2.66699 -68 6 -82c8 -32 25.333 -48 52 -48c40.667 0 61 24.333 61 73c0 19.333 -2.66699 43.333 -8 72zM443 1504c0 -65.333 -29.666 -120.33 -88.999 -164.997l54 -37l-44 -49
c-30 15.333 -51.333 30.666 -64 45.999c-64 -42.667 -144 -75 -240 -97l-27 59c8 3.33301 16.333 7.66602 25 12.999c23.333 22 35 46.667 35 74c0 14 -5.33301 23.333 -16 28c-15.333 7.33301 -34 4.33301 -56 -9l-5 37c26.667 22.667 52.667 34 78 34
c31.333 0 47 -18.333 47 -55c0 -22 -10 -52.333 -30 -91c57.333 12 102.666 34.333 135.999 67c-18.667 29.333 -28 55.666 -28 78.999c0 33.333 13 66.333 39 99c28 35.333 58 53 90 53c26 0 48.333 -8 67 -24s28 -36.667 28 -62zM387.001 1480
c0 32.667 -18.666 48.998 -55.999 48.998c-14.667 0 -28.834 -8.16699 -42.501 -24.5s-20.5 -31.5 -20.5 -45.5c0 -13.333 4.66699 -27.666 14 -42.999s20 -24.666 32 -27.999c18 4 34.667 15.667 50 35s23 38.333 23 57z" />
    <glyph glyph-name="uniFC5F" unicode="&#x651;&#x64d;" arabic-form="isolated" 
d="M434 1546c4 -30.667 5.99902 -58.3359 5.99902 -83.0029c0 -122.667 -42 -184 -126 -184c-41.333 0 -69.666 27.667 -84.999 83c-34 -75.333 -79.667 -113 -137 -113c-51.333 0 -77 31 -77 93c0 40.667 12.333 82 37 124h46c-12 -33.333 -18 -58.666 -18 -75.999
c0 -28.667 15.333 -43 46 -43c24.667 0 45.334 18.667 62.001 56c11.333 26.667 18.666 55.334 21.999 86.001l56 22c0.666992 -40.667 2.66699 -68 6 -82c8 -32 25.333 -48 52 -48c40 0 60 24.667 60 74c0 18.667 -2.66699 42.334 -8 71.001zM430.999 1123l-382 -102
l-14 63l380 109zM438.999 973.998l-381 -103l-15 64l381 109z" />
    <glyph glyph-name="uniFC60" unicode="&#x651;&#x64e;" arabic-form="isolated" 
d="M454 1247c4 -30.667 6.00098 -58.334 6.00098 -83.001c0 -122.667 -41.667 -184 -125 -184c-42 0 -70.333 27.667 -85 83c-34.667 -75.333 -80.334 -113 -137.001 -113c-51.333 0 -77 31 -77 93c0 40 12.333 81.333 37 124h45c-12 -33.333 -18 -58.666 -18 -75.999
c0 -28.667 15.667 -43 47 -43c24.667 0 45.334 18.333 62.001 55c11.333 26.667 18.666 55.667 21.999 87l55 21c0.666992 -40 2.66699 -67 6 -81c8 -32 25.667 -48 53 -48c40 0 60 24.333 60 73c0 18.667 -2.66699 42.667 -8 72zM458.001 1367l-381 -103l-15 64l380 109z
" />
    <glyph glyph-name="uniFC61" unicode="&#x651;&#x64f;" arabic-form="isolated" 
d="M462 1190c4 -30 5.99902 -57.666 5.99902 -82.999c0 -122.667 -42 -184 -126 -184c-41.333 0 -69.666 28 -84.999 84c-34 -75.333 -79.667 -113 -137 -113c-51.333 0 -77 31 -77 93c0 40 12.333 81 37 123h46c-12 -32.667 -18 -57.667 -18 -75
c0 -28.667 15.333 -43 46 -43c24.667 0 45.334 18.333 62.001 55c11.333 26.667 18.666 55.667 21.999 87l56 21c0.666992 -40.667 2.66699 -67.667 6 -81c8 -32.667 25.333 -49 52 -49c40 0 60 24.333 60 73c0 19.333 -2.66699 43.666 -8 72.999zM463.999 1505
c0 -66.667 -30 -121.001 -90 -163.001l53 -37l-43 -49c-26.667 18.667 -45.667 35.667 -57 51c-78 -51.333 -160.333 -85.333 -247 -102l-27 59c68 23.333 105.333 36.333 112 39c45.333 18 79.333 37.667 102 59c-18.667 30 -28 56.667 -28 80
c0 32.667 13 65.334 39 98.001c27.333 35.333 57 53 89 53c26 0 48.667 -8.16699 68 -24.5s29 -37.5 29 -63.5zM405.999 1483c0 33.333 -18.667 50 -56 50c-15.333 0 -30.333 -9 -45 -27s-22 -35 -22 -51c0 -32 15.667 -54.333 47 -67c19.333 6 36.833 18.5 52.5 37.5
s23.5 38.167 23.5 57.5z" />
    <glyph glyph-name="uniFC62" unicode="&#x651;&#x650;" horiz-adv-x="1" arabic-form="isolated" 
d="M444 1379c4.66699 -30.667 7.00195 -58.334 7.00195 -83.001c0 -122.667 -42 -184 -126 -184c-42 0 -70.333 27.667 -85 83c-34.667 -76 -80.334 -114 -137.001 -114c-51.333 0 -77 31.333 -77 94c0 40 12.333 81.333 37 124h46c-12.667 -33.333 -19 -58.666 -19 -75.999
c0 -28.667 15.667 -43 47 -43c24.667 0 45.334 18.333 62.001 55c11.333 26.667 18.666 55.667 21.999 87l55 21c1.33301 -40 3.66602 -67 6.99902 -81c8 -32 25.333 -48 52 -48c40 0 60 24.333 60 73c0 18.667 -2.66699 42.667 -8 72zM434.002 974l-381 -102l-14 64
l380 108z" />
    <glyph glyph-name="uniFDF2" unicode="&#xfedf;&#xfee0;&#xfeea;" horiz-adv-x="1777" arabic-form="isolated" 
d="M242 286c-1.33301 -16.667 0.832031 -31 6.49902 -43s13.167 -21.333 22.5 -28s19.833 -10.5 31.5 -11.5s22.334 0.833008 32.001 5.5s17.834 12.5 24.501 23.5s9.66699 25.5 9 43.5v82c0 10 -1.66699 19.833 -5 29.5s-7.83301 18.334 -13.5 26.001
s-12.334 13.834 -20.001 18.501s-16.167 7 -25.5 7c-10 0 -18.833 -2.33301 -26.5 -7s-14.167 -10.834 -19.5 -18.501s-9.33301 -16.334 -12 -26.001s-4 -19.5 -4 -29.5v-72zM762.998 0h-34.999c-24.667 -0 -50.834 1.83301 -78.501 5.5s-54.834 9.33398 -81.501 17.001
s-51.5 17.334 -74.5 29.001s-41.833 25.834 -56.5 42.501c-21.333 -18 -45 -30.5 -71 -37.5s-52.167 -9.33301 -78.5 -7s-51.833 9 -76.5 20s-46.167 25.333 -64.5 43s-32.666 38.834 -42.999 63.501s-14.166 51.667 -11.499 81v126c0 30 5.66699 57.667 17 83
s26.666 47.166 45.999 65.499s41.833 32.833 67.5 43.5s53.167 16.334 82.5 17.001c30 0 58 -5.16699 84 -15.5s48.833 -24.833 68.5 -43.5s35 -40.667 46 -66s16.5 -53.333 16.5 -84v-113c1.33301 -26 9 -46.667 23 -62s31.5 -27 52.5 -35s44 -13.167 69 -15.5
s48.833 -3.5 71.5 -3.5h61v-2h52c26.667 0 49.167 1.5 67.5 4.5s33.333 8.33301 45 16s20.167 18.167 25.5 31.5s8.66602 30.333 9.99902 51v642h151v-625c0 -24 2.33301 -43.667 7 -59s12.834 -27.5 24.501 -36.5s27 -15.333 46 -19s43.167 -5.5 72.5 -5.5h51l86 1
c28.667 0 52.5 1.83301 71.5 5.5s34.167 10 45.5 19s19.333 21.167 24 36.5s7 35 7 59v625h151v-623c0 -47.333 -5.5 -88.333 -16.5 -123s-28.167 -63.334 -51.5 -86.001s-53.5 -39.334 -90.5 -50.001s-81.833 -16 -134.5 -16h-151
c-50.667 -0.666992 -94 4.16602 -130 14.499s-66.333 26.166 -91 47.499c-46 -42 -117.333 -63 -214 -63h-92v1z" />
    <glyph glyph-name="uniFEF5" unicode="&#xfedf;&#xfe82;" horiz-adv-x="665" arabic-form="isolated" 
d="M624 142.5c-12 -34.333 -30.834 -62.999 -56.501 -85.999s-56 -40.167 -91 -51.5s-70.833 -17 -107.5 -17c-34 0 -67 4.66699 -99 14s-60.5 23.166 -85.5 41.499s-45.167 41.333 -60.5 69s-23 60.167 -23 97.5c0 10 0.5 20.333 1.5 31s2.5 20.667 4.5 30v628h154v-643
c-6 -19.333 -7 -36.333 -3 -51s11.5 -26.834 22.5 -36.501s24.167 -17 39.5 -22s31.666 -7.5 48.999 -7.5c16 0 31.667 2.5 47 7.5s28.333 12.333 39 22s18.334 21.834 23.001 36.501s4.33398 31.667 -0.999023 51v643h151v-635c9.33301 -46.667 8 -87.167 -4 -121.5z
M462.999 1023c-20 -32 -41 -52.1699 -63 -60.5029s-44.5 -10.666 -67.5 -6.99902s-46.5 10 -70.5 19s-48.667 15 -74 18s-51 -0.166992 -77 -9.5s-52 -31 -78 -65v135c18.667 20.667 37.5 34.834 56.5 42.501s38.167 11.334 57.5 11.001s38.833 -3.5 58.5 -9.5l57.5 -17.5
c18.667 -5.66699 37.167 -10.167 55.5 -13.5s36 -2.66602 53 2.00098s33.333 14.667 49 30s30.5 38.666 44.5 69.999z" />
    <glyph glyph-name="uniFEF6" unicode="&#xfee0;&#xfe82;" horiz-adv-x="794" arabic-form="final" 
d="M599.5 18c-46.333 12 -85.835 30.665 -118.502 55.998c-23.333 -23.333 -54.166 -41.5 -92.499 -54.5s-83.833 -19.5 -136.5 -19.5h-160v900h154v-746c28 0 51.333 1.83301 70 5.5s33.667 10 45 19s19.333 21.167 24 36.5s7 35 7 59v625h152v-634
c0.666992 -22 6.66699 -40.167 18 -54.5s26.5 -25.666 45.5 -33.999s41.5 -14.166 67.5 -17.499s54.333 -5 85 -5h54v-154h-62c-55.333 0 -106.166 6 -152.499 18zM462.998 1023c-20 -32 -41 -52.1699 -63 -60.5029s-44.5 -10.666 -67.5 -6.99902s-46.5 10 -70.5 19
s-48.667 15 -74 18s-51 -0.166992 -77 -9.5s-52 -31 -78 -65v135c18.667 20.667 37.5 34.834 56.5 42.501s38.167 11.334 57.5 11.001s38.833 -3.5 58.5 -9.5l57.5 -17.5c18.667 -5.66699 37.167 -10.167 55.5 -13.5s36 -2.66602 53 2.00098s33.333 14.667 49 30
s30.5 38.666 44.5 69.999z" />
    <glyph glyph-name="uniFEF7" unicode="&#xfedf;&#xfe84;" horiz-adv-x="665" arabic-form="isolated" 
d="M624 142.5c-12 -34.333 -30.834 -62.999 -56.501 -85.999s-56 -40.167 -91 -51.5s-70.833 -17 -107.5 -17c-34 0 -67 4.66699 -99 14s-60.5 23.166 -85.5 41.499s-45.167 41.333 -60.5 69s-23 60.167 -23 97.5c0 10 0.5 20.333 1.5 31s2.5 20.667 4.5 30v628h154v-643
c-6 -19.333 -7 -36.333 -3 -51s11.5 -26.834 22.5 -36.501s24.167 -17 39.5 -22s31.666 -7.5 48.999 -7.5c16 0 31.667 2.5 47 7.5s28.333 12.333 39 22s18.334 21.834 23.001 36.501s4.33398 31.667 -0.999023 51v643h151v-635c9.33301 -46.667 8 -87.167 -4 -121.5z
M106.999 1065l80.999 -0.000976562c-1.33301 26.667 3.16699 51.834 13.5 75.501s25.666 44.334 45.999 62.001s45.333 31.5 75 41.5s63.5 15 101.5 15v-104c-18 0.666992 -35.167 -2 -51.5 -8s-30.166 -13.667 -41.499 -23s-19.666 -19.333 -24.999 -30
s-6 -20.334 -2 -29.001h120v-109h-317v109z" />
    <glyph glyph-name="uniFEF8" unicode="&#xfee0;&#xfe84;" horiz-adv-x="794" arabic-form="final" 
d="M599.5 18c-46.333 12 -85.835 30.665 -118.502 55.998c-23.333 -23.333 -54.166 -41.5 -92.499 -54.5s-83.833 -19.5 -136.5 -19.5h-160v900h154v-746c28 0 51.333 1.83301 70 5.5s33.667 10 45 19s19.333 21.167 24 36.5s7 35 7 59v625h152v-634
c0.666992 -22 6.66699 -40.167 18 -54.5s26.5 -25.666 45.5 -33.999s41.5 -14.166 67.5 -17.499s54.333 -5 85 -5h54v-154h-62c-55.333 0 -106.166 6 -152.499 18zM96.998 1065l80.999 -0.000976562c-1.33301 26.667 3.16699 51.834 13.5 75.501
s25.666 44.334 45.999 62.001s45.333 31.5 75 41.5s63.5 15 101.5 15v-104c-18 0.666992 -35.167 -2 -51.5 -8s-30.166 -13.667 -41.499 -23s-19.666 -19.333 -24.999 -30s-6 -20.334 -2 -29.001h120v-109h-317v109z" />
    <glyph glyph-name="uniFEF9" unicode="&#xfedf;&#xfe88;" horiz-adv-x="665" arabic-form="isolated" 
d="M624 142.5c-12 -34.333 -30.834 -62.999 -56.501 -85.999s-56 -40.167 -91 -51.5s-70.833 -17 -107.5 -17c-34 0 -67 4.66699 -99 14s-60.5 23.166 -85.5 41.499s-45.167 41.333 -60.5 69s-23 60.167 -23 97.5c0 10 0.5 20.333 1.5 31s2.5 20.667 4.5 30v628h154v-643
c-6 -19.333 -7 -36.333 -3 -51s11.5 -26.834 22.5 -36.501s24.167 -17 39.5 -22s31.666 -7.5 48.999 -7.5c16 0 31.667 2.5 47 7.5s28.333 12.333 39 22s18.334 21.834 23.001 36.501s4.33398 31.667 -0.999023 51v643h151v-635c9.33301 -46.667 8 -87.167 -4 -121.5z
M97.999 -261.999l80.999 -0.000976562c-1.33301 26.667 3.16699 51.834 13.5 75.501s25.666 44.334 45.999 62.001s45.333 31.5 75 41.5s63.5 15 101.5 15v-104c-18 0.666992 -35.167 -2 -51.5 -8s-30.166 -13.667 -41.499 -23s-19.666 -19.333 -24.999 -30
s-6 -20.334 -2 -29.001h120v-109h-317v109z" />
    <glyph glyph-name="uniFEFA" unicode="&#xfee0;&#xfe88;" horiz-adv-x="794" arabic-form="final" 
d="M599.5 18c-46.333 12 -85.835 30.665 -118.502 55.998c-23.333 -23.333 -54.166 -41.5 -92.499 -54.5s-83.833 -19.5 -136.5 -19.5h-160v900h154v-746c28 0 51.333 1.83301 70 5.5s33.667 10 45 19s19.333 21.167 24 36.5s7 35 7 59v625h152v-634
c0.666992 -22 6.66699 -40.167 18 -54.5s26.5 -25.666 45.5 -33.999s41.5 -14.166 67.5 -17.499s54.333 -5 85 -5h54v-154h-62c-55.333 0 -106.166 6 -152.499 18zM97.998 -262.002l80.999 -0.000976562c-1.33301 26.667 3.16699 51.834 13.5 75.501
s25.666 44.334 45.999 62.001s45.333 31.5 75 41.5s63.5 15 101.5 15v-104c-18 0.666992 -35.167 -2 -51.5 -8s-30.166 -13.667 -41.499 -23s-19.666 -19.333 -24.999 -30s-6 -20.334 -2 -29.001h120v-109h-317v109z" />
    <glyph glyph-name="uniFEFB" unicode="&#xfedf;&#xfe8e;" horiz-adv-x="665" arabic-form="isolated" 
d="M624 142.5c-12 -34.333 -30.834 -62.999 -56.501 -85.999s-56 -40.167 -91 -51.5s-70.833 -17 -107.5 -17c-34 0 -67 4.66699 -99 14s-60.5 23.166 -85.5 41.499s-45.167 41.333 -60.5 69s-23 60.167 -23 97.5c0 10 0.5 20.333 1.5 31s2.5 20.667 4.5 30v628h154v-643
c-6 -19.333 -7 -36.333 -3 -51s11.5 -26.834 22.5 -36.501s24.167 -17 39.5 -22s31.666 -7.5 48.999 -7.5c16 0 31.667 2.5 47 7.5s28.333 12.333 39 22s18.334 21.834 23.001 36.501s4.33398 31.667 -0.999023 51v643h151v-635c9.33301 -46.667 8 -87.167 -4 -121.5z" />
    <glyph glyph-name="uniFEFC" unicode="&#xfee0;&#xfe8e;" horiz-adv-x="794" arabic-form="final" 
d="M599.5 18c-46.333 12 -85.835 30.665 -118.502 55.998c-23.333 -23.333 -54.166 -41.5 -92.499 -54.5s-83.833 -19.5 -136.5 -19.5h-160v900h154v-746c28 0 51.333 1.83301 70 5.5s33.667 10 45 19s19.333 21.167 24 36.5s7 35 7 59v625h152v-634
c0.666992 -22 6.66699 -40.167 18 -54.5s26.5 -25.666 45.5 -33.999s41.5 -14.166 67.5 -17.499s54.333 -5 85 -5h54v-154h-62c-55.333 0 -106.166 6 -152.499 18z" />
    <glyph glyph-name="afii57410" unicode="&#x622;" horiz-adv-x="440" arabic-form="isolated" 
d="M433 953c-20 -32 -41 -52.1699 -63 -60.5029s-44.5 -10.666 -67.5 -6.99902s-46.5 10 -70.5 19s-48.667 15 -74 18s-51 -0.166992 -77 -9.5s-52 -31 -78 -65v135c18.667 20.667 37.5 34.834 56.5 42.501s38.167 11.334 57.5 11.001s38.833 -3.5 58.5 -9.5l57.5 -17.5
c18.667 -5.66699 37.167 -10.167 55.5 -13.5s36 -2.66602 53 2.00098s33.333 14.667 49 30s30.5 38.666 44.5 69.999zM141 802.997h153v-803h-153v803z" />
    <glyph glyph-name="afii57411" unicode="&#x623;" horiz-adv-x="316" arabic-form="isolated" 
d="M118 900h151v-900h-151v900zM-19 1051l80.999 -0.000976562c-1.33301 26.667 3.16699 51.834 13.5 75.501s25.666 44.334 45.999 62.001s45.333 31.5 75 41.5s63.5 15 101.5 15v-104c-18 0.666992 -35.167 -2 -51.5 -8s-30.166 -13.667 -41.499 -23
s-19.666 -19.333 -24.999 -30s-6 -20.334 -2 -29.001h120v-109h-317v109z" />
    <glyph glyph-name="afii57412" unicode="&#x624;" horiz-adv-x="606" arabic-form="isolated" 
d="M587 257v-138.003c0 -5.33301 0.166992 -10.666 0.5 -15.999s0.166016 -10.666 -0.500977 -15.999v-9v-1c-2 -50 -11.333 -99.833 -28 -149.5s-44.167 -94.334 -82.5 -134.001s-89.833 -72 -154.5 -97s-146 -37.5 -244 -37.5v151c30 0 60.5 2.16699 91.5 6.5
s60.833 12 89.5 23s55 25.833 79 44.5s44 42.667 60 72c-4 -1.33301 -8.16699 -2 -12.5 -2h-14.5c-26.667 0 -52.667 4.33301 -78 13s-47.833 21.667 -67.5 39s-35.5 39 -47.5 65s-18 56 -18 90v81c0 34.667 6.33301 65.334 19 92.001s29.167 49 49.5 67
s43.5 31.667 69.5 41s52.667 14 80 14c24.667 0 49 -4.16699 73 -12.5s45.667 -20.666 65 -36.999s35.333 -37 48 -62s20.334 -54.167 23.001 -87.5zM311 189.997c0 -27.333 5.66699 -46.998 17 -58.998s24.333 -18 39 -18c16.667 0 31.667 5.66699 45 17
s20.666 27.666 21.999 48.999v48c-1.33301 23.333 -8.33301 40.666 -21 51.999s-26.667 17 -42 17s-29.166 -6.33301 -41.499 -19s-18.5 -33 -18.5 -61v-26zM32 611.999l80.999 -0.000976562c-1.33301 26.667 3.16699 51.834 13.5 75.501s25.666 44.334 45.999 62.001
s45.333 31.5 75 41.5s63.5 15 101.5 15v-104c-18 0.666992 -35.167 -2 -51.5 -8s-30.166 -13.667 -41.499 -23s-19.666 -19.333 -24.999 -30s-6 -20.334 -2 -29.001h120v-109h-317v109z" />
    <glyph glyph-name="afii57413" unicode="&#x625;" horiz-adv-x="316" arabic-form="isolated" 
d="M118 900h151v-900h-151v900zM-26 -262l80.999 -0.000976562c-1.33301 26.667 3.16699 51.834 13.5 75.501s25.666 44.334 45.999 62.001s45.333 31.5 75 41.5s63.5 15 101.5 15v-104c-18 0.666992 -35.167 -2 -51.5 -8s-30.166 -13.667 -41.499 -23
s-19.666 -19.333 -24.999 -30s-6 -20.334 -2 -29.001h120v-109h-317v109z" />
    <glyph glyph-name="afii57414" unicode="&#x626;" horiz-adv-x="791" arabic-form="isolated" 
d="M503 183.5c12 -9 29.9971 -15.498 53.9971 -19.498s54.333 -6.33301 91 -7s80 -1 130 -1c2 -39.333 -0.166992 -80 -6.5 -122s-19.333 -80.667 -39 -116s-47.167 -64.333 -82.5 -87s-80.333 -34 -135 -34h-139c-35.333 -0.666992 -70 4.83301 -104 16.5
s-64.167 29.5 -90.5 53.5s-47.666 54 -63.999 90s-24.5 78 -24.5 126v324h152v-327c0 -22.667 3.83301 -42.167 11.5 -58.5s17.834 -29.666 30.501 -39.999s26.667 -18 42 -23s31 -7.5 47 -7.5h134c12 0 23.667 1.33301 35 4s21.833 6.5 31.5 11.5s17.667 11.333 24 19
s10.166 16.5 11.499 26.5c-96.667 0 -167.334 16.167 -212.001 48.5s-67 80.166 -67 143.499v77c1.33301 36 8.5 67.667 21.5 95s29.667 50.166 50 68.499s43.166 32 68.499 41s51.333 13.5 78 13.5s52.834 -4.33301 78.501 -13s48.334 -22.667 68.001 -42
s35.334 -44.333 47.001 -75s17.167 -68.334 16.5 -113.001h-150c-0.666992 20 -3 35.667 -7 47s-9 20 -15 26s-12.667 9.66699 -20 11s-14.666 2 -21.999 2c-16 0 -30.333 -6.16699 -43 -18.5s-19 -33.833 -19 -64.5v-36c0 -17.333 6 -30.5 18 -39.5zM91.9971 586.002
l80.999 -0.000976562c-1.33301 26.667 3.16699 51.834 13.5 75.501s25.666 44.334 45.999 62.001s45.333 31.5 75 41.5s63.5 15 101.5 15v-104c-18 0.666992 -35.167 -2 -51.5 -8s-30.166 -13.667 -41.499 -23s-19.666 -19.333 -24.999 -30s-6 -20.334 -2 -29.001h120v-109
h-317v109z" />
    <glyph glyph-name="afii57415" unicode="&#x627;" horiz-adv-x="316" arabic-form="isolated" 
d="M118 900h151v-900h-151v900z" />
    <glyph glyph-name="afii57416" unicode="&#x628;" horiz-adv-x="1408" arabic-form="isolated" 
d="M342 16.5c-44 11 -82 27.833 -114 50.5s-57.167 51.334 -75.5 86.001s-27.5 75.667 -27.5 123v86h151v-88c0 -24 5.33301 -43.667 16 -59s25.5 -27.5 44.5 -36.5s41.667 -15.333 68 -19s55.166 -5.5 86.499 -5.5h523c30.667 0 59.167 1.83301 85.5 5.5s49 10 68 19
s33.833 21.167 44.5 36.5s16 35 16 59v88h154v-86c0 -47.333 -9.16699 -88.333 -27.5 -123s-43.666 -63.334 -75.999 -86.001s-70.5 -39.5 -114.5 -50.5s-91.333 -16.5 -142 -16.5h-537c-51.333 0 -99 5.5 -143 16.5zM635 -179c0 28.667 9.5 52.333 28.5 71
s42.833 28 71.5 28c13.333 0 26 -2.5 38 -7.5s22.5 -11.833 31.5 -20.5s16.167 -19.167 21.5 -31.5s8 -25.5 8 -39.5s-2.66699 -27.167 -8 -39.5s-12.5 -23 -21.5 -32s-19.5 -16.167 -31.5 -21.5s-24.667 -8 -38 -8c-28.667 0 -52.5 9.66699 -71.5 29s-28.5 43.333 -28.5 72
z" />
    <glyph glyph-name="afii57417" unicode="&#x629;" horiz-adv-x="554" arabic-form="isolated" 
d="M92 336c-0.666992 34.667 5.33301 64.999 18 90.999s29.167 47.667 49.5 65s43.666 30.5 69.999 39.5s52.833 13.5 79.5 13.5s52.667 -4.33301 78 -13s47.833 -21.667 67.5 -39s35.5 -39.166 47.5 -65.499s18 -56.833 18 -91.5v-136
c0.666992 -34.667 -5.16602 -65 -17.499 -91s-28.833 -47.667 -49.5 -65s-44 -30.333 -70 -39s-52.333 -13 -79 -13c-26 0 -51.667 4.33301 -77 13s-48 21.667 -68 39s-36.167 39 -48.5 65s-18.5 56.333 -18.5 91v136zM243 225.999c1.33301 -28 8.66602 -48.667 21.999 -62
s28 -20 44 -20c15.333 0 29.5 6.66699 42.5 20s18.833 34 17.5 62v84c-1.33301 27.333 -8.5 48.166 -21.5 62.499s-27.5 21.5 -43.5 21.5c-16.667 0 -31.167 -7.16699 -43.5 -21.5s-18.166 -35.166 -17.499 -62.499v-84zM41 707.999l80.999 -0.000976562
c-1.33301 26.667 3.16699 51.834 13.5 75.501s25.666 44.334 45.999 62.001s45.333 31.5 75 41.5s63.5 15 101.5 15v-104c-18 0.666992 -35.167 -2 -51.5 -8s-30.166 -13.667 -41.499 -23s-19.666 -19.333 -24.999 -30s-6 -20.334 -2 -29.001h120v-109h-317v109z" />
    <glyph glyph-name="afii57418" unicode="&#x62a;" horiz-adv-x="1394" arabic-form="isolated" 
d="M342 16.5c-44 11 -82 27.833 -114 50.5s-57.167 51.334 -75.5 86.001s-27.5 75.667 -27.5 123v86h151v-88c0 -24 5.33301 -43.667 16 -59s25.5 -27.5 44.5 -36.5s41.667 -15.333 68 -19s55.166 -5.5 86.499 -5.5h523c30.667 0 59.167 1.83301 85.5 5.5s49 10 68 19
s33.833 21.167 44.5 36.5s16 35 16 59v88h154v-86c0 -47.333 -9.16699 -88.333 -27.5 -123s-43.666 -63.334 -75.999 -86.001s-70.5 -39.5 -114.5 -50.5s-91.333 -16.5 -142 -16.5h-537c-51.333 0 -99 5.5 -143 16.5zM526 509c0 28.667 9.33301 52.666 28 71.999
s42 29 70 29c13.333 0 26.166 -2.66699 38.499 -8s23.166 -12.5 32.499 -21.5s16.666 -19.667 21.999 -32s8 -25.5 8 -39.5s-2.66699 -27.167 -8 -39.5s-12.666 -22.833 -21.999 -31.5s-20.166 -15.5 -32.499 -20.5s-25.166 -7.5 -38.499 -7.5c-28 0 -51.333 9.33301 -70 28
s-28 42.334 -28 71.001zM762 508.999c0 28.667 9.16699 52.666 27.5 71.999s42.166 29 71.499 29c13.333 0 26 -2.66699 38 -8s22.5 -12.5 31.5 -21.5s16.167 -19.667 21.5 -32s8 -25.5 8 -39.5s-2.66699 -27.167 -8 -39.5s-12.5 -22.833 -21.5 -31.5
s-19.5 -15.5 -31.5 -20.5s-24.667 -7.5 -38 -7.5c-29.333 0 -53.166 9.33301 -71.499 28s-27.5 42.334 -27.5 71.001z" />
    <glyph glyph-name="afii57419" unicode="&#x62b;" horiz-adv-x="1426" arabic-form="isolated" 
d="M351 16.5c-44 11 -82 27.833 -114 50.5s-57 51.334 -75 86.001s-27 75.667 -27 123v86h151v-88c0 -24 5.33301 -43.667 16 -59s25.5 -27.5 44.5 -36.5s41.667 -15.333 68 -19s55.166 -5.5 86.499 -5.5h523c30.667 0 59.167 1.83301 85.5 5.5s49 10 68 19
s33.833 21.167 44.5 36.5s16 35 16 59v88h153v-86c0 -47.333 -9.16699 -88.333 -27.5 -123s-43.666 -63.334 -75.999 -86.001s-70.5 -39.5 -114.5 -50.5s-91.333 -16.5 -142 -16.5h-536c-52 0 -100 5.5 -144 16.5zM662 724c0 28 9 51.501 27 70.501s41.667 28.5 71 28.5
c13.333 0 26 -2.5 38 -7.5s22.667 -12 32 -21s16.833 -19.5 22.5 -31.5s8.5 -25 8.5 -39c0 -14.667 -2.83301 -28 -8.5 -40s-13.167 -22.333 -22.5 -31s-20 -15.5 -32 -20.5s-24.667 -7.5 -38 -7.5c-29.333 0 -53 9.16699 -71 27.5s-27 42.166 -27 71.499zM536 509.001
c0 28.667 9.33301 52.666 28 71.999s42 29 70 29c13.333 0 26.166 -2.66699 38.499 -8s23.166 -12.5 32.499 -21.5s16.666 -19.667 21.999 -32s8 -25.5 8 -39.5s-2.66699 -27.167 -8 -39.5s-12.666 -22.833 -21.999 -31.5s-20.166 -15.5 -32.499 -20.5
s-25.166 -7.5 -38.499 -7.5c-28 0 -51.333 9.33301 -70 28s-28 42.334 -28 71.001zM772 509c0 28.667 9.16699 52.666 27.5 71.999s41.833 29 70.5 29c13.333 0 26 -2.66699 38 -8s22.667 -12.5 32 -21.5s16.666 -19.667 21.999 -32s8 -25.5 8 -39.5
s-2.66699 -27.167 -8 -39.5s-12.666 -22.833 -21.999 -31.5s-20 -15.5 -32 -20.5s-24.667 -7.5 -38 -7.5c-28.667 0 -52.167 9.33301 -70.5 28s-27.5 42.334 -27.5 71.001z" />
    <glyph glyph-name="afii57420" unicode="&#x62c;" horiz-adv-x="947" arabic-form="isolated" 
d="M436 -116c0 26 8 47.1699 24 63.5029s37 24.5 63 24.5c12 0 23.333 -2.16699 34 -6.5s20 -10.333 28 -18s14.333 -17 19 -28s7 -22.833 7 -35.5s-2.33301 -24.334 -7 -35.001s-11 -19.834 -19 -27.501s-17.333 -13.667 -28 -18s-22 -6.5 -34 -6.5
c-26 0 -47 8.16699 -63 24.5s-24 37.166 -24 62.499zM389 -390.997c-48.667 0 -90.8291 7.66699 -126.496 23s-65.334 35.833 -89.001 61.5s-41.334 54.667 -53.001 87s-17.5 65.5 -17.5 99.5s6 67.333 18 100s30 62 54 88s53.833 46.833 89.5 62.5s77.167 23.5 124.5 23.5
h299c30.667 0 52.667 4.83301 66 14.5s20 21.5 20 35.5c0 14.667 -6.5 30 -19.5 46s-27.5 28 -43.5 36c-18.667 6 -36.667 11.5 -54 16.5l-52 15l-52.5 15c-17.667 5 -36.167 10.833 -55.5 17.5c-11.333 3.33301 -23.166 5.16602 -35.499 5.49902s-24 -1 -35 -4
s-20.5 -8 -28.5 -15s-13.667 -15.833 -17 -26.5c-1.33301 -4 -2.83301 -9 -4.5 -15l-5.5 -19c-2 -6.66699 -4 -13 -6 -19s-3.33301 -10.333 -4 -13l-150 27l16 58c11.333 34 26.5 63.5 45.5 88.5s40.667 44.833 65 59.5s50.666 24.334 78.999 29.001s57.5 3.66699 87.5 -3
l256 -75c28 -10.667 52.5 -24.334 73.5 -41.001s38.5 -35 52.5 -55s24.333 -41 31 -63s10 -44 10 -66c0 -26 -4.5 -51.333 -13.5 -76s-22.333 -46.334 -40 -65.001s-39.834 -33.667 -66.501 -45s-57.334 -17 -92.001 -17h-328c-21.333 0 -39.833 -3.16699 -55.5 -9.5
s-28.667 -15 -39 -26s-18.166 -23.667 -23.499 -38s-8 -29.166 -8 -44.499c0 -14.667 2.66699 -29.167 8 -43.5s13.166 -27.166 23.499 -38.499s23.333 -20.5 39 -27.5s34.167 -10.5 55.5 -10.5h383v-153h-381z" />
    <glyph glyph-name="afii57421" unicode="&#x62d;" horiz-adv-x="943" arabic-form="isolated" 
d="M397 -391c-48.667 0 -90.8291 7.66699 -126.496 23s-65.334 35.833 -89.001 61.5s-41.334 54.667 -53.001 87s-17.5 65.5 -17.5 99.5s6 67.333 18 100s30 62 54 88s53.833 46.833 89.5 62.5s77.167 23.5 124.5 23.5h299c30.667 0 52.667 4.83301 66 14.5s20 21.5 20 35.5
c0 14.667 -6.5 30 -19.5 46s-27.5 28 -43.5 36c-18.667 6 -36.667 11.5 -54 16.5l-52 15l-52.5 15c-17.667 5 -36.167 10.833 -55.5 17.5c-11.333 3.33301 -23.166 5.16602 -35.499 5.49902s-24 -1 -35 -4s-20.5 -8 -28.5 -15s-13.667 -15.833 -17 -26.5
c-1.33301 -4 -2.83301 -9 -4.5 -15l-5.5 -19c-2 -6.66699 -4 -13 -6 -19s-3.33301 -10.333 -4 -13l-150 27l16 58c11.333 34 26.5 63.5 45.5 88.5s40.667 44.833 65 59.5s50.666 24.334 78.999 29.001s57.5 3.66699 87.5 -3l256 -75c28 -10.667 52.5 -24.334 73.5 -41.001
s38.5 -35 52.5 -55s24.333 -41 31 -63s10 -44 10 -66c0 -26 -4.5 -51.333 -13.5 -76s-22.333 -46.334 -40 -65.001s-39.834 -33.667 -66.501 -45s-57.334 -17 -92.001 -17h-328c-21.333 0 -39.833 -3.16699 -55.5 -9.5s-28.667 -15 -39 -26s-18.166 -23.667 -23.499 -38
s-8 -29.166 -8 -44.499c0 -14.667 2.66699 -29.167 8 -43.5s13.166 -27.166 23.499 -38.499s23.333 -20.5 39 -27.5s34.167 -10.5 55.5 -10.5h383v-153h-381z" />
    <glyph glyph-name="afii57422" unicode="&#x62e;" horiz-adv-x="965" arabic-form="isolated" 
d="M462 696c0 28 9.16699 51.333 27.5 70s42.166 28 71.499 28c12.667 0 25 -2.5 37 -7.5s22.667 -11.833 32 -20.5s16.666 -19 21.999 -31s8 -25 8 -39s-2.66699 -27.167 -8 -39.5s-12.666 -23 -21.999 -32s-20 -16 -32 -21s-24.333 -7.5 -37 -7.5
c-29.333 0 -53.166 9.66699 -71.499 29s-27.5 43 -27.5 71zM407 -391c-48.667 0 -90.8291 7.66699 -126.496 23s-65.334 35.833 -89.001 61.5s-41.334 54.667 -53.001 87s-17.5 65.5 -17.5 99.5s6 67.333 18 100s30 62 54 88s53.833 46.833 89.5 62.5
s77.167 23.5 124.5 23.5h299c30.667 0 52.667 4.83301 66 14.5s20 21.5 20 35.5c0 14.667 -6.5 30 -19.5 46s-27.5 28 -43.5 36c-18.667 6 -36.667 11.5 -54 16.5l-52 15l-52.5 15c-17.667 5 -36.167 10.833 -55.5 17.5c-11.333 3.33301 -23.166 5.16602 -35.499 5.49902
s-24 -1 -35 -4s-20.5 -8 -28.5 -15s-13.667 -15.833 -17 -26.5c-1.33301 -4 -2.83301 -9 -4.5 -15l-5.5 -19c-2 -6.66699 -4 -13 -6 -19s-3.33301 -10.333 -4 -13l-150 27l16 58c11.333 34 26.5 63.5 45.5 88.5s40.667 44.833 65 59.5s50.666 24.334 78.999 29.001
s57.5 3.66699 87.5 -3l256 -75c28 -10.667 52.5 -24.334 73.5 -41.001s38.5 -35 52.5 -55s24.333 -41 31 -63s10 -44 10 -66c0 -26 -4.5 -51.333 -13.5 -76s-22.333 -46.334 -40 -65.001s-39.834 -33.667 -66.501 -45s-57.334 -17 -92.001 -17h-328
c-21.333 0 -39.833 -3.16699 -55.5 -9.5s-28.667 -15 -39 -26s-18.166 -23.667 -23.499 -38s-8 -29.166 -8 -44.499c0 -14.667 2.66699 -29.167 8 -43.5s13.166 -27.166 23.499 -38.499s23.333 -20.5 39 -27.5s34.167 -10.5 55.5 -10.5h383v-153h-381z" />
    <glyph glyph-name="afii57423" unicode="&#x62f;" horiz-adv-x="674" arabic-form="isolated" 
d="M112 0l-0.000976562 154.002h260c60.667 0 99.5 13.833 116.5 41.5s9.16699 64.5 -23.5 110.5l-170 260l153 56l177 -266c22.667 -46 34.334 -90.833 35.001 -134.5s-9.5 -82.334 -30.5 -116.001s-53 -60.334 -96 -80.001s-96.833 -28.167 -161.5 -25.5h-260z" />
    <glyph glyph-name="afii57424" unicode="&#x630;" horiz-adv-x="674" arabic-form="isolated" 
d="M255 833c0 28.667 9.16699 52.333 27.5 71s42.166 28 71.499 28c12.667 0 25 -2.5 37 -7.5s22.667 -11.833 32 -20.5s16.666 -19.167 21.999 -31.5s8 -25.5 8 -39.5s-2.66699 -27.167 -8 -39.5s-12.666 -23 -21.999 -32s-20 -16 -32 -21s-24.333 -7.5 -37 -7.5
c-29.333 0 -53.166 9.5 -71.499 28.5s-27.5 42.833 -27.5 71.5zM112 -0.000976562l-0.000976562 154.002h260c60.667 0 99.5 13.833 116.5 41.5s9.16699 64.5 -23.5 110.5l-170 260l153 56l177 -266c22.667 -46 34.334 -90.833 35.001 -134.5s-9.5 -82.334 -30.5 -116.001
s-53 -60.334 -96 -80.001s-96.833 -28.167 -161.5 -25.5h-260z" />
    <glyph glyph-name="afii57425" unicode="&#x631;" horiz-adv-x="547" arabic-form="isolated" 
d="M525 295v-176.001c0.666992 -35.333 -1.66602 -71.166 -6.99902 -107.499s-15.166 -71.5 -29.499 -105.5s-34 -66 -59 -96s-56.333 -56.167 -94 -78.5s-82.834 -40 -135.501 -53s-114 -19.5 -184 -19.5v151c40.667 0 82.167 4.16699 124.5 12.5
s80.666 23.833 114.999 46.5s62.333 54 84 94s32.5 92 32.5 156v176h153z" />
    <glyph glyph-name="afii57426" unicode="&#x632;" horiz-adv-x="549" arabic-form="isolated" 
d="M313 533c0 28 9.33301 51.333 28 70s42.667 28 72 28c13.333 0 26 -2.5 38 -7.5s22.5 -11.833 31.5 -20.5s16.167 -19 21.5 -31s8 -25 8 -39s-2.66699 -27.167 -8 -39.5s-12.5 -23 -21.5 -32s-19.5 -16 -31.5 -21s-24.667 -7.5 -38 -7.5c-29.333 0 -53.333 9.5 -72 28.5
s-28 42.833 -28 71.5zM527 295v-176.001c0.666992 -35.333 -1.66602 -71.166 -6.99902 -107.499s-15.166 -71.5 -29.499 -105.5s-34 -66 -59 -96s-56.333 -56.167 -94 -78.5s-82.834 -40 -135.501 -53s-114 -19.5 -184 -19.5v151c40.667 0 82.167 4.16699 124.5 12.5
s80.666 23.833 114.999 46.5s62.333 54 84 94s32.5 92 32.5 156v176h153z" />
    <glyph glyph-name="afii57427" unicode="&#x633;" horiz-adv-x="1537" arabic-form="isolated" 
d="M1317 16c-13.333 -6 -28.5029 -10.1689 -45.5029 -12.502s-34.833 -3.5 -53.5 -3.5c-42 0 -82.667 6.16699 -122 18.5s-73.666 33.833 -102.999 64.5c-26 -26.667 -58.333 -46.834 -97 -60.501s-78.334 -20.5 -119.001 -20.5c-22.667 0 -45 2 -67 6
s-42.667 10.667 -62 20c-4 -43.333 -14.5 -81 -31.5 -113s-37.833 -58.5 -62.5 -79.5s-52.334 -36.667 -83.001 -47s-61.667 -15.5 -93 -15.5c-34 0 -67.333 6 -100 18s-61.834 29.833 -87.501 53.5s-46.334 53.167 -62.001 88.5s-23.5 76.333 -23.5 123v306h153v-307
c0 -20.667 3.33301 -38.834 10 -54.501s15.334 -28.667 26.001 -39s23 -18.166 37 -23.499s28.333 -8 43 -8c15.333 0 30.333 2.66699 45 8s27.834 13.166 39.501 23.499s21 23.333 28 39s10.5 33.834 10.5 54.501v307h151v-126c2.66699 -13.333 8.33398 -25.333 17.001 -36
s19 -19.667 31 -27s25.333 -12.833 40 -16.5s29.667 -5.5 45 -5.5c18 0 35.5 2.33301 52.5 7s32.167 11.834 45.5 21.501s23.833 21.334 31.5 35.001s11.167 29.5 10.5 47.5v100h152v-99c0 -18 3.66699 -34 11 -48s17 -25.833 29 -35.5s25.833 -16.834 41.5 -21.501
s31.834 -7 48.501 -7c18.667 0 36.834 2.5 54.501 7.5s33.334 12.667 47.001 23s24.667 23.166 33 38.499s12.5 33.333 12.5 54v88h153v-86c0 -31.333 -4.5 -60.666 -13.5 -87.999s-21.667 -52.166 -38 -74.499s-35.833 -41.666 -58.5 -57.999s-48 -29.5 -76 -39.5z" />
    <glyph glyph-name="afii57428" unicode="&#x634;" horiz-adv-x="1547" arabic-form="isolated" 
d="M1281.5 3.5c-17 -2.33301 -34.8359 -3.50195 -53.5029 -3.50195c-42 0 -82.667 6.16699 -122 18.5s-73.666 33.833 -102.999 64.5c-26 -26.667 -58.333 -46.834 -97 -60.501s-78.334 -20.5 -119.001 -20.5c-22.667 0 -45 2 -67 6s-42.667 10.667 -62 20
c-4 -43.333 -14.5 -81 -31.5 -113s-37.833 -58.5 -62.5 -79.5s-52.334 -36.667 -83.001 -47s-61.667 -15.5 -93 -15.5c-34 0 -67.333 6 -100 18s-61.834 29.833 -87.501 53.5s-46.334 53.167 -62.001 88.5s-23.5 76.333 -23.5 123v306h153v-307
c0 -20.667 3.33301 -38.834 10 -54.501s15.334 -28.667 26.001 -39s23 -18.166 37 -23.499s28.333 -8 43 -8c15.333 0 30.333 2.66699 45 8s27.834 13.166 39.501 23.499s21 23.333 28 39s10.5 33.834 10.5 54.501v307h151v-126c2.66699 -13.333 8.33398 -25.333 17.001 -36
s19 -19.667 31 -27s25.333 -12.833 40 -16.5s29.667 -5.5 45 -5.5c18 0 35.5 2.33301 52.5 7s32.167 11.834 45.5 21.501s23.833 21.334 31.5 35.001s11.167 29.5 10.5 47.5v100h152v-99c0 -18 3.66699 -34 11 -48s17 -25.833 29 -35.5s25.833 -16.834 41.5 -21.501
s31.834 -7 48.501 -7c18.667 0 36.834 2.5 54.501 7.5s33.334 12.667 47.001 23s24.667 23.166 33 38.499s12.5 33.333 12.5 54v88h153v-86c0 -31.333 -4.5 -60.666 -13.5 -87.999s-21.667 -52.166 -38 -74.499s-35.833 -41.666 -58.5 -57.999s-48 -29.5 -76 -39.5
c-13.333 -6 -28.5 -10.167 -45.5 -12.5zM894.997 785.998c0 29.333 9.33301 53.5 28 72.5s42.334 28.5 71.001 28.5c13.333 0 26 -2.5 38 -7.5s22.667 -12 32 -21s16.833 -19.667 22.5 -32s8.5 -25.833 8.5 -40.5c0 -14 -2.83301 -27 -8.5 -39s-13.167 -22.167 -22.5 -30.5
s-20 -15 -32 -20s-24.667 -7.5 -38 -7.5c-28.667 0 -52.334 9.16699 -71.001 27.5s-28 41.5 -28 69.5zM770.997 571.998c0 28.667 9 52.5 27 71.5s41.333 28.5 70 28.5c13.333 0 26 -2.5 38 -7.5s22.5 -12 31.5 -21s16.167 -19.667 21.5 -32s8 -25.5 8 -39.5
s-2.66699 -27 -8 -39s-12.5 -22.333 -21.5 -31s-19.5 -15.5 -31.5 -20.5s-24.667 -7.5 -38 -7.5c-28.667 0 -52 9.33301 -70 28s-27 42 -27 70zM1006 571.998c0 28.667 9.16699 52.5 27.5 71.5s41.833 28.5 70.5 28.5c13.333 0 26 -2.5 38 -7.5s22.667 -12 32 -21
s16.666 -19.667 21.999 -32s8 -25.5 8 -39.5s-2.66699 -27 -8 -39s-12.666 -22.333 -21.999 -31s-20 -15.5 -32 -20.5s-24.667 -7.5 -38 -7.5c-28.667 0 -52.167 9.33301 -70.5 28s-27.5 42 -27.5 70z" />
    <glyph glyph-name="afii57429" unicode="&#x635;" horiz-adv-x="1434" arabic-form="isolated" 
d="M759 9c-34.667 6 -67.0039 15.3369 -97.0039 28.0039c-2 -44.667 -11.167 -83.5 -27.5 -116.5s-37 -60.5 -62 -82.5s-53 -38.333 -84 -49s-62.5 -16 -94.5 -16c-34 0 -67.333 6 -100 18s-62 29.833 -88 53.5s-46.833 53.167 -62.5 88.5s-23.5 76.333 -23.5 123v306h154
v-307c0 -20.667 3.33301 -38.834 10 -54.501s15.334 -28.667 26.001 -39s22.834 -18.166 36.501 -23.499s27.834 -8 42.501 -8s29.334 2.66699 44.001 8s27.834 13.166 39.501 23.499s21 23.333 28 39s10.5 33.834 10.5 54.501v307h151v-97
c3.33301 -38.667 17.333 -65.334 42 -80.001c5.33301 54.667 17.166 100.667 35.499 138s41.5 67.666 69.5 90.999s59.667 40.166 95 50.499s72.666 15.5 111.999 15.5h155c42 -1.33301 79.333 -9.83301 112 -25.5s60.167 -35.5 82.5 -59.5s39.333 -51 51 -81
s17.5 -60.333 17.5 -91c0 -28 -5.16699 -55.5 -15.5 -82.5s-26.166 -50.833 -47.499 -71.5s-48.5 -37.334 -81.5 -50.001s-72.5 -19 -118.5 -19h-300c-40 0 -77.333 3 -112 9zM1168 154.004c40 -1.33301 69.332 5.33301 87.999 20s28 31 28 49
c0 12.667 -2.83301 25.167 -8.5 37.5s-13.5 23.333 -23.5 33s-22.167 17.5 -36.5 23.5s-30.166 9 -47.499 9h-143c-19.333 0 -38.5 -2.66699 -57.5 -8s-36.167 -14.5 -51.5 -27.5s-28.5 -30.5 -39.5 -52.5s-17.833 -50 -20.5 -84h312z" />
    <glyph glyph-name="afii57430" unicode="&#x636;" horiz-adv-x="1434" arabic-form="isolated" 
d="M759 9c-34.667 6 -67.0039 15.3369 -97.0039 28.0039c-2 -44.667 -11.167 -83.5 -27.5 -116.5s-37 -60.5 -62 -82.5s-53 -38.333 -84 -49s-62.5 -16 -94.5 -16c-34 0 -67.333 6 -100 18s-62 29.833 -88 53.5s-46.833 53.167 -62.5 88.5s-23.5 76.333 -23.5 123v306h154
v-307c0 -20.667 3.33301 -38.834 10 -54.501s15.334 -28.667 26.001 -39s22.834 -18.166 36.501 -23.499s27.834 -8 42.501 -8s29.334 2.66699 44.001 8s27.834 13.166 39.501 23.499s21 23.333 28 39s10.5 33.834 10.5 54.501v307h151v-97
c3.33301 -38.667 17.333 -65.334 42 -80.001c5.33301 54.667 17.166 100.667 35.499 138s41.5 67.666 69.5 90.999s59.667 40.166 95 50.499s72.666 15.5 111.999 15.5h155c42 -1.33301 79.333 -9.83301 112 -25.5s60.167 -35.5 82.5 -59.5s39.333 -51 51 -81
s17.5 -60.333 17.5 -91c0 -28 -5.16699 -55.5 -15.5 -82.5s-26.166 -50.833 -47.499 -71.5s-48.5 -37.334 -81.5 -50.001s-72.5 -19 -118.5 -19h-300c-40 0 -77.333 3 -112 9zM1168 154.004c40 -1.33301 69.332 5.33301 87.999 20s28 31 28 49
c0 12.667 -2.83301 25.167 -8.5 37.5s-13.5 23.333 -23.5 33s-22.167 17.5 -36.5 23.5s-30.166 9 -47.499 9h-143c-19.333 0 -38.5 -2.66699 -57.5 -8s-36.167 -14.5 -51.5 -27.5s-28.5 -30.5 -39.5 -52.5s-17.833 -50 -20.5 -84h312zM852.995 679.003
c0 28.667 9.16699 52.001 27.5 70.001s42.166 27 71.499 27c12.667 0 25 -2.33301 37 -7s22.667 -11.334 32 -20.001s16.666 -19 21.999 -31s8 -25 8 -39s-2.66699 -27.167 -8 -39.5s-12.666 -23 -21.999 -32s-20 -16.167 -32 -21.5s-24.333 -8 -37 -8
c-29.333 0 -53.166 9.66699 -71.499 29s-27.5 43.333 -27.5 72z" />
    <glyph glyph-name="afii57431" unicode="&#x637;" horiz-adv-x="919" arabic-form="isolated" 
d="M326 431c23.333 15.333 48.502 27.334 75.502 36.001s55.5 13 85.5 13h156c41.333 -1.33301 78.166 -9.83301 110.499 -25.5s59.5 -35.5 81.5 -59.5s38.667 -51 50 -81s17 -60.333 17 -91c0 -28 -5.16699 -55.5 -15.5 -82.5s-26 -50.833 -47 -71.5
s-47.833 -37.334 -80.5 -50.001s-71.334 -19 -116.001 -19h-660v154h190v6c0 2.66699 0.666992 5.66699 2 9v731h151v-469zM637.002 154.001c40 -1.33301 69.168 5.33301 87.501 20s27.5 31 27.5 49c0 12.667 -2.66699 25.167 -8 37.5s-13 23.333 -23 33s-22 17.5 -36 23.5
s-30 9 -48 9h-144c-19.333 0 -38.333 -2.66699 -57 -8s-35.667 -14.5 -51 -27.5s-28.333 -30.5 -39 -52.5s-17.334 -50 -20.001 -84h311z" />
    <glyph glyph-name="afii57432" unicode="&#x638;" horiz-adv-x="1015" arabic-form="isolated" 
d="M422 431c23.333 15.333 48.502 27.334 75.502 36.001s55.5 13 85.5 13h156c41.333 -1.33301 78.166 -9.83301 110.499 -25.5s59.5 -35.5 81.5 -59.5s38.667 -51 50 -81s17 -60.333 17 -91c0 -28 -5.16699 -55.5 -15.5 -82.5s-26 -50.833 -47 -71.5
s-47.833 -37.334 -80.5 -50.001s-71.334 -19 -116.001 -19h-660v154h190v6c0 2.66699 0.666992 5.66699 2 9v731h151v-469zM733.002 154.001c40 -1.33301 69.168 5.33301 87.501 20s27.5 31 27.5 49c0 12.667 -2.66699 25.167 -8 37.5s-13 23.333 -23 33s-22 17.5 -36 23.5
s-30 9 -48 9h-144c-19.333 0 -38.333 -2.66699 -57 -8s-35.667 -14.5 -51 -27.5s-28.333 -30.5 -39 -52.5s-17.334 -50 -20.001 -84h311zM559.003 722c0 28.667 9.33301 52.167 28 70.5s42.667 27.5 72 27.5c12.667 0 25 -2.5 37 -7.5s22.667 -11.833 32 -20.5
s16.666 -19 21.999 -31s8 -25 8 -39s-2.66699 -27.167 -8 -39.5s-12.666 -23 -21.999 -32s-20 -16 -32 -21s-24.333 -7.5 -37 -7.5c-29.333 0 -53.333 9.5 -72 28.5s-28 42.833 -28 71.5z" />
    <glyph glyph-name="afii57433" unicode="&#x639;" horiz-adv-x="784" arabic-form="isolated" 
d="M366 -391c-47.333 0 -88.832 7.83203 -124.499 23.499s-65.334 36 -89.001 61s-41.5 53.5 -53.5 85.5s-18 65 -18 99c0 26 3.66699 52 11 78s18.333 50.167 33 72.5s32.834 42.5 54.501 60.5s46.834 32.667 75.501 44c-8 15.333 -13.5 30.5 -16.5 45.5
s-4.5 29.833 -4.5 44.5c0 30.667 5.66699 61 17 91s28 57 50 81s49.167 43.833 81.5 59.5s69.5 24.167 111.5 25.5h91c21.333 0 44.666 -2.83301 69.999 -8.5s51.666 -14.834 78.999 -27.501v-187c-38 28 -69.167 46.5 -93.5 55.5s-44.5 13.5 -60.5 13.5h-79
c-18 0 -34.167 -3 -48.5 -9s-26.5 -13.833 -36.5 -23.5s-17.833 -20.667 -23.5 -33s-8.5 -24.833 -8.5 -37.5c0 -16.667 7.5 -32 22.5 -46s40.5 -21.667 76.5 -23h247v-154h-366c-21.333 0 -39.666 -3.16699 -54.999 -9.5s-28.333 -15 -39 -26s-18.5 -23.667 -23.5 -38
s-7.5 -29.166 -7.5 -44.499c0 -14.667 2.5 -29.167 7.5 -43.5s12.833 -27.166 23.5 -38.499s23.667 -20.5 39 -27.5s33.666 -10.5 54.999 -10.5h366v-153h-364z" />
    <glyph glyph-name="afii57434" unicode="&#x63a;" horiz-adv-x="802" arabic-form="isolated" 
d="M374 -391c-48 0 -89.8311 7.83203 -125.498 23.499s-65.334 36 -89.001 61s-41.5 53.5 -53.5 85.5s-18 65 -18 99c0 26 3.66699 52 11 78s18.166 50.167 32.499 72.5s32.333 42.5 54 60.5s46.834 32.667 75.501 44c-7.33301 15.333 -12.333 30.5 -15 45.5
s-4 29.833 -4 44.5c0 30.667 5.66699 61 17 91s28 57 50 81s49 43.833 81 59.5s68.667 24.167 110 25.5h92c21.333 0 44.5 -2.83301 69.5 -8.5s51.5 -14.834 79.5 -27.501v-187c-38.667 28 -69.834 46.5 -93.501 55.5s-44.167 13.5 -61.5 13.5h-79
c-18 0 -34.167 -3 -48.5 -9s-26.5 -13.833 -36.5 -23.5s-17.833 -20.667 -23.5 -33s-8.5 -24.833 -8.5 -37.5c0 -16.667 7.66699 -32 23 -46s41 -21.667 77 -23h246v-154h-365c-21.333 0 -39.666 -3.16699 -54.999 -9.5s-28.333 -15 -39 -26s-18.5 -23.667 -23.5 -38
s-7.5 -29.166 -7.5 -44.499c0 -14.667 2.5 -29.167 7.5 -43.5s12.833 -27.166 23.5 -38.499s23.667 -20.5 39 -27.5s33.666 -10.5 54.999 -10.5h365v-153h-362zM448.002 689.999c0 28 9.33301 51.333 28 70s42 28 70 28c13.333 0 26 -2.5 38 -7.5s22.667 -11.833 32 -20.5
s16.666 -19 21.999 -31s8 -25 8 -39c0 -14.667 -2.66699 -28.167 -8 -40.5s-12.666 -23 -21.999 -32s-20 -16 -32 -21s-24.667 -7.5 -38 -7.5c-28 0 -51.333 9.5 -70 28.5s-28 43.167 -28 72.5z" />
    <glyph glyph-name="afii57441" unicode="&#x641;" horiz-adv-x="1319" arabic-form="isolated" 
d="M454 0c-52 0 -100 5.49902 -144 16.499s-82 27.833 -114 50.5s-57.167 51.334 -75.5 86.001s-27.5 75.667 -27.5 123v86h153v-88c0 -24 5.33301 -43.667 16 -59s25.5 -27.5 44.5 -36.5s41.833 -15.333 68.5 -19s55.667 -5.5 87 -5.5h475h41
c11.333 0 23.666 0.666992 36.999 2c-44 17.333 -78.167 41.333 -102.5 72s-36.5 68.667 -36.5 114v84c0.666992 34.667 7.33398 65.167 20.001 91.5s29 48.333 49 66s42.5 30.834 67.5 39.501s50.5 13 76.5 13c27.333 0 53.833 -4.5 79.5 -13.5s48.5 -22.333 68.5 -40
s36.167 -39.5 48.5 -65.5s18.833 -56.333 19.5 -91v-150c0 -47.333 -9 -88.333 -27 -123s-43 -63.334 -75 -86.001s-70 -39.5 -114 -50.5s-91.667 -16.5 -143 -16.5h-492zM1039 324.999c6.66699 -9.33301 15.6699 -16.6689 27.0029 -22.002s24.666 -9 39.999 -11
s31.666 -3 48.999 -3v1l-3 129c0 10.667 -2 20 -6 28s-9.33301 14.833 -16 20.5s-13.834 9.83398 -21.501 12.501s-15.5 4 -23.5 4c-15.333 0 -28.5 -5 -39.5 -15s-16.5 -23.667 -16.5 -41v-66c0 -15.333 3.33301 -27.666 10 -36.999zM967.003 825.996
c0 28.667 9.16602 52.167 27.499 70.5s42.166 27.5 71.499 27.5c26.667 0 49.834 -9.16699 69.501 -27.5s29.5 -41.833 29.5 -70.5c0 -14 -2.66699 -27.167 -8 -39.5s-12.5 -23 -21.5 -32s-19.5 -16 -31.5 -21s-24.667 -7.5 -38 -7.5c-29.333 0 -53.166 9.5 -71.499 28.5
s-27.5 42.833 -27.5 71.5z" />
    <glyph glyph-name="afii57442" unicode="&#x642;" horiz-adv-x="737" arabic-form="isolated" 
d="M463 -112.5c19.333 5 36.668 12.4971 52.001 22.4971s27.666 22.5 36.999 37.5s14.333 32.5 15 52.5h-63c-27.333 0 -53.666 4.33301 -78.999 13s-48 21.834 -68 39.501s-36 39.5 -48 65.5s-18 56.333 -18 91v104c-0.666992 34 5.16602 64 17.499 90
s28.833 47.833 49.5 65.5s44.167 30.834 70.5 39.501s53.166 13 80.499 13c26.667 0 52.667 -4.33301 78 -13s47.833 -21.667 67.5 -39s35.5 -39 47.5 -65s18 -56.333 18 -91v-307c0 -49.333 -9.16699 -91.833 -27.5 -127.5s-42 -65.334 -71 -89.001
s-61.833 -41.167 -98.5 -52.5s-74 -17 -112 -17c-39.333 0 -78 6 -116 18s-71.667 30 -101 54s-53 53.833 -71 89.5s-27 77.167 -27 124.5v305h154v-307c0 -21.333 4.33301 -39.666 13 -54.999s20.334 -28.166 35.001 -38.499s31 -18 49 -23s36.667 -7.5 56 -7.5
c20.667 0 40.667 2.5 60 7.5zM567.002 153.997l-0.000976562 132c-1.33301 27.333 -8.66602 47.666 -21.999 60.999s-28 20 -44 20s-29.833 -6.66699 -41.5 -20s-17.167 -33.666 -16.5 -60.999v-50c0 -27.333 6.33301 -47.5 19 -60.5s26.667 -20.167 42 -21.5h63z
M282.001 695.997c0 28 9.16699 51.667 27.5 71s42.166 29 71.499 29c12.667 0 25 -2.66699 37 -8s22.667 -12.5 32 -21.5s16.666 -19.5 21.999 -31.5s8 -25 8 -39s-2.66699 -27 -8 -39s-12.666 -22.333 -21.999 -31s-20 -15.5 -32 -20.5s-24.333 -7.5 -37 -7.5
c-29.333 0 -53.166 9.33301 -71.499 28s-27.5 42 -27.5 70zM519.001 695.997c0 28 9 51.667 27 71s41.667 29 71 29c13.333 0 26 -2.66699 38 -8s22.667 -12.5 32 -21.5s16.666 -19.5 21.999 -31.5s8 -25 8 -39s-2.66699 -27 -8 -39s-12.666 -22.333 -21.999 -31
s-20 -15.5 -32 -20.5s-24.667 -7.5 -38 -7.5c-29.333 0 -53 9.33301 -71 28s-27 42 -27 70z" />
    <glyph glyph-name="afii57443" unicode="&#x643;" horiz-adv-x="1344" arabic-form="isolated" 
d="M936 684c-23.333 0 -41.3311 -5.33203 -53.998 -15.999s-20 -23.167 -22 -37.5s1.5 -28.833 10.5 -43.5s23.5 -26.334 43.5 -35.001l250 -137c30.667 -13.333 56.167 -32.833 76.5 -58.5s34.666 -54 42.999 -85s10.333 -62.5 6 -94.5s-15.5 -61.167 -33.5 -87.5
s-43.5 -47.833 -76.5 -64.5s-73.833 -25 -122.5 -25h-609c-50.667 0 -98.334 5.66699 -143.001 17s-83 28 -115 50s-57.333 50.333 -76 85s-28 76 -28 124v86h154v-88c0 -47.333 20.333 -80 61 -98l155 -22h588c24 0 41.833 4.66699 53.5 14s18.667 20.5 21 33.5
s0.5 26.333 -5.5 40s-14.667 24.5 -26 32.5l-259 141c-34 18.667 -61.333 42 -82 70s-34.667 57.667 -42 89s-7.66602 62.833 -0.999023 94.5s20.167 60.167 40.5 85.5s47.666 45.833 81.999 61.5s75.833 23.5 124.5 23.5h359v-155h-373z" />
    <glyph glyph-name="afii57444" unicode="&#x644;" horiz-adv-x="647" arabic-form="isolated" 
d="M630 56c0 -48 -7.83203 -89.667 -23.499 -125s-36.167 -64.833 -61.5 -88.5s-54.166 -41.167 -86.499 -52.5s-65.166 -17 -98.499 -17c-34 0 -67.167 6 -99.5 18s-61.333 29.833 -87 53.5s-46.334 53.167 -62.001 88.5s-23.5 76.333 -23.5 123v306h152v-307
c0 -20.667 3.33301 -38.834 10 -54.501s15.5 -28.667 26.5 -39s23.5 -18.166 37.5 -23.499s28.333 -8 43 -8c15.333 0 30.166 2.66699 44.499 8s27.166 13.166 38.499 23.499s20.5 23.333 27.5 39s10.5 33.834 10.5 54.501v844h152v-843z" />
    <glyph glyph-name="afii57445" unicode="&#x645;" horiz-adv-x="776" arabic-form="isolated" 
d="M534 379c32 -0.666992 61.832 -7.33105 89.499 -19.998s52 -29.834 73 -51.501s37.5 -46.667 49.5 -75s18 -58.5 18 -90.5s-6.16699 -62.333 -18.5 -91s-29.166 -53.5 -50.499 -74.5s-46.5 -37.667 -75.5 -50s-60.167 -18.5 -93.5 -18.5c-32 0 -62.333 6 -91 18
s-53.834 29.167 -75.501 51.5s-38.667 49.166 -51 80.499s-18.5 66.333 -18.5 105c-15.333 -1.33301 -26 -8.5 -32 -21.5s-9.33301 -28.167 -10 -45.5v-430h-154v442c0.666992 48 11.667 89.167 33 123.5s49.833 62.333 85.5 84s76.834 37.667 123.501 48
s95.667 15.5 147 15.5h51zM440.999 146.003c0 -25.333 8.16699 -46.166 24.5 -62.499s36.5 -24.5 60.5 -24.5s44.667 8.16699 62 24.5s26 37.166 26 62.499c0 12 -2.33301 23.167 -7 33.5s-11 19.5 -19 27.5s-17.333 14.333 -28 19s-22 7 -34 7s-23.167 -2.33301 -33.5 -7
s-19.333 -11 -27 -19s-13.667 -17.167 -18 -27.5s-6.5 -21.5 -6.5 -33.5z" />
    <glyph glyph-name="afii57446" unicode="&#x646;" horiz-adv-x="661" arabic-form="isolated" 
d="M636 56c0 -48 -7.83301 -89.667 -23.5 -125s-36.334 -64.833 -62.001 -88.5s-54.667 -41.167 -87 -52.5s-64.833 -17 -97.5 -17c-34 0 -67.333 6 -100 18s-61.834 29.833 -87.501 53.5s-46.5 53.167 -62.5 88.5s-24 76.333 -24 123v306h154v-307
c0 -20.667 3.33301 -38.834 10 -54.501s15.334 -28.667 26.001 -39s23 -18.166 37 -23.499s28.333 -8 43 -8c15.333 0 30.333 2.66699 45 8s27.834 13.166 39.501 23.499s21 23.333 28 39s10.5 33.834 10.5 54.501v307h151v-306zM269 535c0 28.667 9 52.001 27 70.001
s41.333 27 70 27c13.333 0 26 -2.33301 38 -7s22.667 -11.334 32 -20.001s16.833 -19 22.5 -31s8.5 -25 8.5 -39s-2.83301 -27.167 -8.5 -39.5s-13.167 -23 -22.5 -32s-20 -16.167 -32 -21.5s-24.667 -8 -38 -8c-28.667 0 -52 9.66699 -70 29s-27 43.333 -27 72z" />
    <glyph glyph-name="afii57470" unicode="&#x647;" horiz-adv-x="554" arabic-form="isolated" 
d="M92 336c-0.666992 34.667 5.33301 64.999 18 90.999s29.167 47.667 49.5 65s43.666 30.5 69.999 39.5s52.833 13.5 79.5 13.5s52.667 -4.33301 78 -13s47.833 -21.667 67.5 -39s35.5 -39.166 47.5 -65.499s18 -56.833 18 -91.5v-136
c0.666992 -34.667 -5.16602 -65 -17.499 -91s-28.833 -47.667 -49.5 -65s-44 -30.333 -70 -39s-52.333 -13 -79 -13c-26 0 -51.667 4.33301 -77 13s-48 21.667 -68 39s-36.167 39 -48.5 65s-18.5 56.333 -18.5 91v136zM243 225.999c1.33301 -28 8.66602 -48.667 21.999 -62
s28 -20 44 -20c15.333 0 29.5 6.66699 42.5 20s18.833 34 17.5 62v84c-1.33301 27.333 -8.5 48.166 -21.5 62.499s-27.5 21.5 -43.5 21.5c-16.667 0 -31.167 -7.16699 -43.5 -21.5s-18.166 -35.166 -17.499 -62.499v-84z" />
    <glyph glyph-name="afii57448" unicode="&#x648;" horiz-adv-x="606" arabic-form="isolated" 
d="M587 257v-138.003c0 -5.33301 0.166992 -10.666 0.5 -15.999s0.166016 -10.666 -0.500977 -15.999v-9v-1c-2 -50 -11.333 -99.833 -28 -149.5s-44.167 -94.334 -82.5 -134.001s-89.833 -72 -154.5 -97s-146 -37.5 -244 -37.5v151c30 0 60.5 2.16699 91.5 6.5
s60.833 12 89.5 23s55 25.833 79 44.5s44 42.667 60 72c-4 -1.33301 -8.16699 -2 -12.5 -2h-14.5c-26.667 0 -52.667 4.33301 -78 13s-47.833 21.667 -67.5 39s-35.5 39 -47.5 65s-18 56 -18 90v81c0 34.667 6.33301 65.334 19 92.001s29.167 49 49.5 67
s43.5 31.667 69.5 41s52.667 14 80 14c24.667 0 49 -4.16699 73 -12.5s45.667 -20.666 65 -36.999s35.333 -37 48 -62s20.334 -54.167 23.001 -87.5zM311 189.997c0 -27.333 5.66699 -46.998 17 -58.998s24.333 -18 39 -18c16.667 0 31.667 5.66699 45 17
s20.666 27.666 21.999 48.999v48c-1.33301 23.333 -8.33301 40.666 -21 51.999s-26.667 17 -42 17s-29.166 -6.33301 -41.499 -19s-18.5 -33 -18.5 -61v-26z" />
    <glyph glyph-name="afii57449" unicode="&#x649;" horiz-adv-x="791" arabic-form="isolated" 
d="M503 183.5c12 -9 29.9971 -15.498 53.9971 -19.498s54.333 -6.33301 91 -7s80 -1 130 -1c2 -39.333 -0.166992 -80 -6.5 -122s-19.333 -80.667 -39 -116s-47.167 -64.333 -82.5 -87s-80.333 -34 -135 -34h-139c-35.333 -0.666992 -70 4.83301 -104 16.5
s-64.167 29.5 -90.5 53.5s-47.666 54 -63.999 90s-24.5 78 -24.5 126v324h152v-327c0 -22.667 3.83301 -42.167 11.5 -58.5s17.834 -29.666 30.501 -39.999s26.667 -18 42 -23s31 -7.5 47 -7.5h134c12 0 23.667 1.33301 35 4s21.833 6.5 31.5 11.5s17.667 11.333 24 19
s10.166 16.5 11.499 26.5c-96.667 0 -167.334 16.167 -212.001 48.5s-67 80.166 -67 143.499v77c1.33301 36 8.5 67.667 21.5 95s29.667 50.166 50 68.499s43.166 32 68.499 41s51.333 13.5 78 13.5s52.834 -4.33301 78.501 -13s48.334 -22.667 68.001 -42
s35.334 -44.333 47.001 -75s17.167 -68.334 16.5 -113.001h-150c-0.666992 20 -3 35.667 -7 47s-9 20 -15 26s-12.667 9.66699 -20 11s-14.666 2 -21.999 2c-16 0 -30.333 -6.16699 -43 -18.5s-19 -33.833 -19 -64.5v-36c0 -17.333 6 -30.5 18 -39.5z" />
    <glyph glyph-name="afii57450" unicode="&#x64a;" horiz-adv-x="791" arabic-form="isolated" 
d="M503 183.5c12 -9 29.9971 -15.498 53.9971 -19.498s54.333 -6.33301 91 -7s80 -1 130 -1c2 -39.333 -0.166992 -80 -6.5 -122s-19.333 -80.667 -39 -116s-47.167 -64.333 -82.5 -87s-80.333 -34 -135 -34h-139c-35.333 -0.666992 -70 4.83301 -104 16.5
s-64.167 29.5 -90.5 53.5s-47.666 54 -63.999 90s-24.5 78 -24.5 126v324h152v-327c0 -22.667 3.83301 -42.167 11.5 -58.5s17.834 -29.666 30.501 -39.999s26.667 -18 42 -23s31 -7.5 47 -7.5h134c12 0 23.667 1.33301 35 4s21.833 6.5 31.5 11.5s17.667 11.333 24 19
s10.166 16.5 11.499 26.5c-96.667 0 -167.334 16.167 -212.001 48.5s-67 80.166 -67 143.499v77c1.33301 36 8.5 67.667 21.5 95s29.667 50.166 50 68.499s43.166 32 68.499 41s51.333 13.5 78 13.5s52.834 -4.33301 78.501 -13s48.334 -22.667 68.001 -42
s35.334 -44.333 47.001 -75s17.167 -68.334 16.5 -113.001h-150c-0.666992 20 -3 35.667 -7 47s-9 20 -15 26s-12.667 9.66699 -20 11s-14.666 2 -21.999 2c-16 0 -30.333 -6.16699 -43 -18.5s-19 -33.833 -19 -64.5v-36c0 -17.333 6 -30.5 18 -39.5z" />
    <glyph glyph-name="afii57506" unicode="&#x67e;" horiz-adv-x="1398" arabic-form="isolated" 
d="M341 16.5c-44 11 -82 27.833 -114 50.5s-57 51.334 -75 86.001s-27 75.667 -27 123v86h151v-88c0 -24 5.33301 -43.667 16 -59s25.5 -27.5 44.5 -36.5s41.667 -15.333 68 -19s55.166 -5.5 86.499 -5.5h523c30.667 0 59.167 1.83301 85.5 5.5s49 10 68 19
s33.833 21.167 44.5 36.5s16 35 16 59v88h153v-86c0 -47.333 -9.16699 -88.333 -27.5 -123s-43.666 -63.334 -75.999 -86.001s-70.5 -39.5 -114.5 -50.5s-91.333 -16.5 -142 -16.5h-536c-52 0 -100 5.5 -144 16.5zM671 -394c0 29.333 9.16699 53.167 27.5 71.5
s41.833 27.5 70.5 27.5c13.333 0 26 -2.5 38 -7.5s22.667 -11.833 32 -20.5s16.833 -19 22.5 -31s8.5 -25.333 8.5 -40c0 -14 -2.83301 -27 -8.5 -39s-13.167 -22.5 -22.5 -31.5s-20 -16 -32 -21s-24.667 -7.5 -38 -7.5c-28.667 0 -52.167 9.5 -70.5 28.5
s-27.5 42.5 -27.5 70.5zM545 -178.999c0 28.667 9.33301 52.333 28 71s42.334 28 71.001 28c13.333 0 26 -2.5 38 -7.5s22.667 -11.833 32 -20.5s16.666 -19.167 21.999 -31.5s8 -25.5 8 -39.5s-2.66699 -27.167 -8 -39.5s-12.666 -23 -21.999 -32s-20 -16.167 -32 -21.5
s-24.667 -8 -38 -8c-28.667 0 -52.334 9.66699 -71.001 29s-28 43.333 -28 72zM781 -179c0 28.667 9.16699 52.333 27.5 71s42.166 28 71.499 28c12.667 0 25.167 -2.5 37.5 -7.5s23 -11.833 32 -20.5s16.333 -19.167 22 -31.5s8.5 -25.5 8.5 -39.5
s-2.83301 -27.167 -8.5 -39.5s-13 -23 -22 -32s-19.667 -16.167 -32 -21.5s-24.833 -8 -37.5 -8c-29.333 0 -53.166 9.66699 -71.499 29s-27.5 43.333 -27.5 72z" />
    <glyph glyph-name="afii57507" unicode="&#x686;" horiz-adv-x="955" arabic-form="isolated" 
d="M338 -116c0 26 8 47.167 24 63.5s37 24.5 63 24.5c23.333 0 43.666 -8.16699 60.999 -24.5s26 -37.5 26 -63.5c0 -25.333 -8.66699 -46.166 -26 -62.499s-37.666 -24.5 -60.999 -24.5c-26 0 -47 8.16699 -63 24.5s-24 37.166 -24 62.499zM535 -116
c0 26 8 47.1699 24 63.5029s36.667 24.5 62 24.5c12 0 23.333 -2.16699 34 -6.5s20 -10.333 28 -18s14.333 -17 19 -28s7 -22.833 7 -35.5s-2.33301 -24.334 -7 -35.001s-11 -19.834 -19 -27.501s-17.333 -13.667 -28 -18s-22 -6.5 -34 -6.5c-25.333 0 -46 8.16699 -62 24.5
s-24 37.166 -24 62.499zM731 -115.997c0 26 8.16699 47.1699 24.5 63.5029s37.166 24.5 62.499 24.5c12 0 23.333 -2.16699 34 -6.5s20 -10.333 28 -18s14.333 -17 19 -28s7 -22.833 7 -35.5s-2.33301 -24.334 -7 -35.001s-11 -19.834 -19 -27.501s-17.333 -13.667 -28 -18
s-22 -6.5 -34 -6.5c-25.333 0 -46.166 8.16699 -62.499 24.5s-24.5 37.166 -24.5 62.499zM397 -390.994c-48.667 0 -90.8291 7.66699 -126.496 23s-65.334 35.833 -89.001 61.5s-41.334 54.667 -53.001 87s-17.5 65.5 -17.5 99.5s6 67.333 18 100s30 62 54 88
s53.833 46.833 89.5 62.5s77.167 23.5 124.5 23.5h299c30.667 0 52.667 4.83301 66 14.5s20 21.5 20 35.5c0 14.667 -6.5 30 -19.5 46s-27.5 28 -43.5 36c-18.667 6 -36.667 11.5 -54 16.5l-52 15l-52.5 15c-17.667 5 -36.167 10.833 -55.5 17.5
c-11.333 3.33301 -23.166 5.16602 -35.499 5.49902s-24 -1 -35 -4s-20.5 -8 -28.5 -15s-13.667 -15.833 -17 -26.5c-1.33301 -4 -2.83301 -9 -4.5 -15l-5.5 -19c-2 -6.66699 -4 -13 -6 -19s-3.33301 -10.333 -4 -13l-150 27l16 58c11.333 34 26.5 63.5 45.5 88.5
s40.667 44.833 65 59.5s50.666 24.334 78.999 29.001s57.5 3.66699 87.5 -3l256 -75c28 -10.667 52.5 -24.334 73.5 -41.001s38.5 -35 52.5 -55s24.333 -41 31 -63s10 -44 10 -66c0 -26 -4.5 -51.333 -13.5 -76s-22.333 -46.334 -40 -65.001s-39.834 -33.667 -66.501 -45
s-57.334 -17 -92.001 -17h-328c-21.333 0 -39.833 -3.16699 -55.5 -9.5s-28.667 -15 -39 -26s-18.166 -23.667 -23.499 -38s-8 -29.166 -8 -44.499c0 -14.667 2.66699 -29.167 8 -43.5s13.166 -27.166 23.499 -38.499s23.333 -20.5 39 -27.5s34.167 -10.5 55.5 -10.5h413
v-153h-411z" />
    <glyph glyph-name="afii57508" unicode="&#x698;" horiz-adv-x="615" arabic-form="isolated" 
d="M296 727c0 29.333 9.16699 53.5 27.5 72.5s41.833 28.5 70.5 28.5c13.333 0 26 -2.5 38 -7.5s22.667 -12 32 -21s16.833 -19.667 22.5 -32s8.5 -25.833 8.5 -40.5c0 -14 -2.83301 -27 -8.5 -39s-13.167 -22.333 -22.5 -31s-20 -15.5 -32 -20.5s-24.667 -7.5 -38 -7.5
c-28.667 0 -52.167 9.16699 -70.5 27.5s-27.5 41.833 -27.5 70.5zM170 514c0 28 9.33301 51.501 28 70.501s42 28.5 70 28.5c13.333 0 26 -2.5 38 -7.5s22.667 -12 32 -21s16.833 -19.5 22.5 -31.5s8.5 -25 8.5 -39c0 -14.667 -2.83301 -28 -8.5 -40
s-13.167 -22.333 -22.5 -31s-20 -15.5 -32 -20.5s-24.667 -7.5 -38 -7.5c-28 0 -51.333 9.16699 -70 27.5s-28 42.166 -28 71.499zM405 514.001c0 28 9.33301 51.501 28 70.501s42.667 28.5 72 28.5c12.667 0 25 -2.5 37 -7.5s22.667 -12 32 -21s16.666 -19.5 21.999 -31.5
s8 -25 8 -39c0 -14.667 -2.66699 -28 -8 -40s-12.666 -22.333 -21.999 -31s-20 -15.5 -32 -20.5s-24.333 -7.5 -37 -7.5c-29.333 0 -53.333 9.16699 -72 27.5s-28 42.166 -28 71.499zM546 295.002v-176.001c0.666992 -35.333 -1.66602 -71.166 -6.99902 -107.499
s-15.166 -71.5 -29.499 -105.5s-34 -66 -59 -96s-56.333 -56.167 -94 -78.5s-82.834 -40 -135.501 -53s-114 -19.5 -184 -19.5v151c40.667 0 82.167 4.16699 124.5 12.5s80.666 23.833 114.999 46.5s62.333 54 84 94s32.5 92 32.5 156v176h153z" />
    <glyph glyph-name="afii57509" unicode="&#x6af;" horiz-adv-x="1348" arabic-form="isolated" 
d="M940 679c-23.333 0 -41.165 -5.00195 -53.498 -15.002s-19.333 -21.833 -21 -35.5s2.16602 -27.667 11.499 -42s24 -25.833 44 -34.5l249 -137c30.667 -13.333 56.167 -32.833 76.5 -58.5s34.833 -54 43.5 -85s10.834 -62.5 6.50098 -94.5s-15.5 -61.167 -33.5 -87.5
s-43.5 -47.833 -76.5 -64.5s-73.833 -25 -122.5 -25h-609c-51.333 0 -99.333 5.66699 -144 17s-83 28 -115 50s-57 50.333 -75 85s-27 76 -27 124v86h152v-88c0 -47.333 20.667 -80 62 -98c54 -18.667 106 -26 156 -22h586c24 0 41.833 4.66699 53.5 14s18.667 20.5 21 33.5
s0.666016 26.333 -5.00098 40s-14.167 24.5 -25.5 32.5l-260 141c-34 18.667 -61.333 41.834 -82 69.501s-34.667 57 -42 88s-8 62 -2 93s19.167 58.833 39.5 83.5s47.666 44.834 81.999 60.501s75.833 23.5 124.5 23.5h359v-154h-373zM911.001 958.998h401v-70h-401v70z
" />
    <glyph glyph-name="uniFB57" unicode="&#x67e;" horiz-adv-x="1555" arabic-form="final" 
d="M335 16.5c-44 11 -82.333 27.832 -115 50.499s-58.167 51.334 -76.5 86.001s-27.5 75.667 -27.5 123v86h154v-88c0 -24 5.33301 -43.667 16 -59s25.5 -27.5 44.5 -36.5s41.5 -15.333 67.5 -19s54.333 -5.5 85 -5.5h461c30 0 57.833 1.66699 83.5 5s48 9.16602 67 17.499
s34.333 19.666 46 33.999s18.167 32.5 19.5 54.5v97h151v-97c0.666992 -22 6.66699 -40.167 18 -54.5s26.5 -25.666 45.5 -33.999s41.333 -14.166 67 -17.499s53.5 -5 83.5 -5h58v-154h-63c-60 -0 -114.5 7.33301 -163.5 22s-89.5 37 -121.5 67
c-34 -32 -75.167 -54.833 -123.5 -68.5s-101.833 -20.5 -160.5 -20.5h-472c-52 0 -100 5.5 -144 16.5zM613 -394.001c0 29.333 9.33301 53.167 28 71.5s42 27.5 70 27.5c13.333 0 26.166 -2.5 38.499 -7.5s23.166 -11.833 32.499 -20.5s16.666 -19 21.999 -31
s8 -25.333 8 -40c0 -14 -2.66699 -27 -8 -39s-12.666 -22.5 -21.999 -31.5s-20.166 -16 -32.499 -21s-25.166 -7.5 -38.499 -7.5c-28 0 -51.333 9.5 -70 28.5s-28 42.5 -28 70.5zM488 -179c0 28.667 9.16699 52.333 27.5 71s41.5 28 69.5 28
c13.333 0 26.166 -2.5 38.499 -7.5s23.166 -11.833 32.499 -20.5s16.666 -19.167 21.999 -31.5s8 -25.5 8 -39.5s-2.66699 -27.167 -8 -39.5s-12.666 -23 -21.999 -32s-20.166 -16.167 -32.499 -21.5s-25.166 -8 -38.499 -8c-28 0 -51.167 9.66699 -69.5 29
s-27.5 43.333 -27.5 72zM723 -179.001c0 28.667 9.33301 52.333 28 71s42.334 28 71.001 28c13.333 0 26 -2.5 38 -7.5s22.5 -11.833 31.5 -20.5s16.167 -19.167 21.5 -31.5s8 -25.5 8 -39.5s-2.66699 -27.167 -8 -39.5s-12.5 -23 -21.5 -32s-19.5 -16.167 -31.5 -21.5
s-24.667 -8 -38 -8c-28.667 0 -52.334 9.66699 -71.001 29s-28 43.333 -28 72z" />
    <glyph glyph-name="uniFB58" unicode="&#x67e;" horiz-adv-x="444" arabic-form="initial" 
d="M137 -394c0 29.333 9.33203 53.166 27.999 71.499s42.334 27.5 71.001 27.5c26.667 0 50 -9.16699 70 -27.5s30 -42.166 30 -71.499c0 -14 -2.66699 -27 -8 -39s-12.666 -22.5 -21.999 -31.5s-20 -16 -32 -21s-24.667 -7.5 -38 -7.5c-28.667 0 -52.334 9.5 -71.001 28.5
s-28 42.5 -28 70.5zM-16.001 0l-0.00292969 154.001h63c30.667 0 59.167 1.83301 85.5 5.5s49 10 68 19s34 21.167 45 36.5s16.5 35 16.5 59v88h153v-86c0 -47.333 -9.16699 -88.333 -27.5 -123s-43.666 -63.334 -75.999 -86.001s-70.666 -39.5 -114.999 -50.5
s-92.166 -16.5 -143.499 -16.5h-69zM11.9961 -178.999c0 28.667 9.16699 52.333 27.5 71s41.833 28 70.5 28c13.333 0 26 -2.5 38 -7.5s22.667 -11.833 32 -20.5s16.666 -19.167 21.999 -31.5s8 -25.5 8 -39.5s-2.66699 -27.167 -8 -39.5s-12.666 -23 -21.999 -32
s-20 -16.167 -32 -21.5s-24.667 -8 -38 -8c-28.667 0 -52.167 9.66699 -70.5 29s-27.5 43.333 -27.5 72zM246.996 -179c0 28.667 9.33301 52.333 28 71s42.334 28 71.001 28c13.333 0 26.166 -2.5 38.499 -7.5s23 -11.833 32 -20.5s16.167 -19.167 21.5 -31.5
s8 -25.5 8 -39.5s-2.66699 -27.167 -8 -39.5s-12.5 -23 -21.5 -32s-19.667 -16.167 -32 -21.5s-25.166 -8 -38.499 -8c-28.667 0 -52.334 9.66699 -71.001 29s-28 43.333 -28 72z" />
    <glyph glyph-name="uniFB59" unicode="&#x67e;" horiz-adv-x="679" arabic-form="medial" 
d="M462 22c-48.667 14.667 -89.668 37.002 -123.001 67.002c-32 -32 -72.167 -54.833 -120.5 -68.5s-102.5 -20.5 -162.5 -20.5h-63v154h57c30 0 57.833 1.66699 83.5 5s48.167 9.16602 67.5 17.499s34.5 19.666 45.5 33.999s17.167 32.5 18.5 54.5v97h154v-99
c0.666992 -22 6.33398 -40 17.001 -54s25.5 -25 44.5 -33s41.333 -13.667 67 -17s53.834 -5 84.501 -5h58v-154h-64c-60.667 -0 -115.334 7.33301 -164.001 22zM235.999 -393.998c0 29.333 9.16699 53.167 27.5 71.5s41.5 27.5 69.5 27.5c13.333 0 26 -2.5 38 -7.5
s22.667 -11.833 32 -20.5s16.833 -19 22.5 -31s8.5 -25.333 8.5 -40c0 -14 -2.83301 -27 -8.5 -39s-13.167 -22.5 -22.5 -31.5s-20 -16 -32 -21s-24.667 -7.5 -38 -7.5c-28 0 -51.167 9.5 -69.5 28.5s-27.5 42.5 -27.5 70.5zM109.999 -178.997
c0 28.667 9.16699 52.333 27.5 71s42.166 28 71.499 28c12.667 0 25.167 -2.5 37.5 -7.5s23 -11.833 32 -20.5s16.333 -19.167 22 -31.5s8.5 -25.5 8.5 -39.5s-2.83301 -27.167 -8.5 -39.5s-13 -23 -22 -32s-19.667 -16.167 -32 -21.5s-24.833 -8 -37.5 -8
c-29.333 0 -53.166 9.66699 -71.499 29s-27.5 43.333 -27.5 72zM344.999 -178.998c0 28.667 9.16699 52.333 27.5 71s42.166 28 71.499 28c13.333 0 26 -2.5 38 -7.5s22.667 -11.833 32 -20.5s16.833 -19.167 22.5 -31.5s8.5 -25.5 8.5 -39.5s-2.83301 -27.167 -8.5 -39.5
s-13.167 -23 -22.5 -32s-20 -16.167 -32 -21.5s-24.667 -8 -38 -8c-29.333 0 -53.166 9.66699 -71.499 29s-27.5 43.333 -27.5 72z" />
    <glyph glyph-name="uniFB7B" unicode="&#x686;" horiz-adv-x="1156" arabic-form="final" 
d="M339 -116c0 26 8 47.1699 24 63.5029s36.667 24.5 62 24.5c12 0 23.333 -2.16699 34 -6.5s20 -10.333 28 -18s14.333 -17 19 -28s7 -22.833 7 -35.5s-2.33301 -24.334 -7 -35.001s-11 -19.834 -19 -27.501s-17.333 -13.667 -28 -18s-22 -6.5 -34 -6.5
c-25.333 0 -46 8.16699 -62 24.5s-24 37.166 -24 62.499zM536 -115.997c0 26 7.83301 47.1699 23.5 63.5029s36.5 24.5 62.5 24.5c12 0 23.333 -2.16699 34 -6.5s20 -10.333 28 -18s14.333 -17 19 -28s7 -22.833 7 -35.5s-2.33301 -24.334 -7 -35.001
s-11 -19.834 -19 -27.501s-17.333 -13.667 -28 -18s-22 -6.5 -34 -6.5c-26 0 -46.833 8.16699 -62.5 24.5s-23.5 37.166 -23.5 62.499zM731 -115.994c0 26 8.16797 47.1699 24.501 63.5029s37.5 24.5 63.5 24.5c23.333 0 43.666 -8.16699 60.999 -24.5s26 -37.5 26 -63.5
c0 -12.667 -2.33301 -24.334 -7 -35.001s-11 -19.834 -19 -27.501s-17.167 -13.667 -27.5 -18s-21.5 -6.5 -33.5 -6.5c-26 0 -47.167 8.16699 -63.5 24.5s-24.5 37.166 -24.5 62.499zM410.001 -390.991c-48.667 0 -91.0049 7.66797 -127.005 23.001s-65.667 35.833 -89 61.5
s-40.833 54.667 -52.5 87s-17.5 65.5 -17.5 99.5s6 67.333 18 100s30 62 54 88s53.833 46.833 89.5 62.5s77.167 23.5 124.5 23.5h253c31.333 0 53.5 4.83301 66.5 14.5s19.5 21.5 19.5 35.5c0 14.667 -6.33301 30 -19 46s-26.667 28 -42 36l-108 32.5
c-33.333 9.66699 -68.666 21.167 -105.999 34.5c-11.333 3.33301 -23.166 5.16602 -35.499 5.49902s-24.166 -1 -35.499 -4s-21.166 -8 -29.499 -15s-14.166 -16.5 -17.499 -28.5c-1.33301 -4 -2.83301 -9 -4.5 -15l-5.5 -19c-2 -6.66699 -4 -12.834 -6 -18.501
s-3.33301 -9.83398 -4 -12.501l-150 31l17 53c11.333 34.667 26.5 64.667 45.5 90s40.5 45.5 64.5 60.5s50.167 24.667 78.5 29s57.5 2.83301 87.5 -4.5l257 -77c50 -18.667 88.833 -45.5 116.5 -80.5s44.167 -71.5 49.5 -109.5c3.33301 -17.333 11 -31.5 23 -42.5
s27.333 -19.5 46 -25.5s40 -10.167 64 -12.5s49.667 -3.5 77 -3.5h58v-154h-62c-52 0 -99.833 5.5 -143.5 16.5s-82.167 27.167 -115.5 48.5c-17.333 -20.667 -39 -36.667 -65 -48s-56.667 -17 -92 -17h-285c-21.333 0 -39.833 -3.16699 -55.5 -9.5s-28.834 -15 -39.501 -26
s-18.5 -23.667 -23.5 -38s-7.5 -29.166 -7.5 -44.499c0 -14.667 2.5 -29.167 7.5 -43.5s12.833 -27.166 23.5 -38.499s23.834 -20.5 39.501 -27.5s34.167 -10.5 55.5 -10.5h395v-153h-392z" />
    <glyph glyph-name="uniFB7C" unicode="&#x686;" horiz-adv-x="803" arabic-form="initial" 
d="M291 -394c0 29.333 9.33203 53.166 27.999 71.499s42.334 27.5 71.001 27.5c26.667 0 50 -9.16699 70 -27.5s30 -42.166 30 -71.499c0 -14 -2.66699 -27 -8 -39s-12.666 -22.5 -21.999 -31.5s-20 -16 -32 -21s-24.667 -7.5 -38 -7.5c-28.667 0 -52.334 9.5 -71.001 28.5
s-28 42.5 -28 70.5zM165.999 -179c0 28.667 9.16699 52.333 27.5 71s41.5 28 69.5 28c13.333 0 26.166 -2.5 38.499 -7.5s23.166 -11.833 32.499 -20.5s16.666 -19.167 21.999 -31.5s8 -25.5 8 -39.5s-2.66699 -27.167 -8 -39.5s-12.666 -23 -21.999 -32
s-20.166 -16.167 -32.499 -21.5s-25.166 -8 -38.499 -8c-28 0 -51.167 9.66699 -69.5 29s-27.5 43.333 -27.5 72zM400.999 -179.001c0 28.667 9.33301 52.333 28 71s42 28 70 28c13.333 0 26 -2.5 38 -7.5s22.667 -11.833 32 -20.5s16.833 -19.167 22.5 -31.5
s8.5 -25.5 8.5 -39.5s-2.83301 -27.167 -8.5 -39.5s-13.167 -23 -22.5 -32s-20 -16.167 -32 -21.5s-24.667 -8 -38 -8c-28 0 -51.333 9.66699 -70 29s-28 43.333 -28 72zM556.999 153.998c30.667 -0.666992 52.668 4.00098 66.001 14.001s19.833 22 19.5 36
s-6.33301 28.667 -18 44s-26.5 28 -44.5 38l-287 80c-18.667 0 -33.667 -4.83301 -45 -14.5s-19.666 -20.5 -24.999 -32.5c-0.666992 -3.33301 -2 -8.16602 -4 -14.499l-6 -19.5c-2 -6.66699 -4 -13 -6 -19s-3.33301 -10.333 -4 -13l-148 36l16 49
c11.333 34.667 26.333 64.5 45 89.5s40 45 64 60s50.167 24.667 78.5 29s58.166 3.5 89.499 -2.5l281 -86c28 -10.667 52.5 -24.334 73.5 -41.001s38.5 -35 52.5 -55s24.333 -41 31 -63s10 -44 10 -66c0 -26 -4.5 -51.333 -13.5 -76s-22.333 -46.334 -40 -65.001
s-39.834 -33.667 -66.501 -45s-57.667 -17 -93 -17h-589v154h563z" />
    <glyph glyph-name="uniFB7D" unicode="&#x686;" horiz-adv-x="1044" arabic-form="medial" 
d="M276 -394c0 29.333 9.16699 53.167 27.5 71.5s41.5 27.5 69.5 27.5c13.333 0 26 -2.5 38 -7.5s22.667 -11.833 32 -20.5s16.833 -19 22.5 -31s8.5 -25.333 8.5 -40c0 -14 -2.83301 -27 -8.5 -39s-13.167 -22.5 -22.5 -31.5s-20 -16 -32 -21s-24.667 -7.5 -38 -7.5
c-28 0 -51.167 9.5 -69.5 28.5s-27.5 42.5 -27.5 70.5zM150 -178.999c0 28.667 9.16699 52.333 27.5 71s41.5 28 69.5 28c13.333 0 26 -2.5 38 -7.5s22.667 -11.833 32 -20.5s16.833 -19.167 22.5 -31.5s8.5 -25.5 8.5 -39.5s-2.83301 -27.167 -8.5 -39.5
s-13.167 -23 -22.5 -32s-20 -16.167 -32 -21.5s-24.667 -8 -38 -8c-28 0 -51.167 9.66699 -69.5 29s-27.5 43.333 -27.5 72zM385 -179c0 28.667 9.16699 52.333 27.5 71s42.166 28 71.499 28c12.667 0 25 -2.5 37 -7.5s22.667 -11.833 32 -20.5s16.666 -19.167 21.999 -31.5
s8 -25.5 8 -39.5s-2.66699 -27.167 -8 -39.5s-12.666 -23 -21.999 -32s-20 -16.167 -32 -21.5s-24.333 -8 -37 -8c-29.333 0 -53.166 9.66699 -71.499 29s-27.5 43.333 -27.5 72zM552 153.999c31.333 -0.666992 53.998 4.49512 67.998 15.4951s21 23.833 21 38.5
s-5.83301 29.5 -17.5 44.5s-27.5 26.167 -47.5 33.5l-287 80c-18.667 0 -33.5 -4.83301 -44.5 -14.5s-19.167 -20.5 -24.5 -32.5c-1.33301 -3.33301 -2.83301 -8.16602 -4.5 -14.499s-3.66699 -12.833 -6 -19.5l-6.5 -19c-2 -6 -3.33301 -10.333 -4 -13l-149 34l17 51
c11.333 34.667 26.5 64.334 45.5 89.001s40.5 44.334 64.5 59.001s50.167 24.334 78.5 29.001s57.5 4.33398 87.5 -0.999023l282 -86c50.667 -18.667 89.334 -45.5 116.001 -80.5s42.334 -71.5 47.001 -109.5c4.66699 -17.333 13.167 -31.5 25.5 -42.5
s27.666 -19.5 45.999 -25.5s39.5 -10.167 63.5 -12.5s50 -3.5 78 -3.5h57v-154h-63c-50 0 -97 5.5 -141 16.5s-82.333 27.167 -115 48.5c-18 -20.667 -40.167 -36.667 -66.5 -48s-57.166 -17 -92.499 -17h-590v154h562z" />
    <glyph glyph-name="uniFB8B" unicode="&#x698;" horiz-adv-x="819" arabic-form="final" 
d="M332 786c0 29.333 9.16699 53.5 27.5 72.5s41.5 28.5 69.5 28.5c13.333 0 26 -2.5 38 -7.5s22.667 -12 32 -21s16.833 -19.667 22.5 -32s8.5 -25.833 8.5 -40.5c0 -14 -2.83301 -27 -8.5 -39s-13.167 -22.167 -22.5 -30.5s-20 -15 -32 -20s-24.667 -7.5 -38 -7.5
c-28 0 -51.167 9.16699 -69.5 27.5s-27.5 41.5 -27.5 69.5zM206 572c0 28.667 9.16699 52.5 27.5 71.5s41.833 28.5 70.5 28.5c13.333 0 26 -2.5 38 -7.5s22.667 -12 32 -21s16.666 -19.667 21.999 -32s8 -25.5 8 -39.5s-2.66699 -27 -8 -39s-12.666 -22.333 -21.999 -31
s-20 -15.5 -32 -20.5s-24.667 -7.5 -38 -7.5c-28.667 0 -52.167 9.33301 -70.5 28s-27.5 42 -27.5 70zM441 572c0 28.667 9.16699 52.5 27.5 71.5s41.833 28.5 70.5 28.5c13.333 0 26 -2.5 38 -7.5s22.667 -12 32 -21s16.833 -19.667 22.5 -32s8.5 -25.5 8.5 -39.5
s-2.83301 -27 -8.5 -39s-13.167 -22.333 -22.5 -31s-20 -15.5 -32 -20.5s-24.667 -7.5 -38 -7.5c-28.667 0 -52.167 9.33301 -70.5 28s-27.5 42 -27.5 70zM567 295l0.000976562 -69c6.66699 -14 16.5 -25.667 29.5 -35s28.5 -16.833 46.5 -22.5s38.167 -9.5 60.5 -11.5
s45.833 -3 70.5 -3h57v-154h-68c-36 -0 -71 2.83301 -105 8.5s-65.667 14.167 -95 25.5c-5.33301 -47.333 -17.5 -93.333 -36.5 -138s-48 -84.5 -87 -119.5s-89.5 -63.333 -151.5 -85s-138.667 -32.5 -230 -32.5v151c40.667 0 82.167 4.16699 124.5 12.5
s80.666 23.833 114.999 46.5s62.333 54 84 94s32.5 92 32.5 156v176h153z" />
    <glyph glyph-name="uniFB8F" unicode="&#x6a9;" horiz-adv-x="1588" arabic-form="final" 
d="M984 684c-23.333 0 -41.1689 -5.33496 -53.502 -16.002s-19.5 -23.167 -21.5 -37.5s1.5 -28.833 10.5 -43.5s23.833 -26.334 44.5 -35.001l250 -137c20 -9.33301 37.667 -21.166 53 -35.499s28.333 -30.333 39 -48s19 -36.5 25 -56.5s9.33301 -40.333 10 -61
c13.333 -25.333 38 -41.666 74 -48.999s79.333 -11 130 -11h60v-154h-64c-23.333 0 -47.166 1.16699 -71.499 3.5s-48 6 -71 11s-44.667 11.167 -65 18.5s-37.833 16 -52.5 26c-20 -17.333 -44.333 -31.5 -73 -42.5s-62.334 -16.5 -101.001 -16.5h-659
c-51.333 0 -99.166 5.5 -143.499 16.5s-82.666 27.833 -114.999 50.5s-57.666 51.334 -75.999 86.001s-27.5 75.667 -27.5 123v86h153v-88c0 -24 5.33301 -43.667 16 -59s25.667 -27.5 45 -36.5s42.333 -15.333 69 -19s55.667 -5.5 87 -5.5h638c24 0 41.833 4.66699 53.5 14
s18.5 20.5 20.5 33.5s0 26.333 -6 40s-14.333 24.5 -25 32.5l-259 141c-34.667 18.667 -62.334 42 -83.001 70s-34.667 57.667 -42 89s-7.83301 62.833 -1.5 94.5s19.666 60.167 39.999 85.5s47.833 45.833 82.5 61.5s76.334 23.5 125.001 23.5h360v-155h-375z" />
    <glyph glyph-name="uniFB90" unicode="&#x6a9;" horiz-adv-x="668" arabic-form="initial" 
d="M265 684c-23.333 0 -41.335 -5.33203 -54.002 -15.999s-20 -23.167 -22 -37.5s1.5 -28.833 10.5 -43.5s23.5 -26.334 43.5 -35.001l250 -137c30.667 -13.333 56.334 -32.833 77.001 -58.5s35.167 -54 43.5 -85s10.333 -62.5 6 -94.5s-15.666 -61.167 -33.999 -87.5
s-44 -47.833 -77 -64.5s-73.833 -25 -122.5 -25h-400v154h387c24 0 41.833 4.66699 53.5 14s18.667 20.5 21 33.5s0.5 26.333 -5.5 40s-14.667 24.5 -26 32.5l-259 141c-34 18.667 -61.333 42 -82 70s-34.667 57.667 -42 89s-7.83301 62.833 -1.5 94.5
s19.666 60.167 39.999 85.5s47.833 45.833 82.5 61.5s76.334 23.5 125.001 23.5h360v-155h-374z" />
    <glyph glyph-name="uniFB91" unicode="&#x6a9;" horiz-adv-x="878" arabic-form="medial" 
d="M267 684c-23.333 0 -41.167 -5.33398 -53.5 -16.001s-19.5 -23.167 -21.5 -37.5s1.5 -28.833 10.5 -43.5s23.5 -26.334 43.5 -35.001l249 -137c20 -9.33301 37.833 -21.166 53.5 -35.499s29 -30.333 40 -48s19.333 -36.5 25 -56.5s8.5 -40.333 8.5 -61
c14 -25.333 39 -41.666 75 -48.999s79.667 -11 131 -11h58v-154h-63c-23.333 0 -47.333 1.16699 -72 3.5s-48.5 6 -71.5 11s-44.667 11.167 -65 18.5s-37.833 16 -52.5 26c-19.333 -17.333 -43.333 -31.5 -72 -42.5s-62 -16.5 -100 -16.5h-402v154h387
c24 0 42 4.66699 54 14s19 20.5 21 33.5s0 26.333 -6 40s-14.667 24.5 -26 32.5l-259 141c-34 18.667 -61.5 42 -82.5 70s-35.167 57.667 -42.5 89s-7.66602 62.833 -0.999023 94.5s20.167 60.167 40.5 85.5s47.666 45.833 81.999 61.5s75.833 23.5 124.5 23.5h360v-155
h-373z" />
    <glyph glyph-name="uniFB93" unicode="&#x6af;" horiz-adv-x="1595" arabic-form="final" 
d="M991 679c-23.333 0 -41.168 -5.00488 -53.501 -15.0049s-19.5 -21.833 -21.5 -35.5s1.5 -27.667 10.5 -42s23.5 -25.833 43.5 -34.5l249 -137c20 -9.33301 37.833 -21.166 53.5 -35.499s29 -30.333 40 -48s19.333 -36.5 25 -56.5s8.83398 -40.333 9.50098 -61
c13.333 -25.333 38 -41.666 74 -48.999s79.667 -11 131 -11h59v-154h-64c-23.333 0 -47.166 1.16699 -71.499 3.5s-48 6 -71 11s-44.667 11.167 -65 18.5s-37.833 16 -52.5 26c-20 -17.333 -44.5 -31.5 -73.5 -42.5s-62.5 -16.5 -100.5 -16.5h-659c-52 0 -100 5.5 -144 16.5
s-82 27.833 -114 50.5s-57.167 51.334 -75.5 86.001s-27.5 75.667 -27.5 123v86h153v-88c0 -24 5.33301 -43.667 16 -59s25.667 -27.5 45 -36.5s42.166 -15.333 68.499 -19s55.166 -5.5 86.499 -5.5h637c24.667 0 42.834 4.66699 54.501 14s18.5 20.5 20.5 33.5
s0 26.333 -6 40s-14.333 24.5 -25 32.5l-260 141c-34 18.667 -61.5 41.834 -82.5 69.501s-35 57 -42 88s-7.33301 62 -1 93s19.666 58.833 39.999 83.5s47.833 44.834 82.5 60.501s76.334 23.5 125.001 23.5h360v-154h-374zM959.998 958.995h401v-70h-401v70z" />
    <glyph glyph-name="uniFB94" unicode="&#x6af;" horiz-adv-x="668" arabic-form="initial" 
d="M265 679c-23.333 0 -41.335 -5.00195 -54.002 -15.002s-20 -21.833 -22 -35.5s1.5 -27.667 10.5 -42s23.5 -25.833 43.5 -34.5l250 -137c30.667 -13.333 56.334 -32.833 77.001 -58.5s35.167 -54 43.5 -85s10.333 -62.5 6 -94.5s-15.666 -61.167 -33.999 -87.5
s-44 -47.833 -77 -64.5s-73.833 -25 -122.5 -25h-400v154h387c24 0 41.833 4.66699 53.5 14s18.667 20.5 21 33.5s0.5 26.333 -5.5 40s-14.667 24.5 -26 32.5l-259 141c-34 18.667 -61.333 41.834 -82 69.501s-34.667 57 -42 88s-7.83301 62 -1.5 93
s19.666 58.833 39.999 83.5s47.833 44.834 82.5 60.501s76.334 23.5 125.001 23.5h360v-154h-374zM246.998 958.998h402v-70h-402v70z" />
    <glyph glyph-name="uniFB95" unicode="&#x6af;" horiz-adv-x="878" arabic-form="medial" 
d="M267 679c-23.333 0 -41.167 -5.00391 -53.5 -15.0039s-19.5 -21.833 -21.5 -35.5s1.5 -27.667 10.5 -42s23.5 -25.833 43.5 -34.5l249 -137c20 -9.33301 37.833 -21.166 53.5 -35.499s29 -30.333 40 -48s19.333 -36.5 25 -56.5s8.5 -40.333 8.5 -61
c14 -25.333 39 -41.666 75 -48.999s79.667 -11 131 -11h58v-154h-63c-23.333 0 -47.333 1.16699 -72 3.5s-48.5 6 -71.5 11s-44.667 11.167 -65 18.5s-37.833 16 -52.5 26c-19.333 -17.333 -43.333 -31.5 -72 -42.5s-62 -16.5 -100 -16.5h-402v154h387
c24 0 42 4.66699 54 14s19 20.5 21 33.5s0 26.333 -6 40s-14.667 24.5 -26 32.5l-259 141c-34 18.667 -61.5 41.834 -82.5 69.501s-35.167 57 -42.5 88s-7.66602 62 -0.999023 93s20.167 58.833 40.5 83.5s47.666 44.834 81.999 60.501s75.833 23.5 124.5 23.5h360v-154
h-373zM246.999 958.996h402v-70h-402v70z" />
    <glyph glyph-name="uniFBA5" unicode="&#x6c0;" horiz-adv-x="784" arabic-form="final" 
d="M649.5 5.5c-27.667 3.66699 -54.833 9.33008 -81.5 16.9971s-51.5 17.334 -74.5 29.001s-41.833 25.834 -56.5 42.501c-21.333 -18 -45 -30.5 -71 -37.5s-52.167 -9.33301 -78.5 -7s-51.833 9 -76.5 20s-46.167 25.333 -64.5 43s-32.666 38.834 -42.999 63.501
s-14.166 51.667 -11.499 81v126c0 30 5.66699 57.667 17 83s26.666 47.166 45.999 65.499s41.833 32.833 67.5 43.5s53.167 16.334 82.5 17.001c30 0 58 -5.16699 84 -15.5s48.833 -24.833 68.5 -43.5s35 -40.667 46 -66s16.5 -53.333 16.5 -84v-113
c1.33301 -26 9 -46.667 23 -62s31.5 -27 52.5 -35s44 -13.167 69 -15.5s48.833 -3.5 71.5 -3.5h61v-154h-69c-24.667 -0 -50.834 1.83301 -78.501 5.5zM242.001 285.996c-1.33301 -16.667 0.832031 -31 6.49902 -43s13.167 -21.333 22.5 -28s19.833 -10.5 31.5 -11.5
s22.334 0.833008 32.001 5.5s17.834 12.5 24.501 23.5s9.66699 25.5 9 43.5v82c0 10 -1.66699 19.833 -5 29.5s-7.83301 18.334 -13.5 26.001s-12.334 13.834 -20.001 18.501s-16.167 7 -25.5 7c-10 0 -18.833 -2.33301 -26.5 -7s-14.167 -10.834 -19.5 -18.501
s-9.33301 -16.334 -12 -26.001s-4 -19.5 -4 -29.5v-72zM80.999 767.996l80.999 -0.000976562c-1.33301 26.667 3.16699 51.834 13.5 75.501s25.666 44.334 45.999 62.001s45.333 31.5 75 41.5s63.5 15 101.5 15v-104c-18 0.666992 -35.167 -2 -51.5 -8
s-30.166 -13.667 -41.499 -23s-19.666 -19.333 -24.999 -30s-6 -20.334 -2 -29.001h120v-109h-317v109z" />
    <glyph glyph-name="uniFBFD" unicode="&#x6cc;" horiz-adv-x="809" arabic-form="final" 
d="M261.5 -104.5c7.66699 -16.333 17.833 -29.6729 30.5 -40.0059s26.667 -18 42 -23s31 -7.5 47 -7.5h134c41.333 -0.666992 70.833 6.33301 88.5 21s26.5 32 26.5 52c0 12 -2.66699 24.167 -8 36.5s-12.833 23.333 -22.5 33s-21.667 17.5 -36 23.5s-30.5 9 -48.5 9h-139
v154h447v-154h-64c6.66699 -15.333 12.334 -32.166 17.001 -50.499s7 -36.166 7 -53.499c0 -29.333 -5.33301 -57.333 -16 -84s-26.667 -50.167 -48 -70.5s-48.333 -36.666 -81 -48.999s-71.334 -18.5 -116.001 -18.5h-141c-35.333 -1.33301 -69.833 3.83398 -103.5 15.501
s-64 29.334 -91 53.001s-48.667 53.334 -65 89.001s-24.5 77.5 -24.5 125.5v305h153v-308c0 -22.667 3.83301 -42.167 11.5 -58.5z" />
    <glyph glyph-name="uniFBFE" unicode="&#x6cc;" horiz-adv-x="466" arabic-form="initial" 
d="M-15 0l0.000976562 154.001h62c30.667 0 59.167 1.83301 85.5 5.5s49.166 10 68.499 19s34.333 21.167 45 36.5s16 35 16 59v88h154v-86c0 -47.333 -9.16699 -88.333 -27.5 -123s-43.833 -63.334 -76.5 -86.001s-71 -39.5 -115 -50.5s-92 -16.5 -144 -16.5h-68z
M12.001 -178.999c0 28.667 9.16699 52.333 27.5 71s42.166 28 71.499 28c13.333 0 26 -2.5 38 -7.5s22.5 -11.833 31.5 -20.5s16.167 -19.167 21.5 -31.5s8 -25.5 8 -39.5s-2.66699 -27.167 -8 -39.5s-12.5 -23 -21.5 -32s-19.5 -16.167 -31.5 -21.5s-24.667 -8 -38 -8
c-29.333 0 -53.166 9.66699 -71.499 29s-27.5 43.333 -27.5 72zM248.001 -179c0 28.667 9.33301 52.333 28 71s42 28 70 28c13.333 0 26.166 -2.5 38.499 -7.5s23.166 -11.833 32.499 -20.5s16.666 -19.167 21.999 -31.5s8 -25.5 8 -39.5s-2.66699 -27.167 -8 -39.5
s-12.666 -23 -21.999 -32s-20.166 -16.167 -32.499 -21.5s-25.166 -8 -38.499 -8c-28 0 -51.333 9.66699 -70 29s-28 43.333 -28 72z" />
    <glyph glyph-name="uniFBFF" unicode="&#x6cc;" horiz-adv-x="672" arabic-form="medial" 
d="M455 22c-48.667 14.667 -89.668 37.002 -123.001 67.002c-32 -32 -72.167 -54.833 -120.5 -68.5s-102.5 -20.5 -162.5 -20.5h-63v154h57c30 0 57.833 1.66699 83.5 5s48.167 9.16602 67.5 17.499s34.5 19.666 45.5 33.999s17.167 32.5 18.5 54.5v97h154v-99
c0.666992 -22 6.33398 -40 17.001 -54s25.5 -25 44.5 -33s41.333 -13.667 67 -17s53.834 -5 84.501 -5h58v-154h-64c-60.667 -0 -115.334 7.33301 -164.001 22zM102.999 -178.998c0 28.667 9.16699 52.333 27.5 71s42.166 28 71.499 28c12.667 0 25.167 -2.5 37.5 -7.5
s23 -11.833 32 -20.5s16.333 -19.167 22 -31.5s8.5 -25.5 8.5 -39.5s-2.83301 -27.167 -8.5 -39.5s-13 -23 -22 -32s-19.667 -16.167 -32 -21.5s-24.833 -8 -37.5 -8c-29.333 0 -53.166 9.66699 -71.499 29s-27.5 43.333 -27.5 72zM337.999 -178.999
c0 28.667 9.16699 52.333 27.5 71s42.166 28 71.499 28c13.333 0 26 -2.5 38 -7.5s22.667 -11.833 32 -20.5s16.833 -19.167 22.5 -31.5s8.5 -25.5 8.5 -39.5s-2.83301 -27.167 -8.5 -39.5s-13.167 -23 -22.5 -32s-20 -16.167 -32 -21.5s-24.667 -8 -38 -8
c-29.333 0 -53.166 9.66699 -71.499 29s-27.5 43.333 -27.5 72z" />
    <glyph glyph-name="uniFE82" unicode="&#x622;" horiz-adv-x="437" arabic-form="final" 
d="M401 0c-52.667 0 -97.499 5.49902 -134.499 16.499s-67.333 27.833 -91 50.5s-40.834 51.334 -51.501 86.001s-16 75.667 -16 123v623h151v-625c0 -24 2.33301 -43.667 7 -59s12.667 -27.5 24 -36.5s26.5 -15.333 45.5 -19s42.833 -5.5 71.5 -5.5h40v-154h-46z
M423.001 1003c-20 -32 -41 -52.1699 -63 -60.5029s-44.5 -10.666 -67.5 -6.99902s-46.5 10 -70.5 19s-48.667 15 -74 18s-51 -0.166992 -77 -9.5s-52 -31 -78 -65v135c18.667 20.667 37.5 34.834 56.5 42.501s38.167 11.334 57.5 11.001s38.833 -3.5 58.5 -9.5l57.5 -17.5
c18.667 -5.66699 37.167 -10.167 55.5 -13.5s36 -2.66602 53 2.00098s33.333 14.667 49 30s30.5 38.666 44.5 69.999z" />
    <glyph glyph-name="uniFE84" unicode="&#x623;" horiz-adv-x="437" arabic-form="final" 
d="M401 0c-52.667 0 -97.499 5.49902 -134.499 16.499s-67.333 27.833 -91 50.5s-40.834 51.334 -51.501 86.001s-16 75.667 -16 123v623h151v-625c0 -24 2.33301 -43.667 7 -59s12.667 -27.5 24 -36.5s26.5 -15.333 45.5 -19s42.833 -5.5 71.5 -5.5h40v-154h-46z
M41.001 1051l80.999 -0.000976562c-1.33301 26.667 3.16699 51.834 13.5 75.501s25.666 44.334 45.999 62.001s45.333 31.5 75 41.5s63.5 15 101.5 15v-104c-18 0.666992 -35.167 -2 -51.5 -8s-30.166 -13.667 -41.499 -23s-19.666 -19.333 -24.999 -30
s-6 -20.334 -2 -29.001h120v-109h-317v109z" />
    <glyph glyph-name="uniFE86" unicode="&#x624;" horiz-adv-x="665" arabic-form="final" 
d="M366 0c-26 0 -51.334 4.16504 -76.001 12.498s-46.834 21 -66.501 38s-35.667 38.333 -48 64s-18.833 55.5 -19.5 89.5v83c0.666992 34.667 7.33398 65 20.001 91s29 47.833 49 65.5s42.667 30.834 68 39.501s51 13 77 13c26.667 0 52.834 -4.5 78.501 -13.5
s48.5 -22.333 68.5 -40s36 -39.5 48 -65.5s18 -56 18 -90v-133h92v-154c-38 -0.666992 -71.333 -1.66699 -100 -3c-8 -43.333 -22.667 -85.333 -44 -126s-51.5 -76.667 -90.5 -108s-88.333 -56.5 -148 -75.5s-132.167 -28.5 -217.5 -28.5v151c33.333 0 67.333 2.66699 102 8
s67.5 15 98.5 29s58.667 33.333 83 58s42.833 56.334 55.5 95.001h-48zM305.999 233.998c0 -28 6 -48.333 18 -61s26 -19 42 -19h65v109c-0.666992 26 -8 45.667 -22 59s-29 20 -45 20c-15.333 0 -28.833 -6.5 -40.5 -19.5s-17.5 -34.167 -17.5 -63.5v-25zM41.999 661.998
l80.999 -0.000976562c-1.33301 26.667 3.16699 51.834 13.5 75.501s25.666 44.334 45.999 62.001s45.333 31.5 75 41.5s63.5 15 101.5 15v-104c-18 0.666992 -35.167 -2 -51.5 -8s-30.166 -13.667 -41.499 -23s-19.666 -19.333 -24.999 -30s-6 -20.334 -2 -29.001h120v-109
h-317v109z" />
    <glyph glyph-name="uniFE88" unicode="&#x625;" horiz-adv-x="437" arabic-form="final" 
d="M401 0c-52.667 0 -97.499 5.49902 -134.499 16.499s-67.333 27.833 -91 50.5s-40.834 51.334 -51.501 86.001s-16 75.667 -16 123v623h151v-625c0 -24 2.33301 -43.667 7 -59s12.667 -27.5 24 -36.5s26.5 -15.333 45.5 -19s42.833 -5.5 71.5 -5.5h40v-154h-46z
M36.001 -264.001l80.999 -0.000976562c-1.33301 26.667 3.16699 51.834 13.5 75.501s25.666 44.334 45.999 62.001s45.333 31.5 75 41.5s63.5 15 101.5 15v-104c-18 0.666992 -35.167 -2 -51.5 -8s-30.166 -13.667 -41.499 -23s-19.666 -19.333 -24.999 -30
s-6 -20.334 -2 -29.001h120v-109h-317v109z" />
    <glyph glyph-name="uniFE8A" unicode="&#x626;" horiz-adv-x="809" arabic-form="final" 
d="M261.5 -104.5c7.66699 -16.333 17.833 -29.6729 30.5 -40.0059s26.667 -18 42 -23s31 -7.5 47 -7.5h134c41.333 -0.666992 70.833 6.33301 88.5 21s26.5 32 26.5 52c0 12 -2.66699 24.167 -8 36.5s-12.833 23.333 -22.5 33s-21.667 17.5 -36 23.5s-30.5 9 -48.5 9h-139
v154h447v-154h-64c6.66699 -15.333 12.334 -32.166 17.001 -50.499s7 -36.166 7 -53.499c0 -29.333 -5.33301 -57.333 -16 -84s-26.667 -50.167 -48 -70.5s-48.333 -36.666 -81 -48.999s-71.334 -18.5 -116.001 -18.5h-141c-35.333 -1.33301 -69.833 3.83398 -103.5 15.501
s-64 29.334 -91 53.001s-48.667 53.334 -65 89.001s-24.5 77.5 -24.5 125.5v305h153v-308c0 -22.667 3.83301 -42.167 11.5 -58.5zM101.999 425.993l80.999 -0.000976562c-1.33301 26.667 3.16699 51.834 13.5 75.501s25.666 44.334 45.999 62.001s45.333 31.5 75 41.5
s63.5 15 101.5 15v-104c-18 0.666992 -35.167 -2 -51.5 -8s-30.166 -13.667 -41.499 -23s-19.666 -19.333 -24.999 -30s-6 -20.334 -2 -29.001h120v-109h-317v109z" />
    <glyph glyph-name="uniFE8B" unicode="&#x626;" horiz-adv-x="444" arabic-form="initial" 
d="M80 572l80.999 -0.000976562c-1.33301 26.667 3.16699 51.834 13.5 75.501s25.666 44.334 45.999 62.001s45.333 31.5 75 41.5s63.5 15 101.5 15v-104c-18 0.666992 -35.167 -2 -51.5 -8s-30.166 -13.667 -41.499 -23s-19.666 -19.333 -24.999 -30s-6 -20.334 -2 -29.001
h120v-109h-317v109zM-16.001 -0.000976562l-0.00292969 154.001h63c30.667 0 59.167 1.83301 85.5 5.5s49 10 68 19s34 21.167 45 36.5s16.5 35 16.5 59v88h153v-86c0 -47.333 -9.16699 -88.333 -27.5 -123s-43.666 -63.334 -75.999 -86.001s-70.666 -39.5 -114.999 -50.5
s-92.166 -16.5 -143.499 -16.5h-69z" />
    <glyph glyph-name="uniFE8C" unicode="&#x626;" horiz-adv-x="679" arabic-form="medial" 
d="M462 22c-48.667 14.667 -89.668 37.002 -123.001 67.002c-32 -32 -72.167 -54.833 -120.5 -68.5s-102.5 -20.5 -162.5 -20.5h-63v154h57c30 0 57.833 1.66699 83.5 5s48.167 9.16602 67.5 17.499s34.5 19.666 45.5 33.999s17.167 32.5 18.5 54.5v97h154v-99
c0.666992 -22 6.33398 -40 17.001 -54s25.5 -25 44.5 -33s41.333 -13.667 67 -17s53.834 -5 84.501 -5h58v-154h-64c-60.667 -0 -115.334 7.33301 -164.001 22zM134.999 570.002l80.999 0.00390625c-1.33301 27.333 3.16699 52.666 13.5 75.999s25.666 43.666 45.999 60.999
s45.333 31 75 41s63.5 15 101.5 15v-103c-18 1.33301 -35.167 -1 -51.5 -7s-30.166 -13.833 -41.499 -23.5s-19.666 -19.834 -24.999 -30.501s-6 -20.334 -2 -29.001h120v-108h-317v108z" />
    <glyph glyph-name="uniFE8E" unicode="&#x627;" horiz-adv-x="437" arabic-form="final" 
d="M401 0c-52.667 0 -97.499 5.49902 -134.499 16.499s-67.333 27.833 -91 50.5s-40.834 51.334 -51.501 86.001s-16 75.667 -16 123v623h151v-625c0 -24 2.33301 -43.667 7 -59s12.667 -27.5 24 -36.5s26.5 -15.333 45.5 -19s42.833 -5.5 71.5 -5.5h40v-154h-46z" />
    <glyph glyph-name="uniFE90" unicode="&#x628;" horiz-adv-x="1555" arabic-form="final" 
d="M335 16.5c-44 11 -82.333 27.832 -115 50.499s-58.167 51.334 -76.5 86.001s-27.5 75.667 -27.5 123v86h154v-88c0 -24 5.33301 -43.667 16 -59s25.5 -27.5 44.5 -36.5s41.5 -15.333 67.5 -19s54.333 -5.5 85 -5.5h461c30 0 57.833 1.66699 83.5 5s48 9.16602 67 17.499
s34.333 19.666 46 33.999s18.167 32.5 19.5 54.5v97h151v-97c0.666992 -22 6.66699 -40.167 18 -54.5s26.5 -25.666 45.5 -33.999s41.333 -14.166 67 -17.499s53.5 -5 83.5 -5h58v-154h-63c-60 -0 -114.5 7.33301 -163.5 22s-89.5 37 -121.5 67
c-34 -32 -75.167 -54.833 -123.5 -68.5s-101.833 -20.5 -160.5 -20.5h-472c-52 0 -100 5.5 -144 16.5zM594 -179.001c0 28.667 9.16699 52.333 27.5 71s41.833 28 70.5 28c13.333 0 26 -2.5 38 -7.5s22.667 -11.833 32 -20.5s16.666 -19.167 21.999 -31.5s8 -25.5 8 -39.5
s-2.66699 -27.167 -8 -39.5s-12.666 -23 -21.999 -32s-20 -16.167 -32 -21.5s-24.667 -8 -38 -8c-28.667 0 -52.167 9.66699 -70.5 29s-27.5 43.333 -27.5 72z" />
    <glyph glyph-name="uniFE91" unicode="&#x628;" horiz-adv-x="444" arabic-form="initial" 
d="M-16 0l-0.00292969 154.001h63c30.667 0 59.167 1.83301 85.5 5.5s49 10 68 19s34 21.167 45 36.5s16.5 35 16.5 59v88h153v-86c0 -47.333 -9.16699 -88.333 -27.5 -123s-43.666 -63.334 -75.999 -86.001s-70.666 -39.5 -114.999 -50.5s-92.166 -16.5 -143.499 -16.5h-69
zM117.997 -178.999c0 28.667 9.33301 52.333 28 71s42 28 70 28c13.333 0 26.166 -2.5 38.499 -7.5s23.166 -11.833 32.499 -20.5s16.666 -19.167 21.999 -31.5s8 -25.5 8 -39.5s-2.66699 -27.167 -8 -39.5s-12.666 -23 -21.999 -32s-20.166 -16.167 -32.499 -21.5
s-25.166 -8 -38.499 -8c-28 0 -51.333 9.66699 -70 29s-28 43.333 -28 72z" />
    <glyph glyph-name="uniFE92" unicode="&#x628;" horiz-adv-x="679" arabic-form="medial" 
d="M462 22c-48.667 14.667 -89.668 37.002 -123.001 67.002c-32 -32 -72.167 -54.833 -120.5 -68.5s-102.5 -20.5 -162.5 -20.5h-63v154h57c30 0 57.833 1.66699 83.5 5s48.167 9.16602 67.5 17.499s34.5 19.666 45.5 33.999s17.167 32.5 18.5 54.5v97h154v-99
c0.666992 -22 6.33398 -40 17.001 -54s25.5 -25 44.5 -33s41.333 -13.667 67 -17s53.834 -5 84.501 -5h58v-154h-64c-60.667 -0 -115.334 7.33301 -164.001 22zM215.999 -178.998c0 28.667 9.16699 52.333 27.5 71s41.833 28 70.5 28c13.333 0 26 -2.5 38 -7.5
s22.667 -11.833 32 -20.5s16.833 -19.167 22.5 -31.5s8.5 -25.5 8.5 -39.5s-2.83301 -27.167 -8.5 -39.5s-13.167 -23 -22.5 -32s-20 -16.167 -32 -21.5s-24.667 -8 -38 -8c-28.667 0 -52.167 9.66699 -70.5 29s-27.5 43.333 -27.5 72z" />
    <glyph glyph-name="uniFE96" unicode="&#x62a;" horiz-adv-x="1572" arabic-form="final" 
d="M352 16.5c-44 11 -82.333 27.832 -115 50.499s-58.167 51.334 -76.5 86.001s-27.5 75.667 -27.5 123v86h154v-88c0 -24 5.33301 -43.667 16 -59s25.5 -27.5 44.5 -36.5s41.5 -15.333 67.5 -19s54.333 -5.5 85 -5.5h461c30 0 57.833 1.66699 83.5 5s48 9.16602 67 17.499
s34.333 19.666 46 33.999s18.167 32.5 19.5 54.5v97h151v-97c0.666992 -22 6.66699 -40.167 18 -54.5s26.5 -25.666 45.5 -33.999s41.333 -14.166 67 -17.499s53.5 -5 83.5 -5h58v-154h-63c-60 -0 -114.5 7.33301 -163.5 22s-89.5 37 -121.5 67
c-34 -32 -75.167 -54.833 -123.5 -68.5s-101.833 -20.5 -160.5 -20.5h-472c-52 0 -100 5.5 -144 16.5zM505 508.999c0 28.667 9.16699 52.666 27.5 71.999s41.5 29 69.5 29c13.333 0 26.166 -2.66699 38.499 -8s23.166 -12.5 32.499 -21.5s16.666 -19.667 21.999 -32
s8 -25.5 8 -39.5s-2.66699 -27.167 -8 -39.5s-12.666 -22.833 -21.999 -31.5s-20.166 -15.5 -32.499 -20.5s-25.166 -7.5 -38.499 -7.5c-28 0 -51.167 9.33301 -69.5 28s-27.5 42.334 -27.5 71.001zM740 508.998c0 28.667 9.33301 52.666 28 71.999s42.334 29 71.001 29
c13.333 0 26 -2.66699 38 -8s22.5 -12.5 31.5 -21.5s16.167 -19.667 21.5 -32s8 -25.5 8 -39.5s-2.66699 -27.167 -8 -39.5s-12.5 -22.833 -21.5 -31.5s-19.5 -15.5 -31.5 -20.5s-24.667 -7.5 -38 -7.5c-28.667 0 -52.334 9.33301 -71.001 28s-28 42.334 -28 71.001z" />
    <glyph glyph-name="uniFE97" unicode="&#x62a;" horiz-adv-x="444" arabic-form="initial" 
d="M-16 0l-0.00292969 154.001h63c30.667 0 59.167 1.83301 85.5 5.5s49 10 68 19s34 21.167 45 36.5s16.5 35 16.5 59v88h153v-86c0 -47.333 -9.16699 -88.333 -27.5 -123s-43.666 -63.334 -75.999 -86.001s-70.666 -39.5 -114.999 -50.5s-92.166 -16.5 -143.499 -16.5h-69
zM11.9971 588.001c0 29.333 9.16797 53.5 27.501 72.5s41.833 28.5 70.5 28.5c13.333 0 26 -2.5 38 -7.5s22.667 -12 32 -21s16.666 -19.667 21.999 -32s8 -25.833 8 -40.5c0 -29.333 -10 -53 -30 -71s-43.333 -27 -70 -27c-28.667 0 -52.167 9 -70.5 27
s-27.5 41.667 -27.5 71zM246.998 588.001c0 29.333 9.33301 53.5 28 72.5s42.334 28.5 71.001 28.5c27.333 0 50.833 -9.5 70.5 -28.5s29.5 -43.167 29.5 -72.5s-9.83301 -53 -29.5 -71s-43.167 -27 -70.5 -27c-28.667 0 -52.334 9 -71.001 27s-28 41.667 -28 71z" />
    <glyph glyph-name="uniFE98" unicode="&#x62a;" horiz-adv-x="679" arabic-form="medial" 
d="M462 22c-48.667 14.667 -89.668 37.002 -123.001 67.002c-32 -32 -72.167 -54.833 -120.5 -68.5s-102.5 -20.5 -162.5 -20.5h-63v154h57c30 0 57.833 1.66699 83.5 5s48.167 9.16602 67.5 17.499s34.5 19.666 45.5 33.999s17.167 32.5 18.5 54.5v97h154v-99
c0.666992 -22 6.33398 -40 17.001 -54s25.5 -25 44.5 -33s41.333 -13.667 67 -17s53.834 -5 84.501 -5h58v-154h-64c-60.667 -0 -115.334 7.33301 -164.001 22zM89.999 569.002c0 28 9.33301 51.5 28 70.5s42.334 28.5 71.001 28.5c13.333 0 26 -2.5 38 -7.5
s22.667 -12 32 -21s16.666 -19.5 21.999 -31.5s8 -25 8 -39c0 -14.667 -2.66699 -28 -8 -40s-12.666 -22.5 -21.999 -31.5s-20 -16 -32 -21s-24.667 -7.5 -38 -7.5c-28.667 0 -52.334 9.33301 -71.001 28s-28 42.667 -28 72zM325.999 569.002c0 28 9.16699 51.5 27.5 70.5
s42.166 28.5 71.499 28.5c12.667 0 25.167 -2.5 37.5 -7.5s23 -12 32 -21s16.333 -19.5 22 -31.5s8.5 -25 8.5 -39c0 -14.667 -2.83301 -28 -8.5 -40s-13 -22.5 -22 -31.5s-19.667 -16 -32 -21s-24.833 -7.5 -37.5 -7.5c-29.333 0 -53.166 9.33301 -71.499 28
s-27.5 42.667 -27.5 72z" />
    <glyph glyph-name="uniFE9A" unicode="&#x62b;" horiz-adv-x="1572" arabic-form="final" 
d="M352 16.5c-44 11 -82.333 27.832 -115 50.499s-58.167 51.334 -76.5 86.001s-27.5 75.667 -27.5 123v86h154v-88c0 -24 5.33301 -43.667 16 -59s25.5 -27.5 44.5 -36.5s41.5 -15.333 67.5 -19s54.333 -5.5 85 -5.5h461c30 0 57.833 1.66699 83.5 5s48 9.16602 67 17.499
s34.333 19.666 46 33.999s18.167 32.5 19.5 54.5v97h151v-97c0.666992 -22 6.66699 -40.167 18 -54.5s26.5 -25.666 45.5 -33.999s41.333 -14.166 67 -17.499s53.5 -5 83.5 -5h58v-154h-63c-60 -0 -114.5 7.33301 -163.5 22s-89.5 37 -121.5 67
c-34 -32 -75.167 -54.833 -123.5 -68.5s-101.833 -20.5 -160.5 -20.5h-472c-52 0 -100 5.5 -144 16.5zM630 723.999c0 28 9.33301 51.501 28 70.501s42 28.5 70 28.5c13.333 0 26.166 -2.5 38.499 -7.5s23.166 -12 32.499 -21s16.666 -19.5 21.999 -31.5s8 -25 8 -39
c0 -14.667 -2.66699 -28 -8 -40s-12.666 -22.333 -21.999 -31s-20.166 -15.5 -32.499 -20.5s-25.166 -7.5 -38.499 -7.5c-28 0 -51.333 9.16699 -70 27.5s-28 42.166 -28 71.499zM505 509c0 28.667 9.16699 52.666 27.5 71.999s41.5 29 69.5 29
c13.333 0 26.166 -2.66699 38.499 -8s23.166 -12.5 32.499 -21.5s16.666 -19.667 21.999 -32s8 -25.5 8 -39.5s-2.66699 -27.167 -8 -39.5s-12.666 -22.833 -21.999 -31.5s-20.166 -15.5 -32.499 -20.5s-25.166 -7.5 -38.499 -7.5c-28 0 -51.167 9.33301 -69.5 28
s-27.5 42.334 -27.5 71.001zM740 508.999c0 28.667 9.33301 52.666 28 71.999s42.334 29 71.001 29c13.333 0 26 -2.66699 38 -8s22.5 -12.5 31.5 -21.5s16.167 -19.667 21.5 -32s8 -25.5 8 -39.5s-2.66699 -27.167 -8 -39.5s-12.5 -22.833 -21.5 -31.5
s-19.5 -15.5 -31.5 -20.5s-24.667 -7.5 -38 -7.5c-28.667 0 -52.334 9.33301 -71.001 28s-28 42.334 -28 71.001z" />
    <glyph glyph-name="uniFE9B" unicode="&#x62b;" horiz-adv-x="444" arabic-form="initial" 
d="M137 803c0 28 9.33301 51.5 28 70.5s42.334 28.5 71.001 28.5c13.333 0 26 -2.5 38 -7.5s22.667 -12 32 -21s16.666 -19.5 21.999 -31.5s8 -25 8 -39c0 -14.667 -2.66699 -28 -8 -40s-12.666 -22.5 -21.999 -31.5s-20 -16 -32 -21s-24.667 -7.5 -38 -7.5
c-28.667 0 -52.334 9.33301 -71.001 28s-28 42.667 -28 72zM-16 0l-0.00292969 154.001h63c30.667 0 59.167 1.83301 85.5 5.5s49 10 68 19s34 21.167 45 36.5s16.5 35 16.5 59v88h153v-86c0 -47.333 -9.16699 -88.333 -27.5 -123s-43.666 -63.334 -75.999 -86.001
s-70.666 -39.5 -114.999 -50.5s-92.166 -16.5 -143.499 -16.5h-69zM11.9971 588.001c0 29.333 9.16797 53.5 27.501 72.5s41.833 28.5 70.5 28.5c13.333 0 26 -2.5 38 -7.5s22.667 -12 32 -21s16.666 -19.667 21.999 -32s8 -25.833 8 -40.5c0 -29.333 -10 -53 -30 -71
s-43.333 -27 -70 -27c-28.667 0 -52.167 9 -70.5 27s-27.5 41.667 -27.5 71zM246.998 588.001c0 29.333 9.33301 53.5 28 72.5s42.334 28.5 71.001 28.5c27.333 0 50.833 -9.5 70.5 -28.5s29.5 -43.167 29.5 -72.5s-9.83301 -53 -29.5 -71s-43.167 -27 -70.5 -27
c-28.667 0 -52.334 9 -71.001 27s-28 41.667 -28 71z" />
    <glyph glyph-name="uniFE9C" unicode="&#x62b;" horiz-adv-x="679" arabic-form="medial" 
d="M462 22c-48.667 14.667 -89.668 37.002 -123.001 67.002c-32 -32 -72.167 -54.833 -120.5 -68.5s-102.5 -20.5 -162.5 -20.5h-63v154h57c30 0 57.833 1.66699 83.5 5s48.167 9.16602 67.5 17.499s34.5 19.666 45.5 33.999s17.167 32.5 18.5 54.5v97h154v-99
c0.666992 -22 6.33398 -40 17.001 -54s25.5 -25 44.5 -33s41.333 -13.667 67 -17s53.834 -5 84.501 -5h58v-154h-64c-60.667 -0 -115.334 7.33301 -164.001 22zM215.999 782.002c0 28.667 9.16699 52.667 27.5 72s41.833 29 70.5 29c13.333 0 26 -2.66699 38 -8
s22.667 -12.5 32 -21.5s16.833 -19.667 22.5 -32s8.5 -25.5 8.5 -39.5s-2.83301 -27 -8.5 -39s-13.167 -22.333 -22.5 -31s-20 -15.5 -32 -20.5s-24.667 -7.5 -38 -7.5c-28.667 0 -52.167 9.33301 -70.5 28s-27.5 42 -27.5 70zM89.999 569.002c0 28 9.33301 51.5 28 70.5
s42.334 28.5 71.001 28.5c13.333 0 26 -2.5 38 -7.5s22.667 -12 32 -21s16.666 -19.5 21.999 -31.5s8 -25 8 -39c0 -14.667 -2.66699 -28 -8 -40s-12.666 -22.5 -21.999 -31.5s-20 -16 -32 -21s-24.667 -7.5 -38 -7.5c-28.667 0 -52.334 9.33301 -71.001 28
s-28 42.667 -28 72zM325.999 569.002c0 28 9.16699 51.5 27.5 70.5s42.166 28.5 71.499 28.5c12.667 0 25.167 -2.5 37.5 -7.5s23 -12 32 -21s16.333 -19.5 22 -31.5s8.5 -25 8.5 -39c0 -14.667 -2.83301 -28 -8.5 -40s-13 -22.5 -22 -31.5s-19.667 -16 -32 -21
s-24.833 -7.5 -37.5 -7.5c-29.333 0 -53.166 9.33301 -71.499 28s-27.5 42.667 -27.5 72z" />
    <glyph glyph-name="uniFE9E" unicode="&#x62c;" horiz-adv-x="1129" arabic-form="final" 
d="M431 -116c0 26 8 47.1699 24 63.5029s36.667 24.5 62 24.5c12 0 23.333 -2.16699 34 -6.5s20 -10.333 28 -18s14.5 -17 19.5 -28s7.5 -22.833 7.5 -35.5s-2.5 -24.334 -7.5 -35.001s-11.5 -19.834 -19.5 -27.501s-17.333 -13.667 -28 -18s-22 -6.5 -34 -6.5
c-25.333 0 -46 8.16699 -62 24.5s-24 37.166 -24 62.499zM384 -390.997c-48.667 0 -90.999 7.66699 -126.999 23s-65.667 35.833 -89 61.5s-40.833 54.667 -52.5 87s-17.5 65.5 -17.5 99.5s6 67.333 18 100s30 62 54 88s53.833 46.833 89.5 62.5s77.167 23.5 124.5 23.5h253
c31.333 0 53.5 4.83301 66.5 14.5s19.5 21.5 19.5 35.5c0 14.667 -6.33301 30 -19 46s-26.667 28 -42 36l-107.5 32.5c-33 9.66699 -68.167 21.167 -105.5 34.5c-11.333 3.33301 -23.333 5.16602 -36 5.49902s-24.667 -1 -36 -4s-21.166 -8 -29.499 -15
s-14.166 -16.5 -17.499 -28.5c-1.33301 -4 -2.83301 -9 -4.5 -15l-5.5 -19l-5.5 -18.5c-1.66699 -5.66699 -2.83398 -9.83398 -3.50098 -12.501l-150 31l16 53c11.333 34.667 26.5 64.667 45.5 90s40.5 45.5 64.5 60.5s50.167 24.667 78.5 29s57.5 2.83301 87.5 -4.5
l257 -77c50 -18.667 88.833 -45.5 116.5 -80.5s44.167 -71.5 49.5 -109.5c3.33301 -17.333 11.166 -31.5 23.499 -42.5s27.666 -19.5 45.999 -25.5s39.5 -10.167 63.5 -12.5s49.667 -3.5 77 -3.5h59v-154h-63c-52 0 -99.833 5.5 -143.5 16.5s-82.167 27.167 -115.5 48.5
c-17.333 -20.667 -38.833 -36.667 -64.5 -48s-56.5 -17 -92.5 -17h-285c-21.333 0 -39.833 -3.16699 -55.5 -9.5s-28.834 -15 -39.501 -26s-18.5 -23.667 -23.5 -38s-7.5 -29.166 -7.5 -44.499c0 -14.667 2.5 -29.167 7.5 -43.5s12.833 -27.166 23.5 -38.499
s23.834 -20.5 39.501 -27.5s34.167 -10.5 55.5 -10.5h385v-153h-382z" />
    <glyph glyph-name="uniFE9F" unicode="&#x62c;" horiz-adv-x="818" arabic-form="initial" 
d="M289 -182c0 28 9.16699 51.333 27.5 70s42.166 28 71.499 28c12.667 0 25.167 -2.5 37.5 -7.5s23 -11.833 32 -20.5s16.333 -19 22 -31s8.5 -25 8.5 -39c0 -14.667 -2.83301 -28.167 -8.5 -40.5s-13 -23 -22 -32s-19.667 -16 -32 -21s-24.833 -7.5 -37.5 -7.5
c-29.333 0 -53.166 9.5 -71.499 28.5s-27.5 43.167 -27.5 72.5zM556 154c30.667 -0.666992 52.6689 4.00098 66.002 14.001s19.833 22 19.5 36s-6.33301 28.667 -18 44s-26.5 28 -44.5 38l-287 80c-18.667 0 -33.5 -4.83301 -44.5 -14.5s-19.167 -20.5 -24.5 -32.5
c-1.33301 -3.33301 -2.83301 -8.16602 -4.5 -14.499s-3.66699 -12.833 -6 -19.5l-6.5 -19c-2 -6 -3.33301 -10.333 -4 -13l-147 36l15 49c11.333 34.667 26.333 64.5 45 89.5s40 45 64 60s50.333 24.667 79 29s58.667 3.5 90 -2.5l280 -86
c28 -10.667 52.5 -24.334 73.5 -41.001s38.5 -35 52.5 -55s24.333 -41 31 -63s10 -44 10 -66c0 -26 -4.5 -51.333 -13.5 -76s-22.333 -46.334 -40 -65.001s-39.834 -33.667 -66.501 -45s-57.334 -17 -92.001 -17h-589v154h562z" />
    <glyph glyph-name="uniFEA0" unicode="&#x62c;" horiz-adv-x="1049" arabic-form="medial" 
d="M291 -182c0 28 9.33301 51.333 28 70s42.334 28 71.001 28c13.333 0 26 -2.5 38 -7.5s22.667 -11.833 32 -20.5s16.666 -19 21.999 -31s8 -25 8 -39c0 -14.667 -2.66699 -28.167 -8 -40.5s-12.666 -23 -21.999 -32s-20 -16 -32 -21s-24.667 -7.5 -38 -7.5
c-28.667 0 -52.334 9.5 -71.001 28.5s-28 43.167 -28 72.5zM552 154c31.333 -0.666992 54 4.49512 68 15.4951s21.167 23.833 21.5 38.5s-5.5 29.5 -17.5 44.5s-28 26.167 -48 33.5l-287 80c-18.667 0 -33.5 -4.83301 -44.5 -14.5s-19.167 -20.5 -24.5 -32.5
c-1.33301 -3.33301 -2.83301 -8.16602 -4.5 -14.499s-3.66699 -12.833 -6 -19.5l-6.5 -19c-2 -6 -3.33301 -10.333 -4 -13l-148 34l16 51c11.333 34.667 26.5 64.334 45.5 89.001s40.5 44.334 64.5 59.001s50.167 24.334 78.5 29.001s57.5 4.33398 87.5 -0.999023l282 -86
c50.667 -18.667 89.334 -45.5 116.001 -80.5s42.667 -71.5 48 -109.5c4.66699 -17.333 13.167 -31.5 25.5 -42.5s27.666 -19.5 45.999 -25.5s39.5 -10.167 63.5 -12.5s49.667 -3.5 77 -3.5h58v-154h-64c-50 0 -97 5.5 -141 16.5s-82.333 27.167 -115 48.5
c-18 -20.667 -40 -36.667 -66 -48s-57 -17 -93 -17h-589v154h561z" />
    <glyph glyph-name="uniFEA2" unicode="&#x62d;" horiz-adv-x="1138" arabic-form="final" 
d="M396 -391c-48.667 0 -90.835 7.66992 -126.502 23.0029s-65.334 35.833 -89.001 61.5s-41.167 54.667 -52.5 87s-17 65.5 -17 99.5s6 67.333 18 100s29.833 62 53.5 88s53.334 46.833 89.001 62.5s77.167 23.5 124.5 23.5h254c31.333 0 53.5 4.83301 66.5 14.5
s19.5 21.5 19.5 35.5c0 14.667 -6.33301 30 -19 46s-26.667 28 -42 36l-108 32.5c-33.333 9.66699 -68.666 21.167 -105.999 34.5c-11.333 3.33301 -23.166 5.16602 -35.499 5.49902s-24.166 -1 -35.499 -4s-21.333 -8 -30 -15s-14.667 -16.5 -18 -28.5
c-0.666992 -4 -1.83398 -9 -3.50098 -15l-5.5 -19c-2 -6.66699 -4 -12.834 -6 -18.501s-3.33301 -9.83398 -4 -12.501l-150 31l17 53c11.333 34.667 26.5 64.667 45.5 90s40.5 45.5 64.5 60.5s50.167 24.667 78.5 29s57.5 2.83301 87.5 -4.5l257 -77
c24.667 -9.33301 46.667 -21 66 -35s36 -29.333 50 -46s25 -34.334 33 -53.001s13.333 -37.334 16 -56.001c4 -17.333 12 -31.5 24 -42.5s27.167 -19.5 45.5 -25.5s39.5 -10.167 63.5 -12.5s49.667 -3.5 77 -3.5h59v-154h-62c-52 0 -99.833 5.5 -143.5 16.5
s-82.167 27.167 -115.5 48.5c-17.333 -20.667 -39 -36.667 -65 -48s-57 -17 -93 -17h-284c-21.333 0 -39.833 -3.16699 -55.5 -9.5s-28.834 -15 -39.501 -26s-18.5 -23.667 -23.5 -38s-7.5 -29.166 -7.5 -44.499c0 -14.667 2.5 -29.167 7.5 -43.5
s12.833 -27.166 23.5 -38.499s23.834 -20.5 39.501 -27.5s34.167 -10.5 55.5 -10.5h385v-153h-383z" />
    <glyph glyph-name="uniFEA3" unicode="&#x62d;" horiz-adv-x="814" arabic-form="initial" 
d="M557 154c30.667 -0.666992 52.6699 4.00293 66.0029 14.0029s19.833 22 19.5 36s-6.33301 28.667 -18 44s-26.5 28 -44.5 38l-287 80c-18.667 0 -33.5 -4.83301 -44.5 -14.5s-19.167 -20.5 -24.5 -32.5c-1.33301 -3.33301 -2.83301 -8.16602 -4.5 -14.499
s-3.66699 -12.833 -6 -19.5l-6.5 -19c-2 -6 -3.33301 -10.333 -4 -13l-147 36l15 49c23.333 69.333 59.666 119.166 108.999 149.499s105.333 39.166 168 26.499l281 -86c28 -10.667 52.5 -24.334 73.5 -41.001s38.5 -35 52.5 -55s24.333 -41 31 -63s10 -44 10 -66
c0 -26 -4.5 -51.333 -13.5 -76s-22.333 -46.334 -40 -65.001s-39.834 -33.667 -66.501 -45s-57.334 -17 -92.001 -17h-590v154h563z" />
    <glyph glyph-name="uniFEA4" unicode="&#x62d;" horiz-adv-x="1046" arabic-form="medial" 
d="M552 154c30.667 -0.666992 53.0039 4.49512 67.0039 15.4951s21.167 23.833 21.5 38.5s-5.33398 29.5 -17.001 44.5s-27.5 26.167 -47.5 33.5l-287 80c-18.667 0 -33.667 -4.83301 -45 -14.5s-19.666 -20.5 -24.999 -32.5c-0.666992 -3.33301 -2 -8.16602 -4 -14.499
l-6 -19.5c-2 -6.66699 -4 -13 -6 -19s-3.33301 -10.333 -4 -13l-149 34l17 51c11.333 34.667 26.333 64.334 45 89.001s40.167 44.334 64.5 59.001s50.666 24.334 78.999 29.001s57.5 4.33398 87.5 -0.999023l282 -86c50.667 -18.667 89.167 -45.5 115.5 -80.5
s42.166 -71.5 47.499 -109.5c4.66699 -17.333 13.167 -31.5 25.5 -42.5s27.666 -19.5 45.999 -25.5s39.5 -10.167 63.5 -12.5s49.667 -3.5 77 -3.5h58v-154h-64c-50 0 -96.833 5.5 -140.5 16.5s-81.834 27.167 -114.501 48.5c-18 -20.667 -40.167 -36.667 -66.5 -48
s-57.5 -17 -93.5 -17h-589v154h562z" />
    <glyph glyph-name="uniFEA6" unicode="&#x62e;" horiz-adv-x="1156" arabic-form="final" 
d="M417 696c0 28 9.16699 51.333 27.5 70s41.833 28 70.5 28c13.333 0 26 -2.5 38 -7.5s22.667 -11.833 32 -20.5s16.833 -19 22.5 -31s8.5 -25 8.5 -39s-2.83301 -27.167 -8.5 -39.5s-13.167 -23 -22.5 -32s-20 -16 -32 -21s-24.667 -7.5 -38 -7.5
c-28.667 0 -52.167 9.66699 -70.5 29s-27.5 43 -27.5 71zM407 -391c-48.667 0 -90.834 7.66992 -126.501 23.0029s-65.334 35.833 -89.001 61.5s-41.167 54.667 -52.5 87s-17 65.5 -17 99.5s6 67.333 18 100s29.833 62 53.5 88s53.334 46.833 89.001 62.5
s77.167 23.5 124.5 23.5h253c32 0 54.5 4.83301 67.5 14.5s19.5 21.5 19.5 35.5c0 14.667 -6.33301 30 -19 46s-26.667 28 -42 36l-108 32.5c-33.333 9.66699 -68.666 21.167 -105.999 34.5c-11.333 3.33301 -23.333 5.16602 -36 5.49902s-24.667 -1 -36 -4
s-21.166 -8 -29.499 -15s-14.166 -16.5 -17.499 -28.5c-0.666992 -4 -1.83398 -9 -3.50098 -15l-5.5 -19c-2 -6.66699 -4 -12.834 -6 -18.501s-3.33301 -9.83398 -4 -12.501l-150 31l17 53c11.333 34.667 26.333 64.667 45 90s40.167 45.5 64.5 60.5
s50.666 24.667 78.999 29s57.5 2.83301 87.5 -4.5l257 -77c24.667 -9.33301 46.667 -21 66 -35s35.833 -29.333 49.5 -46s24.667 -34.334 33 -53.001s13.833 -37.334 16.5 -56.001c4 -17.333 12 -31.5 24 -42.5s27.167 -19.5 45.5 -25.5s39.5 -10.167 63.5 -12.5
s49.667 -3.5 77 -3.5h59v-154h-62c-52 0 -100 5.5 -144 16.5s-82.667 27.167 -116 48.5c-17.333 -20.667 -38.833 -36.667 -64.5 -48s-56.5 -17 -92.5 -17h-284c-21.333 0 -39.833 -3.16699 -55.5 -9.5s-28.834 -15 -39.501 -26s-18.5 -23.667 -23.5 -38
s-7.5 -29.166 -7.5 -44.499c0 -14.667 2.5 -29.167 7.5 -43.5s12.833 -27.166 23.5 -38.499s23.834 -20.5 39.501 -27.5s34.167 -10.5 55.5 -10.5h385v-153h-383z" />
    <glyph glyph-name="uniFEA7" unicode="&#x62e;" horiz-adv-x="800" arabic-form="initial" 
d="M259 702c0 29.333 9.16699 53.001 27.5 71.001s41.833 27 70.5 27c13.333 0 26 -2.33301 38 -7s22.667 -11.334 32 -20.001s16.833 -19 22.5 -31s8.5 -25.333 8.5 -40c0 -14 -2.83301 -27.167 -8.5 -39.5s-13.167 -23 -22.5 -32s-20 -16 -32 -21s-24.667 -7.5 -38 -7.5
c-28.667 0 -52.167 9.66699 -70.5 29s-27.5 43 -27.5 71zM556 154.001c30.667 -0.666992 52.6689 4.00098 66.002 14.001s19.833 22 19.5 36s-6.33301 28.667 -18 44s-26.5 28 -44.5 38l-287 80c-18.667 0 -33.5 -4.83301 -44.5 -14.5s-19.167 -20.5 -24.5 -32.5
c-1.33301 -3.33301 -2.83301 -8.16602 -4.5 -14.499s-3.66699 -12.833 -6 -19.5l-6.5 -19c-2 -6 -3.33301 -10.333 -4 -13l-147 36l15 49c11.333 34.667 26.333 64.5 45 89.5s40 45 64 60s50.333 24.667 79 29s58.667 3.5 90 -2.5l280 -86
c28 -10.667 52.5 -24.334 73.5 -41.001s38.5 -35 52.5 -55s24.333 -41 31 -63s10 -44 10 -66c0 -26 -4.5 -51.333 -13.5 -76s-22.333 -46.334 -40 -65.001s-39.834 -33.667 -66.501 -45s-57.334 -17 -92.001 -17h-589v154h562z" />
    </font>
</defs>
</svg>
