<?xml version="1.0" standalone="no"?>
<!DOCTYPE svg PUBLIC "-//W3C//DTD SVG 1.1//EN" "http://www.w3.org/Graphics/SVG/1.1/DTD/svg11.dtd" >
<svg>
<metadata>
Created by FontForge 20090914 at Wed Oct 19 01:06:49 2011
 By www-data
(c) by Abolfazl Seilsepour - +98 912 591 3420  -  seilsepor@yahoo.com
</metadata>
<defs>
<font id="FarDinarTwoMedium" horiz-adv-x="769" >
  <font-face 
    font-family="Far.Dinar Two Medium"
    font-weight="400"
    font-stretch="normal"
    units-per-em="2048"
    panose-1="0 0 7 0 0 0 0 0 0 0"
    ascent="1638"
    descent="-410"
    bbox="-141 -1036 2797 2294"
    underline-thickness="100"
    underline-position="-900"
    unicode-range="U+0020-U+FEFC"
  />
<missing-glyph horiz-adv-x="1298" 
d="M100 -4v1661h998v-1661h-998zM266 163h666v1328h-666v-1328z" />
    <glyph glyph-name=".notdef" unicode="&#x652;&#x64b;" horiz-adv-x="1298" 
d="M100 -4v1661h998v-1661h-998zM266 163h666v1328h-666v-1328z" />
    <glyph glyph-name="uniE818" unicode="&#x651;&#x64b;" 
d="M640 1581l-33 -41l-34 -44h-153l-50 71l-54 -129h-241v208l56 118l78 -40l-32 -85v-78h104l20 65l10 37l-3 79l31 17l70 36v-176h123l-3 53l-1 29l-44 71l79 59l33 -43l24 -64l20 -55v-88zM616 1949l-495 -122l-27 101l497 127zM611 2136l-496 -123l-28 102l498 126z" />
    <glyph glyph-name="uniFC5E" unicode="&#x651;&#x64c;" horiz-adv-x="785" arabic-form="isolated" 
d="M575 2115h-105l-46 -35v-55l46 -42l30 1l75 6v125zM655 1552l-32 -40l-33 -44h-151l-48 70l-54 -127h-235v204l54 116l78 -40l-33 -83v-76h103l19 63l10 36l-2 79l29 16l68 35v-172h123l-4 52l-1 29l-16 24l-7 13l-21 31l78 58l32 -41l24 -64l19 -54v-85zM671 1922
l-168 -40l-355 -84l-33 90l33 16l53 25v78h-40l-32 -23l-39 58l47 65l56 -2l91 -2v-140l-29 -42l97 36l-27 45v123l60 49l54 43h119l54 -44l59 -47v-204z" />
    <glyph glyph-name="uniFC5F" unicode="&#x651;&#x64d;" arabic-form="isolated" 
d="M600 1772l-495 -123l-27 102l498 126zM618 1569l-495 -123l-27 102l497 125zM619 2005l-33 -41l-34 -44h-153l-50 71l-54 -129h-241v208l56 118l79 -40l-33 -86v-77h106l18 65l10 34l-1 82l29 17l70 35v-175h125l-3 53l-2 32l-45 68l79 60l77 -103v-148z" />
    <glyph glyph-name="uniFC60" unicode="&#x651;&#x64e;" horiz-adv-x="763" arabic-form="isolated" 
d="M662 1566l-32 -41l-34 -44h-150l-49 69l-53 -126h-236v204l55 116l78 -40l-33 -83v-76h103l18 63l10 36l-1 79l29 15l68 36v-173h122l-3 53l-2 30l-15 24l-7 12l-21 32l78 57l31 -41l24 -64l20 -54v-84zM616 1955l-485 -121l-28 100l488 124z" />
    <glyph glyph-name="uniFC61" unicode="&#x651;&#x64f;" arabic-form="isolated" 
d="M498 2063h-108l-23 -18l-26 -19v-57l51 -39l29 2l77 5v126zM612 1589l-32 -41l-35 -44h-152l-51 71l-54 -129h-241v208l56 118l79 -39l-33 -86v-78h106l19 66l9 34l-1 81l29 17l70 36v-176h125l-3 53l-2 33l-45 68l80 59l34 -45l23 -63l19 -53v-90zM271 1907l-28 45v119
l61 51l54 45h123l56 -44l59 -46v-211l-172 -40l-352 -81l-25 95l86 24z" />
    <glyph glyph-name="uniFC62" unicode="&#x651;&#x650;" arabic-form="isolated" 
d="M642 1696l-495 -123l-27 102l498 126zM661 1929l-33 -41l-34 -44h-153l-50 71l-54 -129h-241v208l56 118l79 -40l-33 -86v-77h106l18 64l10 35l-1 81l29 18l70 35v-176h125l-3 54l-2 32l-45 68l79 60l77 -103v-148z" />
    <glyph glyph-name="uniFD3F" unicode="&#x652;&#x64e;" horiz-adv-x="1042" 
d="M952 430c0 -22 -31.335 -48.3311 -94.002 -78.998c-14 -94 -29.333 -141 -46 -141c-85.333 83.333 -147 125 -185 125c0 -49.333 38.333 -112.333 115 -189c-1.33301 -29.333 -60 -44 -176 -44c-44.667 -119.333 -102.667 -226.666 -174 -321.999
c-118 -155.333 -214.667 -233 -290 -233c-12 3.33301 -18 6.66602 -18 9.99902c0 12 5.33301 22.333 16 31c160 138 259 312 297 522c-61.333 14 -92 26.667 -92 38c85.333 89.333 128 153.333 128 192c-65.333 -8 -128.666 -47 -189.999 -117
c-32 1.33301 -48 45.666 -48 132.999c-56.667 34 -85 61.333 -85 82c0 30.667 30.667 59.667 92 87c0 92 16.333 138 49 138l82 -82c36 -28.667 70 -43 102 -43c-4.66699 58 -45.667 121 -123 189c0 18.667 29 30.667 87 36c-16.667 114 -51.667 219 -105 315
c-70 102 -131.333 185.667 -184 251c0 13.333 6 20 18 20c18.667 0 53.667 -19.667 105 -59c146.667 -116 259.334 -287.333 338.001 -514c122.667 -3.33301 184 -20.666 184 -51.999l-82 -84c-28.667 -36 -44 -72 -46 -108c32.667 4 67.667 18.667 105 44
c20.667 15.333 50.667 41.666 90 78.999c25.333 0 38 -44.333 38 -133c61.333 -28.667 92 -59.334 92 -92.001zM639.998 435.002c0 73.333 -35.999 110 -107.999 110c-74.667 0 -112 -36.667 -112 -110c0 -71.333 37.333 -107 112 -107c27.333 0 52.166 11 74.499 33
s33.5 46.667 33.5 74z" />
    <glyph glyph-name="uniFDF2" unicode="&#xfedf;&#xfee0;&#xfeea;" horiz-adv-x="2170" arabic-form="isolated" 
d="M637 756c-10.667 -1.33301 -20 -2 -28 -2c-8.66699 0 -18 -0.666992 -28 -2h-53c-74 -2.66699 -134.667 -28.667 -182 -78c-52 -52 -77.333 -115.667 -76 -191c0 -178.667 62.667 -268 188 -268c62 0 121.667 8.33301 179 25v516zM1555 0
c-84.667 0 -152.332 21 -202.999 63c-50 -42 -114.667 -63 -194 -63h-220c-108 0 -195 34.667 -261 104c-70.667 -38 -158.667 -57.667 -264 -59c-110.667 -2.66699 -197.334 33 -260.001 107c-62.667 73.333 -94 171.333 -94 294c0 132.667 43.667 239.334 131 320.001
c90 82 206 123 348 123h68l-15 92c90.667 23.333 172.667 41.666 246 54.999v-686c0 -110.667 50 -166 150 -166h118c98 0 147 56 147 168v637l-39 275l244 55v-967c0 -112 49 -168 147 -168h151c100.667 0 151 56 151 168v652l-36 270l239 57v-1026h2
c0 -94 -27.333 -168.333 -82 -223s-129 -82 -223 -82h-251z" />
    <glyph glyph-name="uniFEF5" unicode="&#xfedf;&#xfe82;" horiz-adv-x="1112" arabic-form="isolated" 
d="M1083 305c0 -83.333 -25.999 -154.333 -77.999 -213c-52.667 -61.333 -126.334 -92 -221.001 -92h-581l88 184h428l-381 650l-199 237h271l471 -813v731l-50 275l252 55v-1014zM598.001 1403c-36.667 -92.667 -92 -139 -166 -139c-48 0 -102.667 22.333 -164 67
c-40.667 28.667 -75.334 43 -104.001 43c-36 0 -64 -24.667 -84 -74l-76 33c32.667 91.333 86 137 160 137c48.667 0 105.334 -21.667 170.001 -65c42 -28.667 76.667 -43 104 -43c36.667 0 64.667 24.667 84 74z" />
    <glyph glyph-name="uniFEF6" unicode="&#xfee0;&#xfe82;" horiz-adv-x="1234" arabic-form="final" 
d="M1142 0c-86 0 -156.333 20.333 -211 61c-52 -40.667 -115 -61 -189 -61h-583l88 184h430l-381 650l-201 237h271l473 -813v731l-52 275l252 55v-926c0 -139.333 50 -209 150 -209h88v-184h-135zM556 1403c-36.667 -92.667 -92 -139 -166 -139
c-50.667 0 -105.334 22.333 -164.001 67c-40.667 28.667 -75.334 43 -104.001 43c-35.333 0 -63.333 -24.667 -84 -74l-78 33c32.667 91.333 86 137 160 137c50.667 0 107.334 -21.667 170.001 -65c44.667 -28.667 79.334 -43 104.001 -43c40 0 68 24.667 84 74l76 -33h2z
" />
    <glyph glyph-name="uniFEF7" unicode="&#xfedf;&#xfe84;" horiz-adv-x="1112" arabic-form="isolated" 
d="M1054 305c0 -83.333 -25.667 -154.333 -77 -213c-53.333 -61.333 -127.333 -92 -222 -92h-581l88 184h428l-381 650l-199 237h271l471 -813v731l-50 275l252 55v-1014zM57 1260v74.998h74c0 58.667 14.333 105.334 43 140.001c28.667 36.667 69 55 121 55
c42 0 82.667 -13.667 122 -41l-4 -12.5c-1.33301 -4.33301 -3.33301 -9.16602 -6 -14.499s-5 -11 -7 -17l-7 -20c-31.333 26 -56 39 -74 39c-57.333 -1.33301 -86 -44.333 -86 -129h100l76 8l70 -83h-422z" />
    <glyph glyph-name="uniFEF8" unicode="&#xfee0;&#xfe84;" horiz-adv-x="1234" arabic-form="final" 
d="M1140 0c-86 0 -156.333 20.333 -211 61c-52 -40.667 -115 -61 -189 -61h-583l88 184h430l-381 650l-201 237h271l473 -813v731l-52 275l252 55v-926c0 -139.333 50 -209 150 -209h88v-184h-135zM40 1260l0.00195312 74.999h74c0 56 14.333 102.667 43 140
c28.667 36.667 69 55 121 55c40.667 0 82 -13.667 124 -41c-2.66699 -4 -4.33398 -8.16699 -5.00098 -12.5s-2.33398 -9.16602 -5.00098 -14.499s-5 -11 -7 -17l-7 -20c-31.333 26 -56 39 -74 39c-58.667 -2.66699 -88 -45.667 -88 -129h100l76 8l70 -83h-422z" />
    <glyph glyph-name="uniFEF9" unicode="&#xfedf;&#xfe88;" horiz-adv-x="1112" arabic-form="isolated" 
d="M1054 305c0 -83.333 -25.667 -154.333 -77 -213c-53.333 -61.333 -127.333 -92 -222 -92h-581l88 184h428l-381 650l-199 237h271l471 -813v731l-50 275l252 55v-1014zM57 -391v78h74c0 57.333 14.333 104.333 43 141s69 55 121 55c42 0 82.667 -14.333 122 -43l-4 -12
c-1.33301 -4 -3.33301 -8.66699 -6 -14c-2.66699 -6 -5 -12 -7 -18s-4.33301 -12.333 -7 -19c-30 26 -54.667 39 -74 39c-57.333 -2.66699 -86 -45.667 -86 -129h100l76 8l70 -86h-422z" />
    <glyph glyph-name="uniFEFA" unicode="&#xfee0;&#xfe88;" horiz-adv-x="1234" arabic-form="final" 
d="M1134 0c-86 0 -156.333 20.333 -211 61c-52 -40.667 -115 -61 -189 -61h-583l88 184h430l-381 650l-201 237h271l473 -813v731l-52 275l252 55v-926c0 -139.333 50 -209 150 -209h88v-184h-135zM34 -391l0.00292969 78h74c0 57.333 14.333 104.333 43 141s69 55 121 55
c43.333 0 84.666 -14.333 123.999 -43c-2.66699 -4 -4.33398 -8 -5.00098 -12s-2.33398 -8.66699 -5.00098 -14c-2.66699 -6 -5 -12 -7 -18s-4.33301 -12.333 -7 -19c-30 26 -54.667 39 -74 39c-58.667 -1.33301 -88 -44.333 -88 -129h100l76 8l70 -86h-422z" />
    <glyph glyph-name="uniFEFB" unicode="&#xfedf;&#xfe8e;" horiz-adv-x="1112" arabic-form="isolated" 
d="M1027 305c0 -83.333 -26 -154.333 -78 -213c-53.333 -61.333 -127 -92 -221 -92h-582l89 184h428l-381 650l-199 237h270l471 -813v731l-49 275l252 55v-1014v0z" />
    <glyph glyph-name="uniFEFC" unicode="&#xfee0;&#xfe8e;" horiz-adv-x="1234" arabic-form="final" 
d="M1126 0c-86 0 -156.333 20.333 -211 61c-52 -40.667 -115 -61 -189 -61h-584l89 184h430l-381 650l-201 237h270l473 -813v731l-51 275l252 55v-926c0 -139.333 50 -209 150 -209h88v-184h-135z" />
    <glyph glyph-name="afii57410" unicode="&#x622;" horiz-adv-x="483" arabic-form="isolated" 
d="M373 1051v-1051h-203v1049l-30 254l256 20zM539 1550c-36.667 -92.667 -92 -139 -166 -139c-48 0 -102.667 22.667 -164 68c-40.667 28.667 -75.334 43 -104.001 43c-36 0 -64 -24.667 -84 -74l-76 33c32.667 91.333 86 137 160 137c48.667 0 105.334 -22 170.001 -66
c42 -28.667 76.667 -43 104 -43c36.667 0 64.667 24.667 84 74z" />
    <glyph glyph-name="afii57411" unicode="&#x623;" horiz-adv-x="483" arabic-form="isolated" 
d="M376 1051v-1051h-203v1049l-30 254l256 20zM30 1417l-0.000976562 75.999h74c0 58.667 14.333 105 43 139c28.667 37.333 69 56 121 56c42 0 82.667 -13.667 122 -41c-1.33301 -4.66699 -2.66602 -9 -3.99902 -13s-3.33301 -8.66699 -6 -14s-5 -11.166 -7 -17.499
s-4.33301 -12.833 -7 -19.5c-31.333 26 -56 39 -74 39c-57.333 -1.33301 -86 -44.333 -86 -129h100l76 8l70 -84h-422z" />
    <glyph glyph-name="afii57412" unicode="&#x624;" horiz-adv-x="966" arabic-form="isolated" 
d="M868 84c0 -282.667 -146.665 -462.332 -439.998 -538.999l-43 86c169.333 45.333 262.666 165 279.999 359c-76 -23.333 -149 -35 -219 -35c-100.667 0 -185.334 42.333 -254.001 127c-62.667 79.333 -94 174.333 -94 285c0 143.333 39 260.666 117 351.999
c83.333 98 195.333 147 336 147h317v-782zM667.002 743.002h-107.999c-82 0 -145.667 -30.667 -191 -92c-46 -60 -69 -144 -69 -252c0 -203.333 63.333 -305 190 -305c57.333 0 116.666 11.667 177.999 35v614zM145.003 997.002l-0.00195312 126.998h94
c0 87.333 22.667 157.666 68 210.999c44.667 54.667 108 82 190 82c67.333 0 133 -22.333 197 -67c-2.66699 -7.33301 -5.66699 -14.666 -9 -21.999s-6.33301 -15 -9 -23c-7.33301 -15.333 -14.333 -34.666 -21 -57.999c-39.333 32.667 -77.666 48.334 -114.999 47.001
c-95.333 -1.33301 -141.666 -58 -138.999 -170h127l117 11l108 -138h-608z" />
    <glyph glyph-name="afii57413" unicode="&#x625;" horiz-adv-x="483" arabic-form="isolated" 
d="M376 1051v-1051h-203v1049l-30 254l256 20zM30 -391v78h74c0 57.333 14.333 104.333 43 141s69 55 121 55c42 0 82.667 -14.333 122 -43l-4 -12c-1.33301 -4 -3.33301 -8.66699 -6 -14c-2.66699 -6 -5 -12 -7 -18s-4.33301 -12.333 -7 -19c-30 26 -54.667 39 -74 39
c-57.333 -2.66699 -86 -45.667 -86 -129h100l76 8l70 -86h-422z" />
    <glyph glyph-name="afii57414" unicode="&#x626;" horiz-adv-x="1433" arabic-form="isolated" 
d="M-141 684v123.001h117c0 188.667 86.667 283 260 283c69.333 0 134 -21.333 194 -64c-10.667 -28.667 -22.667 -63.334 -36 -104.001c-36 32.667 -75 47.667 -117 45c-92.667 -2.66699 -139 -56 -139 -160h161l119 14l109 -137h-668zM1411 8.00098
c0 -114.667 -38.665 -218.332 -115.998 -310.999c-79.333 -90 -179 -144 -299 -162h-320c-194 0 -340.667 60.667 -440 182c-92.667 112 -139 267 -139 465v371h200v-367c0 -160.667 35 -287 105 -379c69.333 -92.667 169.666 -139 300.999 -139h243
c78 10 141.667 51 191 123c42 58.667 63 118.667 63 180h-196c-57.333 0 -108 9 -152 27c-23.333 9.33301 -44.833 20.166 -64.5 32.499s-36.834 26.833 -51.501 43.5c-34.667 35.333 -60.667 76.333 -78 123c-19.333 50 -29 105 -29 165c0 149.333 44.333 270.333 133 363
c90 92.667 206 139 348 139h199l-31 -137h-182c-170.667 0 -256 -109.333 -256 -328c0 -170.667 63.333 -256 190 -256h381v-135z" />
    <glyph glyph-name="afii57415" unicode="&#x627;" horiz-adv-x="483" arabic-form="isolated" 
d="M348 1051v-1051h-203v1049l-33 254l256 20z" />
    <glyph glyph-name="afii57416" unicode="&#x628;" horiz-adv-x="1802" arabic-form="isolated" 
d="M1704 299c0 -94 -26.667 -167 -80 -219c-53.333 -53.333 -127 -80 -221 -80h-920c-117.333 -0 -211 40.333 -281 121c-69.333 82 -104 189 -104 321c0 102.667 26.667 199.667 80 291h182c-64 -92.667 -96 -176 -96 -250c0 -199.333 81.333 -299 244 -299h843
c101.333 0 152 54 152 162v203l-39 262l240 55v-567zM1071 -330c0 -31.333 -12.333 -59.334 -37 -84.001c-24.667 -26 -54.667 -39 -90 -39c-31.333 0 -60 11.667 -86 35c-26 22 -39 52 -39 90c0 34.667 12.333 63.334 37 86.001c26 24.667 55.333 37 88 37
s62 -11.667 88 -35c26 -24 39 -54 39 -90z" />
    <glyph glyph-name="afii57417" unicode="&#x629;" horiz-adv-x="1062" arabic-form="isolated" 
d="M964 469c0 -138 -40.333 -251.332 -121 -339.999c-80 -86 -187 -129 -321 -129c-131.333 0 -234.333 41 -309 123c-76.667 82 -115 192.667 -115 332c0 143.333 39 258.666 117 345.999c77.333 88.667 187 133 329 133c132.667 0 236 -40.333 310 -121
c73.333 -82 110 -196.667 110 -344zM745 469.001c0 217.333 -69.667 326 -209 326c-147.333 0 -221 -108.667 -221 -326c0 -220 71 -330 213 -330c144.667 0 217 110 217 330zM50 1147v74.998h74c0 58.667 14.333 105.334 43 140.001c28.667 36.667 69 55 121 55
c42 0 82.667 -13.667 122 -41l-4 -12.5c-1.33301 -4.33301 -3.33301 -9.16602 -6 -14.499s-5 -11 -7 -17l-7 -20c-31.333 26 -56 39 -74 39c-57.333 -1.33301 -86 -44.333 -86 -129h100l76 8l70 -83h-422z" />
    <glyph glyph-name="afii57418" unicode="&#x62a;" horiz-adv-x="1802" arabic-form="isolated" 
d="M1196 858c0 -34 -11.668 -62.667 -35.001 -86c-24.667 -24.667 -54 -37 -88 -37c-35.333 0 -64.666 11.667 -87.999 35c-24.667 23.333 -37 53.333 -37 90c0 34 11.667 62.667 35 86c24.667 24.667 54.667 37 90 37c34 0 62.667 -11.667 86 -35
c24.667 -24.667 37 -54.667 37 -90zM867.999 858c0 -34 -11.668 -62.667 -35.001 -86c-24.667 -24.667 -54 -37 -88 -37c-35.333 0 -64.666 11.667 -87.999 35c-24.667 23.333 -37 53.333 -37 90c0 34 11.667 62.667 35 86c24.667 24.667 54.667 37 90 37
c34 0 62.667 -11.667 86 -35c24.667 -24.667 37 -54.667 37 -90zM1704 299c0 -94 -26.667 -167 -80 -219c-53.333 -53.333 -127 -80 -221 -80h-920c-117.333 -0 -211 40.333 -281 121c-69.333 82 -104 189 -104 321c0 102.667 26.667 199.667 80 291h182
c-64 -92.667 -96 -176 -96 -250c0 -199.333 81.333 -299 244 -299h843c101.333 0 152 54 152 162v203l-39 262l240 55v-567z" />
    <glyph glyph-name="afii57419" unicode="&#x62b;" horiz-adv-x="1802" arabic-form="isolated" 
d="M1032 1174c0 -32 -12.334 -60.001 -37.001 -84.001c-24.667 -26 -54.667 -39 -90 -39c-31.333 0 -60 11.333 -86 34c-24.667 23.333 -37 54.333 -37 93c0 32.667 12.333 61.334 37 86.001c24.667 24 53.334 36 86.001 36c35.333 0 65.333 -12 90 -36
c24.667 -24.667 37 -54.667 37 -90zM1196 857.999c0 -34 -11.667 -62.667 -35 -86c-24.667 -24.667 -54.667 -37 -90 -37c-32.667 0 -62 11.667 -88 35c-26 22 -39 51.333 -39 88c0 34 12.333 63.333 37 88c26 24.667 56 37 90 37c31.333 0 60 -11.667 86 -35
c26 -24.667 39 -54.667 39 -90zM867.999 857.999c0 -34 -11.667 -62.667 -35 -86c-24.667 -24.667 -54.667 -37 -90 -37c-32.667 0 -62 11.667 -88 35c-26 22 -39 51.333 -39 88c0 34 12.333 63.333 37 88c26 24.667 56 37 90 37c31.333 0 60 -11.667 86 -35
c26 -24.667 39 -54.667 39 -90zM1704 298.999c0 -94 -26.667 -167 -80 -219c-53.333 -53.333 -127 -80 -221 -80h-920c-117.333 0 -211 40.333 -281 121c-69.333 82 -104 189 -104 321c0 102.667 26.667 199.667 80 291h182c-64 -92.667 -96 -176 -96 -250
c0 -199.333 81.333 -299 244 -299h843c101.333 0 152 54 152 162v203l-39 262l240 55v-567z" />
    <glyph glyph-name="afii57420" unicode="&#x62c;" horiz-adv-x="1146" arabic-form="isolated" 
d="M299 207l2.00098 -209.003c0 -92.667 34.667 -170.667 104 -234c75.333 -68 175.666 -110 300.999 -126l-47 -93c-374 46.667 -561 219.334 -561 518.001v318h745v172c0 122.667 -83.667 184 -251 184c-41.333 0 -78.333 -4.66699 -111 -14
c-38 -10.667 -68 -23.667 -90 -39c-27.333 -19.333 -48 -40.333 -62 -63c-14.667 -26 -22 -54 -22 -84c6.66699 -1.33301 9 -2 7 -2h-17h-105c0 118.667 43 211.334 129 278.001c83.333 64 183 96 299 96s216.333 -30.667 301 -92s127 -139.666 127 -234.999v-375h-749z
M774.001 -47.0029c0 -31.333 -12.334 -59.332 -37.001 -83.999c-24.667 -26 -54 -39 -88 -39c-32.667 0 -62 11.667 -88 35c-26 24.667 -39 54.667 -39 90c0 34 12.333 63.333 37 88c26 26 56 39 90 39c32.667 0 61.334 -12.333 86.001 -37
c26 -24.667 39 -55.334 39 -92.001z" />
    <glyph glyph-name="afii57421" unicode="&#x62d;" horiz-adv-x="1146" arabic-form="isolated" 
d="M299 207l2.00098 -209.003c0 -92.667 34.667 -170.667 104 -234c75.333 -68 175.666 -110 300.999 -126l-47 -93c-374 46.667 -561 219.334 -561 518.001v318h745v172c0 122.667 -83.667 184 -251 184c-41.333 0 -78.333 -4.66699 -111 -14
c-38 -10.667 -68 -23.667 -90 -39c-27.333 -19.333 -48 -40.333 -62 -63c-14.667 -26 -22 -54 -22 -84c6.66699 -1.33301 9 -2 7 -2h-17h-105c0 118.667 43 211.334 129 278.001c83.333 64 183 96 299 96s216.333 -30.667 301 -92s127 -139.666 127 -234.999v-375h-749z" />
    <glyph glyph-name="afii57422" unicode="&#x62e;" horiz-adv-x="1146" arabic-form="isolated" 
d="M745 1194c0 -34 -11.668 -62.665 -35.001 -85.998c-24.667 -24.667 -54 -37 -88 -37c-35.333 0 -64.666 11.667 -87.999 35c-24.667 23.333 -37 52.666 -37 87.999s11.667 64.666 35 87.999c24.667 24.667 54.667 37 90 37c34 0 62.667 -11.667 86 -35
c24.667 -24.667 37 -54.667 37 -90zM298.999 207.002l2.00098 -209.003c0 -92.667 34.667 -170.667 104 -234c75.333 -68 175.666 -110 300.999 -126l-47 -93c-374 46.667 -561 219.334 -561 518.001v318h745v172c0 122.667 -83.667 184 -251 184
c-41.333 0 -78.333 -4.66699 -111 -14c-38 -10.667 -68 -23.667 -90 -39c-27.333 -19.333 -48 -40.333 -62 -63c-14.667 -26 -22 -54 -22 -84c6.66699 -1.33301 9 -2 7 -2h-17h-105c0 118.667 43 211.334 129 278.001c83.333 64 183 96 299 96s216.333 -30.667 301 -92
s127 -139.666 127 -234.999v-375h-749z" />
    <glyph glyph-name="afii57423" unicode="&#x62f;" horiz-adv-x="1009" arabic-form="isolated" 
d="M880 186l30.999 -185.998h-813l53 184h518l7 43v215c0 101.333 -20 180.666 -60 237.999c-35.333 52 -83 78 -143 78c-23.333 0 -44.666 -5 -63.999 -15c0 6 -0.333008 12.667 -1 20s-1.66699 15.666 -3 24.999c0 10 -0.666992 20.833 -2 32.5
s-2.66602 24.167 -3.99902 37.5h7c3.33301 0 8 0.666992 14 2c9.33301 2.66699 23.666 4.66699 42.999 6c124 0 224.333 -43.667 301 -131c77.333 -88.667 116 -197.667 116 -327v-222z" />
    <glyph glyph-name="afii57424" unicode="&#x630;" horiz-adv-x="1009" arabic-form="isolated" 
d="M604 1194c0 -34 -11.668 -62.666 -35.001 -85.999c-23.333 -24.667 -52.666 -37 -87.999 -37c-34 0 -64 11.667 -90 35c-24.667 23.333 -37 52.666 -37 87.999c0 36.667 12.333 66 37 88c24.667 24.667 54.667 37 90 37c31.333 0 60 -11.667 86 -35
c24.667 -24.667 37 -54.667 37 -90zM879.999 186.001l30.999 -185.998h-813l53 184h518l7 43v215c0 101.333 -20 180.666 -60 237.999c-35.333 52 -83 78 -143 78c-23.333 0 -44.666 -5 -63.999 -15c0 6 -0.333008 12.667 -1 20s-1.66699 15.666 -3 24.999
c0 10 -0.666992 20.833 -2 32.5s-2.66602 24.167 -3.99902 37.5h7c3.33301 0 8 0.666992 14 2c9.33301 2.66699 23.666 4.66699 42.999 6c124 0 224.333 -43.667 301 -131c77.333 -88.667 116 -197.667 116 -327v-222z" />
    <glyph glyph-name="afii57425" unicode="&#x631;" horiz-adv-x="544" arabic-form="isolated" 
d="M513 86c0 -277.333 -146.667 -457 -440 -539l-43 80c188.667 58.667 283 190.667 283 396l-2 514l-41 274l243 55v-780v0z" />
    <glyph glyph-name="afii57426" unicode="&#x632;" horiz-adv-x="544" arabic-form="isolated" 
d="M497 1194c0 -34 -11.667 -62.665 -35 -85.998c-24.667 -24.667 -54.667 -37 -90 -37c-34 0 -62.667 11.667 -86 35c-24.667 23.333 -37 52.666 -37 87.999s11.667 64.666 35 87.999c24.667 24.667 54 37 88 37c31.333 0 60 -11.667 86 -35c26 -24.667 39 -54.667 39 -90z
M513 86.002c0 -277.333 -146.667 -457 -440 -539l-43 80c188.667 58.667 283 190.667 283 396l-2 514l-41 274l243 55v-780z" />
    <glyph glyph-name="afii57427" unicode="&#x633;" horiz-adv-x="2437" arabic-form="isolated" 
d="M2345 297c0 -88.667 -27.332 -160.332 -81.999 -214.999c-53.333 -54.667 -125 -82 -215 -82c-109.333 0 -201.666 39 -276.999 117c-56 -78 -138.333 -117 -247 -117c-88 0 -165.333 26.667 -232 80c-9.33301 -160 -64 -292.333 -164 -397
c-112 -116.667 -263.333 -175 -454 -175c-196.667 0 -344.334 64.333 -443.001 193c-92.667 117.333 -139 280.333 -139 489v398h201v-389c0 -170.667 35.333 -306 106 -406c71.333 -98 171 -147 299 -147c109.333 0 200.333 46.333 273 139
c39.333 49.333 68.5 106.666 87.5 171.999s28.5 139 28.5 221v602l205 49v-579c49.333 -45.333 108.666 -68 177.999 -68c97.333 0 146 54 146 162v397l200 45v-528c50.667 -50.667 109.667 -76 177 -76c98 0 147 54 147 162v201l-39 266l242 55v-569h2z" />
    <glyph glyph-name="afii57428" unicode="&#x634;" horiz-adv-x="2437" arabic-form="isolated" 
d="M2345 297c0 -88.667 -27.332 -160.332 -81.999 -214.999c-53.333 -54.667 -125 -82 -215 -82c-109.333 0 -201.666 39 -276.999 117c-56 -78 -138.333 -117 -247 -117c-88 0 -165.333 26.667 -232 80c-9.33301 -160 -64 -292.333 -164 -397
c-112 -116.667 -263.333 -175 -454 -175c-196.667 0 -344.334 64.333 -443.001 193c-92.667 117.333 -139 280.333 -139 489v398h201v-389c0 -170.667 35.333 -306 106 -406c71.333 -98 171 -147 299 -147c109.333 0 200.333 46.333 273 139
c39.333 49.333 68.5 106.666 87.5 171.999s28.5 139 28.5 221v602l205 49v-579c49.333 -45.333 108.666 -68 177.999 -68c97.333 0 146 54 146 162v397l200 45v-528c50.667 -50.667 109.667 -76 177 -76c98 0 147 54 147 162v201l-39 266l242 55v-569h2zM1657 1194
c0 -34 -12.333 -62.667 -37 -86c-24.667 -24.667 -54 -37 -88 -37s-64 11.667 -90 35s-39 53.333 -39 90c0 34 13 62.667 39 86c24 24.667 53.333 37 88 37c32.667 0 62 -11.667 88 -35c24.667 -24.667 37 -54.667 37 -90h2zM1984 1194c0 -34 -12.334 -62.667 -37.001 -86
c-24 -24.667 -54 -37 -90 -37c-32.667 0 -62 11.667 -88 35s-39 53.333 -39 90c0 34 13 62.667 39 86c24.667 24.667 53.334 37 86.001 37c34.667 0 64.667 -11.667 90 -35c26 -26 39 -56 39 -90zM1818 1511c0 -32.667 -12.001 -61.334 -36.001 -86.001
c-24.667 -24 -54 -36 -88 -36c-33.333 0 -63 11.333 -89 34c-24 24.667 -36 54 -36 88c0 34.667 12 64 36 88c24.667 26 53.334 39 86.001 39c36 0 66.333 -12 91 -36c22.667 -23.333 34 -53.666 34 -90.999h2z" />
    <glyph glyph-name="afii57429" unicode="&#x635;" horiz-adv-x="2674" arabic-form="isolated" 
d="M1280 0c-11.333 -65.333 -29.834 -124 -55.501 -176s-58.5 -99 -98.5 -141c-109.333 -116.667 -260.666 -175 -453.999 -175c-195.333 0 -343 64.333 -443 193c-91.333 118.667 -137 281.667 -137 489v398h201v-389c0 -173.333 35.333 -308.666 106 -405.999
c71.333 -98 171 -147 299 -147c106.667 0 197.667 46.333 273 139c39.333 49.333 68.5 106.666 87.5 171.999s28.5 139 28.5 221v602l205 49v-577l53 67c226.667 358 474 537 742 537c143.333 0 262 -33.333 356 -100c92.667 -66 139 -157 139 -273v-483h-1302zM2378 451
c0 155.333 -112.001 233 -336.001 233c-124.667 0 -253 -69.667 -385 -209c-105.333 -109.333 -173.666 -206.333 -204.999 -291h926v267z" />
    <glyph glyph-name="afii57430" unicode="&#x636;" horiz-adv-x="2674" arabic-form="isolated" 
d="M1280 0c-11.333 -65.333 -29.834 -124 -55.501 -176s-58.5 -99 -98.5 -141c-109.333 -116.667 -260.666 -175 -453.999 -175c-195.333 0 -343 64.333 -443 193c-91.333 118.667 -137 281.667 -137 489v398h201v-389c0 -173.333 35.333 -308.666 106 -405.999
c71.333 -98 171 -147 299 -147c106.667 0 197.667 46.333 273 139c39.333 49.333 68.5 106.666 87.5 171.999s28.5 139 28.5 221v602l205 49v-577l53 67c226.667 358 474 537 742 537c143.333 0 262 -33.333 356 -100c92.667 -66 139 -157 139 -273v-483h-1302zM2378 451
c0 155.333 -112.001 233 -336.001 233c-124.667 0 -253 -69.667 -385 -209c-105.333 -109.333 -173.666 -206.333 -204.999 -291h926v267zM2169 1194c0 -34 -12.334 -62.666 -37.001 -85.999c-24.667 -24.667 -54.667 -37 -90 -37c-31.333 0 -60 11.667 -86 35
c-24.667 23.333 -37 52.666 -37 87.999c0 36.667 12.333 66 37 88c24.667 24.667 53.334 37 86.001 37c34 0 64 -11.667 90 -35c24.667 -24.667 37 -54.667 37 -90z" />
    <glyph glyph-name="afii57431" unicode="&#x637;" horiz-adv-x="1820" arabic-form="isolated" 
d="M98 0l25.001 213l235 -29c-1.33301 4 -2 23.5 -2 58.5s-0.666992 85.833 -2 152.5v588l-31 252l258 22l-22 -270v-594c30 56 66.833 109 110.5 159s94.167 98.667 151.5 146c143.333 116 279 174 407 174c145.333 0 263.666 -33.333 354.999 -100
c92.667 -68 139 -159.333 139 -274v-498h-1624zM1515 465c0 155.333 -109.999 233 -329.999 233c-118.667 0 -250.334 -69.667 -395.001 -209c-122.667 -116 -199 -217.667 -229 -305h954v281z" />
    <glyph glyph-name="afii57432" unicode="&#x638;" horiz-adv-x="1820" arabic-form="isolated" 
d="M1331 1194c0 -34 -12.333 -62.667 -37 -86c-24.667 -24.667 -54.667 -37 -90 -37c-31.333 0 -60 11.667 -86 35c-26 22 -39 51.333 -39 88s12.333 66 37 88c26 24.667 55.333 37 88 37s62 -11.667 88 -35c26 -24.667 39 -54.667 39 -90zM98 0l25.001 213l235 -29
c-1.33301 4 -2 23.5 -2 58.5s-0.666992 85.833 -2 152.5v588l-31 252l258 22l-22 -270v-594c30 56 66.833 109 110.5 159s94.167 98.667 151.5 146c143.333 116 279 174 407 174c145.333 0 263.666 -33.333 354.999 -100c92.667 -68 139 -159.333 139 -274v-498h-1624z
M1515 465c0 155.333 -109.999 233 -329.999 233c-118.667 0 -250.334 -69.667 -395.001 -209c-122.667 -116 -199 -217.667 -229 -305h954v281z" />
    <glyph glyph-name="afii57433" unicode="&#x639;" horiz-adv-x="1243" arabic-form="isolated" 
d="M536 244c-140.667 0 -217.998 -54.002 -231.998 -162.002l-4 -30.5c-1.33301 -9.66699 -2 -20.167 -2 -31.5c0 -110 41 -200.667 123 -272c74 -64 171.667 -103 293 -117l-56 -86c-144.667 14 -265.334 53.667 -362.001 119c-124 84.667 -190.333 203.334 -199 356.001
c-9.33301 188.667 72.667 314.334 246 377.001v27c0 136.667 38.333 251.334 115 344.001c78 94 175 141 291 141c112 0 232.667 -48.333 362 -145l-78 -100c-76 64 -155 96 -237 96c-37.333 0 -71 -8.33301 -101 -25c-32.667 -18.667 -59.334 -42.334 -80.001 -71.001
c-10.667 -15.333 -20 -31.833 -28 -49.5s-15.667 -37.5 -23 -59.5c-12 -42 -18 -89 -18 -141h305l266 30l27 -200h-608z" />
    <glyph glyph-name="afii57434" unicode="&#x63a;" horiz-adv-x="1243" arabic-form="isolated" 
d="M882 1194c0 -34 -11.668 -62.667 -35.001 -86c-24.667 -24.667 -54 -37 -88 -37c-35.333 0 -64.666 11.667 -87.999 35c-24.667 23.333 -37 53.333 -37 90c0 35.333 12.333 64 37 86c22 24.667 51.333 37 88 37c32.667 0 62 -11.667 88 -35c23.333 -26 35 -56 35 -90z
M535.999 244c-140.667 0 -217.998 -54.002 -231.998 -162.002l-4 -30.5c-1.33301 -9.66699 -2 -20.167 -2 -31.5c0 -110 41 -200.667 123 -272c74 -64 171.667 -103 293 -117l-56 -86c-144.667 14 -265.334 53.667 -362.001 119c-124 84.667 -190.333 203.334 -199 356.001
c-9.33301 188.667 72.667 314.334 246 377.001v27c0 136.667 38.333 251.334 115 344.001c78 94 175 141 291 141c112 0 232.667 -48.333 362 -145l-78 -100c-76 64 -155 96 -237 96c-37.333 0 -71 -8.33301 -101 -25c-32.667 -18.667 -59.334 -42.334 -80.001 -71.001
c-10.667 -15.333 -20 -31.833 -28 -49.5s-15.667 -37.5 -23 -59.5c-12 -42 -18 -89 -18 -141h305l266 30l27 -200h-608z" />
    <glyph glyph-name="afii57441" unicode="&#x641;" horiz-adv-x="1806" arabic-form="isolated" 
d="M1484 1194c0 -34 -12 -62.667 -36 -86c-24.667 -24.667 -54.667 -37 -90 -37c-32 0 -60.667 11.667 -86 35c-24.667 23.333 -37 53.333 -37 90c0 35.333 12.333 64 37 86c24 24.667 52.667 37 86 37c34 0 64 -11.667 90 -35c24 -24.667 36 -54.667 36 -90zM1708 518
c-2.66699 -185.333 -39.668 -317 -111.001 -395c-76.667 -82 -192.667 -123 -348 -123h-766c-117.333 -0 -211 40.333 -281 121c-69.333 82 -104 189 -104 321c0 102.667 26.667 199.667 80 291h182c-64 -92.667 -96 -176 -96 -250c0 -199.333 81.333 -299 244 -299h757
c136.667 0 211.334 41 224.001 123c-32 -16 -76.667 -24 -134 -24c-229.333 0 -344 107.667 -344 323c0 117.333 41.667 205.333 125 264c64.667 44 137.667 66 219 66c115.333 0 204.333 -31.333 267 -94c57.333 -57.333 86 -133.333 86 -228v-96zM1507 610
c0 134 -48.332 201 -144.999 201c-100 0 -150 -73 -150 -219c0 -118.667 45.667 -178 137 -178c61.333 0 112.666 10 153.999 30c1.33301 11.333 2 23.5 2 36.5s0.666992 26.167 2 39.5v90z" />
    <glyph glyph-name="afii57442" unicode="&#x642;" horiz-adv-x="1363" arabic-form="isolated" 
d="M1212 1194c0 -34 -11.667 -62.667 -35 -86c-24.667 -24.667 -54.667 -37 -90 -37c-32.667 0 -62 11.667 -88 35c-26 22 -39 52 -39 90c0 35.333 12.333 64 37 86c26 24.667 56 37 90 37c31.333 0 60 -11.667 86 -35c26 -24.667 39 -54.667 39 -90zM886 1194
c0 -34 -12 -62.667 -36 -86c-24.667 -24.667 -54.667 -37 -90 -37c-32 0 -61 11.667 -87 35c-25.333 22 -38 52 -38 90c0 35.333 12 64 36 86c26 24.667 55.667 37 89 37c32.667 0 62 -11.667 88 -35c25.333 -24.667 38 -54.667 38 -90zM1265 8
c0 -306 -178.668 -459 -536.001 -459c-204.667 0 -361 56 -469 168s-162 273.333 -162 484v121h199v-115c0 -348 149.333 -522 448 -522c203.333 0 309.333 101.667 318 305c-87.333 -19.333 -163.333 -29 -228 -29c-109.333 0 -194.666 37 -255.999 111
c-64 76 -96 179 -96 309c0 146 44.333 267.333 133 364c87.333 94.667 203.333 142 348 142h301v-879zM1056 745h-106c-169.333 0 -254 -110.333 -254 -331c0 -184.667 63.333 -277 190 -277c49.333 0 106 9.66699 170 29v579z" />
    <glyph glyph-name="afii57443" unicode="&#x643;" horiz-adv-x="1969" arabic-form="isolated" 
d="M483 0c-117.333 0 -211 40.333 -281 121c-69.333 82 -104 189 -104 321c0 102.667 26.667 199.667 80 291h182c-64 -92.667 -96 -176 -96 -250c0 -199.333 81.333 -299 244 -299h1172v299c0 157.333 -115.667 236 -347 236h-723l176.5 173l151.5 157
c94 100.667 174 190.667 240 270h293l-291 -240l-185 -184h381c162.667 0 287 -32.667 373 -98c87.333 -67.333 131 -160.333 131 -279v-518h-1397z" />
    <glyph glyph-name="afii57444" unicode="&#x644;" horiz-adv-x="1394" arabic-form="isolated" 
d="M1296 154c0 -182 -55.333 -328.332 -166 -438.999s-262 -166 -454 -166c-195.333 0 -343 61 -443 183c-90 110.667 -135 267 -135 469v379h201v-371c0 -165.333 35.333 -294.333 106 -387c71.333 -94 171 -141 299 -141c105.333 0 197 46.333 275 139
c77.333 91.333 116 214.666 116 369.999v416v381l-43 275l244 57v-1165z" />
    <glyph glyph-name="afii57445" unicode="&#x645;" horiz-adv-x="1523" arabic-form="isolated" 
d="M1405 645l-0.000976562 -285c0 -240 -152.333 -360 -457 -360h-498c-99.333 0 -149 -51.333 -149 -154v-266l-203 137v185c0 87.333 26.667 156.333 80 207c54.667 50 129 75 223 75h287c-41.333 70 -62 143 -62 219c0 152 45.333 273.667 136 365
c90 91.333 213.333 137 370 137c94.667 0 192.334 -15.667 293.001 -47zM1194 750c-28.667 9.33301 -64.333 14 -107 14c-172 0 -258 -107.333 -258 -322c0 -172 58.667 -258 176 -258c146 0 219 91.667 219 275c0 10.667 -0.333008 22.5 -1 35.5s-1.66699 27.167 -3 42.5
c0 14.667 -1 29.5 -3 44.5s-4.33301 31.5 -7 49.5z" />
    <glyph glyph-name="afii57446" unicode="&#x646;" horiz-adv-x="1394" arabic-form="isolated" 
d="M815 559c0 -34 -11.666 -62.667 -34.999 -86c-24.667 -24.667 -54.667 -37 -90 -37c-34 0 -62.667 11.667 -86 35c-24.667 23.333 -37 53.333 -37 90c0 34 11.667 62.667 35 86c24.667 24.667 54 37 88 37c35.333 0 64.666 -11.667 87.999 -35
c24.667 -24.667 37 -54.667 37 -90zM1296 145c0 -180 -55.3311 -324 -165.998 -432c-112 -109.333 -263.333 -164 -454 -164c-196.667 0 -344.334 60.333 -443.001 181c-90 110.667 -135 265 -135 463v372h201v-366c0 -40 2.33301 -78 7 -114s11 -69.667 19 -101
c18 -66 44.667 -121.333 80 -166c35.333 -45.333 77.666 -79.666 126.999 -102.999c50.667 -24.667 108 -37 172 -37c106.667 0 197 44 271 132c80 96.667 120 220.667 120 372c0 233.333 -0.666992 351.666 -2 354.999l-37 270l240 57v-719z" />
    <glyph glyph-name="afii57470" unicode="&#x647;" horiz-adv-x="1062" arabic-form="isolated" 
d="M964 469c0 -138 -40.333 -251.332 -121 -339.999c-80 -86 -187 -129 -321 -129c-131.333 0 -234.333 41 -309 123c-76.667 82 -115 192.667 -115 332c0 143.333 39 258.666 117 345.999c77.333 88.667 187 133 329 133c132.667 0 236 -40.333 310 -121
c73.333 -82 110 -196.667 110 -344zM745 469.001c0 217.333 -69.667 326 -209 326c-147.333 0 -221 -108.667 -221 -326c0 -220 71 -330 213 -330c144.667 0 217 110 217 330z" />
    <glyph glyph-name="afii57448" unicode="&#x648;" horiz-adv-x="966" arabic-form="isolated" 
d="M868 84c0 -282.667 -146.665 -462.332 -439.998 -538.999l-43 86c169.333 45.333 262.666 165 279.999 359c-76 -23.333 -149 -35 -219 -35c-100.667 0 -185.334 42.333 -254.001 127c-62.667 79.333 -94 174.333 -94 285c0 143.333 39 260.666 117 351.999
c83.333 98 195.333 147 336 147h317v-782zM667.002 743.002h-107.999c-82 0 -145.667 -30.667 -191 -92c-46 -60 -69 -144 -69 -252c0 -203.333 63.333 -305 190 -305c57.333 0 116.666 11.667 177.999 35v614z" />
    <glyph glyph-name="afii57449" unicode="&#x649;" horiz-adv-x="1433" arabic-form="isolated" 
d="M1374 8c0 -114.667 -39.001 -218.332 -117.001 -310.999c-79.333 -90 -179 -144 -299 -162h-319c-194 0 -341 60.667 -441 182c-92.667 112 -139 267 -139 465v371h201v-367c0 -160.667 34.667 -287 104 -379c70 -92.667 170.333 -139 301 -139h244
c78 10 141.333 51 190 123c42.667 58.667 64 118.667 64 180h-197c-57.333 0 -107.666 9 -150.999 27c-23.333 9.33301 -44.833 20.166 -64.5 32.499s-37.167 26.833 -52.5 43.5c-34 35.333 -60 76.333 -78 123c-19.333 50 -29 105 -29 165
c0 149.333 44.667 270.333 134 363c90 92.667 206 139 348 139h198l-30 -137h-183c-170.667 0 -256 -109.333 -256 -328c0 -170.667 63.667 -256 191 -256h379v-135h2z" />
    <glyph glyph-name="afii57450" unicode="&#x64a;" horiz-adv-x="1433" arabic-form="isolated" 
d="M1374 8c0 -114.667 -39.001 -218.332 -117.001 -310.999c-79.333 -90 -179 -144 -299 -162h-319c-194 0 -341 60.667 -441 182c-92.667 112 -139 267 -139 465v371h201v-367c0 -160.667 34.667 -287 104 -379c70 -92.667 170.333 -139 301 -139h244
c78 10 141.333 51 190 123c42.667 58.667 64 118.667 64 180h-197c-57.333 0 -107.666 9 -150.999 27c-23.333 9.33301 -44.833 20.166 -64.5 32.499s-37.167 26.833 -52.5 43.5c-34 35.333 -60 76.333 -78 123c-19.333 50 -29 105 -29 165
c0 149.333 44.667 270.333 134 363c90 92.667 206 139 348 139h198l-30 -137h-183c-170.667 0 -256 -109.333 -256 -328c0 -170.667 63.667 -256 191 -256h379v-135h2z" />
    <glyph glyph-name="afii57506" unicode="&#x67e;" horiz-adv-x="1802" arabic-form="isolated" 
d="M1704 299c0 -94 -26.667 -167 -80 -219c-53.333 -53.333 -127 -80 -221 -80h-920c-117.333 -0 -211 40.333 -281 121c-69.333 82 -104 189 -104 321c0 102.667 26.667 199.667 80 291h182c-64 -92.667 -96 -176 -96 -250c0 -199.333 81.333 -299 244 -299h843
c101.333 0 152 54 152 162v203l-39 262l240 55v-567zM1239 -328c0 -36.667 -12.3311 -66 -36.998 -88c-27.333 -24.667 -57.333 -37 -90 -37s-61.334 12.333 -86.001 37c-26 26 -39 55.333 -39 88c0 36 12.333 65.333 37 88c27.333 23.333 56.666 35 87.999 35
c34 0 64 -11.667 90 -35c24.667 -24 37 -53.333 37 -88zM911.002 -328c0 -36.667 -12.3311 -66 -36.998 -88c-27.333 -24.667 -57.333 -37 -90 -37s-61.334 12.333 -86.001 37c-26 26 -39 55.333 -39 88c0 36 12.333 65.333 37 88c27.333 23.333 56.666 35 87.999 35
c34 0 64 -11.667 90 -35c24.667 -24 37 -53.333 37 -88zM1073 -643c0 -36.667 -12.333 -66 -37 -88c-24.667 -24.667 -54 -37 -88 -37c-32.667 0 -62 11.667 -88 35c-24.667 24.667 -37 54 -37 88c0 36.667 12.333 66.667 37 90c26 23.333 55.333 35 88 35
s62 -11.667 88 -35c24.667 -24.667 37 -54 37 -88z" />
    <glyph glyph-name="afii57507" unicode="&#x686;" horiz-adv-x="1146" arabic-form="isolated" 
d="M833 47c0 -56 -28 -84 -84 -84s-84 28 -84 84c0 54.667 28 82 84 82s84 -27.333 84 -82zM299 207l2 -209.001c0 -86 39.667 -158.333 119 -217c80 -60 187 -97 321 -111l-82 -125c-374 46.667 -561 219.334 -561 518.001v318h745v149c0 123.333 -83.667 185 -251 185
c-165.333 0 -248 -67.667 -248 -203h-152c0 118.667 43 211.667 129 279c83.333 64 183 96 299 96s216.333 -30.667 301 -92c84.667 -62 127 -140.667 127 -236v-352h-749zM614 46.999c0 -56 -28 -84 -84 -84c-53.333 0 -80 28 -80 84c0 54.667 26.667 82 80 82
c56 0 84 -27.333 84 -82zM723 -162.001c0 -56 -28 -84 -84 -84c-53.333 0 -80 26.667 -80 80c0 56 26.667 84 80 84c56 0 84 -26.667 84 -80z" />
    <glyph glyph-name="afii57508" unicode="&#x698;" horiz-adv-x="607" arabic-form="isolated" 
d="M508 86c0 -277.333 -146.667 -457 -440 -539l-43 80c188 58.667 282 190.667 282 396l-2 514l-41 274l244 55v-780zM428 1511c0 -32.667 -12.333 -61.333 -37 -86c-24.667 -24 -54 -36 -88 -36c-32.667 0 -62 11.333 -88 34c-24.667 24.667 -37 54 -37 88
c0 34.667 12.333 64 37 88c24.667 26 54 39 88 39s63.333 -12 88 -36c24.667 -24.667 37 -55 37 -91zM592 1194c0 -34 -11.668 -62.667 -35.001 -86c-24.667 -24.667 -54.667 -37 -90 -37c-33.333 0 -62.666 11.667 -87.999 35c-24.667 23.333 -37 53.333 -37 90
c0 35.333 12.333 64 37 86c24 24.667 53.333 37 88 37c32.667 0 62 -11.667 88 -35c24.667 -24.667 37 -54.667 37 -90zM265.999 1194c0 -34 -12.333 -62.667 -37 -86c-24.667 -24.667 -54.667 -37 -90 -37c-31.333 0 -60 11.667 -86 35c-26 22 -39 52 -39 90
c0 35.333 12.333 64 37 86c26 24.667 55.333 37 88 37s62 -11.667 88 -35c26 -24.667 39 -54.667 39 -90z" />
    <glyph glyph-name="afii57509" unicode="&#x6af;" horiz-adv-x="1969" arabic-form="isolated" 
d="M483 0c-117.333 0 -211 40.333 -281 121c-69.333 82 -104 189 -104 321c0 102.667 26.667 199.667 80 291h182c-64 -92.667 -96 -176 -96 -250c0 -199.333 81.333 -299 244 -299h1172v299c0 157.333 -115.667 236 -347 236h-723l176.5 173l151.5 157
c94 100.667 174 190.667 240 270h293l-291 -240l-185 -184h381c162.667 0 287 -32.667 373 -98c87.333 -67.333 131 -160.333 131 -279v-518h-1397zM642 1063l233 256h183l-204 -226l-265 -259l-1 172z" />
    <glyph glyph-name="uniFB57" unicode="&#x67e;" horiz-adv-x="2007" arabic-form="final" 
d="M1814 0c-84.667 0 -152.333 21 -203 63c-51.333 -42 -118 -63 -200 -63h-920c-120 0 -213.667 41 -281 123c-70.667 83.333 -106 193.333 -106 330c0 106 26.667 205 80 297h184c-65.333 -92 -98 -176.667 -98 -254c0 -208 81.333 -312 244 -312h843
c101.333 0 152 56 152 168v209l-41 250l242 55v-514c0 -112 49.667 -168 149 -168h170v-184h-215zM1247 -328c0 -35.333 -13 -64.667 -39 -88c-24.667 -24.667 -54 -37 -88 -37s-63.333 12.333 -88 37c-26 28.667 -39 58 -39 88c0 36 13 65.333 39 88
c26 23.333 54.667 35 86 35c34 0 64 -11.667 90 -35c24.667 -24 37 -53.333 37 -88h2zM919.001 -328.001c0 -35.333 -13 -64.667 -39 -88c-24.667 -24.667 -54 -37 -88 -37s-63.333 12.333 -88 37c-26 28.667 -39 58 -39 88c0 36 13 65.333 39 88c26 23.333 54.667 35 86 35
c34 0 64 -11.667 90 -35c24.667 -24 37 -53.333 37 -88h2zM1081 -643.002c0 -36.667 -12.333 -66 -37 -88c-24.667 -24.667 -54 -37 -88 -37c-32.667 0 -62 11.667 -88 35c-26 26 -39 55.333 -39 88c0 36.667 12.333 66.667 37 90c26 23.333 55.333 35 88 35
s62 -11.667 88 -35c26 -26 39 -55.333 39 -88z" />
    <glyph glyph-name="uniFB58" unicode="&#x67e;" horiz-adv-x="671" arabic-form="initial" 
d="M594 297c0 -91.333 -26.333 -163.667 -79 -217c-56 -53.333 -130.667 -80 -224 -80h-313v184h264c100 0 150 54 150 162v203l-35 262l237 53v-567zM613 -328.001c0 -35.333 -11.667 -64.667 -35 -88c-24.667 -24.667 -54 -37 -88 -37c-36.667 0 -66 12.333 -88 37
c-24.667 26 -37 55.333 -37 88c0 36 11.667 65.333 35 88c26 23.333 56 35 90 35s62.667 -11.667 86 -35c24.667 -24 37 -53.333 37 -88zM285 -328.002c0 -35.333 -11.668 -64.667 -35.001 -88c-24 -24.667 -53.333 -37 -88 -37c-34 0 -63.333 12.333 -88 37
c-24.667 26 -37 55.333 -37 88c0 36 12.333 65.333 37 88c26 23.333 55.333 35 88 35c34.667 0 63.334 -11.667 86.001 -35c24.667 -24 37 -53.333 37 -88zM450.999 -643.003c0 -36.667 -12.333 -66 -37 -88c-27.333 -24.667 -56.666 -37 -87.999 -37
c-32.667 0 -62 11.667 -88 35c-26 24.667 -39 54 -39 88c0 36.667 12.333 66.667 37 90c26 23.333 56 35 90 35c35.333 0 64.666 -11.667 87.999 -35c24.667 -24.667 37 -54 37 -88z" />
    <glyph glyph-name="uniFB59" unicode="&#x67e;" horiz-adv-x="737" arabic-form="medial" 
d="M613 0c-83.333 0 -150.334 20.333 -201.001 61c-53.333 -40.667 -118.666 -61 -195.999 -61h-244v184h190c100 0 150 54 150 162v199l-41 266l244 55v-520c0 -108 49.667 -162 149 -162h103v-184h-154zM589.999 -328c0 -36.667 -11.999 -66 -35.999 -88
c-27.333 -24.667 -56.666 -37 -87.999 -37c-34.667 0 -64 12.333 -88 37c-26 26 -39 55.333 -39 88c0 36 12 65.333 36 88c27.333 23.333 57.666 35 90.999 35c35.333 0 64.666 -11.667 87.999 -35c24 -24 36 -53.333 36 -88zM263 -328c0 -36.667 -12.333 -66 -37 -88
c-27.333 -24.667 -56.666 -37 -87.999 -37c-34 0 -63.333 12.333 -88 37c-26 26 -39 55.333 -39 88c0 36 12.333 65.333 37 88c27.333 23.333 57.333 35 90 35c35.333 0 64.666 -11.667 87.999 -35c24.667 -24 37 -53.333 37 -88zM425 -643
c0 -35.333 -11.665 -64.667 -34.998 -88c-24.667 -24.667 -54.667 -37 -90 -37c-34.667 0 -63.334 11.667 -86.001 35c-24.667 24.667 -37 54 -37 88c0 36.667 11.667 66.667 35 90c26 23.333 55.333 35 88 35c35.333 0 64.666 -11.667 87.999 -35
c24.667 -24.667 37 -54 37 -88z" />
    <glyph glyph-name="uniFB7B" unicode="&#x686;" horiz-adv-x="1294" arabic-form="final" 
d="M1181 0c-152.667 0 -249 69 -289 207h-579l4 -209c0 -86 39 -158.333 117 -217c80 -60 187.667 -97 323 -111l-82 -125c-375.333 48 -563 220.667 -563 518v318h748v149c0 123.333 -84 185 -252 185c-165.333 0 -248 -67.667 -248 -203h-154c0 116 43 209 129 279
c83.333 64 183 96 299 96c118.667 0 219 -30.667 301 -92c84.667 -60 127 -138.667 127 -236v-209c0 -110.667 50 -166 150 -166h112v-184h-143zM849 47c0 -56 -28 -84 -84 -84c-57.333 0 -86 28 -86 84c0 54.667 28 82 84 82s84 -27.333 84 -82h2zM630 47
c0 -56 -28 -84 -84 -84c-54.667 0 -82 28 -82 84c0 54.667 26.667 82 80 82c56 0 84 -27.333 84 -82h2zM739 -162c0 -56 -28 -84 -84 -84c-54.667 0 -82 26.667 -82 80c0 56 26.667 84 80 84c57.333 0 86 -26.667 86 -80z" />
    <glyph glyph-name="uniFB7C" unicode="&#x686;" horiz-adv-x="1224" arabic-form="initial" 
d="M879 -328c0 -36.667 -12.332 -66 -36.999 -88c-24.667 -24.667 -53.334 -37 -86.001 -37c-35.333 0 -65.333 12.333 -90 37c-24.667 26 -37 55.333 -37 88c0 36 12.333 65.333 37 88c26 23.333 55.333 35 88 35c36 0 65.333 -11.667 88 -35c23.333 -22.667 35 -52 35 -88
h2zM554.001 -328c0 -36.667 -12.333 -66 -37 -88c-24.667 -24.667 -54 -37 -88 -37c-37.333 0 -66.666 12.333 -87.999 37c-26 28.667 -39 58 -39 88c0 36 12.333 65.333 37 88c25.333 23.333 54.666 35 87.999 35c34 0 64 -11.667 90 -35c23.333 -22.667 35 -52 35 -88h2z
M717.001 -643c0 -36.667 -11.999 -66 -35.999 -88c-24.667 -24.667 -54.334 -37 -89.001 -37c-32.667 0 -62 11.667 -88 35c-24 24.667 -36 54 -36 88c0 36.667 12 66.667 36 90c26 23.333 54.667 35 86 35c34.667 0 65 -11.667 91 -35c24 -24.667 36 -54 36 -88zM-25.998 0
l-0.000976562 183.999h887c-12.667 28.667 -26.5 57.334 -41.5 86.001l-46.5 86l-55.5 86c-19 28.667 -39.5 58 -61.5 88c-112 153.333 -211 230 -297 230c-62.667 0 -94 -38.333 -94 -115c0 -34 10.333 -79.667 31 -137l-216 -25c7.33301 70 20.333 130.333 39 181
c20.667 52.667 45.334 97.667 74.001 135c31.333 38 66.333 66 105 84c38 20 79.667 30 125 30c158 0 317 -115.333 477 -346c147.333 -211.333 229 -400.333 245 -567h-1171z" />
    <glyph glyph-name="uniFB7D" unicode="&#x686;" horiz-adv-x="1222" arabic-form="medial" 
d="M-28 0l-0.00195312 183.999h887c-12.667 28.667 -26.5 57.334 -41.5 86.001l-46.5 86l-55.5 86c-19 28.667 -39.5 58 -61.5 88c-112 153.333 -211 230 -297 230c-62.667 0 -94 -38.333 -94 -115c0 -34 10.333 -79.667 31 -137l-216 -25c7.33301 70 20.333 130.333 39 181
c20.667 52.667 45.334 97.667 74.001 135c31.333 38 66.333 66 105 84c38 20 79.667 30 125 30c142 0 282.333 -90 421 -270c27.333 -35.333 53.333 -71.5 78 -108.5s47.334 -74.5 68.001 -112.5c43.333 -78 79.333 -157.333 108 -238h156v-184h-1280zM876.998 -328.001
c0 -36.667 -12.332 -66 -36.999 -88c-24.667 -24.667 -53.334 -37 -86.001 -37c-35.333 0 -65.333 12.333 -90 37c-24.667 26 -37 55.333 -37 88c0 36 12.333 65.333 37 88c26 23.333 55.333 35 88 35c36 0 65.333 -11.667 88 -35c24.667 -24 37 -53.333 37 -88z
M551.999 -328.001c0 -36.667 -12.333 -66 -37 -88c-24.667 -24.667 -54 -37 -88 -37c-37.333 0 -66.666 12.333 -87.999 37c-26 28.667 -39 58 -39 88c0 36 12.333 65.333 37 88c25.333 23.333 54.666 35 87.999 35c34 0 64 -11.667 90 -35c23.333 -22.667 35 -52 35 -88h2z
M714.999 -643.001c0 -36.667 -11.999 -66 -35.999 -88c-24.667 -24.667 -54.334 -37 -89.001 -37c-32.667 0 -62 11.667 -88 35c-24 24.667 -36 54 -36 88c0 36.667 12 66.667 36 90c26 23.333 54.667 35 86 35c34.667 0 65 -11.667 91 -35c24 -24.667 36 -54 36 -88z" />
    <glyph glyph-name="uniFB8B" unicode="&#x698;" horiz-adv-x="696" arabic-form="final" 
d="M577 0c-41.333 0 -75.667 4.66699 -103 14c-24.667 -237.333 -170.667 -393 -438 -467l-45 80c190 60 284.333 192 283 396v514l-43 274l243 55v-512c0 -113.333 50 -170 150 -170h117v-184h-164zM435.999 1511c0 -32.667 -12.333 -61.333 -37 -86
c-24.667 -24 -54 -36 -88 -36c-32.667 0 -62 11.333 -88 34c-26 26 -39 55.333 -39 88c0 34.667 12.333 64 37 88c24.667 26 54 39 88 39s63.333 -12 88 -36c24.667 -24.667 37 -55 37 -91h2zM599.999 1194c0 -34 -12.333 -62.667 -37 -86c-24.667 -24.667 -54 -37 -88 -37
c-32.667 0 -62 11.667 -88 35s-39 53.333 -39 90c0 35.333 12.333 64 37 86c24.667 24.667 54 37 88 37c32.667 0 62 -11.667 88 -35c26 -26 39 -56 39 -90zM273.999 1194c0 -34 -12.334 -62.667 -37.001 -86c-24 -24.667 -54 -37 -90 -37c-32.667 0 -62 11.667 -88 35
s-39 53.333 -39 90c0 34 13 62.667 39 86c24.667 24.667 53.334 37 86.001 37c34.667 0 64.667 -11.667 90 -35c24.667 -24.667 37 -54.667 37 -90h2z" />
    <glyph glyph-name="uniFB8F" unicode="&#x6a9;" horiz-adv-x="2043" arabic-form="final" 
d="M483 0c-117.333 0 -211 40.333 -281 121c-69.333 82 -104 189 -104 321c0 102.667 26.667 199.667 80 291h182c-64 -92.667 -96 -176 -96 -250c0 -199.333 81.333 -299 244 -299h1172v299c0 157.333 -115.667 236 -347 236h-723l176.5 173l151.5 157
c94 100.667 174 190.667 240 270h293l-291 -240l-185 -184h381c162.667 0 287 -32.667 373 -98c87.333 -67.333 131 -160.333 131 -279v-334h193v-184h-1590z" />
    <glyph glyph-name="uniFB90" unicode="&#x6a9;" horiz-adv-x="1429" arabic-form="initial" 
d="M-34 0v184h1174v299c0 157.333 -115.667 236 -347 236h-723l176.5 173l151.5 157c94 100.667 174 190.667 240 270h293l-291 -240l-185 -184h381c162.667 0 287 -32.667 373 -98c87.333 -67.333 131 -160.333 131 -279v-518h-1374z" />
    <glyph glyph-name="uniFB91" unicode="&#x6a9;" horiz-adv-x="1509" arabic-form="medial" 
d="M-28 0v184h1171v299c0 157.333 -115.333 236 -346 236h-721l175.5 173l152.5 157c94 100.667 174 190.667 240 270h291l-291 -240l-183 -184h381c160 0 284.333 -32.667 373 -98c87.333 -67.333 131 -160.333 131 -279v-334h193v-184h-1567z" />
    <glyph glyph-name="uniFB93" unicode="&#x6af;" horiz-adv-x="2043" arabic-form="final" 
d="M483 0c-117.333 0 -211 40.333 -281 121c-69.333 82 -104 189 -104 321c0 102.667 26.667 199.667 80 291h182c-64 -92.667 -96 -176 -96 -250c0 -199.333 81.333 -299 244 -299h1172v299c0 157.333 -115.667 236 -347 236h-723l176.5 173l151.5 157
c94 100.667 174 190.667 240 270h293l-291 -240l-185 -184h381c162.667 0 287 -32.667 373 -98c87.333 -67.333 131 -160.333 131 -279v-334h193v-184h-1590zM642 1063l233 256h183l-204 -226l-265 -259l-1 172z" />
    <glyph glyph-name="uniFB94" unicode="&#x6af;" horiz-adv-x="1429" arabic-form="initial" 
d="M70 719l176.5 173l151.5 157c94 100.667 174 190.667 240 270h293l-291 -240l-185 -184h381c162.667 0 287 -32.667 373 -98c87.333 -67.333 131 -160.333 131 -279v-518h-1374v184h1174v299c0 157.333 -115.667 236 -347 236h-723zM102 1063l233 256h183l-204 -226
l-265 -259l-1 172z" />
    <glyph glyph-name="uniFB95" unicode="&#x6af;" horiz-adv-x="1509" arabic-form="medial" 
d="M1143 483c0 157.333 -115.333 236 -346 236h-721l175.5 173l152.5 157c94 100.667 174 190.667 240 270h291l-291 -240l-183 -184h381c160 0 284.333 -32.667 373 -98c87.333 -67.333 131 -160.333 131 -279v-334h193v-184h-1567v184h1171v299zM112 1063l233 256h183
l-204 -226l-265 -259l-1 172z" />
    <glyph glyph-name="uniFBA5" unicode="&#x6c0;" horiz-adv-x="1140" arabic-form="final" 
d="M50 1147v74.998h74c0 58.667 14.333 105.334 43 140.001c28.667 36.667 69 55 121 55c42 0 82.667 -13.667 122 -41l-4 -12.5c-1.33301 -4.33301 -3.33301 -9.16602 -6 -14.499s-5 -11 -7 -17l-7 -20c-31.333 26 -56 39 -74 39c-57.333 -1.33301 -86 -44.333 -86 -129
h100l76 8l70 -83h-422zM688 755.998c-10.667 -1.33301 -20 -2 -28 -2c-8.66699 0 -18 -0.666992 -28 -2h-53c-74 -2.66699 -134.667 -28.667 -182 -78c-52 -52 -77.333 -115.667 -76 -191c0 -178.667 62.667 -268 188 -268c62 0 121.667 8.33301 179 25v516z
M989 -0.00195312c-108 0 -194.999 34.667 -260.999 104c-70.667 -38 -158.667 -57.667 -264 -59c-110.667 -2.66699 -197.334 33 -260.001 107c-62.667 73.333 -94 171.333 -94 294c0 132.667 43.667 239.334 131 320.001c90 82 206 123 348 123h68l-15 92
c90.667 23.333 172.667 41.666 246 54.999v-686c0 -110.667 50 -166 150 -166h131v-184h-180z" />
    <glyph glyph-name="uniFBFD" unicode="&#x6cc;" horiz-adv-x="2009" arabic-form="final" 
d="M1830 0c-95.333 0 -169.667 26.667 -223 80c-53.333 56 -80 131 -80 225v422h-193c-172 0 -258 -109.333 -258 -328c0 -170.667 64.333 -256 193 -256h172v-135c0 -117.333 -37.667 -219.666 -113 -306.999c-78 -88.667 -179 -140 -303 -154h-319
c-198 0 -345.667 59 -443 177c-91.333 104.667 -137 257.334 -137 458.001v371h201v-367c0 -162 34.667 -286.667 104 -374c70 -89.333 170.333 -134 301 -134h244c79.333 15.333 142 56.333 188 123c44 57.333 66.667 115.333 68 174
c-108 1.33301 -194 35.666 -258 102.999c-72.667 69.333 -109 165.666 -109 288.999c0 147.333 44.333 267.333 133 360c90.667 92.667 207 139 349 139h387l-4 -514c0 -112 49 -168 147 -168h168v-184h-215z" />
    <glyph glyph-name="uniFBFE" unicode="&#x6cc;" horiz-adv-x="694" arabic-form="initial" 
d="M597 297c0 -90 -27.333 -162.333 -82 -217c-53.333 -53.333 -127 -80 -221 -80h-316v184h265c100.667 0 151 54 151 162v203l-37 262l238 53v-567h2zM540 -330c0 -31.333 -12.333 -59.334 -37 -84.001c-24.667 -26 -54 -39 -88 -39c-34.667 0 -64.667 11.667 -90 35
c-26 23.333 -39 53.333 -39 90c0 34.667 13 63.334 39 86.001c24 24.667 53.333 37 88 37c32.667 0 62 -11.667 88 -35c24.667 -24 37 -54 37 -90h2zM214 -330.001c0 -28.667 -12.334 -56.668 -37.001 -84.001c-26 -26 -56 -39 -90 -39c-32.667 0 -62 11.667 -88 35
s-39 53.333 -39 90c0 34.667 13 63.334 39 86.001c24.667 24.667 53.334 37 86.001 37c34 0 64 -11.667 90 -35c24.667 -24 37 -54 37 -90h2z" />
    <glyph glyph-name="uniFBFF" unicode="&#x6cc;" horiz-adv-x="737" arabic-form="medial" 
d="M619 0c-83.333 0 -150 20.333 -200 61c-53.333 -40.667 -119 -61 -197 -61h-246v184h191c100.667 0 151 54 151 162v211l-43 264l244 53v-528c0 -108 49.667 -162 149 -162h105v-184h-154zM546 -330c0 -31.333 -12.333 -59.334 -37 -84.001c-24.667 -26 -54 -39 -88 -39
c-32.667 0 -62 11.667 -88 35c-24.667 22 -37 52 -37 90c0 34.667 12.333 63.334 37 86.001c24 24.667 52.667 37 86 37c32.667 0 62 -11.667 88 -35c24.667 -24 37 -54 37 -90h2zM220 -330.001c0 -28.667 -12.334 -56.668 -37.001 -84.001c-26 -26 -56 -39 -90 -39
c-32.667 0 -62 11.667 -88 35s-39 53.333 -39 90c0 34.667 13 63.334 39 86.001c24.667 24.667 53.334 37 86.001 37c34 0 64 -11.667 90 -35c24.667 -24 37 -54 37 -90h2z" />
    <glyph glyph-name="uniFE82" unicode="&#x622;" horiz-adv-x="612" arabic-form="final" 
d="M495 0c-96 0 -170.667 26.667 -224 80c-53.333 56 -80 131 -80 225v696l-36 263l239 55v-967c0 -112 49.333 -168 148 -168h112v-184h-159zM556 1550c-36.667 -92.667 -92 -139 -166 -139c-50.667 0 -105.334 22.667 -164.001 68c-40.667 28.667 -75.334 43 -104.001 43
c-35.333 0 -63.333 -24.667 -84 -74l-78 33c32.667 91.333 86 137 160 137c50.667 0 107.334 -22 170.001 -66c44.667 -28.667 79.334 -43 104.001 -43c40 0 68 24.667 84 74z" />
    <glyph glyph-name="uniFE84" unicode="&#x623;" horiz-adv-x="612" arabic-form="final" 
d="M489 0c-96 0 -170.667 26.667 -224 80c-52.667 56 -79 131 -79 225v696l-37 263l239 55v-967c0 -112 49.333 -168 148 -168h112v-184h-159zM36 1417l0.00195312 75.999h74c0 56 14.333 102.333 43 139c28.667 37.333 69 56 121 56c40.667 0 82 -13.667 124 -41
c-2.66699 -4.66699 -4.33398 -9 -5.00098 -13s-2.33398 -8.66699 -5.00098 -14s-5 -11.166 -7 -17.499s-4.33301 -12.833 -7 -19.5c-31.333 26 -56 39 -74 39c-58.667 -2.66699 -88 -45.667 -88 -129h100l76 8l70 -84h-422z" />
    <glyph glyph-name="uniFE86" unicode="&#x624;" horiz-adv-x="1101" arabic-form="final" 
d="M898 0c-35.333 -236 -179.334 -387 -432.001 -453l-43 80c176 68.667 269 193 279 373h-195c-109.333 -0 -198.666 33.333 -267.999 100c-76.667 74 -115 171 -115 291c0 148.667 43.667 269 131 361c88.667 92.667 204.667 139 348 139h299v-707h238v-184h-242z
M694.999 772h-104c-82 0 -145.667 -30.667 -191 -92c-44.667 -61.333 -67 -145.333 -67 -252c0 -162.667 63.333 -244 190 -244h172v588zM143.999 997v126.998h95c0 87.333 22.333 157.666 67 210.999c45.333 54.667 109 82 191 82c66.667 0 132 -22.333 196 -67
c-2.66699 -7.33301 -5.66699 -14.666 -9 -21.999s-6.33301 -15 -9 -23c-6.66699 -15.333 -13.667 -34.666 -21 -57.999c-39.333 32.667 -77.333 48.334 -114 47.001c-96 -1.33301 -142.667 -58 -140 -170h127l117 11l109 -138h-609z" />
    <glyph glyph-name="uniFE88" unicode="&#x625;" horiz-adv-x="612" arabic-form="final" 
d="M479 0c-96 0 -170.667 26.667 -224 80c-52.667 56 -79 131 -79 225v696l-37 263l239 55v-967c0 -112 49.333 -168 148 -168h112v-184h-159zM26 -391l0.00292969 78h74c0 57.333 14.333 104.333 43 141s69 55 121 55c43.333 0 84.666 -14.333 123.999 -43
c-2.66699 -4 -4.33398 -8 -5.00098 -12s-2.33398 -8.66699 -5.00098 -14c-2.66699 -6 -5 -12 -7 -18s-4.33301 -12.333 -7 -19c-30 26 -54.667 39 -74 39c-58.667 -1.33301 -88 -44.333 -88 -129h100l76 8l70 -86h-422z" />
    <glyph glyph-name="uniFE8A" unicode="&#x626;" horiz-adv-x="2004" arabic-form="final" 
d="M1836 0c-94.667 0 -168.333 26.668 -221 80.001c-54.667 54.667 -82 129.667 -82 225v422h-193c-170.667 0 -256 -109.333 -256 -328c0 -170.667 64.333 -256 193 -256h170v-135c0 -117.333 -37.667 -219.666 -113 -306.999c-78 -88.667 -179 -140 -303 -154h-320
c-194.667 0 -342 59 -442 177c-90 106 -135 258.667 -135 458v371h201v-367c0 -160.667 34 -285.334 102 -374.001c69.333 -89.333 170.333 -134 303 -134h244c76 14 138.667 55 188 123c42.667 58.667 64.667 116.667 66 174
c-105.333 1.33301 -191.333 35.666 -258 102.999c-71.333 70.667 -107 167 -107 289c0 147.333 44.333 267.333 133 360s204.667 139 348 139h385l-2 -514c0 -112 49.333 -168 148 -168h166v-184h-215zM-72.999 684.001v122.999h117c0 188.667 86.667 283 260 283
c69.333 0 133.333 -21.333 192 -64l-37 -104c-34 32.667 -72.667 47.667 -116 45c-91.333 -1.33301 -137 -54.666 -137 -159.999h161l119 14l109 -137h-668z" />
    <glyph glyph-name="uniFE8B" unicode="&#x626;" horiz-adv-x="671" arabic-form="initial" 
d="M38 997l-0.000976562 126.999h94c0 87.333 22.667 157.666 68 210.999c44.667 54.667 108 82 190 82c66.667 0 132.334 -22.333 197.001 -67l-10 -22c-3.33301 -7.33301 -6.33301 -15 -9 -23c-6.66699 -15.333 -13.334 -34.666 -20.001 -57.999
c-40 32.667 -78.333 48.334 -115 47.001c-95.333 -1.33301 -141.666 -58 -138.999 -170h127l116 11l109 -138h-608zM581.999 296.999c0 -90 -27 -162.333 -81 -217c-53.333 -53.333 -127.333 -80 -222 -80h-315v184h264c101.333 0 152 54 152 162v203l-37 262l239 53v-567z
" />
    <glyph glyph-name="uniFE8C" unicode="&#x626;" horiz-adv-x="737" arabic-form="medial" 
d="M613 0c-83.333 0 -150.334 20.333 -201.001 61c-53.333 -40.667 -118.666 -61 -195.999 -61h-244v184h190c100 0 150 54 150 162v199l-41 266l244 55v-520c0 -108 49.667 -162 149 -162h103v-184h-154zM51.999 997l0.00195312 126.998h94c0 86 22 156.333 66 211
c44.667 54.667 108.667 82 192 82c65.333 0 130.333 -22.333 195 -67c-2.66699 -7.33301 -5.83398 -14.666 -9.50098 -21.999s-6.83398 -15 -9.50098 -23c-2.66699 -10 -6 -19.333 -10 -28s-7.33301 -18.667 -10 -30c-18 15.333 -36.5 27.333 -55.5 36
s-38.833 12.334 -59.5 11.001c-94 -1.33301 -139.667 -58 -137 -170h127l117 11l108 -138h-608z" />
    <glyph glyph-name="uniFE8E" unicode="&#x627;" horiz-adv-x="612" arabic-form="final" 
d="M475 0c-94 0 -167.667 26.667 -221 80c-54.667 54.667 -82 129.667 -82 225v696l-35 263l240 55v-967c0 -112 49 -168 147 -168h111v-184h-160z" />
    <glyph glyph-name="uniFE90" unicode="&#x628;" horiz-adv-x="2007" arabic-form="final" 
d="M1816 0c-84.667 0 -152.333 21 -203 63c-51.333 -42 -118 -63 -200 -63h-920c-120 0 -213.667 41 -281 123c-70.667 83.333 -106 193.333 -106 330c0 106 26.667 205 80 297h184c-65.333 -92 -98 -176.667 -98 -254c0 -208 81.333 -312 244 -312h843
c101.333 0 152 56 152 168v209l-41 250l242 55v-514c0 -112 49.667 -168 149 -168h170v-184h-215zM1044 -330c0 -28.667 -12.333 -56.668 -37 -84.001c-26 -26 -54.667 -39 -86 -39c-34 0 -64 11.667 -90 35s-39 53.333 -39 90c0 34.667 12.333 63.334 37 86.001
c24.667 24.667 54.667 37 90 37c31.333 0 60 -11.667 86 -35c24.667 -24 37 -54 37 -90h2z" />
    <glyph glyph-name="uniFE91" unicode="&#x628;" horiz-adv-x="671" arabic-form="initial" 
d="M584 297c0 -90 -27 -162.333 -81 -217c-53.333 -53.333 -127.333 -80 -222 -80h-315v184h264c101.333 0 152 54 152 162v203l-37 262l237 53v-567h2zM474 -330c0 -31.333 -12.334 -59.334 -37.001 -84.001c-24.667 -26 -54 -39 -88 -39c-32.667 0 -62 11.667 -88 35
c-24.667 22 -37 52 -37 90c0 34.667 12.333 63.334 37 86.001c24.667 24.667 53.334 37 86.001 37c34 0 64 -11.667 90 -35c23.333 -22.667 35 -52.667 35 -90h2z" />
    <glyph glyph-name="uniFE92" unicode="&#x628;" horiz-adv-x="737" arabic-form="medial" 
d="M613 0c-83.333 0 -150.334 20.333 -201.001 61c-53.333 -40.667 -118.666 -61 -195.999 -61h-244v184h190c100 0 150 54 150 162v199l-41 266l244 55v-520c0 -108 49.667 -162 149 -162h103v-184h-154zM530.999 -330c0 -30 -11.668 -58.001 -35.001 -84.001
c-24.667 -26 -54 -39 -88 -39c-35.333 0 -64.666 11.667 -87.999 35c-24.667 22 -37 52 -37 90c0 34.667 11.667 63.334 35 86.001c24.667 24.667 54.667 37 90 37c34 0 62.667 -11.667 86 -35c24.667 -24 37 -54 37 -90z" />
    <glyph glyph-name="uniFE96" unicode="&#x62a;" horiz-adv-x="2007" arabic-form="final" 
d="M1210 858c0 -34 -12.332 -62.667 -36.999 -86c-24.667 -24.667 -53.334 -37 -86.001 -37c-34 0 -64 11.667 -90 35c-24.667 23.333 -37 53.333 -37 90c0 35.333 12.333 64 37 86c24.667 24.667 54 37 88 37c32.667 0 62 -11.667 88 -35c23.333 -23.333 35 -53.333 35 -90
h2zM882.001 858c0 -34 -12.332 -62.667 -36.999 -86c-24.667 -24.667 -53.334 -37 -86.001 -37c-34 0 -64 11.667 -90 35c-24.667 23.333 -37 53.333 -37 90c0 35.333 12.333 64 37 86c24.667 24.667 54 37 88 37c32.667 0 62 -11.667 88 -35
c23.333 -23.333 35 -53.333 35 -90h2zM1820 0c-84.667 0 -152.333 21 -203 63c-51.333 -42 -118 -63 -200 -63h-920c-120 0 -213.667 41 -281 123c-70.667 83.333 -106 193.333 -106 330c0 106 26.667 205 80 297h184c-65.333 -92 -98 -176.667 -98 -254
c0 -208 81.333 -312 244 -312h843c101.333 0 152 56 152 168v209l-41 250l242 55v-514c0 -112 49.667 -168 149 -168h170v-184h-215z" />
    <glyph glyph-name="uniFE97" unicode="&#x62a;" horiz-adv-x="671" arabic-form="initial" 
d="M615 1194c0 -34 -11.667 -62.667 -35 -86c-24.667 -24.667 -54 -37 -88 -37s-64 11.667 -90 35c-24.667 23.333 -37 53.333 -37 90c0 35.333 12.333 64 37 86c24.667 24.667 54.667 37 90 37c31.333 0 60 -11.667 86 -35c24.667 -24.667 37 -54.667 37 -90zM287 1194
c0 -34 -11.667 -62.667 -35 -86c-22.667 -24.667 -52 -37 -88 -37c-34 0 -64 11.667 -90 35c-24.667 23.333 -37 53.333 -37 90c0 35.333 12.333 64 37 86c24.667 24.667 54.667 37 90 37c32 0 60.667 -11.667 86 -35c24.667 -24.667 37 -54.667 37 -90zM592 297
c0 -91.333 -26.333 -163.667 -79 -217c-56 -53.333 -130.667 -80 -224 -80h-313v184h264c100 0 150 54 150 162v203l-35 262l237 53v-567z" />
    <glyph glyph-name="uniFE98" unicode="&#x62a;" horiz-adv-x="737" arabic-form="medial" 
d="M560 1194c0 -34 -11.666 -62.667 -34.999 -86c-24.667 -24.667 -54.667 -37 -90 -37c-34 0 -62.667 11.667 -86 35c-24.667 23.333 -37 53.333 -37 90c0 34 11.667 62.667 35 86c24.667 24.667 54 37 88 37c35.333 0 64.666 -11.667 87.999 -35
c24.667 -24.667 37 -54.667 37 -90zM232.001 1194c0 -34 -11.666 -62.667 -34.999 -86c-24.667 -24.667 -54.667 -37 -90 -37c-34 0 -62.667 11.667 -86 35c-24.667 23.333 -37 53.333 -37 90c0 34 11.667 62.667 35 86c24.667 24.667 54 37 88 37
c35.333 0 64.666 -11.667 87.999 -35c24.667 -24.667 37 -54.667 37 -90zM613.002 0c-83.333 0 -150.333 20.333 -201 61c-56 -40.667 -121.333 -61 -196 -61h-244v184h188c101.333 0 152 54 152 162v199l-43 266l244 55v-520c0 -108 49 -162 147 -162h107v-184h-154z" />
    <glyph glyph-name="uniFE9A" unicode="&#x62b;" horiz-adv-x="2007" arabic-form="final" 
d="M1050 1180c0 -28.667 -12.334 -56.667 -37.001 -84c-26 -26 -56 -39 -90 -39c-31.333 0 -60 11.667 -86 35c-26 22.667 -39 52.667 -39 90c0 35.333 12.333 64 37 86c24.667 24.667 53.334 37 86.001 37c34 0 64 -11.667 90 -35c24.667 -24.667 37 -54.667 37 -90h2z
M1214 864c0 -34 -12.333 -62.666 -37 -85.999c-24.667 -24.667 -54 -37 -88 -37s-64 11.667 -90 35s-39 52.666 -39 87.999c0 31.333 13 60 39 86c24.667 26 54 39 88 39c32.667 0 62 -11.667 88 -35c26 -26 39 -56 39 -90zM885.999 864.001
c0 -34 -12.333 -62.666 -37 -85.999c-24.667 -24.667 -54 -37 -88 -37s-64 11.667 -90 35s-39 52.666 -39 87.999c0 31.333 13 60 39 86c24.667 26 54 39 88 39c32.667 0 62 -11.667 88 -35c24.667 -24 37 -54 37 -90h2zM1824 0.00195312c-84.667 0 -152.333 21 -203 63
c-51.333 -42 -118 -63 -200 -63h-920c-120 0 -213.667 41 -281 123c-70.667 83.333 -106 193.333 -106 330c0 106 26.667 205 80 297h184c-65.333 -92 -98 -176.667 -98 -254c0 -208 81.333 -312 244 -312h843c101.333 0 152 56 152 168v209l-41 250l242 55v-514
c0 -112 49.667 -168 149 -168h170v-184h-215z" />
    <glyph glyph-name="uniFE9B" unicode="&#x62b;" horiz-adv-x="671" arabic-form="initial" 
d="M449 1511c0 -31.333 -11.6689 -60 -35.002 -86c-23.333 -24 -52.666 -36 -87.999 -36c-34 0 -64 11.333 -90 34c-24.667 24.667 -37 54 -37 88c0 34.667 12.333 64 37 88c24.667 26 54.667 39 90 39c32.667 0 61.334 -12 86.001 -36c24.667 -24.667 37 -55 37 -91z
M612.998 1194c0 -34 -11.666 -62.667 -34.999 -86c-24.667 -24.667 -54.667 -37 -90 -37c-34 0 -62.667 11.667 -86 35c-24.667 23.333 -37 53.333 -37 90c0 34 11.667 62.667 35 86c24.667 24.667 54 37 88 37c35.333 0 64.666 -11.667 87.999 -35
c24.667 -24.667 37 -54.667 37 -90zM284.999 1194c0 -34 -11.668 -62.667 -35.001 -86c-24 -24.667 -54 -37 -90 -37c-31.333 0 -60 11.667 -86 35c-24.667 23.333 -37 53.333 -37 90c0 35.333 12.333 64 37 86c24.667 24.667 53.334 37 86.001 37
c36 0 65.333 -11.667 88 -35c24.667 -24.667 37 -54.667 37 -90zM593.998 297c0 -91.333 -26.333 -163.667 -79 -217c-56 -53.333 -130.667 -80 -224 -80h-313v184h264c100 0 150 54 150 162v203l-35 262l237 53v-567z" />
    <glyph glyph-name="uniFE9C" unicode="&#x62b;" horiz-adv-x="737" arabic-form="medial" 
d="M398 1511c0 -31.333 -11.6689 -60 -35.002 -86c-23.333 -24 -52.666 -36 -87.999 -36c-34 0 -64 11.333 -90 34c-24.667 24.667 -37 54 -37 88c0 34.667 12.333 64 37 88c24.667 26 54.667 39 90 39c32.667 0 61.334 -12 86.001 -36c24.667 -24.667 37 -55 37 -91z
M561.998 1194c0 -34 -11.667 -62.667 -35 -86c-24.667 -24.667 -54.667 -37 -90 -37c-34 0 -62.667 11.667 -86 35c-24.667 23.333 -37 53.333 -37 90c0 34 11.667 62.667 35 86c24.667 24.667 54 37 88 37c32.667 0 62 -11.667 88 -35c24.667 -24.667 37 -54.667 37 -90z
M235.998 1194c0 -34 -12.334 -62.667 -37.001 -86c-24.667 -24.667 -54.667 -37 -90 -37c-31.333 0 -60 11.667 -86 35c-24.667 23.333 -37 53.333 -37 90c0 35.333 12.333 64 37 86c24.667 24.667 53.334 37 86.001 37s62 -11.667 88 -35c26 -24.667 39 -54.667 39 -90z
M612.997 0c-83.333 0 -150.334 20.333 -201.001 61c-53.333 -40.667 -118.666 -61 -195.999 -61h-244v184h190c100 0 150 54 150 162v199l-41 266l244 55v-520c0 -108 49.667 -162 149 -162h103v-184h-154z" />
    <glyph glyph-name="uniFE9E" unicode="&#x62c;" horiz-adv-x="1294" arabic-form="final" 
d="M1175 0c-152.667 0 -248.998 68.9961 -288.998 206.996h-579l4 -209c0 -46.667 8.66699 -89.667 26 -129c19.333 -42.667 46 -79 80 -109c34 -32.667 76.333 -59 127 -79c49.333 -23.333 106.666 -37.666 171.999 -42.999l-47 -93c-375.333 48 -563 220.667 -563 518v318
h748v172c0 122.667 -84 184 -252 184c-42.667 0 -80.334 -4.66699 -113.001 -14c-18 -5.33301 -34.5 -11.166 -49.5 -17.499s-28.5 -14.166 -40.5 -23.499c-27.333 -19.333 -48 -40.666 -62 -63.999c-14.667 -21.333 -22 -49 -22 -83h-115c0 116 43 208.667 129 278
c83.333 64 183 96 299 96c118.667 0 219 -30.667 301 -92c84.667 -60 127 -138.333 127 -235v-232c0 -110.667 50 -166 150 -166h112v-184h-143zM782.002 -47.0039c0 -31.333 -12.333 -59.332 -37 -83.999c-24.667 -26 -53.334 -39 -86.001 -39c-34 0 -64 11.667 -90 35
c-26 26 -39 56 -39 90s12.333 63.333 37 88c24.667 26 54.667 39 90 39c32.667 0 61.334 -12.333 86.001 -37s37 -55.334 37 -92.001h2z" />
    <glyph glyph-name="uniFE9F" unicode="&#x62c;" horiz-adv-x="1224" arabic-form="initial" 
d="M-30 0l-0.000976562 183.999h887c-12.667 28.667 -26.5 57.334 -41.5 86.001l-46.5 86l-55.5 86c-19 28.667 -39.5 58 -61.5 88c-112 153.333 -211 230 -297 230c-62.667 0 -94 -38.333 -94 -115c0 -34 10.333 -79.667 31 -137l-216 -25
c7.33301 70 20.333 130.333 39 181c20.667 52.667 45.334 97.667 74.001 135c31.333 38 66.333 66 105 84c38 20 79.667 30 125 30c158 0 317 -115.333 477 -346c148.667 -211.333 229.667 -400.333 243 -567h-1169zM719.999 -330.001c0 -30 -11.667 -58.001 -35 -84.001
c-24.667 -26 -54 -39 -88 -39c-34.667 0 -64.667 11.667 -90 35c-26 23.333 -39 53.333 -39 90c0 34.667 12.333 63.334 37 86.001c24 24.667 54 37 90 37c31.333 0 60 -11.667 86 -35c26 -26 39 -56 39 -90z" />
    <glyph glyph-name="uniFEA0" unicode="&#x62c;" horiz-adv-x="1222" arabic-form="medial" 
d="M-28 0l-0.00195312 183.999h887c-12.667 28.667 -26.5 57.334 -41.5 86.001l-46.5 86l-55.5 86c-19 28.667 -39.5 58 -61.5 88c-112 153.333 -211 230 -297 230c-62.667 0 -94 -38.333 -94 -115c0 -34 10.333 -79.667 31 -137l-216 -25c7.33301 70 20.333 130.333 39 181
c20.667 52.667 45.334 97.667 74.001 135c31.333 38 66.333 66 105 84c38 20 79.667 30 125 30c142 0 282.333 -90 421 -270c27.333 -35.333 53.333 -71.5 78 -108.5s47.334 -74.5 68.001 -112.5c43.333 -78 79.333 -157.333 108 -238h156v-184h-1280zM721.998 -330.001
c0 -30 -11.667 -58.001 -35 -84.001c-24.667 -26 -54 -39 -88 -39c-34.667 0 -64.667 11.667 -90 35c-26 23.333 -39 53.333 -39 90c0 34.667 12.333 63.334 37 86.001c24 24.667 54 37 90 37c31.333 0 60 -11.667 86 -35c26 -26 39 -56 39 -90z" />
    <glyph glyph-name="uniFEA2" unicode="&#x62d;" horiz-adv-x="1294" arabic-form="final" 
d="M1185 0c-152.667 0 -248.998 68.9961 -288.998 206.996h-579l4 -209c0 -46.667 8.66699 -89.667 26 -129c19.333 -42.667 46 -79 80 -109c34 -32.667 76.333 -59 127 -79c49.333 -23.333 106.666 -37.666 171.999 -42.999l-47 -93c-375.333 48 -563 220.667 -563 518v318
h748v172c0 122.667 -84 184 -252 184c-42.667 0 -80.334 -4.66699 -113.001 -14c-18 -5.33301 -34.5 -11.166 -49.5 -17.499s-28.5 -14.166 -40.5 -23.499c-27.333 -19.333 -48 -40.666 -62 -63.999c-14.667 -21.333 -22 -49 -22 -83h-115c0 116 43 208.667 129 278
c83.333 64 183 96 299 96c118.667 0 219 -30.667 301 -92c84.667 -60 127 -138.333 127 -235v-232c0 -110.667 50 -166 150 -166h112v-184h-143z" />
    <glyph glyph-name="uniFEA3" unicode="&#x62d;" horiz-adv-x="1224" arabic-form="initial" 
d="M-34 0l-0.000976562 183.999h887c-12.667 28.667 -26.5 57.334 -41.5 86.001l-46.5 86l-55.5 86c-19 28.667 -39.5 58 -61.5 88c-112 153.333 -211 230 -297 230c-62.667 0 -94 -38.333 -94 -115c0 -34 10.333 -79.667 31 -137l-216 -25
c7.33301 70 20.333 130.333 39 181c20.667 52.667 45.334 97.667 74.001 135c31.333 38 66.333 66 105 84c38 20 79.667 30 125 30c158 0 317 -115.333 477 -346c148.667 -211.333 229.667 -400.333 243 -567h-1169z" />
    <glyph glyph-name="uniFEA4" unicode="&#x62d;" horiz-adv-x="1222" arabic-form="medial" 
d="M-28 0l-0.00195312 183.999h887c-12.667 28.667 -26.5 57.334 -41.5 86.001l-46.5 86l-55.5 86c-19 28.667 -39.5 58 -61.5 88c-112 153.333 -211 230 -297 230c-62.667 0 -94 -38.333 -94 -115c0 -34 10.333 -79.667 31 -137l-216 -25c7.33301 70 20.333 130.333 39 181
c20.667 52.667 45.334 97.667 74.001 135c31.333 38 66.333 66 105 84c38 20 79.667 30 125 30c142 0 282.333 -90 421 -270c27.333 -35.333 53.333 -71.5 78 -108.5s47.334 -74.5 68.001 -112.5c43.333 -78 79.333 -157.333 108 -238h156v-184h-1280z" />
    <glyph glyph-name="uniFEA6" unicode="&#x62e;" horiz-adv-x="1294" arabic-form="final" 
d="M767 1194c0 -34 -12.332 -62.666 -36.999 -85.999c-24.667 -24.667 -53.334 -37 -86.001 -37c-34 0 -64 11.667 -90 35c-24.667 23.333 -37 52.666 -37 87.999c0 36.667 12.333 66 37 88c24.667 24.667 54 37 88 37c32.667 0 62 -11.667 88 -35
c23.333 -23.333 35 -53.333 35 -90h2zM1187 0.000976562c-152.667 0 -248.998 68.9961 -288.998 206.996h-579l4 -209c0 -46.667 8.66699 -89.667 26 -129c19.333 -42.667 46 -79 80 -109c34 -32.667 76.333 -59 127 -79c49.333 -23.333 106.666 -37.666 171.999 -42.999
l-47 -93c-375.333 48 -563 220.667 -563 518v318h748v172c0 122.667 -84 184 -252 184c-42.667 0 -80.334 -4.66699 -113.001 -14c-18 -5.33301 -34.5 -11.166 -49.5 -17.499s-28.5 -14.166 -40.5 -23.499c-27.333 -19.333 -48 -40.666 -62 -63.999
c-14.667 -21.333 -22 -49 -22 -83h-115c0 116 43 208.667 129 278c83.333 64 183 96 299 96c118.667 0 219 -30.667 301 -92c84.667 -60 127 -138.333 127 -235v-232c0 -110.667 50 -166 150 -166h112v-184h-143z" />
    <glyph glyph-name="uniFEA7" unicode="&#x62e;" horiz-adv-x="1224" arabic-form="initial" 
d="M615 1194c0 -34 -12.334 -62.666 -37.001 -85.999c-24.667 -24.667 -54.667 -37 -90 -37c-31.333 0 -60 11.667 -86 35s-39 52.666 -39 87.999c0 36.667 12.333 66 37 88c24.667 24.667 53.334 37 86.001 37c34 0 64 -11.667 90 -35c24.667 -24.667 37 -54.667 37 -90h2z
M-26.001 0.000976562l-0.000976562 183.999h887c-12.667 28.667 -26.5 57.334 -41.5 86.001l-46.5 86l-55.5 86c-19 28.667 -39.5 58 -61.5 88c-112 153.333 -211 230 -297 230c-62.667 0 -94 -38.333 -94 -115c0 -34 10.333 -79.667 31 -137l-216 -25
c7.33301 70 20.333 130.333 39 181c20.667 52.667 45.334 97.667 74.001 135c31.333 38 66.333 66 105 84c38 20 79.667 30 125 30c158 0 317 -115.333 477 -346c147.333 -211.333 229 -400.333 245 -567h-1171z" />
    <glyph glyph-name="uniFEA8" unicode="&#x62e;" horiz-adv-x="1222" arabic-form="medial" 
d="M613 1194c0 -34 -12.334 -62.666 -37.001 -85.999c-24.667 -24.667 -54.667 -37 -90 -37c-31.333 0 -60 11.667 -86 35s-39 52.666 -39 87.999c0 36.667 12.333 66 37 88c24.667 24.667 53.334 37 86.001 37c34 0 64 -11.667 90 -35c24.667 -24.667 37 -54.667 37 -90h2z
M-28.001 0.000976562l-0.00195312 183.999h887c-12.667 28.667 -26.5 57.334 -41.5 86.001l-46.5 86l-55.5 86c-19 28.667 -39.5 58 -61.5 88c-112 153.333 -211 230 -297 230c-62.667 0 -94 -38.333 -94 -115c0 -34 10.333 -79.667 31 -137l-216 -25
c7.33301 70 20.333 130.333 39 181c20.667 52.667 45.334 97.667 74.001 135c31.333 38 66.333 66 105 84c38 20 79.667 30 125 30c142 0 282.333 -90 421 -270c27.333 -35.333 53.333 -71.5 78 -108.5s47.334 -74.5 68.001 -112.5c43.333 -78 79.333 -157.333 108 -238h156
v-184h-1280z" />
    <glyph glyph-name="uniFEAA" unicode="&#x62f;" horiz-adv-x="1009" arabic-form="final" 
d="M118 0l52.999 184.002h518l7 43v215c0 101.333 -20 180.666 -60 237.999c-35.333 52 -83 78 -143 78c-23.333 0 -44.666 -5 -63.999 -15c0 6 -0.333008 12.667 -1 20s-1.66699 15.666 -3 24.999c0 10 -0.666992 20.833 -2 32.5s-2.66602 24.167 -3.99902 37.5h7
c3.33301 0 8 0.666992 14 2c9.33301 2.66699 23.666 4.66699 42.999 6c124 0 224.333 -43.667 301 -131c77.333 -88.667 116 -197.667 116 -327v-222v-2h133v-184h-915z" />
    <glyph glyph-name="uniFEAC" unicode="&#x630;" horiz-adv-x="1009" arabic-form="final" 
d="M632 1194c0 -34 -11.668 -62.666 -35.001 -85.999c-23.333 -24.667 -52.666 -37 -87.999 -37c-34 0 -64 11.667 -90 35c-24.667 23.333 -37 52.666 -37 87.999c0 36.667 12.333 66 37 88c24.667 24.667 54.667 37 90 37c31.333 0 60 -11.667 86 -35
c24.667 -24.667 37 -54.667 37 -90zM125.999 0.000976562l52.999 184.002h518l7 43v215c0 101.333 -20 180.666 -60 237.999c-35.333 52 -83 78 -143 78c-23.333 0 -44.666 -5 -63.999 -15c0 6 -0.333008 12.667 -1 20s-1.66699 15.666 -3 24.999
c0 10 -0.666992 20.833 -2 32.5s-2.66602 24.167 -3.99902 37.5h7c3.33301 0 8 0.666992 14 2c9.33301 2.66699 23.666 4.66699 42.999 6c124 0 224.333 -43.667 301 -131c77.333 -88.667 116 -197.667 116 -327v-222v-2h133v-184h-915z" />
    <glyph glyph-name="uniFEAE" unicode="&#x631;" horiz-adv-x="696" arabic-form="final" 
d="M566 0c-41.333 0 -75.667 4.66699 -103 14c-24.667 -237.333 -170.667 -393 -438 -467l-45 80c190 58.667 285 190.667 285 396l-2 514l-41 274l243 55v-512c0 -113.333 50 -170 150 -170h115v-184h-164z" />
    <glyph glyph-name="uniFEB0" unicode="&#x632;" horiz-adv-x="696" arabic-form="final" 
d="M451 1194c0 -34 -12.334 -62.666 -37.001 -85.999c-24.667 -24.667 -54 -37 -88 -37c-32.667 0 -62 11.667 -88 35c-24.667 23.333 -37 52.666 -37 87.999c0 36.667 12.333 66 37 88c24.667 24.667 53.334 37 86.001 37s62 -11.667 88 -35
c24.667 -24.667 37 -54.667 37 -90h2zM567.999 0.000976562c-41.333 0 -75.667 4.66699 -103 14c-24.667 -237.333 -170.667 -393 -438 -467l-45 80c190 60 284.333 192 283 396v514l-43 274l243 55v-512c0 -113.333 50 -170 150 -170h117v-184h-164z" />
    <glyph glyph-name="uniFEB2" unicode="&#x633;" horiz-adv-x="2525" arabic-form="final" 
d="M2451 0c-82 0 -150.333 20.334 -205 61.001c-51.333 -40.667 -116 -61 -194 -61c-108 0 -199.667 39 -275 117c-56 -78 -138.333 -117 -247 -117c-89.333 0 -167.333 27.333 -234 82c-9.33301 -158.667 -64 -291.667 -164 -399
c-109.333 -116.667 -260.666 -175 -453.999 -175c-196.667 0 -344.334 64.333 -443.001 193c-92.667 117.333 -139 280.333 -139 489v398h201v-389c0 -170.667 35.333 -306 106 -406c71.333 -98 171 -147 299 -147c109.333 0 200.333 46.333 273 139
c39.333 49.333 68.5 106.666 87.5 171.999s28.5 139 28.5 221v602l205 49v-577c50.667 -46.667 110 -70 178 -70c97.333 0 146 54 146 162v397l202 45v-528c50.667 -50.667 109.667 -76 177 -76c98 0 147 54 147 162v201l-41 266l244 55v-522c0 -106.667 49 -160 147 -160
h64v-184h-109z" />
    <glyph glyph-name="uniFEB3" unicode="&#x633;" horiz-adv-x="1669" arabic-form="initial" 
d="M1569 297c0 -90 -26.3311 -161.667 -78.998 -215c-54.667 -54.667 -127.334 -82 -218.001 -82c-108.667 0 -200.667 39 -276 117c-56 -78 -138.667 -117 -248 -117c-106.667 0 -199.334 41 -278.001 123c-8.66699 -11.333 -15 -19 -19 -23c-2.66699 -4 -6 -8 -10 -12
l-10 -10c-56 -52 -129 -78 -219 -78h-238v184h188c97.333 0 146.666 54 147.999 162l4 395l201 45v-510v-22c51.333 -48 112 -72 182 -72c96.667 0 145 54 145 162v397l201 45v-528c50.667 -50.667 109.334 -76 176.001 -76c97.333 0 146 54 146 162v201l-37 266l241 55
v-569v0z" />
    <glyph glyph-name="uniFEB4" unicode="&#x633;" horiz-adv-x="1746" arabic-form="medial" 
d="M1668 0c-82 0 -150.333 20.333 -205 61c-52 -40.667 -117 -61 -195 -61c-107.333 0 -198.666 39 -273.999 117c-56 -78 -138.667 -117 -248 -117c-104 -0 -196 40.333 -276 121c-2.66699 -2.66699 -5.83398 -6.16699 -9.50098 -10.5s-6.83398 -7.83301 -9.50098 -10.5
c-4 -4 -7.66699 -8 -11 -12s-6.33301 -7.33301 -9 -10c-58.667 -52 -131.667 -78 -219 -78h-240v184h188c98.667 0 148 54 148 162l4 395l201 45v-510v-24c50 -46.667 109.333 -70 178 -70c96.667 0 145 54 145 162v397l203 45v-528c50.667 -50.667 109.334 -76 176.001 -76
c98.667 0 148 54 148 162v201l-41 266l243 55v-522c0 -106.667 49.333 -160 148 -160h63v-184h-108z" />
    <glyph glyph-name="uniFEB6" unicode="&#x634;" horiz-adv-x="2525" arabic-form="final" 
d="M2436 0c-82 0 -150.333 20.334 -205 61.001c-51.333 -40.667 -116 -61 -194 -61c-108 0 -199.667 39 -275 117c-56 -78 -138.333 -117 -247 -117c-89.333 0 -167.333 27.333 -234 82c-9.33301 -158.667 -64 -291.667 -164 -399
c-109.333 -116.667 -260.666 -175 -453.999 -175c-196.667 0 -344.334 64.333 -443.001 193c-92.667 117.333 -139 280.333 -139 489v398h201v-389c0 -170.667 35.333 -306 106 -406c71.333 -98 171 -147 299 -147c109.333 0 200.333 46.333 273 139
c39.333 49.333 68.5 106.666 87.5 171.999s28.5 139 28.5 221v602l205 49v-577c50.667 -46.667 110 -70 178 -70c97.333 0 146 54 146 162v397l202 45v-528c50.667 -50.667 109.667 -76 177 -76c98 0 147 54 147 162v201l-41 266l244 55v-522c0 -106.667 49 -160 147 -160
h64v-184h-109zM1648 1194c0 -34 -12.333 -62.667 -37 -86c-24.667 -24.667 -54 -37 -88 -37s-64 11.667 -90 35s-39 53.333 -39 90c0 34 13 62.667 39 86c24.667 24.667 54 37 88 37c32.667 0 62 -11.667 88 -35c24.667 -24.667 37 -54.667 37 -90h2zM1975 1194
c0 -34 -12.001 -62.667 -36.001 -86c-24.667 -24.667 -55 -37 -91 -37c-32.667 0 -62 11.667 -88 35s-39 53.333 -39 90c0 34 13 62.667 39 86c24.667 24.667 53.334 37 86.001 37c34.667 0 64.667 -11.667 90 -35c26 -26 39 -56 39 -90zM1810 1511
c0 -32.667 -12.334 -61.334 -37.001 -86.001c-24.667 -24 -54 -36 -88 -36c-33.333 0 -62.666 11.333 -87.999 34c-24.667 24.667 -37 54 -37 88c0 34.667 12.333 64 37 88c24 26 52.667 39 86 39c35.333 0 65.333 -12 90 -36c22.667 -23.333 34 -53.666 34 -90.999h3z" />
    <glyph glyph-name="uniFEB7" unicode="&#x634;" horiz-adv-x="1669" arabic-form="initial" 
d="M1571 297c0 -90 -26.3311 -161.667 -78.998 -215c-54.667 -54.667 -127.334 -82 -218.001 -82c-108.667 0 -200.667 39 -276 117c-56 -78 -138.667 -117 -248 -117c-106.667 0 -199.334 41 -278.001 123c-8.66699 -11.333 -15 -19 -19 -23c-2.66699 -4 -6 -8 -10 -12
l-10 -10c-56 -52 -129 -78 -219 -78h-238v184h188c97.333 0 146.666 54 147.999 162l4 395l201 45v-510v-22c51.333 -48 112 -72 182 -72c96.667 0 145 54 145 162v397l201 45v-528c50.667 -50.667 109.334 -76 176.001 -76c97.333 0 146 54 146 162v201l-37 266l241 55
v-569zM883.002 1194c0 -34 -11.667 -62.667 -35 -86c-24 -24.667 -54 -37 -90 -37c-32.667 0 -62 11.667 -88 35c-26 22 -39 52 -39 90c0 35.333 12.333 64 37 86c26 24.667 56 37 90 37c31.333 0 60 -11.667 86 -35c26 -24.667 39 -54.667 39 -90zM1211 1194
c0 -34 -12.333 -62.667 -37 -86c-24.667 -24.667 -54.667 -37 -90 -37c-31.333 0 -60 11.667 -86 35c-26 22 -39 52 -39 90c0 35.333 12.333 64 37 86c26 24.667 55.333 37 88 37s62 -11.667 88 -35c26 -24.667 39 -54.667 39 -90zM1045 1511
c0 -31.333 -11.666 -59.999 -34.999 -85.999c-24.667 -24 -54.667 -36 -90 -36c-34 0 -62.667 11.333 -86 34c-24.667 24.667 -37 54 -37 88c0 33.333 11.667 62.666 35 87.999c24.667 26 54 39 88 39c35.333 0 64.666 -12 87.999 -36c24.667 -24.667 37 -55 37 -91z" />
    <glyph glyph-name="uniFEB8" unicode="&#x634;" horiz-adv-x="1746" arabic-form="medial" 
d="M1668 0c-82 0 -150.333 20.333 -205 61c-52 -40.667 -117 -61 -195 -61c-107.333 0 -198.666 39 -273.999 117c-56 -78 -138.667 -117 -248 -117c-104 -0 -196 40.333 -276 121c-2.66699 -2.66699 -5.83398 -6.16699 -9.50098 -10.5s-6.83398 -7.83301 -9.50098 -10.5
c-4 -4 -7.66699 -8 -11 -12s-6.33301 -7.33301 -9 -10c-58.667 -52 -131.667 -78 -219 -78h-240v184h188c98.667 0 148 54 148 162l4 395l201 45v-510v-24c50 -46.667 109.333 -70 178 -70c96.667 0 145 54 145 162v397l203 45v-528c50.667 -50.667 109.334 -76 176.001 -76
c98.667 0 148 54 148 162v201l-41 266l243 55v-522c0 -106.667 49.333 -160 148 -160h63v-184h-108zM879 1194c0 -34 -12.333 -62.667 -37 -86c-24 -24.667 -53.333 -37 -88 -37c-34 0 -64 11.667 -90 35s-39 53.333 -39 90c0 34 13 62.667 39 86c24.667 24.667 54 37 88 37
c32.667 0 62 -11.667 88 -35c24.667 -24.667 37 -54.667 37 -90h2zM1207 1194c0 -34 -12.334 -62.667 -37.001 -86c-24.667 -24.667 -54.667 -37 -90 -37c-32.667 0 -62 11.667 -88 35s-39 53.333 -39 90c0 34 13 62.667 39 86c24.667 24.667 53.334 37 86.001 37
c34 0 64 -11.667 90 -35c26 -26 39 -56 39 -90zM1041 1511c0 -32.667 -12.334 -61.334 -37.001 -86.001c-24.667 -24 -54 -36 -88 -36c-32.667 0 -62 11.333 -88 34c-24.667 24.667 -37 54 -37 88c0 34.667 12.333 64 37 88c24.667 26 53.334 39 86.001 39
c35.333 0 65.333 -12 90 -36c23.333 -23.333 35 -53.666 35 -90.999h2z" />
    <glyph glyph-name="uniFEBA" unicode="&#x635;" horiz-adv-x="2770" arabic-form="final" 
d="M1286 0c-10.667 -65.333 -28.999 -123.999 -54.999 -175.999s-59 -99 -99 -141c-112 -116.667 -263.333 -175 -454 -175c-196.667 0 -344.334 64.333 -443.001 193c-92.667 117.333 -139 280.333 -139 489v398h201v-389c0 -170.667 35.333 -306 106 -406
c71.333 -98 171 -147 299 -147c109.333 0 200.333 46.333 273 139c39.333 49.333 68.5 106.666 87.5 171.999s28.5 139 28.5 221v602l205 49v-602l78 92c226.667 358 473.667 537 741 537c146 0 265 -33.333 357 -100c92.667 -64.667 139 -155.667 139 -273v-299h186v-184
h-1511zM2408 451.001c0 155.333 -112 233 -336 233c-124 0 -252.333 -69.667 -385 -209c-107.333 -112 -176.333 -209 -207 -291h928v267z" />
    <glyph glyph-name="uniFEBB" unicode="&#x635;" horiz-adv-x="1830" arabic-form="initial" 
d="M236 0h-14h-240v184h188c98.667 0 148 54 148 162l4 395l201 45v-413c216.667 322 452 483 706 483c146 0 265 -33.333 357 -100c92.667 -64.667 139 -155.667 139 -273v-483h-1489zM1522 451c0 155.333 -112 233 -336 233c-124 0 -252.333 -69.667 -385 -209
c-108 -112 -177 -209 -207 -291h928v267z" />
    <glyph glyph-name="uniFEBC" unicode="&#x635;" horiz-adv-x="1892" arabic-form="medial" 
d="M230 0h-19.999h-238v184h188c97.333 0 146.666 54 147.999 162l4 395l201 45v-448c222 345.333 465 518 729 518c143.333 0 262 -33.333 356 -100c92.667 -66 139 -157 139 -273v-299h185v-184h-1692zM1533 451c0 155.333 -112.001 233 -336.001 233
c-124.667 0 -253 -69.667 -385 -209c-105.333 -109.333 -173.666 -206.333 -204.999 -291h926v267z" />
    <glyph glyph-name="uniFEBE" unicode="&#x636;" horiz-adv-x="2770" arabic-form="final" 
d="M1286 0c-10.667 -65.333 -28.999 -123.999 -54.999 -175.999s-59 -99 -99 -141c-112 -116.667 -263.333 -175 -454 -175c-196.667 0 -344.334 64.333 -443.001 193c-92.667 117.333 -139 280.333 -139 489v398h201v-389c0 -170.667 35.333 -306 106 -406
c71.333 -98 171 -147 299 -147c109.333 0 200.333 46.333 273 139c39.333 49.333 68.5 106.666 87.5 171.999s28.5 139 28.5 221v602l205 49v-602l78 92c226.667 358 473.667 537 741 537c146 0 265 -33.333 357 -100c92.667 -64.667 139 -155.667 139 -273v-299h186v-184
h-1511zM2408 451.001c0 155.333 -112 233 -336 233c-124 0 -252.333 -69.667 -385 -209c-107.333 -112 -176.333 -209 -207 -291h928v267zM2199 1194c0 -34 -12.334 -62.666 -37.001 -85.999c-24 -24.667 -54 -37 -90 -37c-31.333 0 -60 11.667 -86 35
s-39 52.666 -39 87.999c0 36.667 12.333 66 37 88c24.667 24.667 53.334 37 86.001 37c34 0 64 -11.667 90 -35c24.667 -24.667 37 -54.667 37 -90h2z" />
    <glyph glyph-name="uniFEBF" unicode="&#x636;" horiz-adv-x="1830" arabic-form="initial" 
d="M230 0h-14h-240v184h188c98.667 0 148 54 148 162l4 395l201 45v-413c216.667 322 452 483 706 483c146 0 265 -33.333 357 -100c92.667 -64.667 139 -155.667 139 -273v-483h-1489zM1516 451c0 155.333 -112 233 -336 233c-124 0 -252.333 -69.667 -385 -209
c-108 -112 -177 -209 -207 -291h928v267zM1307 1194c0 -34 -12.334 -62.666 -37.001 -85.999c-24.667 -24.667 -54.667 -37 -90 -37c-31.333 0 -60 11.667 -86 35s-39 52.666 -39 87.999c0 36.667 12.333 66 37 88c24.667 24.667 53.334 37 86.001 37
c34 0 64 -11.667 90 -35c24.667 -24.667 37 -54.667 37 -90h2z" />
    <glyph glyph-name="uniFEC0" unicode="&#x636;" horiz-adv-x="1892" arabic-form="medial" 
d="M230 0h-19.999h-238v184h188c97.333 0 146.666 54 147.999 162l4 395l201 45v-448c222 345.333 465 518 729 518c143.333 0 262 -33.333 356 -100c92.667 -66 139 -157 139 -273v-299h185v-184h-1692zM1533 451c0 155.333 -112.001 233 -336.001 233
c-124.667 0 -253 -69.667 -385 -209c-105.333 -109.333 -173.666 -206.333 -204.999 -291h926v267zM1324 1194c0 -34 -12.334 -62.666 -37.001 -85.999c-24.667 -24.667 -54.667 -37 -90 -37c-31.333 0 -60 11.667 -86 35c-24.667 23.333 -37 52.666 -37 87.999
c0 36.667 12.333 66 37 88c24.667 24.667 53.334 37 86.001 37c34 0 64 -11.667 90 -35c24.667 -24.667 37 -54.667 37 -90z" />
    <glyph glyph-name="uniFEC2" unicode="&#x637;" horiz-adv-x="1900" arabic-form="final" 
d="M108 0l25 213l235 -29c0 4 -0.333008 23.5 -1 58.5s-1 85.833 -1 152.5v588l-33 252l260 22l-24 -270v-594c31.333 56 68.5 109 111.5 159s93.167 98.667 150.5 146c143.333 116 279 174 407 174c148 0 266.333 -33.333 355 -100c92.667 -66.667 139 -158 139 -274v-314
h195v-184h-1819zM1527 465c0 155.333 -109.667 233.001 -329 233.001c-119.333 0 -251.333 -69.667 -396 -209c-124 -118.667 -201 -220.334 -231 -305.001h956v281z" />
    <glyph glyph-name="uniFEC3" unicode="&#x637;" horiz-adv-x="1724" arabic-form="initial" 
d="M-34 0v184.003h305v799l-33 252l258 22l-24 -270v-594c31.333 57.333 68.833 110.666 112.5 159.999s94.167 97.666 151.5 144.999c71.333 57.333 140.333 100.666 207 129.999s133.667 44 201 44c146 0 263.333 -33.333 352 -100c92.667 -66.667 139 -158 139 -274v-498
h-1669zM1430 465.003c0 155.333 -109.667 233.001 -329 233.001c-118 0 -249.333 -69.667 -394 -209c-124 -118.667 -201 -220.334 -231 -305.001h954v281z" />
    <glyph glyph-name="uniFEC4" unicode="&#x637;" horiz-adv-x="1806" arabic-form="medial" 
d="M-28 0v184.003h307v799l-35 252l258 22l-24 -270v-594c31.333 57.333 68.833 110.666 112.5 159.999s94.167 97.666 151.5 144.999c71.333 57.333 140.333 100.666 207 129.999s133.667 44 201 44c146 0 263.333 -33.333 352 -100c92.667 -66.667 139 -158 139 -274v-314
h195v-184h-1864zM1436 465.003c0 155.333 -109.667 232.999 -329 232.999c-118 0 -249.333 -69.667 -394 -209c-64 -60 -113.667 -114.333 -149 -163c-36.667 -49.333 -64 -96.666 -82 -141.999h954v281z" />
    <glyph glyph-name="uniFEC6" unicode="&#x638;" horiz-adv-x="1900" arabic-form="final" 
d="M1349 1194c0 -34 -12.334 -62.665 -37.001 -85.998c-24.667 -24.667 -54.667 -37 -90 -37c-32.667 0 -62 11.667 -88 35s-39 52.666 -39 87.999s13 64.666 39 87.999c24.667 24.667 53.334 37 86.001 37c34 0 64 -11.667 90 -35c24.667 -24.667 37 -54.667 37 -90h2z
M113.999 0.00195312l25 213l235 -29c0 4 -0.333008 23.5 -1 58.5s-1 85.833 -1 152.5v588l-33 252l260 22l-24 -270v-594c31.333 56 68.5 109 111.5 159s93.167 98.667 150.5 146c143.333 116 279 174 407 174c148 0 266.333 -33.333 355 -100
c92.667 -66.667 139 -158 139 -274v-314h195v-184h-1819zM1533 465.002c0 155.333 -109.667 233.001 -329 233.001c-119.333 0 -251.333 -69.667 -396 -209c-124 -118.667 -201 -220.334 -231 -305.001h956v281z" />
    <glyph glyph-name="uniFEC7" unicode="&#x638;" horiz-adv-x="1724" arabic-form="initial" 
d="M1244 1194c0 -34 -12.333 -62.665 -37 -85.998c-24.667 -24.667 -54 -37 -88 -37s-64 11.667 -90 35s-39 52.666 -39 87.999s13 64.666 39 87.999c24.667 24.667 54 37 88 37c32.667 0 62 -11.667 88 -35c24.667 -24.667 37 -54.667 37 -90h2zM-36 0.00195312v184.003
h305v799l-33 252l258 22l-24 -270v-594c31.333 57.333 68.833 110.666 112.5 159.999s94.167 97.666 151.5 144.999c71.333 57.333 140.333 100.666 207 129.999s133.667 44 201 44c146 0 263.333 -33.333 352 -100c94 -66.667 141 -158 141 -274v-498h-1671zM1428 465.005
c0 155.333 -109.667 233.001 -329 233.001c-118 0 -249.333 -69.667 -394 -209c-124 -118.667 -201 -220.334 -231 -305.001h954v281z" />
    <glyph glyph-name="uniFEC8" unicode="&#x638;" horiz-adv-x="1806" arabic-form="medial" 
d="M1252 1194c0 -34 -12.334 -62.666 -37.001 -85.999c-24.667 -24.667 -54 -37 -88 -37c-32.667 0 -62 11.667 -88 35c-24.667 23.333 -37 52.666 -37 87.999c0 36.667 12.333 66 37 88c24.667 24.667 53.334 37 86.001 37c34 0 64 -11.667 90 -35
c23.333 -23.333 35 -53.333 35 -90h2zM-28.001 0.000976562v184.003h307v799l-35 252l258 22l-24 -270v-594c31.333 57.333 68.833 110.666 112.5 159.999s94.167 97.666 151.5 144.999c71.333 57.333 140.333 100.666 207 129.999s133.667 44 201 44
c146 0 263.333 -33.333 352 -100c92.667 -66.667 139 -158 139 -274v-314h195v-184h-1864zM1436 465.004c0 155.333 -109.667 232.999 -329 232.999c-118 0 -249.333 -69.667 -394 -209c-64 -60 -113.667 -114.333 -149 -163c-36.667 -49.333 -64 -96.666 -82 -141.999h954
v281z" />
    <glyph glyph-name="uniFECA" unicode="&#x639;" horiz-adv-x="1196" arabic-form="final" 
d="M1042 0c-110.667 0 -235.001 69.001 -373.001 207.001l-20.5 21.5c-7 7.66699 -15.167 15.5 -24.5 23.5l-30.5 30.5l-35.5 36.5l-176 -122c-61.333 -42.667 -92.666 -95.334 -93.999 -158.001c-5.33301 -108 35.667 -199.667 123 -275
c73.333 -62.667 172.333 -101.334 297 -116.001l-60 -92c-147.333 16 -268 56.667 -362 122c-122.667 83.333 -189 201 -199 353c-8 124 44.667 224.333 158 301c6.66699 6.66699 24.667 19.834 54 39.501l122 81.5c-18 16 -36.5 33.667 -55.5 53s-40.167 39 -63.5 59
l-70 70l-81 78c0 92.667 47.667 176 143 250c95.333 73.333 210.666 110 345.999 110c132.667 0 246.667 -37.333 342 -112c96 -76.667 144 -160 144 -250l-418 -289l69.5 -67l85.5 -83c60.667 -58.667 122.334 -88 185.001 -88h184v-184h-190zM891.999 772.001
c-40.667 76.667 -125.333 115 -254 115c-16 0 -31.833 -0.666992 -47.5 -2s-31.167 -3.33301 -46.5 -6l-42 -13c-12.667 -4 -24.667 -9.33301 -36 -16c-22 -10.667 -41.667 -25 -59 -43c-15.333 -19.333 -25 -40 -29 -62l195 -188z" />
    <glyph glyph-name="uniFECB" unicode="&#x639;" horiz-adv-x="1165" arabic-form="initial" 
d="M-24 0l-0.00195312 184h369c-54.667 71.333 -82 158 -82 260c0 64.667 9.83301 122.5 29.5 173.5s47.834 97.167 84.501 138.5c78 80.667 175.667 120 293 118c114.667 -2.66699 235.667 -51 363 -145l-78 -92c-79.333 52 -158.666 78 -237.999 78
c-168 0 -252 -95.667 -252 -287c0 -76.667 23.333 -138 70 -184c41.333 -40 92 -60 152 -60h106l266 29l27 -213h-1110z" />
    <glyph glyph-name="uniFECC" unicode="&#x639;" horiz-adv-x="1316" arabic-form="medial" 
d="M891 0c-58.667 0 -129.67 17.667 -213.003 53c-13.333 -8 -60.333 -10.667 -141 -8c-60 2.66699 -90 -12.333 -90 -45h-508v184h475c31.333 0 58 3 80 9l-48 42.5l-73 67.5l-97 92l-124 117c0 96.667 51.333 184 154 262c106 78 230.667 117 374 117
c146.667 0 271.667 -39.667 375 -119c98.667 -75.333 149.334 -162 152.001 -260c-11.333 -9.33301 -45.333 -40.333 -102 -93l-244 -226c6.66699 -2 13.334 -3.33301 20.001 -4s13.667 -1.66699 21 -3c6.66699 -1.33301 13.334 -2 20.001 -2h21h436v-184h-488zM985.997 549
c-8.66699 43.333 -35.3301 79.333 -79.9971 108c-60 37.333 -134.667 56 -224 56c-43.333 0 -83.833 -4.5 -121.5 -13.5s-70.834 -23.167 -99.501 -42.5c-50.667 -32.667 -79.334 -68.667 -86.001 -108l127 -121l81 -78c29.333 -28.667 61.666 -58.667 96.999 -90z" />
    <glyph glyph-name="uniFECE" unicode="&#x63a;" horiz-adv-x="1196" arabic-form="final" 
d="M775 1309c0 -34.667 -12.333 -63.333 -37 -86c-22.667 -24.667 -52 -37 -88 -37c-34 0 -64 11.667 -90 35c-24.667 22.667 -37 52.667 -37 90c0 35.333 12.333 64 37 86c26 24.667 56 37 90 37c31.333 0 60 -11.667 86 -35c26 -24.667 39 -54.667 39 -90z
M1046 0.000976562c-110.667 0 -235.001 69.001 -373.001 207.001l-20.5 21.5c-7 7.66699 -15.167 15.5 -24.5 23.5l-30.5 30.5l-35.5 36.5l-176 -122c-61.333 -42.667 -92.666 -95.334 -93.999 -158.001c-5.33301 -108 35.667 -199.667 123 -275
c73.333 -62.667 172.333 -101.334 297 -116.001l-60 -92c-147.333 16 -268 56.667 -362 122c-122.667 83.333 -189 201 -199 353c-8 124 44.667 224.333 158 301c6.66699 6.66699 24.667 19.834 54 39.501l122 81.5c-18 16 -36.5 33.667 -55.5 53s-40.167 39 -63.5 59
l-70 70l-81 78c0 92.667 47.667 176 143 250c95.333 73.333 210.666 110 345.999 110c132.667 0 246.667 -37.333 342 -112c96 -76.667 144 -160 144 -250l-418 -289l69.5 -67l85.5 -83c60.667 -58.667 122.334 -88 185.001 -88h184v-184h-190zM895.999 772.002
c-40.667 76.667 -125.333 115 -254 115c-16 0 -31.833 -0.666992 -47.5 -2s-31.167 -3.33301 -46.5 -6l-42 -13c-12.667 -4 -24.667 -9.33301 -36 -16c-22 -10.667 -41.667 -25 -59 -43c-15.333 -19.333 -25 -40 -29 -62l195 -188z" />
    <glyph glyph-name="uniFECF" unicode="&#x63a;" horiz-adv-x="1165" arabic-form="initial" 
d="M765 1194c0 -34 -12.334 -62.665 -37.001 -85.998c-24.667 -24.667 -54 -37 -88 -37c-34.667 0 -65 11.667 -91 35c-25.333 23.333 -38 52.666 -38 87.999s12.667 64.666 38 87.999c24.667 24.667 54.334 37 89.001 37c32.667 0 62 -11.667 88 -35
c24 -24.667 36 -54.667 36 -90h3zM-26.001 0.00195312l-0.00195312 184h369c-54.667 71.333 -82 158 -82 260c0 64.667 9.83301 122.5 29.5 173.5s47.834 97.167 84.501 138.5c78 80.667 175.667 120 293 118c114.667 -2.66699 235.667 -51 363 -145l-78 -92
c-79.333 52 -158.666 78 -237.999 78c-168 0 -252 -95.667 -252 -287c0 -76.667 23.333 -138 70 -184c41.333 -40 92 -60 152 -60h106l266 29l29 -213h-1112z" />
    <glyph glyph-name="uniFED0" unicode="&#x63a;" horiz-adv-x="1316" arabic-form="medial" 
d="M809 1194c0 -34 -11.999 -62.667 -35.999 -86c-24.667 -24.667 -54.334 -37 -89.001 -37c-32.667 0 -62 11.667 -88 35s-39 53.333 -39 90c0 34 13 62.667 39 86c24.667 24.667 53.334 37 86.001 37c33.333 0 62.666 -11.667 87.999 -35
c24.667 -24.667 37 -54.667 37 -90h2zM891.001 0c-58.667 0 -129.67 17.667 -213.003 53c-13.333 -8 -60.333 -10.667 -141 -8c-60 2.66699 -90 -12.333 -90 -45h-508v184h475c31.333 0 58 3 80 9l-48 42.5l-73 67.5l-97 92l-124 117c0 96.667 51.333 184 154 262
c106 78 230.667 117 374 117c146.667 0 271.667 -39.667 375 -119c98.667 -75.333 149.334 -162 152.001 -260c-11.333 -9.33301 -45.333 -40.333 -102 -93l-244 -226c6.66699 -2 13.334 -3.33301 20.001 -4s13.667 -1.66699 21 -3c6.66699 -1.33301 13.334 -2 20.001 -2h21
h436v-184h-488zM985.998 549c-8.66699 43.333 -35.3301 79.333 -79.9971 108c-60 37.333 -134.667 56 -224 56c-43.333 0 -83.833 -4.5 -121.5 -13.5s-70.834 -23.167 -99.501 -42.5c-50.667 -32.667 -79.334 -68.667 -86.001 -108l127 -121l81 -78
c29.333 -28.667 61.666 -58.667 96.999 -90z" />
    <glyph glyph-name="uniFED2" unicode="&#x641;" horiz-adv-x="1974" arabic-form="final" 
d="M1510 1194c0 -34 -12 -62.667 -36 -86c-24.667 -24.667 -54.667 -37 -90 -37c-32 0 -60.667 11.667 -86 35c-26 22 -39 52 -39 90c0 35.333 12 64 36 86c26 24.667 55.667 37 89 37c32.667 0 62 -11.667 88 -35c25.333 -24.667 38 -54.667 38 -90zM1560 0
c-7.33301 0 -64.667 8.33301 -172 25c-101.333 -16.667 -159.333 -25 -174 -25h-705c-117.333 -0 -211 40.333 -281 121c-69.333 82 -104 189 -104 321c0 102.667 26.667 199.667 80 291h182c-64 -92.667 -96 -176 -96 -250c0 -199.333 81.333 -299 244 -299h510
c-70 70 -105 159 -105 267c0 120 39.667 219 119 297c82 78.667 192 118 330 118c139.333 0 249 -40.333 329 -121c76.667 -74.667 115 -172.667 115 -294c0 -108 -34.667 -197 -104 -267h284v-184h-452zM1613 461c0 88.667 -23.999 157 -71.999 205
c-40.667 40.667 -91.667 61 -153 61c-64.667 0 -117.334 -20.333 -158.001 -61c-48 -48 -72 -116.333 -72 -205c0 -200.667 77.333 -301 232 -301c72 0 128.667 32.667 170 98c35.333 56 53 123.667 53 203z" />
    <glyph glyph-name="uniFED3" unicode="&#x641;" horiz-adv-x="950" arabic-form="initial" 
d="M632 1194c0 -34 -12.332 -62.667 -36.999 -86c-24.667 -24.667 -53.334 -37 -86.001 -37c-34 0 -64 11.667 -90 35s-39 53.333 -39 90c0 35.333 12.333 64 37 86c24 24.667 54 37 90 37c31.333 0 60 -11.667 86 -35c24.667 -24.667 37 -54.667 37 -90h2zM863.001 518
c0 -181.333 -37.668 -313 -113.001 -395c-73.333 -82 -188.666 -123 -345.999 -123h-438v184h453c136 0 211.667 41 227 123c-32.667 -16 -77.667 -24 -135 -24c-230.667 0 -346 107.667 -346 323c0 116 42.333 204 127 264c64 44 136.333 66 217 66
c116 0 204.667 -31.333 266 -94c58.667 -57.333 88 -133.333 88 -228v-96zM662 610c0 134 -48.333 201 -145 201c-100 0 -150 -73 -150 -219c0 -118.667 44.667 -178 134 -178c62.667 0 115.667 10 159 30v76v90h2z" />
    <glyph glyph-name="uniFED4" unicode="&#x641;" horiz-adv-x="1271" arabic-form="medial" 
d="M789 1194c0 -34 -12.332 -62.667 -36.999 -86c-24.667 -24.667 -53.334 -37 -86.001 -37c-34 0 -64 11.667 -90 35c-24.667 23.333 -37 53.333 -37 90c0 35.333 12.333 64 37 86c24.667 24.667 54.667 37 90 37c31.333 0 60 -11.667 86 -35
c24.667 -24.667 37 -54.667 37 -90zM838.001 0c-6.66699 0 -64 8.33301 -172 25c-100.667 -16.667 -158.667 -25 -174 -25h-514v184h346c-69.333 70 -104 159 -104 267c0 120 39.333 219 118 297c82 78.667 191.333 118 328 118s246 -39.333 328 -118
c79.333 -78 119 -177 119 -297c0 -108 -35.667 -197 -107 -267h289v-184h-457zM893.001 461c0 87.333 -24.334 155.667 -73.001 205c-41.333 40.667 -92.666 61 -153.999 61c-62.667 0 -114.667 -20.333 -156 -61c-47.333 -48 -71 -116.333 -71 -205
c0 -200.667 76.333 -301 229 -301c74 0 131.333 32.667 172 98c35.333 56 53 123.667 53 203z" />
    <glyph glyph-name="uniFED6" unicode="&#x642;" horiz-adv-x="1490" arabic-form="final" 
d="M1265 1194c0 -34 -12.332 -62.667 -36.999 -86c-24.667 -24.667 -53.334 -37 -86.001 -37c-34 0 -64 11.667 -90 35c-24.667 23.333 -37 53.333 -37 90c0 35.333 12.333 64 37 86c24.667 24.667 54.667 37 90 37c31.333 0 60 -11.667 86 -35
c24.667 -24.667 37 -54.667 37 -90zM937.001 1194c0 -34 -11.668 -62.667 -35.001 -86c-24.667 -24.667 -54 -37 -88 -37c-35.333 0 -64.666 11.667 -87.999 35c-24.667 23.333 -37 53.333 -37 90c0 34 11.667 62.667 35 86c24.667 24.667 54.667 37 90 37
c34 0 62.667 -11.667 86 -35c24.667 -24.667 37 -54.667 37 -90zM1293 0c-9.33301 -136.667 -59.002 -244.666 -149.002 -323.999c-96.667 -84.667 -227 -127 -391 -127c-203.333 0 -359.666 56.667 -468.999 170c-108 112 -162 272.667 -162 482v188h199v-182
c0 -178.667 43.667 -314 131 -406c77.333 -80 183 -120 317 -120c196.667 0 302.667 106.333 318 319h-203c-54.667 0 -104 9 -148 27c-47.333 18.667 -86.666 43.667 -117.999 75c-36 37.333 -61.333 79 -76 125c-19.333 50.667 -29 106 -29 166
c0 147.333 43.667 262.666 131 345.999c88.667 84.667 204.667 127 348 127h301v-682h234v-184h-234zM979.998 727.001c-172 0 -258 -99.667 -258 -299c0 -162.667 64.333 -244 193 -244h172v543h-107z" />
    <glyph glyph-name="uniFED7" unicode="&#x642;" horiz-adv-x="950" arabic-form="initial" 
d="M805 1194c0 -34 -12 -62.667 -36 -86c-24.667 -24.667 -54 -37 -88 -37c-33.333 0 -63 11.667 -89 35c-25.333 23.333 -38 53.333 -38 90c0 35.333 12 64 36 86c24.667 24.667 54 37 88 37c33.333 0 63 -11.667 89 -35c24 -24.667 36 -54.667 36 -90h2zM480 1194
c0 -34 -12.334 -62.667 -37.001 -86c-24.667 -24.667 -54.667 -37 -90 -37c-32.667 0 -62 11.667 -88 35s-39 53.333 -39 90c0 34 13 62.667 39 86c24.667 24.667 53.334 37 86.001 37c34 0 64 -11.667 90 -35c24.667 -24.667 37 -54.667 37 -90h2zM872.999 518
c0 -181.333 -37.668 -313 -113.001 -395c-73.333 -82 -188.666 -123 -345.999 -123h-438v184h453c136 0 211.667 41 227 123c-32.667 -16 -77.667 -24 -135 -24c-230.667 0 -346 107.667 -346 323c0 116 42.333 204 127 264c64 44 136.333 66 217 66
c116 0 204.667 -31.333 266 -94c58.667 -57.333 88 -133.333 88 -228v-96zM671.998 610c0 134 -48.333 201 -145 201c-100 0 -150 -73 -150 -219c0 -118.667 44.667 -178 134 -178c62.667 0 115.667 10 159 30v76v90h2z" />
    <glyph glyph-name="uniFED8" unicode="&#x642;" horiz-adv-x="1271" arabic-form="medial" 
d="M957 1194c0 -34 -11.667 -62.666 -35 -85.999c-24.667 -24.667 -54.667 -37 -90 -37c-32.667 0 -62 11.667 -88 35c-24.667 23.333 -37 52.666 -37 87.999c0 36.667 12.333 66 37 88c24.667 24.667 54 37 88 37c32.667 0 62 -11.667 88 -35
c24.667 -24.667 37 -54.667 37 -90zM631 1194c0 -34 -12.332 -62.667 -36.999 -86c-24 -24.667 -54 -37 -90 -37c-31.333 0 -60 11.667 -86 35c-26 22 -39 51.333 -39 88s12.333 66 37 88c26 24.667 55.333 37 88 37c33.333 0 62.666 -11.667 87.999 -35
c26 -24.667 39 -54.667 39 -90zM840.001 0.000976562c-6.66699 0 -64 8.33301 -172 25c-100.667 -16.667 -158.667 -25 -174 -25h-518v184h350c-69.333 70 -104 159 -104 267c0 120 39.667 219 119 297c81.333 78.667 190.333 118 327 118s246 -39.333 328 -118
c79.333 -78 119 -177 119 -297c0 -108 -35.667 -197 -107 -267h289v-184h-457zM896.001 461.001c0 87.333 -24.667 155.667 -74 205c-41.333 40.667 -92.666 61 -153.999 61c-62.667 0 -114.334 -20.333 -155.001 -61c-48 -48 -72 -116.333 -72 -205
c0 -200.667 76.333 -301 229 -301c74 0 131.333 32.667 172 98c36 56 54 123.667 54 203z" />
    <glyph glyph-name="uniFEDE" unicode="&#x644;" horiz-adv-x="1560" arabic-form="final" 
d="M1412 0c-44.667 0 -81.332 4.66699 -109.999 14c-28.667 -143.333 -95.667 -256.666 -201 -339.999c-104 -83.333 -240.333 -125 -409 -125c-195.333 0 -343 61 -443 183c-90 110.667 -135 267 -135 469v379h201v-371c0 -165.333 35.333 -294.333 106 -387
c71.333 -94 171 -141 299 -141c105.333 0 197 46.333 275 139c77.333 91.333 116 214.666 116 369.999v797l-43 275l244 57v-883c0 -96.667 11.667 -162.667 35 -198c23.333 -36 61.666 -54 114.999 -54h127v-184h-177z" />
    <glyph glyph-name="uniFEDF" unicode="&#x644;" horiz-adv-x="743" arabic-form="initial" 
d="M656 305c0 -94 -27.333 -168.333 -82 -223s-129 -82 -223 -82h-385v184h334c100.667 0 151 56 151 168v652l-36 270l239 57v-1026h2z" />
    <glyph glyph-name="uniFEE0" unicode="&#x644;" horiz-adv-x="727" arabic-form="medial" 
d="M619 0c-84.667 0 -152.333 21 -203 63c-50 -42 -114.667 -63 -194 -63h-250v184h197c98 0 147 56 147 168v637l-39 275l244 55v-967c0 -112 49 -168 147 -168h88v-184h-137z" />
    <glyph glyph-name="uniFEE2" unicode="&#x645;" horiz-adv-x="1652" arabic-form="final" 
d="M1499 0c-104 0 -182.332 27.333 -234.999 82c-76.667 -54.667 -184.667 -82 -324 -82h-498c-99.333 0 -149 -51.333 -149 -154v-266l-205 137v185c0 86 27.333 155 82 207c52 50 125.667 75 221 75h289c-42.667 72.667 -64 145.667 -64 219c0 152 45.333 273.667 136 365
c90 91.333 213.333 137 370 137c49.333 0 98.166 -4 146.499 -12s97.833 -19.667 148.5 -35l-22 -213v-272c0 -126 49.667 -189 149 -189h143v-184h-188zM1186 750c-28.667 9.33301 -64.333 14.001 -107 14.001c-173.333 0 -260 -107.333 -260 -322
c0 -172 58.667 -258 176 -258c146 0 219 91.667 219 275v35.5c0 13 -0.666992 27.167 -2 42.5c-1.33301 27.333 -5.33301 58.666 -12 93.999z" />
    <glyph glyph-name="uniFEE3" unicode="&#x645;" horiz-adv-x="1103" arabic-form="initial" 
d="M1010 645l-0.000976562 -285c0 -240 -153 -360 -459 -360h-573v184h313c-42 72.667 -63 145.667 -63 219c0 152 45 273.667 135 365s213.667 137 371 137c48.667 0 97.334 -4 146.001 -12s97.667 -19.667 147 -35zM796.999 750
c-27.333 9.33301 -62.667 14.001 -106 14.001c-173.333 0 -260 -107.333 -260 -322c0 -172 58.667 -258 176 -258c146 0 219 91.667 219 275v35.5c0 13 -0.666992 27.167 -2 42.5c-1.33301 27.333 -5.33301 58.666 -12 93.999z" />
    <glyph glyph-name="uniFEE4" unicode="&#x645;" horiz-adv-x="1277" arabic-form="medial" 
d="M1160 0c-79.333 0 -144.333 20.999 -195 62.999c-100.667 -118.667 -221.334 -178 -362.001 -178c-114.667 0 -202 50.667 -262 152c-45.333 -24.667 -96.666 -37 -153.999 -37h-215v184h158c91.333 0 138.333 45 141 135c5.33301 148 53 263.667 143 347
c88.667 83.333 211.667 125 369 125c49.333 0 98.5 -4.16699 147.5 -12.5s99.5 -20.166 151.5 -35.499l-27 -213v-184c0 -108 50 -162 150 -162h102v-184h-147zM855 519.999l-16.999 115c-27.333 9.33301 -60 14 -98 14c-172 0 -258 -107 -258 -321
c0 -86 16.333 -153 49 -201c32.667 -49.333 73.667 -74 123 -74c75.333 0 141.666 30.667 198.999 92z" />
    </font>
</defs>
</svg>
