<?xml version="1.0" standalone="no"?>
<!DOCTYPE svg PUBLIC "-//W3C//DTD SVG 1.1//EN" "http://www.w3.org/Graphics/SVG/1.1/DTD/svg11.dtd" >
<svg>
<metadata>
Created by FontForge 20090914 at Wed Oct 19 01:08:56 2011
 By www-data
(c) by Abolfazl Seilsepour - +98 912 591 3420  -  seilsepor@yahoo.com
</metadata>
<defs>
<font id="FarEgypt" horiz-adv-x="0" >
  <font-face 
    font-family="Far.Egypt"
    font-weight="400"
    font-stretch="normal"
    units-per-em="2048"
    panose-1="0 0 4 0 0 0 0 0 0 0"
    ascent="1638"
    descent="-410"
    bbox="-211 -1238 1978 2287"
    underline-thickness="60"
    underline-position="-650"
    unicode-range="U+0020-U+FEFC"
  />
<missing-glyph horiz-adv-x="1024" 
d="M128 -150v1343h768v-1343h-768zM256 -22h512v1087h-512v-1087z" />
    <glyph glyph-name="uniE818" unicode="&#x651;&#x64b;" 
d="M519 1926l-377 -155v114l377 150v-109zM555 1592c0 -40.667 -11.667 -75.667 -35 -105c-28 -32.667 -64 -49 -108 -49c-46 0 -78 16 -96 48c-27.333 -33.333 -68 -50 -122 -50c-38 0 -69 17.667 -93 53c-18 26.667 -27 52.667 -27 78c0 22 6.33301 46.333 19 73
c16.667 36.667 38 55 64 55c19.333 0 29 -10.333 29 -31c0 -6 -0.833008 -15.5 -2.5 -28.5s-2.5 -22.5 -2.5 -28.5c0 -28 11 -42 33 -42c25.333 0 43 10.333 53 31c2.66699 5.33301 9 29.666 19 72.999c4 20 16.667 30 38 30s33 -11 35 -33c8 -71.333 25.667 -107 53 -107
c25.333 0 38 15.333 38 46c0 14.667 -3.33301 33.334 -10 56.001l79 63c24 -37.333 36 -81.333 36 -132zM519 2139l-377 -155v114l377 148v-107z" />
    <glyph glyph-name="uniFC5E" unicode="&#x651;&#x64c;" arabic-form="isolated" 
d="M524 1731c0 -40.667 -11.6641 -75.335 -34.9971 -104.002c-28 -33.333 -64 -50 -108 -50c-46.667 0 -78.667 16 -96 48c-28.667 -34 -69.334 -51 -122.001 -51c-34.667 0 -63.334 14.333 -86.001 43s-34 58.334 -34 89.001c0 22 6.33301 46.667 19 74
c16.667 36 38 54 64 54c19.333 0 29 -10 29 -30c0 -7.33301 -0.833008 -17.333 -2.5 -30s-2.5 -22.334 -2.5 -29.001c0 -28 11 -42 33 -42c25.333 0 43 10.333 53 31c3.33301 8 9.66602 32.333 18.999 73c4 20.667 16.667 31 38 31s33 -11.333 35 -34
c8 -71.333 25.667 -107 53 -107c25.333 0 38 15.333 38 46c0 14.667 -3.33301 33.334 -10 56.001l79 65c24 -39.333 36 -83.666 36 -132.999zM535.003 2177c0 -33.333 -23.668 -76.334 -71.001 -129.001l47 -14l-50 -86c-45.333 8 -78 19.333 -98 34
c-78.667 -46.667 -151.334 -70 -218.001 -70c-28.667 0 -57.667 32 -87 96c42.667 0 67 1 73 3c14 16 21 32.667 21 50c0 13.333 -5.33301 20 -16 20c-11.333 0 -32 -16 -62 -48l-18 84c32.667 36.667 66.334 55 101.001 55c12.667 0 25 -2.66699 37 -8
c32 -14.667 48 -41 48 -79c0 -28 -5 -49.667 -15 -65c30.667 3.33301 54 11 70 23c-24 40.667 -36 69.667 -36 87c0 36.667 25 73.334 75 110.001c42.667 31.333 76.334 47 101.001 47c65.333 0 98 -36.667 98 -110zM423.002 2166c0 15.333 -6.66699 23 -20 23
c-22.667 0 -34 -12.333 -34 -37c0 -23.333 8.66699 -42 26 -56c18.667 12 28 35.333 28 70z" />
    <glyph glyph-name="uniFC5F" unicode="&#x651;&#x64d;" horiz-adv-x="1" arabic-form="isolated" 
d="M547 2089c0 -40 -11.6641 -74.668 -34.9971 -104.001c-28 -32.667 -64 -49 -108 -49c-46.667 0 -78.667 15.667 -96 47c-28.667 -34 -69.334 -51 -122.001 -51c-34.667 0 -63.334 14.333 -86.001 43s-34 58.334 -34 89.001c0 22.667 6.33301 47.334 19 74
c16.667 36.667 38 55 64 55c19.333 0 29 -10.333 29 -31c0 -7.33301 -0.833008 -17.333 -2.5 -30s-2.5 -22.334 -2.5 -29c0 -28 11 -42 33 -42c25.333 0 43 10.333 53 31c3.33301 8 9.66602 32.333 18.999 73c4 20.667 16.667 31 38 31s33 -11.333 35 -34
c8 -70.667 25.667 -106 53 -106c25.333 0 38 15 38 45c0 14.667 -3.33301 33.334 -10 56l79 65c24 -39.333 36 -83.666 36 -133zM492.003 1784l-378 -154v113l378 150v-109zM492.003 1600l-378 -154v113l378 150v-109z" />
    <glyph glyph-name="uniFC60" unicode="&#x651;&#x64e;" arabic-form="isolated" 
d="M546 1700c0 -40.667 -11.6641 -75.335 -34.9971 -104.002c-28 -33.333 -64 -50 -108 -50c-46.667 0 -78.667 16 -96 48c-28.667 -34 -69.334 -51 -122.001 -51c-34.667 0 -63.334 14.333 -86.001 43s-34 58.334 -34 89.001c0 22 6.33301 46.667 19 74
c16.667 36 38 54 64 54c19.333 0 29 -10 29 -30c0 -7.33301 -0.833008 -17.333 -2.5 -30s-2.5 -22.334 -2.5 -29.001c0 -28 11 -42 33 -42c25.333 0 43 10.333 53 31c3.33301 8 9.66602 32.333 18.999 73c4 20.667 16.667 31 38 31s33 -11.333 35 -34
c8 -71.333 25.667 -107 53 -107c25.333 0 38 15.333 38 46c0 14.667 -3.33301 33.334 -10 56.001l79 65c24 -39.333 36 -83.666 36 -132.999zM515.003 2023l-377 -155v114l377 149v-108z" />
    <glyph glyph-name="uniFC61" unicode="&#x651;&#x64f;" horiz-adv-x="1" arabic-form="isolated" 
d="M524 1611c0 -40.667 -11.667 -75.667 -35 -105c-28 -32.667 -64 -49 -108 -49c-46 0 -77.667 16 -95 48c-28 -33.333 -69 -50 -123 -50c-38 0 -69 17.667 -93 53c-18 26.667 -27 52.667 -27 78c0 22 6.33301 46.333 19 73c16.667 36.667 38 55 64 55
c19.333 0 29 -10.333 29 -31c0 -6 -0.833008 -15.5 -2.5 -28.5s-2.5 -22.5 -2.5 -28.5c0 -28 11 -42 33 -42c25.333 0 43 10.333 53 31c2.66699 5.33301 9 29.666 19 72.999c4 20 16.667 30 38 30s33 -11 35 -33c8 -71.333 25.667 -107 53 -107c25.333 0 38 15.333 38 46
c0 14.667 -3.33301 33.334 -10 56.001l79 63c24 -37.333 36 -81.333 36 -132zM516 2064c0 -34 -23.666 -76.999 -70.999 -128.999c0.666992 0 16.334 -4 47.001 -12l-49 -88c-47.333 8.66699 -80.333 20 -99 34c-82 -46.667 -154.333 -70 -217 -70
c-30.667 0 -59.334 32 -86.001 96c78 2 128.333 4.66699 151 8c42 5.33301 70.667 14.666 86 27.999c-23.333 42 -35 71 -35 87c0 36 25 72.333 75 109c42.667 32 76 48 100 48c31.333 0 56.666 -12.667 75.999 -38c14.667 -21.333 22 -45.666 22 -73zM404.001 2053
c0 16 -6.33203 24 -18.999 24c-6.66699 0 -14.334 -3.83301 -23.001 -11.5s-13 -16.167 -13 -25.5c0 -24 9 -42.667 27 -56c18.667 12 28 35 28 69z" />
    <glyph glyph-name="uniFC62" unicode="&#x651;&#x650;" horiz-adv-x="1" arabic-form="isolated" 
d="M547 1877c0 -40 -11.6641 -74.6699 -34.9971 -104.003c-28 -32.667 -64 -49 -108 -49c-46.667 0 -78.667 15.667 -96 47c-28.667 -34 -69.334 -51 -122.001 -51c-34.667 0 -63.334 14.333 -86.001 43s-34 58.334 -34 89.001c0 22.667 6.33301 47.334 19 74.001
c16.667 36.667 38 55 64 55c19.333 0 29 -10.333 29 -31c0 -7.33301 -0.833008 -17.333 -2.5 -30s-2.5 -22.334 -2.5 -29.001c0 -28 11 -42 33 -42c25.333 0 43 10.333 53 31c3.33301 8 9.66602 32.333 18.999 73c4 20.667 16.667 31 38 31s33 -11.333 35 -34
c8 -70.667 25.667 -106 53 -106c25.333 0 38 15 38 45c0 14.667 -3.33301 33.334 -10 56.001l79 65c24 -39.333 36 -83.666 36 -132.999zM492.003 1572l-378 -154v113l378 150v-109z" />
    <glyph glyph-name="uniFDF2" unicode="&#xfedf;&#xfee0;&#xfeea;" horiz-adv-x="1827" arabic-form="isolated" 
d="M255 485l145 -94.002c12 -8 22.5 -10.167 31.5 -6.5s16.5 10.834 22.5 21.501s10.5 23.834 13.5 39.501s4.66699 31.667 5 48s-1 32.333 -4 48s-7.16699 28.5 -12.5 38.5zM1093 1425c2 -24.667 7.83789 -44.835 17.5049 -60.502s20.167 -26.834 31.5 -33.501
s22.333 -9.16699 33 -7.5s18 7.83398 22 18.501s3.33301 25.834 -2 45.501s-18 43.834 -38 72.501l98 44c17.333 -22.667 29.666 -47.834 36.999 -75.501s9.83301 -54.834 7.5 -81.501s-8.83301 -51.5 -19.5 -74.5s-25.334 -41 -44.001 -54s-40.667 -19.5 -66 -19.5
s-53.333 9.33301 -84 28c-20.667 -37.333 -43.334 -64.166 -68.001 -80.499s-49.667 -24.5 -75 -24.5c-22 0 -43.167 6 -63.5 18s-38 28.333 -53 49s-26.5 44.834 -34.5 72.501s-11 57.167 -9 88.5l117 33c-7.33301 -33.333 -8.33301 -60 -3 -80
s13.666 -34.167 24.999 -42.5s24 -11.333 38 -9s25.667 9 35 20s14.666 26 15.999 45s-5 40.833 -19 65.5zM508.005 185.997l-127.994 -169.002c-6 -9.33301 -18.333 -12.333 -37 -9c-25.333 4.66699 -50.833 14.667 -76.5 30s-50.334 33.333 -74.001 54
s-45.834 42.5 -66.501 65.5s-38.5 44.167 -53.5 63.5s-26.833 35.666 -35.5 48.999s-12.667 20.333 -12 21l63 266c2 10 11.667 21.667 29 35c20 16.667 42 32.334 66 47.001s48.833 28 74.5 40s51.667 22.667 78 32s51.833 17.666 76.5 24.999c0 12.667 -0.5 25 -1.5 37
s-1.5 23.667 -1.5 35c0 4 4.66699 9.16699 14 15.5s21.166 12.833 35.499 19.5s30.166 13.334 47.499 20.001s33.833 12.667 49.5 18s29.667 9.66602 42 12.999s20.833 5 25.5 5c2.66699 -30 4.66699 -61.5 6 -94.5s3.33301 -66 6 -99s6.5 -65.667 11.5 -98
s12.833 -62.833 23.5 -91.5c5.33301 -23.333 15.333 -43.333 30 -60s32.167 -30 52.5 -40s42.5 -16.667 66.5 -20s47.833 -3.16602 71.5 0.500977s46.167 10.667 67.5 21s39.666 23.833 54.999 40.5l-26 531l251 111c0 -66 0.833008 -125.667 2.5 -179
s3.66699 -105.166 6 -155.499s4.33301 -102 6 -155s2.5 -112.5 2.5 -178.5c22.667 -10 44 -18.833 64 -26.5s39.667 -12.834 59 -15.501s39 -2.16699 59 1.5s41.667 11.834 65 24.501c7.33301 99.333 6.16602 204.5 -3.50098 315.5s-22.5 229.167 -38.5 354.5l274 110
l73 -277l-73 -83c0 -14.667 0.333008 -37 1 -67s1.33398 -64.667 2.00098 -104s0.666992 -81.833 0 -127.5s-2.16699 -91.334 -4.5 -137.001s-6.33301 -90.167 -12 -133.5s-13 -82.166 -22 -116.499s-20.5 -62.833 -34.5 -85.5s-30.667 -36.667 -50 -42
c-56 -14.667 -104.5 -24.167 -145.5 -28.5s-76.667 -5 -107 -2s-56.333 8.83301 -78 17.5s-41.334 18.834 -59.001 30.501s-34 24 -49 37s-31.167 25.5 -48.5 37.5c-224.667 -190.667 -431 -167 -619 71z" />
    <glyph glyph-name="uniFEF5" unicode="&#xfedf;&#xfe82;" horiz-adv-x="1089" arabic-form="isolated" 
d="M731 1206l263.004 119.999l76 -278l-76 -84c-0.666992 -8.66699 -1.33398 -22.167 -2.00098 -40.5s-2.5 -40 -5.5 -65s-7.5 -52.333 -13.5 -82s-14.833 -59.834 -26.5 -90.501s-26.334 -61 -44.001 -91s-39.834 -58 -66.501 -84c33.333 -85.333 51 -157.5 53 -216.5
s-8 -108 -30 -147s-54.167 -69.667 -96.5 -92s-90.666 -39.833 -144.999 -52.5s-112.833 -22.167 -175.5 -28.5l-188 -18.5l-43 400c14.667 0.666992 37 2.5 67 5.5s63.167 9 99.5 18s73.5 22 111.5 39s72.667 39.5 104 67.5c-32.667 42 -66.5 82.167 -101.5 120.5
s-72.167 73.833 -111.5 106.5l-32 -60l-63 38c-24 14 -48.667 29.333 -74 46s-50.333 34.667 -75 54s-46 39.833 -64 61.5s-31.667 44.334 -41 68.001s-12 48.5 -8 74.5c12 64.667 27.833 115.167 47.5 151.5s42.167 61 67.5 74s52.666 16.167 81.999 9.5
s59.666 -20.334 90.999 -41.001s63 -46.667 95 -78s63.167 -65.166 93.5 -101.499s59.333 -73.833 87 -112.5l75.5 -109.5c22.667 -34.333 42.167 -65.166 58.5 -92.499s28.5 -48.333 36.5 -63c21.333 40.667 28.5 109.5 21.5 206.5s-22.833 219.5 -47.5 367.5z
M544.004 281.999c72 -11.333 118.332 -10.168 138.999 3.49902s17.334 44.834 -9.99902 93.501zM-11.9971 1284c-2 52 14.333 101.331 49 147.998s99 48.834 193 6.50098s165.667 -27.5 215 44.5c-24 -152.667 -92.667 -203.167 -206 -151.5s-197 35.834 -251 -47.499z" />
    <glyph glyph-name="uniFEF6" unicode="&#xfee0;&#xfe82;" horiz-adv-x="943" arabic-form="final" 
d="M951 -2l-130.995 -0.00292969c-30.667 3.33301 -57.834 14.666 -81.501 33.999s-42.167 48 -55.5 86c-26 -27.333 -55.833 -53.666 -89.5 -78.999s-69.334 -47.666 -107.001 -66.999s-76.5 -34.666 -116.5 -45.999s-79.667 -17 -119 -17l-132 321
c12.667 4.66699 25 6.83398 37 6.50098s27.167 0 45.5 1s41 4.33301 68 10s61.833 17.167 104.5 34.5c-5.33301 34 -11.666 65.5 -18.999 94.5s-16.833 56.667 -28.5 83s-25.834 51.5 -42.501 75.5s-36.667 47.667 -60 71l-79 -17
c-4.66699 -1.33301 -12.834 5.5 -24.501 20.5s-24 34.833 -37 59.5s-25.333 52.5 -37 83.5s-20 61.833 -25 92.5s-5.16699 59.334 -0.5 86.001s16.667 48 36 64l150 120c88 -92 160.833 -199.667 218.5 -323s100.5 -262 128.5 -416c15.333 2.66699 28.666 11.667 39.999 27
s21.666 36 30.999 62l-44 639l211 73l32 -699c0 -20.667 4.83301 -36.834 14.5 -48.501s23.167 -19.167 40.5 -22.5h72v-409zM-32.9951 1149c-2 52.667 14.333 102.33 49 148.997s99 48.834 193 6.50098s166 -27.166 216 45.501
c-24.667 -153.333 -93.667 -204.166 -207 -152.499s-197 35.5 -251 -48.5z" />
    <glyph glyph-name="uniFEF7" unicode="&#xfedf;&#xfe84;" horiz-adv-x="1085" arabic-form="isolated" 
d="M731 1206l263.004 119.999l76 -278l-76 -84c-0.666992 -8.66699 -1.33398 -22.167 -2.00098 -40.5s-2.5 -40 -5.5 -65s-7.5 -52.333 -13.5 -82s-14.833 -59.834 -26.5 -90.501s-26.334 -61 -44.001 -91s-39.834 -58 -66.501 -84c33.333 -85.333 51 -157.5 53 -216.5
s-8 -108 -30 -147s-54.167 -69.667 -96.5 -92s-90.666 -39.833 -144.999 -52.5s-112.833 -22.167 -175.5 -28.5l-188 -18.5l-43 400c14.667 0.666992 37 2.5 67 5.5s63.167 9 99.5 18s73.5 22 111.5 39s72.667 39.5 104 67.5c-32.667 42 -66.5 82.167 -101.5 120.5
s-72.167 73.833 -111.5 106.5l-32 -60l-63 38c-24 14 -48.667 29.333 -74 46s-50.333 34.667 -75 54s-46 39.833 -64 61.5s-31.667 44.334 -41 68.001s-12 48.5 -8 74.5c12 64.667 27.833 115.167 47.5 151.5s42.167 61 67.5 74s52.666 16.167 81.999 9.5
s59.666 -20.334 90.999 -41.001s63 -46.667 95 -78s63.167 -65.166 93.5 -101.499s59.333 -73.833 87 -112.5l75.5 -109.5c22.667 -34.333 42.167 -65.166 58.5 -92.499s28.5 -48.333 36.5 -63c21.333 40.667 28.5 109.5 21.5 206.5s-22.833 219.5 -47.5 367.5z
M544.004 281.999c72 -11.333 118.332 -10.168 138.999 3.49902s17.334 44.834 -9.99902 93.501zM284.003 1504c-1.33301 -16 -5.83887 -33.999 -13.5059 -53.999s-14.167 -38 -19.5 -54c-33.333 -17.333 -63.333 -34.166 -90 -50.499l-68.5 -42
c-19 -11.667 -33.833 -19.834 -44.5 -24.501s-16 -3.33398 -16 3.99902s-0.166992 12.5 -0.5 15.5s-0.5 4.83301 -0.5 5.5c0 6.66699 2.33301 13.167 7 19.5s10.167 12.5 16.5 18.5s13 11.667 20 17s12.833 10.333 17.5 15c-20.667 10 -35 22.667 -43 38
s-11.167 31.666 -9.5 48.999s7.33398 34.5 17.001 51.5s21.334 32.333 35.001 46s29 24.834 46 33.501s33.5 13 49.5 13c17.333 0 28 -4.5 32 -13.5s4.33301 -18.667 1 -29s-9.16602 -20 -17.499 -29s-16.166 -13.5 -23.499 -13.5c-5.33301 0 -10.666 2.33301 -15.999 7
s-10.666 5.66699 -15.999 3c-12.667 -4.66699 -21.667 -11.167 -27 -19.5s-7.16602 -16.5 -5.49902 -24.5s6.5 -15 14.5 -21s19.167 -9.16699 33.5 -9.5s31.666 3 51.999 10s43.5 19.833 69.5 38.5z" />
    <glyph glyph-name="uniFEF8" unicode="&#xfee0;&#xfe84;" horiz-adv-x="939" arabic-form="final" 
d="M951 -2l-118.003 -0.00292969c-30.667 3.33301 -58 14.666 -82 33.999s-42.667 48 -56 86c-26 -27.333 -55.667 -53.666 -89 -78.999s-68.833 -47.666 -106.5 -66.999s-76.667 -34.666 -117 -45.999s-80.166 -17 -119.499 -17l-132 321
c12.667 4.66699 25.167 6.83398 37.5 6.50098s27.5 0 45.5 1s40.5 4.33301 67.5 10s61.833 17.167 104.5 34.5c-5.33301 34 -11.666 65.5 -18.999 94.5s-16.666 56.667 -27.999 83s-25.333 51.5 -42 75.5s-36.667 47.667 -60 71l-80 -17
c-4.66699 -1.33301 -12.834 5.5 -24.501 20.5s-23.834 34.833 -36.501 59.5s-24.834 52.5 -36.501 83.5s-20 61.833 -25 92.5s-5.16699 59.334 -0.5 86.001s16.667 48 36 64l149 120c88.667 -92 161.834 -199.667 219.501 -323s100.5 -262 128.5 -416
c14.667 2.66699 27.834 11.667 39.501 27s21.834 36 30.501 62l-43 639l210 73l32 -699c0 -20.667 5 -36.834 15 -48.501s23.667 -19.167 41 -22.5h59v-409zM279.997 1321c-0.666992 -8 -2.33496 -16.832 -5.00195 -26.499s-5.66699 -19.334 -9 -29.001l-10 -28.5l-9 -25
c-33.333 -17.333 -63.333 -34.333 -90 -51l-68.5 -42.5c-19 -11.667 -33.667 -19.667 -44 -24s-15.833 -2.83301 -16.5 4.5c0 6.66699 -0.166992 11.667 -0.5 15s-0.5 5.66602 -0.5 6.99902c0 6.66699 2.33301 13.167 7 19.5s10.167 12.333 16.5 18s13 11.167 20 16.5
s12.833 10 17.5 14c-20.667 10 -35 22.667 -43 38s-11.167 31.666 -9.5 48.999s7.33398 34.5 17.001 51.5s21.5 32.333 35.5 46s29.333 24.834 46 33.501s33 13 49 13c17.333 0 28 -4.5 32 -13.5s4.33301 -18.667 1 -29s-9.16602 -20 -17.499 -29s-15.833 -13.5 -22.5 -13.5
c-5.33301 0 -10.666 2.5 -15.999 7.5s-11 6.16699 -17 3.5c-12.667 -5.33301 -21.667 -12.166 -27 -20.499s-7.33301 -16.5 -6 -24.5s6.16602 -15 14.499 -21s19.5 -9 33.5 -9c14.667 0 32.167 3.66699 52.5 11s43.5 20.333 69.5 39z" />
    <glyph glyph-name="uniFEF9" unicode="&#xfedf;&#xfe88;" horiz-adv-x="1093" arabic-form="isolated" 
d="M731 1206l263.004 119.999l76 -278l-76 -84c-0.666992 -8.66699 -1.33398 -22.167 -2.00098 -40.5s-2.5 -40 -5.5 -65s-7.5 -52.333 -13.5 -82s-14.833 -59.834 -26.5 -90.501s-26.334 -61 -44.001 -91s-39.834 -58 -66.501 -84c33.333 -85.333 51 -157.5 53 -216.5
s-8 -108 -30 -147s-54.167 -69.667 -96.5 -92s-90.666 -39.833 -144.999 -52.5s-112.833 -22.167 -175.5 -28.5l-188 -18.5l-43 400c14.667 0.666992 37 2.5 67 5.5s63.167 9 99.5 18s73.5 22 111.5 39s72.667 39.5 104 67.5c-32.667 42 -66.5 82.167 -101.5 120.5
s-72.167 73.833 -111.5 106.5l-32 -60l-63 38c-24 14 -48.667 29.333 -74 46s-50.333 34.667 -75 54s-46 39.833 -64 61.5s-31.667 44.334 -41 68.001s-12 48.5 -8 74.5c12 64.667 27.833 115.167 47.5 151.5s42.167 61 67.5 74s52.666 16.167 81.999 9.5
s59.666 -20.334 90.999 -41.001s63 -46.667 95 -78s63.167 -65.166 93.5 -101.499s59.333 -73.833 87 -112.5l75.5 -109.5c22.667 -34.333 42.167 -65.166 58.5 -92.499s28.5 -48.333 36.5 -63c21.333 40.667 28.5 109.5 21.5 206.5s-22.833 219.5 -47.5 367.5z
M544.004 281.999c72 -11.333 118.332 -10.168 138.999 3.49902s17.334 44.834 -9.99902 93.501zM292.003 -226.003c-1.33301 -16 -5.66895 -34.332 -13.002 -54.999l-19 -54c-33.333 -17.333 -63.5 -34.333 -90.5 -51l-69 -42.5c-19 -11.667 -33.667 -19.834 -44 -24.501
s-15.5 -3.33398 -15.5 3.99902s-0.166992 12.5 -0.5 15.5s-0.5 5.16699 -0.5 6.5c0 6.66699 2.33301 13.334 7 20.001s10.167 12.834 16.5 18.501s13 11.167 20 16.5s12.5 10 16.5 14c-20.667 10 -35 22.667 -43 38s-11.167 31.666 -9.5 48.999s7.33398 34.5 17.001 51.5
s21.5 32.333 35.5 46s29.333 24.834 46 33.501s33 13 49 13c17.333 0 28 -4.33301 32 -13s4.33301 -18.334 1 -29.001s-9.16602 -20.334 -17.499 -29.001s-15.833 -13 -22.5 -13c-5.33301 0 -10.666 2.5 -15.999 7.5s-10.666 6.16699 -15.999 3.5
c-12.667 -5.33301 -21.834 -12.166 -27.501 -20.499s-7.66699 -16.5 -6 -24.5s6.5 -15 14.5 -21s19.167 -9.16699 33.5 -9.5s31.666 3.16699 51.999 10.5s43.5 20.333 69.5 39z" />
    <glyph glyph-name="uniFEFA" unicode="&#xfee0;&#xfe88;" horiz-adv-x="943" arabic-form="final" 
d="M960 -2l-127.003 -0.00292969c-30.667 3.33301 -58 14.666 -82 33.999s-42.667 48 -56 86c-26 -27.333 -55.667 -53.666 -89 -78.999s-68.833 -47.666 -106.5 -66.999s-76.667 -34.666 -117 -45.999s-80.166 -17 -119.499 -17l-132 321
c12.667 4.66699 25.167 6.83398 37.5 6.50098s27.5 0 45.5 1s40.5 4.33301 67.5 10s61.833 17.167 104.5 34.5c-5.33301 34 -11.666 65.5 -18.999 94.5s-16.666 56.667 -27.999 83s-25.333 51.5 -42 75.5s-36.667 47.667 -60 71l-80 -17
c-4.66699 -1.33301 -12.834 5.5 -24.501 20.5s-23.834 34.833 -36.501 59.5s-24.834 52.5 -36.501 83.5s-20 61.833 -25 92.5s-5.16699 59.334 -0.5 86.001s16.667 48 36 64l149 120c88.667 -92 161.834 -199.667 219.501 -323s100.5 -262 128.5 -416
c14.667 2.66699 27.834 11.667 39.501 27s21.834 36 30.501 62l-43 639l210 73l32 -699c0 -20.667 5 -36.834 15 -48.501s23.667 -19.167 41 -22.5h68v-409zM248.997 -178.003c-2 -16.667 -6.66797 -35.165 -14.001 -55.498l-19 -53.5
c-33.333 -17.333 -63.333 -34.333 -90 -51l-68.5 -42.5c-19 -11.667 -33.667 -19.834 -44 -24.501s-15.5 -3.33398 -15.5 3.99902s-0.333008 12.666 -1 15.999s-1 5.66602 -1 6.99902c0 6.66699 2.33301 13 7 19s10.334 12 17.001 18s13.5 11.5 20.5 16.5
s12.5 9.83301 16.5 14.5c-21.333 10 -35.833 22.667 -43.5 38s-10.667 31.5 -9 48.5s7.33398 34.167 17.001 51.5s21.5 32.833 35.5 46.5s29.333 24.834 46 33.501s33 13 49 13c17.333 0 28 -4.5 32 -13.5s4.16699 -18.667 0.5 -29s-9.5 -20 -17.5 -29
s-15.667 -13.5 -23 -13.5c-4.66699 0 -9.66699 2.5 -15 7.5s-11.333 6.16699 -18 3.5c-12.667 -5.33301 -21.5 -12.166 -26.5 -20.499s-6.83301 -16.5 -5.5 -24.5s6.16602 -15 14.499 -21s19.5 -9 33.5 -9c14.667 0 32.167 3.66699 52.5 11s43.5 20.333 69.5 39z" />
    <glyph glyph-name="uniFEFB" unicode="&#xfedf;&#xfe8e;" horiz-adv-x="1093" arabic-form="isolated" 
d="M731 1206l263.004 119.999l76 -278l-76 -84c-0.666992 -8.66699 -1.33398 -22.167 -2.00098 -40.5s-2.5 -40 -5.5 -65s-7.5 -52.333 -13.5 -82s-14.833 -59.834 -26.5 -90.501s-26.334 -61 -44.001 -91s-39.834 -58 -66.501 -84c33.333 -85.333 51 -157.5 53 -216.5
s-8 -108 -30 -147s-54.167 -69.667 -96.5 -92s-90.666 -39.833 -144.999 -52.5s-112.833 -22.167 -175.5 -28.5l-188 -18.5l-43 400c14.667 0.666992 37 2.5 67 5.5s63.167 9 99.5 18s73.5 22 111.5 39s72.667 39.5 104 67.5c-32.667 42 -66.5 82.167 -101.5 120.5
s-72.167 73.833 -111.5 106.5l-32 -60l-63 38c-24 14 -48.667 29.333 -74 46s-50.333 34.667 -75 54s-46 39.833 -64 61.5s-31.667 44.334 -41 68.001s-12 48.5 -8 74.5c12 64.667 27.833 115.167 47.5 151.5s42.167 61 67.5 74s52.666 16.167 81.999 9.5
s59.666 -20.334 90.999 -41.001s63 -46.667 95 -78s63.167 -65.166 93.5 -101.499s59.333 -73.833 87 -112.5l75.5 -109.5c22.667 -34.333 42.167 -65.166 58.5 -92.499s28.5 -48.333 36.5 -63c21.333 40.667 28.5 109.5 21.5 206.5s-22.833 219.5 -47.5 367.5z
M544.004 281.999c72 -11.333 118.332 -10.168 138.999 3.49902s17.334 44.834 -9.99902 93.501z" />
    <glyph glyph-name="uniFEFC" unicode="&#xfee0;&#xfe8e;" horiz-adv-x="939" arabic-form="final" 
d="M951 -2l-122.997 -0.00292969c-31.333 3.33301 -58.833 14.666 -82.5 33.999s-42.167 48 -55.5 86c-26 -27.333 -55.833 -53.666 -89.5 -78.999s-69.334 -47.666 -107.001 -66.999s-76.5 -34.666 -116.5 -45.999s-80 -17 -120 -17l-131 321
c12.667 4.66699 25 6.83398 37 6.50098s27 0 45 1s40.667 4.33301 68 10s62 17.167 104 34.5c-5.33301 34 -11.666 65.5 -18.999 94.5s-16.666 56.667 -27.999 83s-25.333 51.5 -42 75.5s-36.667 47.667 -60 71l-79 -17c-4.66699 -1.33301 -12.834 5.5 -24.501 20.5
s-23.834 34.833 -36.501 59.5s-25 52.5 -37 83.5s-20.333 61.833 -25 92.5s-4.83398 59.334 -0.500977 86.001s16.166 48 35.499 64l150 120c88.667 -92 161.834 -199.667 219.501 -323s100.5 -262 128.5 -416c14.667 2.66699 27.667 11.667 39 27s21.666 36 30.999 62
l-44 639l211 73l31 -699c0 -20.667 5 -36.834 15 -48.501s24 -19.167 42 -22.5h64v-409z" />
    <glyph glyph-name="afii57458_afii57454.liga" unicode="&#x652;&#x64e;" horiz-adv-x="1" 
d="M259 779c0 -16 -5 -30.333 -15 -43c-6 -7.33301 -10.333 -11.333 -13 -12c-2 1.33301 -3 6.33301 -3 15c0 44.667 -12.333 153 -37 325l50 30c4 2.66699 7 4 9 4c1.33301 -0.666992 2.33301 -3 3 -7c4 -50 6 -154 6 -312z" />
    <glyph glyph-name="afii57458_afii57451.liga" unicode="&#x652;&#x64b;" horiz-adv-x="1" 
d="M563 745l-99 -99l-100 100l99 98zM343 745l-98 -99l-100 100l99 98z" />
    <glyph glyph-name="afii57458_afii57453.liga" unicode="&#x652;&#x64d;" horiz-adv-x="1" 
d="M827 -890l-99 -99l-100 100l99 98zM607 -890l-98 -99l-100 100l99 98z" />
    <glyph glyph-name="afii57410" unicode="&#x622;" horiz-adv-x="413" arabic-form="isolated" 
d="M-9 1243c-0.666992 52 16.167 101.5 50.5 148.5s98.5 49.167 192.5 6.5s166 -27.667 216 45c-24.667 -154 -93.667 -205 -207 -153s-197.333 36.333 -252 -47zM113.001 30c7.33301 168.667 7.33105 339.168 -0.00195312 511.501s-22 349.833 -44 532.5l250 111
c20.667 -232.667 22.834 -447.334 6.50098 -644.001s-48.166 -377.667 -95.499 -543z" />
    <glyph glyph-name="afii57411" unicode="&#x623;" horiz-adv-x="385" arabic-form="isolated" 
d="M312 1404c-1.33301 -16 -5.67188 -34.165 -13.0049 -54.498l-19 -54.5c-33.333 -16.667 -63.5 -33.334 -90.5 -50.001l-69 -42c-19 -11.333 -33.667 -19.333 -44 -24s-15.5 -3.33398 -15.5 3.99902c0 6.66699 -0.333008 11.667 -1 15s-1 5.33301 -1 6
c0 6.66699 2.33301 13.167 7 19.5s10.334 12.5 17.001 18.5s13.5 11.667 20.5 17s12.5 10.333 16.5 15c-20.667 10 -35 22.667 -43 38s-11.167 31.5 -9.5 48.5s7.33398 34 17.001 51s21.5 32.333 35.5 46s29.333 24.834 46 33.501s33 13 49 13c17.333 0 28 -4.33301 32 -13
s4.33301 -18.334 1 -29.001s-9.16602 -20.334 -17.499 -29.001s-15.833 -13 -22.5 -13c-5.33301 0 -10.666 2.33301 -15.999 7s-10.666 5.66699 -15.999 3c-19.333 -7.33301 -30.333 -18 -33 -32s2 -25.167 14 -33.5s31.167 -10.666 57.5 -6.99902s58.833 19.167 97.5 46.5z
M103.994 30.002c7.33301 168.667 7.33203 339.168 -0.000976562 511.501s-21.666 349.833 -42.999 532.5l250 111c20.667 -232.667 23 -447.334 7 -644.001s-48.333 -377.667 -97 -543z" />
    <glyph glyph-name="afii57412" unicode="&#x624;" horiz-adv-x="679" arabic-form="isolated" 
d="M424 411c-4 8.66699 -9.83691 20.498 -17.5039 35.498s-16.667 30.333 -27 46s-21.666 30 -33.999 43s-24.833 21.5 -37.5 25.5c-9.33301 0 -18.666 -3.16699 -27.999 -9.5s-17.833 -14.166 -25.5 -23.499s-14 -19.166 -19 -29.499s-7.5 -19.833 -7.5 -28.5
c10.667 -24 26.334 -42 47.001 -54s41.667 -19.667 63 -23s40.333 -3 57 1s26.334 9.66699 29.001 17zM462.996 1086c-1.33301 -11.333 -3.83203 -23.6631 -7.49902 -36.9961s-7.66699 -26.833 -12 -40.5s-8.83301 -27 -13.5 -40l-13 -35.5
c-47.333 -24 -90 -47.833 -128 -71.5l-97.5 -60.5c-27 -16.667 -47.833 -28 -62.5 -34s-22.334 -4 -23.001 6c0 9.33301 -0.166992 16.166 -0.5 20.499s-0.5 7.16602 -0.5 8.49902c0 9.33301 3.33301 18.666 10 27.999s14.5 18.166 23.5 26.499s18.5 16.166 28.5 23.499
s18 14 24 20c-29.333 14.667 -49.666 32.834 -60.999 54.501s-15.666 44.667 -12.999 69s10.667 48.5 24 72.5s30 45.833 50 65.5s41.667 35.5 65 47.5s46.333 18 69 18c24.667 0 40 -6.16699 46 -18.5s6.5 -26 1.5 -41s-13.333 -28.667 -25 -41s-22.5 -18.5 -32.5 -18.5
c-3.33301 0 -6.83301 1.16699 -10.5 3.5s-7.5 4.5 -11.5 6.5s-7.83301 3.66699 -11.5 5s-7.5 1 -11.5 -1c-18 -7.33301 -31 -16.833 -39 -28.5s-10.833 -23.334 -8.5 -35.001s9.16602 -21.667 20.499 -30s27.166 -12.666 47.499 -12.999s45 4.66699 74 15
s61.833 28.833 98.5 55.5zM280.997 -3.99902c-46.667 -3.33301 -85.8252 4.99609 -117.492 24.9961s-56.334 47.5 -74.001 82.5s-29.167 75.333 -34.5 121s-5.16602 92.834 0.500977 141.501s16.167 96.834 31.5 144.501s34.666 90.834 57.999 129.501
s50.166 70.667 80.499 96s63.166 40.333 98.499 45c55.333 -15.333 103.333 -43 144 -83s74.167 -87.667 100.5 -143s45.5 -116.166 57.5 -182.499s17.167 -133.5 15.5 -201.5s-10.334 -134.5 -26.001 -199.5s-37.834 -124.167 -66.501 -177.5
s-63.834 -98.5 -105.501 -135.5s-89.834 -61.167 -144.501 -72.5c-6.66699 -1.33301 -18.167 0.5 -34.5 5.5s-35.5 11.667 -57.5 20s-45.333 18 -70 29l-72 31.5l-63.5 27c-19 8 -33.5 13.667 -43.5 17l10 39c62 0.666992 121 11 177 31s105.833 46.667 149.5 80
s79.167 72.333 106.5 117s43 92 47 142c-9.33301 -10 -21.833 -21.333 -37.5 -34s-31.834 -25 -48.501 -37l-47.5 -33.5c-15 -10.333 -26.167 -18.5 -33.5 -24.5z" />
    <glyph glyph-name="afii57413" unicode="&#x625;" horiz-adv-x="388" arabic-form="isolated" 
d="M312 -193c-1.33301 -16 -5.66992 -34.333 -13.0029 -55l-19 -54c-33.333 -17.333 -63.5 -34.333 -90.5 -51l-69 -42.5c-19 -11.667 -33.667 -19.667 -44 -24s-15.5 -2.83301 -15.5 4.5s-0.333008 12.5 -1 15.5s-1 5.16699 -1 6.5c0 6.66699 2.33301 13.167 7 19.5
s10.334 12.5 17.001 18.5s13.5 11.5 20.5 16.5s12.5 9.5 16.5 13.5c-20.667 10 -35 22.833 -43 38.5s-11.167 32 -9.5 49s7.33398 34 17.001 51s21.5 32.333 35.5 46s29.333 24.834 46 33.501s33 13 49 13c17.333 0 28 -4.33301 32 -13s4.33301 -18.334 1 -29.001
s-9.16602 -20.334 -17.499 -29.001s-15.833 -13 -22.5 -13c-5.33301 0 -10.666 2.5 -15.999 7.5s-10.666 6.16699 -15.999 3.5c-12.667 -5.33301 -21.834 -12.166 -27.501 -20.499s-7.66699 -16.5 -6 -24.5s6.5 -15 14.5 -21s19.167 -9.16699 33.5 -9.5
s31.666 3.16699 51.999 10.5s43.5 20.333 69.5 39zM103.996 30c7.33301 168.667 7.33203 339.168 -0.000976562 511.501s-21.666 349.833 -42.999 532.5l250 111c20.667 -232.667 23 -447.334 7 -644.001s-48.333 -377.667 -97 -543z" />
    <glyph glyph-name="afii57414" unicode="&#x626;" horiz-adv-x="1047" arabic-form="isolated" 
d="M422 770c-1.33301 -11.333 -3.8291 -23.665 -7.49609 -36.998s-7.66699 -26.833 -12 -40.5s-8.83301 -27 -13.5 -40l-13 -36.5c-47.333 -24 -90 -47.667 -128 -71l-97 -60c-26.667 -16.667 -47.334 -28 -62.001 -34s-22.334 -4 -23.001 6
c0 4.66699 -0.166992 8.66699 -0.5 12s-0.5 6.33301 -0.5 9c-0.666992 2.66699 -1 5 -1 7c0 10 3.33301 19.667 10 29s14.667 18.333 24 27s18.833 16.667 28.5 24s17.834 14 24.501 20c-30 14.667 -50.5 32.834 -61.5 54.501s-15.333 44.667 -13 69
s10.166 48.5 23.499 72.5s29.833 45.833 49.5 65.5s41.334 35.5 65.001 47.5s46.834 18 69.501 18c16 0 28 -3 36 -9s12.667 -13.333 14 -22s0.166016 -18.334 -3.50098 -29.001s-8.66699 -20.334 -15 -29.001s-13.333 -16 -21 -22s-14.834 -9 -21.501 -9
c-3.33301 0 -6.83301 1.16699 -10.5 3.5l-11 7c-3.66699 2.33301 -7.5 4.16602 -11.5 5.49902s-8 1 -12 -1c-18 -7.33301 -30.833 -17 -38.5 -29s-10.334 -23.667 -8.00098 -35s9.16602 -21.333 20.499 -30s27 -13 47 -13c20.667 0 45.5 5.16699 74.5 15.5
s61.833 28.5 98.5 54.5zM808.004 10.001c-86 13.333 -156.828 34.5029 -212.495 63.5029s-96 64.667 -121 107s-34.333 90.833 -28 145.5s28.166 115 65.499 181c13.333 23.333 31.833 49.5 55.5 78.5s50.167 57.667 79.5 86s60.166 54.833 92.499 79.5
s63.666 44.5 93.999 59.5s58.5 23.5 84.5 25.5s47.167 -5.5 63.5 -22.5s26.666 -45.167 30.999 -84.5s0.166016 -92.666 -12.501 -159.999l-60 -41c-2 -1.33301 -4 0.166992 -6 4.5s-4.83301 9.66602 -8.5 15.999s-8.33398 12.833 -14.001 19.5s-13.167 11.5 -22.5 14.5
s-20.5 3.16699 -33.5 0.5s-28.833 -9.66699 -47.5 -21c-32 -20.667 -55.167 -37.834 -69.5 -51.501s-22.166 -25.167 -23.499 -34.5s2.83398 -16.833 12.501 -22.5s22.834 -10.5 39.501 -14.5c14.667 -6 31.667 -12.333 51 -19s39 -15.334 59 -26.001
s39.167 -23.834 57.5 -39.501s33.833 -35.667 46.5 -60s21.834 -53.833 27.501 -88.5s5.83398 -76 0.500977 -124c-4.66699 -45.333 -16.334 -89 -35.001 -131s-42 -81.5 -70 -118.5s-59.667 -71 -95 -102s-72 -57.667 -110 -80s-76.333 -39.833 -115 -52.5
s-75.334 -19.334 -110.001 -20.001c-78.667 -2.66699 -147.334 9.5 -206.001 36.5s-106.667 63.333 -144 109s-63.666 98.167 -78.999 157.5s-19 119.666 -11 180.999s28.333 121 61 179s78 109 136 153c37.333 7.33301 56 -3.66699 56 -33
c-38 -70 -54.333 -137.167 -49 -201.5s26.333 -123.5 63 -177.5c19.333 -28.667 43.166 -51.5 71.499 -68.5s58.666 -28.667 90.999 -35s65.333 -7.66602 99 -3.99902s66 11.334 97 23.001s59.5 27 85.5 46s47 41.167 63 66.5z" />
    <glyph glyph-name="afii57415" unicode="&#x627;" horiz-adv-x="404" arabic-form="isolated" 
d="M109 30c14.667 333.333 -0.333008 681.334 -45 1044l251 111c20.667 -232.667 23 -447.334 7 -644.001s-48.333 -377.667 -97 -543z" />
    <glyph glyph-name="afii57416" unicode="&#x628;" horiz-adv-x="1234" arabic-form="isolated" 
d="M646 -175l163 -164l-163 -166l-167 166zM962 405c-1.33301 34.667 -7.16211 74.3301 -17.4951 118.997s-26.5 93.667 -48.5 147l190 169l45.5 -121c15 -40.667 27.833 -87.334 38.5 -140.001s17.667 -114.167 21 -184.5s1.33301 -155.5 -6 -255.5
c-1.33301 -20 -4.5 -38.5 -9.5 -55.5s-11.333 -31.833 -19 -44.5s-16.5 -22.667 -26.5 -30s-21 -11 -33 -11h-292c-52.667 -3.33301 -108.334 -8.83301 -167.001 -16.5s-116.667 -12.667 -174 -15s-111.833 0.5 -163.5 8.5s-96.834 25.833 -135.501 53.5
s-68.667 67.834 -90 120.501s-30.333 122.334 -27 209.001c1.33301 24.667 5.33301 50.167 12 76.5s16.667 54.5 30 84.5c22.667 54 40 81 52 81l55 -2c9.33301 -1.33301 14.666 -5.16602 15.999 -11.499s1.16602 -14.666 -0.500977 -24.999
s-3.83398 -22.166 -6.50098 -35.499s-4 -27.333 -4 -42s2.66699 -29.5 8 -44.5s15.666 -29.5 30.999 -43.5c18.667 -18.667 46 -31.334 82 -38.001s76.333 -9.66699 121 -9s91.834 4 141.501 10s98 12.333 145 19l131.5 18.5c40.667 5.66699 74 8.5 100 8.5z" />
    <glyph glyph-name="afii57417" unicode="&#x629;" horiz-adv-x="663" arabic-form="isolated" 
d="M571 157c-34 -62 -70.8311 -106.833 -110.498 -134.5s-79.167 -42.667 -118.5 -45s-77 6 -113 25s-67.667 44.167 -95 75.5s-48.666 66.5 -63.999 105.5s-22 77.167 -20 114.5c4 77.333 16.333 148.666 37 213.999s50.667 130.333 90 195l27.5 49.5
c9.66699 17 19.667 33 30 48s21.333 28 33 39s24.667 18.5 39 22.5s29.666 3.83301 45.999 -0.5s34.5 -14.5 54.5 -30.5c49.333 -42 89.666 -89.5 120.999 -142.5s53.666 -109 66.999 -168s18 -119.667 14 -182s-16.667 -124.166 -38 -185.499zM445.002 370
c3.33301 8 2.66895 19.168 -1.99805 33.501s-11.834 29.666 -21.501 45.999s-21 32.666 -34 48.999s-26.167 30.833 -39.5 43.5s-26.333 22.5 -39 29.5s-23 9.16699 -31 6.5c-17.333 -6 -31.333 -17.667 -42 -35s-17 -36.666 -19 -57.999s0.5 -42.833 7.5 -64.5
s19.5 -39.167 37.5 -52.5s42.167 -20.833 72.5 -22.5s67.166 6.5 110.499 24.5z" />
    <glyph glyph-name="afii57418" unicode="&#x62a;" horiz-adv-x="1226" arabic-form="isolated" 
d="M461 1059l114 -111l114 111l158 -156l-158 -159l-114 113l-114 -113l-158 159zM954 405c-1.33301 34.667 -7.33008 74.3301 -17.9971 118.997s-27 93.667 -49 147l190 169l45.5 -121c15 -40.667 27.833 -87.334 38.5 -140.001s17.667 -114.167 21 -184.5
s1.33301 -155.5 -6 -255.5c-1.33301 -20 -4.33301 -38.5 -9 -55.5s-10.834 -31.833 -18.501 -44.5s-16.5 -22.667 -26.5 -30s-21 -11 -33 -11h-292c-52.667 -3.33301 -108.5 -8.83301 -167.5 -16.5s-117 -12.667 -174 -15s-111.5 0.5 -163.5 8.5s-97.167 25.833 -135.5 53.5
s-68.166 67.834 -89.499 120.501s-30.333 122.334 -27 209.001c1.33301 24.667 5.16602 50.167 11.499 76.5s16.5 54.5 30.5 84.5c22 54 39.333 81 52 81l55 -2c9.33301 -1.33301 14.666 -5.16602 15.999 -11.499s1.16602 -14.666 -0.500977 -24.999s-4 -22.166 -7 -35.499
s-4.33301 -27.333 -4 -42s3.16602 -29.5 8.49902 -44.5s15.666 -29.5 30.999 -43.5c18.667 -18.667 45.834 -31.334 81.501 -38.001s75.834 -9.66699 120.501 -9s92 4 142 10s98.5 12.333 145.5 19l131.5 18.5c40.667 5.66699 74 8.5 100 8.5z" />
    <glyph glyph-name="afii57419" unicode="&#x62b;" horiz-adv-x="1217" arabic-form="isolated" 
d="M568 1351l158 -156l-158 -159l-147 159zM453 1047l114 -112l113 112l159 -156l-159 -160l-113 114l-114 -114l-159 160zM954 405c-1.33301 34.667 -7.33008 74.3301 -17.9971 118.997s-27 93.667 -49 147l190 169l45.5 -121c15 -40.667 27.833 -87.334 38.5 -140.001
s17.667 -114.167 21 -184.5s1.33301 -155.5 -6 -255.5c-1.33301 -20 -4.33301 -38.5 -9 -55.5s-10.834 -31.833 -18.501 -44.5s-16.5 -22.667 -26.5 -30s-21 -11 -33 -11h-292c-52.667 -3.33301 -108.5 -8.83301 -167.5 -16.5s-117 -12.667 -174 -15s-111.5 0.5 -163.5 8.5
s-97.167 25.833 -135.5 53.5s-68.166 67.834 -89.499 120.501s-30.333 122.334 -27 209.001c1.33301 24.667 5.16602 50.167 11.499 76.5s16.5 54.5 30.5 84.5c22 54 39.333 81 52 81l55 -2c9.33301 -1.33301 14.666 -5.16602 15.999 -11.499
s1.16602 -14.666 -0.500977 -24.999s-4 -22.166 -7 -35.499s-4.33301 -27.333 -4 -42s3.16602 -29.5 8.49902 -44.5s15.666 -29.5 30.999 -43.5c18.667 -18.667 45.834 -31.334 81.501 -38.001s75.834 -9.66699 120.501 -9s92 4 142 10s98.5 12.333 145.5 19l131.5 18.5
c40.667 5.66699 74 8.5 100 8.5z" />
    <glyph glyph-name="afii57420" unicode="&#x62c;" horiz-adv-x="1148" arabic-form="isolated" 
d="M637 350l163 -164l-163 -166l-166 166zM1148 -278c-5.33301 -16 -17.5049 -32.0039 -36.5049 -48.0039s-42.167 -30.833 -69.5 -44.5s-57.166 -25.667 -89.499 -36s-63.833 -18.166 -94.5 -23.499c-102 -17.333 -196 -20.333 -282 -9s-162.5 33.333 -229.5 66
s-124.167 73.667 -171.5 123s-83.333 103 -108 161s-37.334 118.167 -38.001 180.5s12 122.5 38 180.5s66 112.167 120 162.5s123.333 92.5 208 126.5c-19.333 14.667 -68 28.667 -146 42c-16 2 -35 -1.33301 -57 -10s-43 -17.5 -63 -26.5s-37 -16 -51 -21
s-21 -2.83301 -21 6.5c2 74.667 11.333 133.834 28 177.501s39.167 76 67.5 97s61.833 32.5 100.5 34.5s80.834 -1.83301 126.501 -11.5s94.167 -23.167 145.5 -40.5l158 -52.5c54 -17.667 108.333 -33.334 163 -47.001s108.667 -21.5 162 -23.5
c-13.333 -34 -28.166 -69.333 -44.499 -106s-35.833 -76 -58.5 -118c-125.333 1.33301 -228.5 -6.33398 -309.5 -23.001s-142.5 -39.5 -184.5 -68.5s-66.5 -62.833 -73.5 -101.5s0.833008 -79.167 23.5 -121.5s58.334 -85.166 107.001 -128.499
s107.334 -84.166 176.001 -122.499s145.834 -72.666 231.501 -102.999s176.5 -54.166 272.5 -71.499z" />
    <glyph glyph-name="afii57421" unicode="&#x62d;" horiz-adv-x="1155" arabic-form="isolated" 
d="M1153 -278c-5.33301 -16 -17.6689 -32.0039 -37.002 -48.0039s-42.666 -30.833 -69.999 -44.5s-57.166 -25.667 -89.499 -36s-63.833 -18.166 -94.5 -23.499c-102 -17.333 -195.833 -20.333 -281.5 -9s-162.167 33.333 -229.5 66s-124.666 73.667 -171.999 123
s-83.333 103 -108 161s-37.334 118.167 -38.001 180.5s12 122.5 38 180.5s65.833 112.167 119.5 162.5s122.834 92.5 207.501 126.5c-18 14.667 -66.667 28.667 -146 42c-16 2 -34.833 -1.33301 -56.5 -10s-42.5 -17.5 -62.5 -26.5s-36.833 -16 -50.5 -21
s-20.5 -2.83301 -20.5 6.5c2 74.667 11.333 133.834 28 177.501s39.167 76 67.5 97s61.666 32.5 99.999 34.5s80.333 -1.83301 126 -11.5s94.167 -23.167 145.5 -40.5l158 -52.5c54 -17.667 108.5 -33.334 163.5 -47.001s109.167 -21.5 162.5 -23.5
c-13.333 -34 -28.333 -69.333 -45 -106s-36.334 -76 -59.001 -118c-125.333 1.33301 -228.5 -6.33398 -309.5 -23.001s-142.5 -39.5 -184.5 -68.5s-66.5 -62.833 -73.5 -101.5s0.833008 -79.167 23.5 -121.5s58.5 -85.166 107.5 -128.499s107.833 -84.166 176.5 -122.499
s145.834 -72.666 231.501 -102.999s176.5 -54.166 272.5 -71.499z" />
    <glyph glyph-name="afii57422" unicode="&#x62e;" horiz-adv-x="1134" arabic-form="isolated" 
d="M357 1284l164 -163l-164 -167l-166 167zM1148 -278c-5.33301 -16 -17.5049 -32.0039 -36.5049 -48.0039s-42.167 -30.833 -69.5 -44.5s-57.166 -25.667 -89.499 -36s-63.833 -18.166 -94.5 -23.499c-102 -17.333 -196 -20.333 -282 -9s-162.5 33.333 -229.5 66
s-124.167 73.667 -171.5 123s-83.333 103 -108 161s-37.334 118.167 -38.001 180.5s12 122.5 38 180.5s66 112.167 120 162.5s123.333 92.5 208 126.5c-19.333 14.667 -68 28.667 -146 42c-16 2 -35 -1.33301 -57 -10s-43 -17.5 -63 -26.5s-37 -16 -51 -21
s-21 -2.83301 -21 6.5c2 74.667 11.333 133.834 28 177.501s39.167 76 67.5 97s61.833 32.5 100.5 34.5s80.834 -1.83301 126.501 -11.5s94.167 -23.167 145.5 -40.5l158 -52.5c54 -17.667 108.333 -33.334 163 -47.001s108.667 -21.5 162 -23.5
c-13.333 -34 -28.166 -69.333 -44.499 -106s-35.833 -76 -58.5 -118c-125.333 1.33301 -228.5 -6.33398 -309.5 -23.001s-142.5 -39.5 -184.5 -68.5s-66.5 -62.833 -73.5 -101.5s0.833008 -79.167 23.5 -121.5s58.334 -85.166 107.001 -128.499
s107.334 -84.166 176.001 -122.499s145.834 -72.666 231.501 -102.999s176.5 -54.166 272.5 -71.499z" />
    <glyph glyph-name="afii57423" unicode="&#x62f;" horiz-adv-x="738" arabic-form="isolated" 
d="M284 -15c-36 0 -68.9961 0.832031 -98.9961 2.49902s-56 7.5 -78 17.5s-39.167 26 -51.5 48s-18.166 53.333 -17.499 94l5 289c1.33301 0 3.16602 1.33301 5.49902 4s4.83301 5.83398 7.5 9.50098s5.33398 6.83398 8.00098 9.50098s5 4 7 4
c14.667 -22 32.167 -39.167 52.5 -51.5s42.666 -21.333 66.999 -27s49.666 -8.16699 75.999 -7.5s52.666 2.83398 78.999 6.50098s52 8.5 77 14.5s48.167 12 69.5 18c-10 24 -22 50.167 -36 78.5s-30.5 54.5 -49.5 78.5s-40.5 44.167 -64.5 60.5s-51 24.5 -81 24.5
c-6 0 -14.667 -2.83301 -26 -8.5s-24 -14.167 -38 -25.5c-6 4 -9 11 -9 21c0 -0.666992 1 5.66602 3 18.999s5.33301 29.833 10 49.5s10.667 41.167 18 64.5s16.166 45 26.499 65s22.333 36.667 36 50s29.167 20 46.5 20c32 0 62.667 -8.33301 92 -25
s56.666 -38.834 81.999 -66.501s48.333 -59.334 69 -95.001s39 -72 55 -109s29.167 -73.5 39.5 -109.5s17.5 -68.333 21.5 -97c12.667 -83.333 13.667 -152.333 3 -207s-32.667 -98.167 -66 -130.5s-78.333 -55.166 -135 -68.499s-125 -20 -205 -20z" />
    <glyph glyph-name="afii57424" unicode="&#x630;" horiz-adv-x="755" arabic-form="isolated" 
d="M292 -15c-35.333 0 -68.165 0.832031 -98.498 2.49902s-56.5 7.5 -78.5 17.5s-39.167 26 -51.5 48s-17.833 53.333 -16.5 94l5 289c1.33301 0 3.16602 1.33301 5.49902 4s4.83301 5.83398 7.5 9.50098s5.33398 6.83398 8.00098 9.50098s4.66699 4 6 4
c22 -33.333 50.333 -56 85 -68s71.667 -18 111 -18s78.833 4.33301 118.5 13s75.167 17.334 106.5 26.001c-10 24 -21.833 50.167 -35.5 78.5s-30 54.5 -49 78.5s-40.5 44.167 -64.5 60.5s-51 24.5 -81 24.5c-13.333 0 -35.333 -11.333 -66 -34c-4.66699 4 -7 11 -7 21
c0 -0.666992 1 5.66602 3 18.999s5.16699 29.833 9.5 49.5s10.166 41.167 17.499 64.5s16.166 45 26.499 65s22.333 36.667 36 50s29.167 20 46.5 20c32.667 0 63.5 -8.33301 92.5 -25s56.167 -38.834 81.5 -66.501s48.5 -59.334 69.5 -95.001s39.333 -72 55 -109
s28.667 -73.5 39 -109.5s17.5 -68.333 21.5 -97c12.667 -83.333 13.834 -152.333 3.50098 -207s-32.333 -98.167 -66 -130.5s-78.834 -55.166 -135.501 -68.499s-125 -20 -205 -20zM374.001 1372l164 -164l-164 -166l-166 166z" />
    <glyph glyph-name="afii57425" unicode="&#x631;" horiz-adv-x="670" arabic-form="isolated" 
d="M285 713c43.333 -11.333 83.665 -33.168 120.998 -65.501s70.333 -72.166 99 -119.499s52.334 -99.833 71.001 -157.5s30.834 -117.334 36.501 -179.001s4.5 -123.167 -3.5 -184.5s-24.333 -119 -49 -173s-58.5 -102.667 -101.5 -146s-96.167 -77.333 -159.5 -102
c-6 -2.66699 -17.167 -1.66699 -33.5 3s-35.5 11.334 -57.5 20.001s-45.5 18.5 -70.5 29.5l-72 32l-63.5 28c-19.333 8.33301 -34 14.166 -44 17.499l10 39c62 0.666992 121 11 177 31s105.833 46.667 149.5 80s79.167 72.333 106.5 117s43 92 47 142
c-7.33301 38.667 -19.166 73.334 -35.499 104.001s-35.833 58 -58.5 82s-47.834 45.5 -75.501 64.5s-56.167 36.167 -85.5 51.5z" />
    <glyph glyph-name="afii57426" unicode="&#x632;" horiz-adv-x="670" arabic-form="isolated" 
d="M285 713c43.333 -11.333 83.665 -33.168 120.998 -65.501s70.333 -72.166 99 -119.499s52.334 -99.833 71.001 -157.5s30.834 -117.334 36.501 -179.001s4.5 -123.167 -3.5 -184.5s-24.333 -119 -49 -173s-58.5 -102.667 -101.5 -146s-96.167 -77.333 -159.5 -102
c-6 -2.66699 -17.167 -1.66699 -33.5 3s-35.5 11.334 -57.5 20.001s-45.5 18.5 -70.5 29.5l-72 32l-63.5 28c-19.333 8.33301 -34 14.166 -44 17.499l10 39c62 0.666992 121 11 177 31s105.833 46.667 149.5 80s79.167 72.333 106.5 117s43 92 47 142
c-7.33301 38.667 -19.166 73.334 -35.499 104.001s-35.833 58 -58.5 82s-47.834 45.5 -75.501 64.5s-56.167 36.167 -85.5 51.5zM313.999 1105l164 -165l-164 -165l-166 165z" />
    <glyph glyph-name="afii57427" unicode="&#x633;" horiz-adv-x="1831" arabic-form="isolated" 
d="M1376 63c-20 0 -37.666 -3.33301 -52.999 -10s-30 -14.167 -44 -22.5s-28.667 -15.833 -44 -22.5s-33.333 -10 -54 -10h-314c-24 -44.667 -50.667 -86.5 -80 -125.5s-62.166 -73 -98.499 -102s-76.166 -52 -119.499 -69s-90.666 -25.5 -141.999 -25.5
c-94.667 0 -178.334 26.333 -251.001 79c-45.333 32 -78.666 71 -99.999 117s-34.166 95.167 -38.499 147.5s-1.5 105.5 8.5 159.5s24.333 104.833 43 152.5s39.834 90.167 63.501 127.5s47.167 65 70.5 83l48 -30c-6.66699 -8.66699 -14.167 -20.334 -22.5 -35.001
s-16.333 -31.667 -24 -51s-14 -40.833 -19 -64.5s-7.5 -48.5 -7.5 -74.5c0 -168.667 106.333 -253 319 -253c44 0 83.667 8.16699 119 24.5s69 37.166 101 62.499c-6.66699 56 -11 106.833 -13 152.5s-0.5 90 4.5 133s14.333 86.167 28 129.5s32.5 90.333 56.5 141l73 -51
c0 -26.667 0.5 -51.334 1.5 -74.001s3.33301 -43.334 7 -62.001s9 -35 16 -49s16.167 -25.333 27.5 -34c17.333 0 32.333 -0.166992 45 -0.5l37 -1c12 -0.333008 24.667 -0.5 38 -0.5s29 0.666992 47 2c13.333 0.666992 25.5 6.33398 36.5 17.001s20.667 23.834 29 39.501
s15.666 33 21.999 52s11.666 37.333 15.999 55s7.83301 33.834 10.5 48.501l6 33l99 -54c6 -22 15 -44.667 27 -68s28.333 -46 49 -68s46.167 -42.667 76.5 -62s67.166 -36.333 110.499 -51c-2 22 -5 47.333 -9 76s-8.66699 58 -14 88s-11.5 59 -18.5 87
s-14.833 52.333 -23.5 73l191 170c6.66699 -2 14.167 -14.167 22.5 -36.5s16.166 -51.5 23.499 -87.5s13.666 -77.333 18.999 -124s8.16602 -95.167 8.49902 -145.5s-2.5 -101 -8.5 -152s-16.333 -98.667 -31 -143s-34.5 -84.166 -59.5 -119.499s-56.5 -62.333 -94.5 -81z
" />
    <glyph glyph-name="afii57428" unicode="&#x634;" horiz-adv-x="1831" arabic-form="isolated" 
d="M1376 63c-20 0 -37.666 -3.33301 -52.999 -10s-30 -14.167 -44 -22.5s-28.667 -15.833 -44 -22.5s-33.333 -10 -54 -10h-314c-24 -44.667 -50.667 -86.5 -80 -125.5s-62.166 -73 -98.499 -102s-76.166 -52 -119.499 -69s-90.666 -25.5 -141.999 -25.5
c-94.667 0 -178.334 26.333 -251.001 79c-45.333 32 -78.666 71 -99.999 117s-34.166 95.167 -38.499 147.5s-1.5 105.5 8.5 159.5s24.333 104.833 43 152.5s39.834 90.167 63.501 127.5s47.167 65 70.5 83l48 -30c-6.66699 -8.66699 -14.167 -20.334 -22.5 -35.001
s-16.333 -31.667 -24 -51s-14 -40.833 -19 -64.5s-7.5 -48.5 -7.5 -74.5c0 -168.667 106.333 -253 319 -253c44 0 83.667 8.16699 119 24.5s69 37.166 101 62.499c-6.66699 56 -11 106.833 -13 152.5s-0.5 90 4.5 133s14.333 86.167 28 129.5s32.5 90.333 56.5 141l73 -51
c0 -26.667 0.5 -51.334 1.5 -74.001s3.33301 -43.334 7 -62.001s9 -35 16 -49s16.167 -25.333 27.5 -34c17.333 0 32.333 -0.166992 45 -0.5l37 -1c12 -0.333008 24.667 -0.5 38 -0.5s29 0.666992 47 2c13.333 0.666992 25.5 6.33398 36.5 17.001s20.667 23.834 29 39.501
s15.666 33 21.999 52s11.666 37.333 15.999 55s7.83301 33.834 10.5 48.501l6 33l99 -54c6 -22 15 -44.667 27 -68s28.333 -46 49 -68s46.167 -42.667 76.5 -62s67.166 -36.333 110.499 -51c-2 22 -5 47.333 -9 76s-8.66699 58 -14 88s-11.5 59 -18.5 87
s-14.833 52.333 -23.5 73l191 170c6.66699 -2 14.167 -14.167 22.5 -36.5s16.166 -51.5 23.499 -87.5s13.666 -77.333 18.999 -124s8.16602 -95.167 8.49902 -145.5s-2.5 -101 -8.5 -152s-16.333 -98.667 -31 -143s-34.5 -84.166 -59.5 -119.499s-56.5 -62.333 -94.5 -81z
M1092 1134l114 -111l114 111l157 -155l-157 -160l-114 114l-114 -114l-158 160zM1207 1439l157 -156l-157 -160l-147 160z" />
    <glyph glyph-name="afii57429" unicode="&#x635;" horiz-adv-x="1931" arabic-form="isolated" 
d="M872 -2c-23.333 -44 -49.833 -85.665 -79.5 -124.998s-62.667 -73.5 -99 -102.5s-76.166 -52 -119.499 -69s-90.333 -25.5 -141 -25.5c-95.333 0 -180.333 26.667 -255 80c-44.667 31.333 -77.667 70 -99 116s-34 95 -38 147s-1 104.833 9 158.5
s24.167 104.334 42.5 152.001s39.333 90.167 63 127.5s46.834 65.666 69.501 84.999l51 -30c-6 -8.66699 -13.167 -20.167 -21.5 -34.5s-16.333 -31.333 -24 -51s-14.167 -41.334 -19.5 -65.001s-8 -49.167 -8 -76.5c0 -84 26.167 -146.833 78.5 -188.5
s132.166 -62.5 239.499 -62.5c44 0 83.333 8.33301 118 25s68.334 37.334 101.001 62.001c-6.66699 56 -10.834 107 -12.501 153s0.333008 90.5 6 133.5s15.334 85.833 29.001 128.5s32.834 88.334 57.501 137.001l72 -43c-1.33301 -56 0.833984 -102.667 6.50098 -140
s19.834 -65 42.501 -83c8.66699 -12 23.167 -13.833 43.5 -5.5s44 23 71 44s56.333 46 88 75l96.5 88l96 83.5c31.333 26 60 46.333 86 61c18.667 10.667 39.667 20.167 63 28.5s47.166 14.166 71.499 17.499s48.666 3.5 72.999 0.5s47.166 -9.83301 68.499 -20.5
c33.333 -16.667 61.166 -39.667 83.499 -69s40.666 -62.5 54.999 -99.5s25.166 -76.5 32.499 -118.5s12.5 -83.833 15.5 -125.5s4.66699 -81.834 5 -120.501s0.5 -73.334 0.5 -104.001c0 -20 -2.5 -38.667 -7.5 -56s-11.667 -32.5 -20 -45.5s-18.166 -23.333 -29.499 -31
s-23.333 -11.5 -36 -11.5h-925zM1646 407.002c-7.33301 44 -19.667 77.833 -37 101.5s-38 39.167 -62 46.5s-50 7.83301 -78 1.5s-55.833 -16.833 -83.5 -31.5s-54.5 -32.5 -80.5 -53.5s-48.667 -42.5 -68 -64.5h409z" />
    <glyph glyph-name="afii57430" unicode="&#x636;" horiz-adv-x="1931" arabic-form="isolated" 
d="M872 -2c-23.333 -44 -49.833 -85.665 -79.5 -124.998s-62.667 -73.5 -99 -102.5s-76.166 -52 -119.499 -69s-90.333 -25.5 -141 -25.5c-95.333 0 -180.333 26.667 -255 80c-44.667 31.333 -77.667 70 -99 116s-34 95 -38 147s-1 104.833 9 158.5
s24.167 104.334 42.5 152.001s39.333 90.167 63 127.5s46.834 65.666 69.501 84.999l51 -30c-6 -8.66699 -13.167 -20.167 -21.5 -34.5s-16.333 -31.333 -24 -51s-14.167 -41.334 -19.5 -65.001s-8 -49.167 -8 -76.5c0 -84 26.167 -146.833 78.5 -188.5
s132.166 -62.5 239.499 -62.5c44 0 83.333 8.33301 118 25s68.334 37.334 101.001 62.001c-6.66699 56 -10.834 107 -12.501 153s0.333008 90.5 6 133.5s15.334 85.833 29.001 128.5s32.834 88.334 57.501 137.001l72 -43c-1.33301 -56 0.833984 -102.667 6.50098 -140
s19.834 -65 42.501 -83c8.66699 -12 23.167 -13.833 43.5 -5.5s44 23 71 44s56.333 46 88 75l96.5 88l96 83.5c31.333 26 60 46.333 86 61c18.667 10.667 39.667 20.167 63 28.5s47.166 14.166 71.499 17.499s48.666 3.5 72.999 0.5s47.166 -9.83301 68.499 -20.5
c33.333 -16.667 61.166 -39.667 83.499 -69s40.666 -62.5 54.999 -99.5s25.166 -76.5 32.499 -118.5s12.5 -83.833 15.5 -125.5s4.66699 -81.834 5 -120.501s0.5 -73.334 0.5 -104.001c0 -20 -2.5 -38.667 -7.5 -56s-11.667 -32.5 -20 -45.5s-18.166 -23.333 -29.499 -31
s-23.333 -11.5 -36 -11.5h-925zM1096 1080l163 -164l-163 -166l-167 166zM1646 407.002c-7.33301 44 -19.667 77.833 -37 101.5s-38 39.167 -62 46.5s-50 7.83301 -78 1.5s-55.833 -16.833 -83.5 -31.5s-54.5 -32.5 -80.5 -53.5s-48.667 -42.5 -68 -64.5h409z" />
    <glyph glyph-name="afii57431" unicode="&#x637;" horiz-adv-x="1372" arabic-form="isolated" 
d="M299 1087l280.002 111.003l72 -278l-72 -82c-2.66699 -73.333 -8 -144.833 -16 -214.5s-19.667 -138.5 -35 -206.5c21.333 24 43.5 50.5 66.5 79.5l72 86.5c25 28.667 51.333 56.667 79 84s57.167 51.666 88.5 72.999s64.5 38.666 99.5 51.999s72.5 20.666 112.5 21.999
c58 2 105.667 -8 143 -30s67.166 -51.5 89.499 -88.5s38.166 -79.667 47.499 -128s15 -97.666 17 -147.999s1.5 -99.833 -1.5 -148.5s-6.16699 -91.667 -9.5 -129c-1.33301 -19.333 -7.33301 -37.833 -18 -55.5s-23.167 -33 -37.5 -46s-29.5 -23.333 -45.5 -31
s-30.333 -11.5 -43 -11.5h-792c-91.333 14.667 -168.333 59.667 -231 135s-107.334 179 -134.001 311l17 34c62.667 -36 114.834 -61.167 156.501 -75.5s75 -19.833 100 -16.5s42.833 14.833 53.5 34.5s16.667 45.667 18 78s-1.16699 70 -7.5 113s-13.833 90 -22.5 141
l-26.5 161c-9 56.333 -15.833 114.166 -20.5 173.499zM1092 408.003c-7.33301 44.667 -19.832 79 -37.499 103s-38.334 39.667 -62.001 47s-49.5 7.83301 -77.5 1.5s-56 -17 -84 -32s-54.833 -33 -80.5 -54s-48.167 -42.833 -67.5 -65.5h409z" />
    <glyph glyph-name="afii57432" unicode="&#x638;" horiz-adv-x="1372" arabic-form="isolated" 
d="M299 1087l280.002 111.003l72 -278l-72 -82c-2.66699 -73.333 -8 -144.833 -16 -214.5s-19.667 -138.5 -35 -206.5c21.333 24 43.5 50.5 66.5 79.5l72 86.5c25 28.667 51.333 56.667 79 84s57.167 51.666 88.5 72.999s64.5 38.666 99.5 51.999s72.5 20.666 112.5 21.999
c58 2 105.667 -8 143 -30s67.166 -51.5 89.499 -88.5s38.166 -79.667 47.499 -128s15 -97.666 17 -147.999s1.5 -99.833 -1.5 -148.5s-6.16699 -91.667 -9.5 -129c-1.33301 -19.333 -7.33301 -37.833 -18 -55.5s-23.167 -33 -37.5 -46s-29.5 -23.333 -45.5 -31
s-30.333 -11.5 -43 -11.5h-792c-91.333 14.667 -168.333 59.667 -231 135s-107.334 179 -134.001 311l17 34c62.667 -36 114.834 -61.167 156.501 -75.5s75 -19.833 100 -16.5s42.833 14.833 53.5 34.5s16.667 45.667 18 78s-1.16699 70 -7.5 113s-13.833 90 -22.5 141
l-26.5 161c-9 56.333 -15.833 114.166 -20.5 173.499zM892.002 1209l163 -164l-163 -165l-166 165zM1092 408.003c-7.33301 44.667 -19.832 79 -37.499 103s-38.334 39.667 -62.001 47s-49.5 7.83301 -77.5 1.5s-56 -17 -84 -32s-54.833 -33 -80.5 -54
s-48.167 -42.833 -67.5 -65.5h409z" />
    <glyph glyph-name="afii57433" unicode="&#x639;" horiz-adv-x="1139" arabic-form="isolated" 
d="M1144 -271c-5.33301 -16.667 -17.5098 -33.0029 -36.5098 -49.0029s-42.167 -30.667 -69.5 -44s-57 -25.166 -89 -35.499s-63.333 -18.166 -94 -23.499c-98 -17.333 -188.5 -20.833 -271.5 -10.5s-157.667 30.333 -224 60s-123.333 67.5 -171 113.5
s-85.167 96.167 -112.5 150.5s-43.666 111.333 -48.999 171s1.33398 118.167 20.001 175.5s50 111.5 94 162.5s101.667 95.5 173 133.5c-12 13.333 -24.667 25.833 -38 37.5s-25.666 23.834 -36.999 36.501s-20.666 26 -27.999 40s-11 29.667 -11 47
c0 24 2.16699 50.667 6.5 80s10.333 58.833 18 88.5s16.334 58.5 26.001 86.5s20.167 53 31.5 75c32.667 64.667 70.667 112.334 114 143.001s87.333 46.667 132 48s87.834 -10.834 129.501 -36.501s77.167 -62.5 106.5 -110.5l-40 -89
c-22.667 6.66699 -48.667 12.167 -78 16.5s-58.666 5.16602 -87.999 2.49902c-47.333 -4.66699 -82.666 -13 -105.999 -25s-36.833 -25.5 -40.5 -40.5s1.33301 -31.167 15 -48.5s33.834 -33.5 60.501 -48.5s58.667 -28.333 96 -40s77.833 -19.834 121.5 -24.501
s89.167 -4.66699 136.5 0s94.666 15.334 141.999 32.001l-81 -334c-126 1.33301 -229.333 -6.5 -310 -23.5s-142.167 -40.167 -184.5 -69.5s-66.833 -63.333 -73.5 -102s1.33301 -79.167 24 -121.5s58.334 -85 107.001 -128s107.334 -83.667 176.001 -122
s145.667 -72.666 231 -102.999s176 -53.833 272 -70.5z" />
    <glyph glyph-name="afii57434" unicode="&#x63a;" horiz-adv-x="1148" arabic-form="isolated" 
d="M1157 -271c-5.33301 -16.667 -17.5088 -33.0029 -36.5088 -49.0029s-42.167 -30.667 -69.5 -44s-57.166 -25.166 -89.499 -35.499s-63.833 -18.166 -94.5 -23.499c-98 -17.333 -188.5 -20.833 -271.5 -10.5s-157.5 30.333 -223.5 60s-123 67.5 -171 113.5
s-85.5 96.167 -112.5 150.5s-43.333 111.333 -49 171s1 118.167 20 175.5s50.5 111.5 94.5 162.5s101.667 95.5 173 133.5c-12 13.333 -24.667 25.833 -38 37.5s-25.666 23.834 -36.999 36.501s-20.666 26 -27.999 40s-11 29.667 -11 47c0 24 2.16699 50.667 6.5 80
s10.333 58.833 18 88.5s16.334 58.5 26.001 86.5s19.834 53 30.501 75c32.667 64.667 70.834 112.334 114.501 143.001s87.834 46.667 132.501 48s87.834 -10.834 129.501 -36.501s77.167 -62.5 106.5 -110.5l-41 -89c-21.333 6.66699 -47 12.167 -77 16.5
s-59.667 5.16602 -89 2.49902c-47.333 -4.66699 -82.5 -13 -105.5 -25s-36.333 -25.5 -40 -40.5s1.33301 -31.167 15 -48.5s33.834 -33.5 60.501 -48.5s58.667 -28.333 96 -40s77.833 -19.834 121.5 -24.501s89.167 -4.66699 136.5 0s94.666 15.334 141.999 32.001l-82 -334
c-125.333 1.33301 -228.333 -6.5 -309 -23.5s-142.167 -40.167 -184.5 -69.5s-66.833 -63.333 -73.5 -102s1.16602 -79.167 23.499 -121.5s57.833 -85 106.5 -128s107.334 -83.667 176.001 -122s145.834 -72.666 231.501 -102.999s176.5 -53.833 272.5 -70.5zM678.991 1618
l163 -163l-163 -167l-167 167z" />
    <glyph glyph-name="afii57441" unicode="&#x641;" horiz-adv-x="1376" arabic-form="isolated" 
d="M730 -4c-52 -4 -105.833 -9.66992 -161.5 -17.0029s-109.667 -11.666 -162 -12.999s-101.666 2.33398 -147.999 11.001s-86.5 27.167 -120.5 55.5s-60.167 68.5 -78.5 120.5s-25.833 120.333 -22.5 205c0 25.333 3 51.666 9 78.999s15.667 55.666 29 84.999
c23.333 52.667 40.666 79 51.999 79l56 -2c9.33301 -0.666992 14.833 -4.16699 16.5 -10.5s1.83398 -14.666 0.500977 -24.999s-3.5 -22.166 -6.5 -35.499s-4.33301 -27.333 -4 -42s3.16602 -29.667 8.49902 -45s15.333 -30 30 -44c18 -18.667 44.167 -31.5 78.5 -38.5
s73.333 -10.167 117 -9.5s89.834 3.66699 138.501 9s96 11.333 142 18l140 15c-4 4.66699 -7.83301 10.667 -11.5 18s-7.16699 15 -10.5 23s-6.33301 15.667 -9 23l-7 20c-8 25.333 -10.5 53.166 -7.5 83.499s10 60.833 21 91.5s25.667 60.167 44 88.5s39 53 62 74
s48 37.167 75 48.5s54.833 15.333 83.5 12c14.667 -1.33301 30 -7 46 -17s31.833 -23.167 47.5 -39.5s30.667 -35.166 45 -56.499s27.5 -44 39.5 -68c52.667 -101.333 79 -217.333 79 -348c0 -61.333 -2.33301 -112.666 -7 -153.999s-9 -73 -13 -95
c-3.33301 -15.333 -8.83301 -28.833 -16.5 -40.5s-16.834 -21.5 -27.501 -29.5s-22.5 -14.167 -35.5 -18.5s-26.5 -6.83301 -40.5 -7.5h-430zM892 1288l163 -163l-163 -166l-166 166zM1046 618.997c-26.667 -14 -44.332 -28.499 -52.999 -43.499s-11.334 -30 -8.00098 -45
s11.5 -29.333 24.5 -43s27.833 -26.5 44.5 -38.5c30 -21.333 53.833 -36 71.5 -44s30.5 -11.333 38.5 -10s12.333 6.83301 13 16.5s-1 21.5 -5 35.5s-9.5 29.5 -16.5 46.5s-13.5 33.5 -19.5 49.5c-5.33301 12.667 -11 24.834 -17 36.501s-12.667 21.167 -20 28.5
s-15.5 12.166 -24.5 14.499s-18.5 1.16602 -28.5 -3.50098z" />
    <glyph glyph-name="afii57442" unicode="&#x642;" horiz-adv-x="1018" arabic-form="isolated" 
d="M475 -365c-78 -8.66699 -146.339 -0.663086 -205.006 24.0039s-106.667 60 -144 106s-63.666 99.333 -78.999 160s-18.833 122.5 -10.5 185.5s29 124.167 62 183.5s78.833 110.666 137.5 153.999c34.667 10 52 0 52 -30c-25.333 -47.333 -43 -97 -53 -149
s-11.667 -101.5 -5 -148.5s22 -88.833 46 -125.5s57.333 -62.667 100 -78s95.334 -17.5 158.001 -6.5s135.667 40.167 219 87.5c-73.333 -6 -134.666 -0.666992 -183.999 16s-88.666 40.834 -117.999 72.501s-49.333 69 -60 112s-13.5 88 -8.5 135s17.167 94 36.5 141
s44 90.167 74 129.5s64.833 73 104.5 101s82.5 46.667 128.5 56c22.667 4.66699 46.834 -2.33301 72.501 -21s49.834 -45.667 72.501 -81c41.333 -66.667 71 -136.834 89 -210.501s24.833 -147 20.5 -220s-18.833 -143.333 -43.5 -211s-58.667 -128.334 -102 -182.001
s-95.333 -98.334 -156 -134.001s-128.667 -57.834 -204 -66.501zM293.994 1113l114 -111l114 111l157 -155l-157 -160l-114 114l-114 -114l-158 160zM791.994 399.004c-4.66699 10 -10.4961 23.166 -17.4961 39.499s-15.333 32.5 -25 48.5s-20.334 29.667 -32.001 41
s-24.834 17 -39.501 17c-32 0 -53 -8.16699 -63 -24.5s-11.167 -34.5 -3.5 -54.5s23.167 -38.167 46.5 -54.5s52.333 -24.5 87 -24.5c7.33301 0 15.166 0.833008 23.499 2.5s16.166 4.83398 23.499 9.50098z" />
    <glyph glyph-name="afii57443" unicode="&#x643;" horiz-adv-x="1213" arabic-form="isolated" 
d="M1126 -2l-24.9902 0.000976562h-309c-39.333 -2.66699 -80.666 -6.5 -123.999 -11.5s-86.666 -9.5 -129.999 -13.5s-86.333 -6.33301 -129 -7s-83 2.5 -121 9.5s-72.833 18.667 -104.5 35s-58.834 39.333 -81.501 69s-40 67.167 -52 112.5s-16.667 100.666 -14 165.999
c0.666992 24.667 4.16699 50.167 10.5 76.5s16.5 54.5 30.5 84.5c21.333 54 38.666 81 51.999 81l55 -1c9.33301 -0.666992 14.833 -4.16699 16.5 -10.5s1.5 -14.666 -0.5 -24.999s-4.5 -22 -7.5 -35s-4.33301 -27 -4 -42s3.16602 -30.167 8.49902 -45.5
s15.666 -30.333 30.999 -45c10 -10 26.667 -17.5 50 -22.5s50.666 -8.33301 81.999 -10s65.666 -1.83398 102.999 -0.500977s75.666 3.33301 114.999 6s78.166 6 116.499 10l107.5 11.5l88.5 9.5c25.667 2.66699 45.5 4.33398 59.5 5.00098h14l-31 60
c-9.33301 40 -31.666 73.833 -66.999 101.5s-83.666 48.167 -144.999 61.5l-47 -24l-197 88c-6.66699 4 -11.5 14.167 -14.5 30.5s-4.5 35.833 -4.5 58.5s1 47.167 3 73.5s4.66699 51.166 8 74.499s6.66602 43.833 9.99902 61.5s6.33301 29.5 9 35.5c12 22.667 32 45 60 67
s60.333 42.833 97 62.5s76.167 37.667 118.5 54s84.166 30.333 125.499 42s80.166 20.834 116.499 27.501s66.833 10 91.5 10c18 0 31.833 -6 41.5 -18s16.334 -27.333 20.001 -46s5 -39.5 4 -62.5s-3.33301 -45.333 -7 -67s-8 -41.334 -13 -59.001
s-9.16699 -30.834 -12.5 -39.501l-27 23c-12 10 -27.333 15.667 -46 17c-14.667 0.666992 -33.834 -1.16602 -57.501 -5.49902s-49 -10.333 -76 -18s-54.167 -16.5 -81.5 -26.5s-52 -20.667 -74 -32s-40 -22.833 -54 -34.5s-21 -22.5 -21 -32.5
c83.333 -12 153.666 -33.667 210.999 -65s104.166 -68.833 140.499 -112.5s63.5 -92.167 81.5 -145.5c17.333 -52 28.666 -105.333 33.999 -160l2 -16l2 -27c2.66699 -46 2 -92 -2 -138c-4.66699 -58 -11.667 -113.333 -21 -166z" />
    <glyph glyph-name="afii57444" unicode="&#x644;" horiz-adv-x="1039" arabic-form="isolated" 
d="M945 1201l71.9971 -277.998l-72 -83c3.33301 -70 7.83301 -140.833 13.5 -212.5s8.66699 -143 9 -214s-3.5 -141 -11.5 -210s-23.667 -135.833 -47 -200.5c-24 -53.333 -51.667 -104 -83 -152s-66.666 -90 -105.999 -126s-82.833 -64.5 -130.5 -85.5
s-100.167 -31.5 -157.5 -31.5c-96.667 0 -181.334 26.333 -254.001 79c-44.667 31.333 -77.667 70 -99 116s-34.166 94.833 -38.499 146.5s-1.33301 104.334 9 158.001s24.666 104.334 42.999 152.001s39.333 90 63 127s46.834 64.833 69.501 83.5l50 -29
c-6.66699 -8.66699 -14.167 -20.334 -22.5 -35.001s-16.166 -31.834 -23.499 -51.501s-13.5 -41.167 -18.5 -64.5s-7.5 -48.333 -7.5 -75c0 -168.667 105.667 -253 317 -253c16.667 0 34.667 1.83301 54 5.5s38.666 9.16699 57.999 16.5s38 16.166 56 26.499
s34.333 22.166 49 35.499c4 49.333 4.83301 105 2.5 167s-7.66602 133.333 -15.999 214s-19.666 172.5 -33.999 275.5s-31.833 220.167 -52.5 351.5z" />
    <glyph glyph-name="afii57445" unicode="&#x645;" horiz-adv-x="855" arabic-form="isolated" 
d="M231 -23l38.9932 -118.491c12.667 -39 24 -78.5 34 -118.5c11.333 -41.333 18.5 -79 21.5 -113s3.16699 -66.833 0.5 -98.5s-7.83398 -63.334 -15.501 -95.001s-16.5 -65.834 -26.5 -102.501h-23c-19.333 60.667 -40.666 120.167 -63.999 178.5s-46 117.833 -68 178.5
c-22 56 -42.167 112.667 -60.5 170s-29.166 116.666 -32.499 177.999c0 5.33301 -0.5 11.166 -1.5 17.499s-0.5 12.166 1.5 17.499c2.66699 14.667 8.66699 31.834 18 51.501s19.833 39.167 31.5 58.5s23.834 37.5 36.501 54.5s24 30.5 34 40.5
c6.66699 7.33301 16.834 14 30.501 20s31.834 11.5 54.501 16.5s50 9.5 82 13.5s70 7.66699 114 11c-18.667 31.333 -37.667 54 -57 68s-38.166 22.333 -56.499 25s-35.833 1.16699 -52.5 -4.5s-32 -12.5 -46 -20.5c-20 -11.333 -34.5 -18.666 -43.5 -21.999
s-14.333 -2.83301 -16 1.5s-0.333984 12.5 3.99902 24.5l17.5 48c32.667 65.333 66.334 114.666 101.001 147.999s69.167 54.666 103.5 63.999s68.333 8.83301 102 -1.5s65.834 -26.833 96.501 -49.5s59.5 -49.334 86.5 -80.001s51 -61.5 72 -92.5s38.5 -60 52.5 -87
s23.667 -47.833 29 -62.5l-122 -374l-118.5 46c-40.333 15.333 -80.666 27.166 -120.999 35.499s-80.5 11.166 -120.5 8.49902s-79 -14.334 -117 -35.001z" />
    <glyph glyph-name="afii57446" unicode="&#x646;" horiz-adv-x="976" arabic-form="isolated" 
d="M837 730c20 -52.667 39.668 -108.333 59.001 -167s33.833 -118 43.5 -178s12.5 -119.667 8.5 -179s-19.333 -115.666 -46 -168.999c-23.333 -53.333 -50.5 -104 -81.5 -152s-66.167 -90.167 -105.5 -126.5s-83 -65.166 -131 -86.499s-101 -32 -159 -32
c-96.667 0 -181.334 26 -254.001 78c-44.667 32 -77.5 71.167 -98.5 117.5s-33.5 95.5 -37.5 147.5s-0.833008 105 9.5 159s24.666 104.833 42.999 152.5s39.333 90 63 127s46.834 64.833 69.501 83.5l47 -29c-6 -8.66699 -13.167 -20.334 -21.5 -35.001
s-16.333 -31.834 -24 -51.501s-14.167 -41.5 -19.5 -65.5s-8 -49.333 -8 -76c0 -84 26.667 -146.833 80 -188.5s132.666 -62.5 237.999 -62.5c26.667 0 51.667 3.33301 75 10s45.833 15.667 67.5 27s42.5 24 62.5 38s39.667 28.667 59 44
c-13.333 69.333 -30.666 140.833 -51.999 214.5s-47 150.5 -77 230.5zM458.001 986.001l163 -164l-163 -166l-167 166z" />
    <glyph glyph-name="afii57470" unicode="&#x647;" horiz-adv-x="663" arabic-form="isolated" 
d="M571 157c-34 -62 -70.8311 -106.833 -110.498 -134.5s-79.167 -42.667 -118.5 -45s-77 6 -113 25s-67.667 44.167 -95 75.5s-48.666 66.5 -63.999 105.5s-22 77.167 -20 114.5c4 77.333 16.333 148.666 37 213.999s50.667 130.333 90 195l27.5 49.5
c9.66699 17 19.667 33 30 48s21.333 28 33 39s24.667 18.5 39 22.5s29.666 3.83301 45.999 -0.5s34.5 -14.5 54.5 -30.5c49.333 -42 89.666 -89.5 120.999 -142.5s53.666 -109 66.999 -168s18 -119.667 14 -182s-16.667 -124.166 -38 -185.499zM445.002 370
c3.33301 8 2.66895 19.168 -1.99805 33.501s-11.834 29.666 -21.501 45.999s-21 32.666 -34 48.999s-26.167 30.833 -39.5 43.5s-26.333 22.5 -39 29.5s-23 9.16699 -31 6.5c-17.333 -6 -31.333 -17.667 -42 -35s-17 -36.666 -19 -57.999s0.5 -42.833 7.5 -64.5
s19.5 -39.167 37.5 -52.5s42.167 -20.833 72.5 -22.5s67.166 6.5 110.499 24.5z" />
    <glyph glyph-name="afii57448" unicode="&#x648;" horiz-adv-x="679" arabic-form="isolated" 
d="M281 -4c-46.667 -3.33301 -85.8252 4.99609 -117.492 24.9961s-56.334 47.5 -74.001 82.5s-29.167 75.333 -34.5 121s-5.16602 92.834 0.500977 141.501s16.167 96.834 31.5 144.501s34.666 90.834 57.999 129.501s50.166 70.667 80.499 96s63.166 40.333 98.499 45
c55.333 -15.333 103.333 -43 144 -83s74.167 -87.667 100.5 -143s45.5 -116.166 57.5 -182.499s17.167 -133.5 15.5 -201.5s-10.334 -134.5 -26.001 -199.5s-37.834 -124.167 -66.501 -177.5s-63.834 -98.5 -105.501 -135.5s-89.834 -61.167 -144.501 -72.5
c-6.66699 -1.33301 -18.167 0.5 -34.5 5.5s-35.5 11.667 -57.5 20s-45.333 18 -70 29l-72 31.5l-63.5 27c-19 8 -33.5 13.667 -43.5 17l10 39c62 0.666992 121 11 177 31s105.833 46.667 149.5 80s79.167 72.333 106.5 117s43 92 47 142
c-9.33301 -10 -21.833 -21.333 -37.5 -34s-31.834 -25 -48.501 -37l-47.5 -33.5c-15 -10.333 -26.167 -18.5 -33.5 -24.5zM424.009 410.996c-4 8.66699 -9.83691 20.498 -17.5039 35.498s-16.667 30.333 -27 46s-21.666 30 -33.999 43s-24.833 21.5 -37.5 25.5
c-9.33301 0 -18.666 -3.16699 -27.999 -9.5s-17.833 -14.166 -25.5 -23.499s-14 -19.166 -19 -29.499s-7.5 -19.833 -7.5 -28.5c10.667 -24 26.334 -42 47.001 -54s41.667 -19.667 63 -23s40.333 -3 57 1s26.334 9.66699 29.001 17z" />
    <glyph glyph-name="afii57449" unicode="&#x649;" horiz-adv-x="1047" arabic-form="isolated" 
d="M808 10c-86 13.333 -156.828 34.5029 -212.495 63.5029s-96 64.667 -121 107s-34.333 90.833 -28 145.5s28.166 115 65.499 181c13.333 23.333 31.833 49.5 55.5 78.5s50.167 57.667 79.5 86s60.166 54.833 92.499 79.5s63.666 44.5 93.999 59.5s58.5 23.5 84.5 25.5
s47.167 -5.5 63.5 -22.5s26.666 -45.167 30.999 -84.5s0.166016 -92.666 -12.501 -159.999l-60 -41c-2 -1.33301 -4 0.166992 -6 4.5s-4.83301 9.66602 -8.5 15.999s-8.33398 12.833 -14.001 19.5s-13.167 11.5 -22.5 14.5s-20.5 3.16699 -33.5 0.5
s-28.833 -9.66699 -47.5 -21c-32 -20.667 -55.167 -37.834 -69.5 -51.501s-22.166 -25.167 -23.499 -34.5s2.83398 -16.833 12.501 -22.5s22.834 -10.5 39.501 -14.5c14.667 -6 31.667 -12.333 51 -19s39 -15.334 59 -26.001s39.167 -23.834 57.5 -39.501
s33.833 -35.667 46.5 -60s21.834 -53.833 27.501 -88.5s5.83398 -76 0.500977 -124c-4.66699 -45.333 -16.334 -89 -35.001 -131s-42 -81.5 -70 -118.5s-59.667 -71 -95 -102s-72 -57.667 -110 -80s-76.333 -39.833 -115 -52.5s-75.334 -19.334 -110.001 -20.001
c-78.667 -2.66699 -147.334 9.5 -206.001 36.5s-106.667 63.333 -144 109s-63.666 98.167 -78.999 157.5s-19 119.666 -11 180.999s28.333 121 61 179s78 109 136 153c37.333 7.33301 56 -3.66699 56 -33c-38 -70 -54.333 -137.167 -49 -201.5s26.333 -123.5 63 -177.5
c19.333 -28.667 43.166 -51.5 71.499 -68.5s58.666 -28.667 90.999 -35s65.333 -7.66602 99 -3.99902s66 11.334 97 23.001s59.5 27 85.5 46s47 41.167 63 66.5z" />
    <glyph glyph-name="afii57450" unicode="&#x64a;" horiz-adv-x="1047" arabic-form="isolated" 
d="M808 10c-86 13.333 -156.828 34.5029 -212.495 63.5029s-96 64.667 -121 107s-34.333 90.833 -28 145.5s28.166 115 65.499 181c13.333 23.333 31.833 49.5 55.5 78.5s50.167 57.667 79.5 86s60.166 54.833 92.499 79.5s63.666 44.5 93.999 59.5s58.5 23.5 84.5 25.5
s47.167 -5.5 63.5 -22.5s26.666 -45.167 30.999 -84.5s0.166016 -92.666 -12.501 -159.999l-60 -41c-2 -1.33301 -4 0.166992 -6 4.5s-4.83301 9.66602 -8.5 15.999s-8.33398 12.833 -14.001 19.5s-13.167 11.5 -22.5 14.5s-20.5 3.16699 -33.5 0.5
s-28.833 -9.66699 -47.5 -21c-32 -20.667 -55.167 -37.834 -69.5 -51.501s-22.166 -25.167 -23.499 -34.5s2.83398 -16.833 12.501 -22.5s22.834 -10.5 39.501 -14.5c14.667 -6 31.667 -12.333 51 -19s39 -15.334 59 -26.001s39.167 -23.834 57.5 -39.501
s33.833 -35.667 46.5 -60s21.834 -53.833 27.501 -88.5s5.83398 -76 0.500977 -124c-4.66699 -45.333 -16.334 -89 -35.001 -131s-42 -81.5 -70 -118.5s-59.667 -71 -95 -102s-72 -57.667 -110 -80s-76.333 -39.833 -115 -52.5s-75.334 -19.334 -110.001 -20.001
c-78.667 -2.66699 -147.334 9.5 -206.001 36.5s-106.667 63.333 -144 109s-63.666 98.167 -78.999 157.5s-19 119.666 -11 180.999s28.333 121 61 179s78 109 136 153c37.333 7.33301 56 -3.66699 56 -33c-38 -70 -54.333 -137.167 -49 -201.5s26.333 -123.5 63 -177.5
c19.333 -28.667 43.166 -51.5 71.499 -68.5s58.666 -28.667 90.999 -35s65.333 -7.66602 99 -3.99902s66 11.334 97 23.001s59.5 27 85.5 46s47 41.167 63 66.5z" />
    <glyph glyph-name="afii57506" unicode="&#x67e;" horiz-adv-x="1234" arabic-form="isolated" 
d="M962 405c-1.33301 34.667 -7.16211 74.3301 -17.4951 118.997s-26.5 93.667 -48.5 147l190 169l45.5 -121c15 -40.667 27.833 -87.334 38.5 -140.001s17.667 -114.167 21 -184.5s1.33301 -155.5 -6 -255.5c-1.33301 -20 -4.5 -38.5 -9.5 -55.5s-11.333 -31.833 -19 -44.5
s-16.5 -22.667 -26.5 -30s-21 -11 -33 -11h-292c-52.667 -3.33301 -108.334 -8.83301 -167.001 -16.5s-116.667 -12.667 -174 -15s-111.833 0.5 -163.5 8.5s-96.834 25.833 -135.501 53.5s-68.667 67.834 -90 120.501s-30.333 122.334 -27 209.001
c1.33301 24.667 5.33301 50.167 12 76.5s16.667 54.5 30 84.5c22.667 54 40 81 52 81l55 -2c9.33301 -1.33301 14.666 -5.16602 15.999 -11.499s1.16602 -14.666 -0.500977 -24.999s-3.83398 -22.166 -6.50098 -35.499s-4 -27.333 -4 -42s2.66699 -29.5 8 -44.5
s15.666 -29.5 30.999 -43.5c18.667 -18.667 46 -31.334 82 -38.001s76.333 -9.66699 121 -9s91.834 4 141.501 10s98 12.333 145 19l131.5 18.5c40.667 5.66699 74 8.5 100 8.5zM386.004 -281.004l158 159l114 -113l114 113l158 -159l-158 -155l-114 111l-114 -111z
M506.004 -564.004l147 160l159 -160l-159 -156z" />
    <glyph glyph-name="afii57507" unicode="&#x686;" horiz-adv-x="1155" arabic-form="isolated" 
d="M1153 -278c-5.33301 -16 -17.6689 -32.0039 -37.002 -48.0039s-42.666 -30.833 -69.999 -44.5s-57.166 -25.667 -89.499 -36s-63.833 -18.166 -94.5 -23.499c-102 -17.333 -195.833 -20.333 -281.5 -9s-162.167 33.333 -229.5 66s-124.666 73.667 -171.999 123
s-83.333 103 -108 161s-37.334 118.167 -38.001 180.5s12 122.5 38 180.5s65.833 112.167 119.5 162.5s122.834 92.5 207.501 126.5c-18 14.667 -66.667 28.667 -146 42c-16 2 -34.833 -1.33301 -56.5 -10s-42.5 -17.5 -62.5 -26.5s-36.833 -16 -50.5 -21
s-20.5 -2.83301 -20.5 6.5c2 74.667 11.333 133.834 28 177.501s39.167 76 67.5 97s61.666 32.5 99.999 34.5s80.333 -1.83301 126 -11.5s94.167 -23.167 145.5 -40.5l158 -52.5c54 -17.667 108.5 -33.334 163.5 -47.001s109.167 -21.5 162.5 -23.5
c-13.333 -34 -28.333 -69.333 -45 -106s-36.334 -76 -59.001 -118c-125.333 1.33301 -228.5 -6.33398 -309.5 -23.001s-142.5 -39.5 -184.5 -68.5s-66.5 -62.833 -73.5 -101.5s0.833008 -79.167 23.5 -121.5s58.5 -85.166 107.5 -128.499s107.833 -84.166 176.5 -122.499
s145.834 -72.666 231.501 -102.999s176.5 -54.166 272.5 -71.499zM540.997 239.996l126 128l92 -91l91 91l126 -128l-126 -124l-91 89l-92 -89zM636.997 13.9961l118 128l127 -128l-127 -124z" />
    <glyph glyph-name="afii57508" unicode="&#x698;" horiz-adv-x="670" arabic-form="isolated" 
d="M285 713c43.333 -11.333 83.665 -33.168 120.998 -65.501s70.333 -72.166 99 -119.499s52.334 -99.833 71.001 -157.5s30.834 -117.334 36.501 -179.001s4.5 -123.167 -3.5 -184.5s-24.333 -119 -49 -173s-58.5 -102.667 -101.5 -146s-96.167 -77.333 -159.5 -102
c-6 -2.66699 -17.167 -1.66699 -33.5 3s-35.5 11.334 -57.5 20.001s-45.5 18.5 -70.5 29.5l-72 32l-63.5 28c-19.333 8.33301 -34 14.166 -44 17.499l10 39c62 0.666992 121 11 177 31s105.833 46.667 149.5 80s79.167 72.333 106.5 117s43 92 47 142
c-7.33301 38.667 -19.166 73.334 -35.499 104.001s-35.833 58 -58.5 82s-47.834 45.5 -75.501 64.5s-56.167 36.167 -85.5 51.5zM181.999 1087l114 -111l114 111l158 -155l-158 -160l-114 114l-114 -114l-158 160zM296.999 1392l159 -156l-159 -160l-147 160z" />
    <glyph glyph-name="afii57509" unicode="&#x6af;" horiz-adv-x="1213" arabic-form="isolated" 
d="M1126 -2l-24.9902 0.000976562h-309c-39.333 -2.66699 -80.666 -6.5 -123.999 -11.5s-86.666 -9.5 -129.999 -13.5s-86.333 -6.33301 -129 -7s-83 2.5 -121 9.5s-72.833 18.667 -104.5 35s-58.834 39.333 -81.501 69s-40 67.167 -52 112.5s-16.667 100.666 -14 165.999
c0.666992 24.667 4.16699 50.167 10.5 76.5s16.5 54.5 30.5 84.5c21.333 54 38.666 81 51.999 81l55 -1c9.33301 -0.666992 14.833 -4.16699 16.5 -10.5s1.5 -14.666 -0.5 -24.999s-4.5 -22 -7.5 -35s-4.33301 -27 -4 -42s3.16602 -30.167 8.49902 -45.5
s15.666 -30.333 30.999 -45c10 -10 26.667 -17.5 50 -22.5s50.666 -8.33301 81.999 -10s65.666 -1.83398 102.999 -0.500977s75.666 3.33301 114.999 6s78.166 6 116.499 10l107.5 11.5l88.5 9.5c25.667 2.66699 45.5 4.33398 59.5 5.00098h14l-31 60
c-9.33301 40 -31.666 73.833 -66.999 101.5s-83.666 48.167 -144.999 61.5l-47 -24l-197 88c-6.66699 4 -11.5 14.167 -14.5 30.5s-4.5 35.833 -4.5 58.5s1 47.167 3 73.5s4.66699 51.166 8 74.499s6.66602 43.833 9.99902 61.5s6.33301 29.5 9 35.5c12 22.667 32 45 60 67
s60.333 42.833 97 62.5s76.167 37.667 118.5 54s84.166 30.333 125.499 42s80.166 20.834 116.499 27.501s66.833 10 91.5 10c18 0 31.833 -6 41.5 -18s16.334 -27.333 20.001 -46s5 -39.5 4 -62.5s-3.33301 -45.333 -7 -67s-8 -41.334 -13 -59.001
s-9.16699 -30.834 -12.5 -39.501l-27 23c-12 10 -27.333 15.667 -46 17c-14.667 0.666992 -33.834 -1.16602 -57.501 -5.49902s-49 -10.333 -76 -18s-54.167 -16.5 -81.5 -26.5s-52 -20.667 -74 -32s-40 -22.833 -54 -34.5s-21 -22.5 -21 -32.5
c83.333 -12 153.666 -33.667 210.999 -65s104.166 -68.833 140.499 -112.5s63.5 -92.167 81.5 -145.5c17.333 -52 28.666 -105.333 33.999 -160l2 -16l2 -27c2.66699 -46 2 -92 -2 -138c-4.66699 -58 -11.667 -113.333 -21 -166zM527.01 1178
c3.33301 23.333 4.83496 35.8301 4.50195 37.4971s0.833984 5.5 3.50098 11.5c12 22.667 32 45 60 67s60.333 42.833 97 62.5s76.167 37.667 118.5 54s84.166 30.333 125.499 42s80.166 20.834 116.499 27.501s66.833 10 91.5 10c18 0 29 -1.33301 33 -4
s6.66699 -5.66699 8 -9s1.5 -16.5 0.5 -39.5s-1.5 -37.333 -1.5 -43s-1.66699 -17.667 -5 -36s-8.33301 -30.166 -15 -35.499c-6 3.33301 -15 10 -27 20s-27.333 15.667 -46 17c-14.667 0.666992 -33.834 -1.16602 -57.501 -5.49902s-49 -10.333 -76 -18
s-54.167 -16.5 -81.5 -26.5l-74 -27.5l-67 -24.5c-22.667 -8 -93 -44.333 -211 -109c-1.33301 -4 -0.333008 5.66699 3 29z" />
    <glyph glyph-name="uniFB57" unicode="&#x67e;" horiz-adv-x="1275" arabic-form="final" 
d="M952 405c-1.33301 35.333 -7.32715 75.333 -17.9941 120s-27.334 93.667 -50.001 147l191 168l33 -89c11.333 -29.333 21.833 -60.833 31.5 -94.5s18 -70.834 25 -111.501s12.167 -87.334 15.5 -140.001h108v-406h-494c-39.333 -2.66699 -80.666 -6.66699 -123.999 -12
s-86.833 -10 -130.5 -14s-86.667 -6.33301 -129 -7s-82.666 2.5 -120.999 9.5s-73.5 18.667 -105.5 35s-59.333 39.333 -82 69s-39.834 67.167 -51.501 112.5s-16.167 100.666 -13.5 165.999c1.33301 25.333 5.16602 51 11.499 77s15.166 54 26.499 84
c13.333 28 24 48.667 32 62s15.667 20 23 20l56 -2c9.33301 -1.33301 14.666 -5.16602 15.999 -11.499s1.16602 -14.666 -0.500977 -24.999s-3.83398 -22.166 -6.50098 -35.499s-4 -27.333 -4 -42s2.66699 -29.5 8 -44.5s15.666 -29.5 30.999 -43.5
c19.333 -18.667 47 -31.5 83 -38.5s76.333 -10.167 121 -9.5s92 4 142 10s98.5 12.333 145.5 19l131 18.5c40.333 5.66699 73.5 8.5 99.5 8.5zM421.006 -281l158 160l114 -114l114 114l158 -160l-158 -155l-114 111l-114 -111zM541.006 -563l147 160l159 -160l-159 -156z
" />
    <glyph glyph-name="uniFB58" unicode="&#x67e;" horiz-adv-x="641" arabic-form="initial" 
d="M360 408c0 35.333 -5.66895 74.832 -17.002 118.499s-28 92.5 -50 146.5l190 167l45.5 -120.5c15 -40.333 27.667 -86.5 38 -138.5s17.333 -113.167 21 -183.5s1.83398 -155.5 -5.49902 -255.5c-1.33301 -19.333 -4.33301 -37.666 -9 -54.999s-10.667 -32.5 -18 -45.5
s-16.166 -23.333 -26.499 -31s-21.833 -11.5 -34.5 -11.5l-498 -1v409zM24.998 -281.001l158 159l114 -113l114 113l158 -159l-158 -155l-114 111l-114 -111zM144.998 -564.001l147 160l159 -160l-159 -156z" />
    <glyph glyph-name="uniFB59" unicode="&#x67e;" horiz-adv-x="687" arabic-form="medial" 
d="M706 -1h-714.999v409h373c-0.666992 20.667 -3 41.167 -7 61.5s-8.83301 40.833 -14.5 61.5s-11.667 41.5 -18 62.5s-11.5 42.167 -15.5 63.5l110 54.5l112 55.5c15.333 -58.667 28.166 -118.167 38.499 -178.5s13.833 -120.5 10.5 -180.5h126v-409zM76.001 -281l158 159
l114 -113l114 113l158 -159l-158 -155l-114 111l-114 -111zM196.001 -564l147 160l159 -160l-159 -156z" />
    <glyph glyph-name="uniFB7B" unicode="&#x686;" horiz-adv-x="1143" arabic-form="final" 
d="M1154 -273c-5.33301 -16 -17.4951 -32 -36.4951 -48s-42.167 -30.833 -69.5 -44.5s-57 -25.667 -89 -36s-63.333 -18.166 -94 -23.499c-102 -17.333 -196 -20.333 -282 -9s-162.667 33.333 -230 66s-124.833 73.667 -172.5 123s-83.834 102.833 -108.501 160.5
s-37.334 117.667 -38.001 180s11.833 122.666 37.5 180.999s65.5 112.666 119.5 162.999s123 92.5 207 126.5c-8 7.33301 -24.333 14.5 -49 21.5s-57 13.167 -97 18.5c-16 2 -34.667 -1.16699 -56 -9.5s-41.833 -17 -61.5 -26s-36.334 -15.833 -50.001 -20.5
s-20.5 -2.33398 -20.5 6.99902c1.33301 74.667 10.333 134 27 178s39.167 76.5 67.5 97.5s61.666 32.333 99.999 34s80.333 -2.33301 126 -12s94.167 -23.167 145.5 -40.5l158 -52c54 -17.333 108.5 -32.833 163.5 -46.5s108.833 -21.5 161.5 -23.5
c-13.333 -34 -28.166 -69.333 -44.499 -106s-35.166 -76.334 -56.499 -119.001c-25.333 0 -49 -0.166992 -71 -0.5s-43.333 -1.16602 -64 -2.49902c14.667 -12.667 32.167 -24.334 52.5 -35.001s43.833 -17.667 70.5 -21h252v-409h-174
c-53.333 7.33301 -103.166 24 -149.499 50s-86.333 58.667 -120 98s-59.834 84.333 -78.501 135s-26.334 104.667 -23.001 162c-72.667 -13.333 -129.834 -32.333 -171.501 -57s-69.667 -52.667 -84 -84s-28.5 -68.166 -42.5 -110.499s-12 -94.666 6 -156.999
s51.833 -111.833 101.5 -148.5s106.667 -71.167 171 -103.5s153.666 -46.166 267.999 -41.499s213.833 -0.333008 298.5 -15zM358.005 119l101 102l73 -72l73 72l101 -102l-101 -99l-73 71l-73 -71zM435.005 -61l94 102l102 -102l-102 -100z" />
    <glyph glyph-name="uniFB7C" unicode="&#x686;" horiz-adv-x="1127" arabic-form="initial" 
d="M1021 104c-3.33301 -12.667 -7.33789 -26.8301 -12.0049 -42.4971s-11.167 -30.834 -19.5 -45.501s-19.166 -27.667 -32.499 -39s-30.5 -18.833 -51.5 -22.5s-46.5 -2.33398 -76.5 3.99902s-65.667 19.833 -107 40.5h-726v409h590
c-35.333 41.333 -67.666 77.166 -96.999 107.499s-60.333 52.5 -93 66.5s-69.5 18.5 -110.5 13.5s-90.833 -21.833 -149.5 -50.5c-3.33301 -1.33301 -6.66602 0.5 -9.99902 5.5s-6.16602 11.167 -8.49902 18.5s-3.83301 15.166 -4.5 23.499s0 15.166 2 20.499
c45.333 74.667 90.333 128.834 135 162.501s88.667 52.334 132 56.001s86 -4.5 128 -24.5s83.667 -46 125 -78s81.833 -67.167 121.5 -105.5s79 -73.833 118 -106.5s77.333 -59.5 115 -80.5s74.834 -30.5 111.501 -28.5zM218.995 -310.996l158 160l114 -114l114 114
l158 -160l-158 -155l-114 111l-114 -111zM338.995 -592.996l147 160l159 -160l-159 -156z" />
    <glyph glyph-name="uniFB7D" unicode="&#x686;" horiz-adv-x="1022" arabic-form="medial" 
d="M1034 -1l-1046 -0.00195312v409h586c-34 41.333 -65.667 77 -95 107s-60.5 51.833 -93.5 65.5s-70 18.167 -111 13.5s-90.5 -21 -148.5 -49c-2.66699 -2 -5.66699 -0.666992 -9 4s-6.16602 10.834 -8.49902 18.501s-3.83301 15.5 -4.5 23.5s0 14.333 2 19
c29.333 66 60.5 116.833 93.5 152.5s67.167 59.334 102.5 71.001s71.333 13.167 108 4.5s73.167 -24.167 109.5 -46.5s72 -49.5 107 -81.5s68.667 -65.833 101 -101.5s62.666 -71 90.999 -106l77.5 -94.5h138v-409zM219 -311.002l158 160l114 -114l114 114l158 -160
l-158 -155l-114 111l-114 -111zM339 -593.002l147 160l159 -160l-159 -156z" />
    <glyph glyph-name="uniFB8B" unicode="&#x698;" horiz-adv-x="670" arabic-form="final" 
d="M607 -1c-7.33301 -44 -18.667 -87 -34 -129s-35.5 -81 -60.5 -117s-55.167 -68.333 -90.5 -97s-76.333 -52 -123 -70c-6 -2.66699 -17.167 -1.66699 -33.5 3s-35.5 11.334 -57.5 20.001s-45.5 18.5 -70.5 29.5l-72 32l-63.5 28c-19.333 8.33301 -34 14.166 -44 17.499
l10 39c114 0.666992 210 28.167 288 82.5s137.333 134.166 178 239.499c-12 10.667 -24.5 20.5 -37.5 29.5s-26.833 21.667 -41.5 38s-30.5 38.833 -47.5 67.5s-35.833 68.334 -56.5 119.001l127 247c4.66699 -4.66699 8.5 -12 11.5 -22s6.66699 -21.333 11 -34
s10 -25.667 17 -39s16.667 -25.5 29 -36.5s28.333 -20.167 48 -27.5s44.167 -11 73.5 -11h111v-409h-72zM227.999 858l114 -111l114 111l158 -155l-158 -160l-114 114l-114 -114l-158 160zM342.999 1163l159 -156l-159 -160l-147 160z" />
    <glyph glyph-name="uniFB8F" unicode="&#x6a9;" horiz-adv-x="1275" arabic-form="final" 
d="M1140 517l8.00781 -19.999l18 -92h118v-406h-498c-39.333 -2.66699 -80.666 -6.66699 -123.999 -12s-86.666 -10 -129.999 -14s-86.333 -6.33301 -129 -7s-83 2.5 -121 9.5s-72.833 18.667 -104.5 35s-58.834 39.333 -81.501 69s-40 67.167 -52 112.5
s-16.667 100.666 -14 165.999c0.666992 25.333 4.16699 51 10.5 77s16.166 54 29.499 84c12 28 22.167 48.667 30.5 62s16.166 20 23.499 20l53 -2c9.33301 -0.666992 15 -4 17 -10s2.16699 -14.167 0.5 -24.5s-3.83398 -22 -6.50098 -35s-3.83398 -27 -3.50098 -42
s3.16602 -30.167 8.49902 -45.5s15.333 -30.333 30 -45c13.333 -13.333 37.833 -22.5 73.5 -27.5s77.167 -7.33301 124.5 -7s97.666 2.5 150.999 6.5s104.5 8.5 153.5 13.5s93 9.83301 132 14.5s66.167 7.33398 81.5 8.00098l-2 40l-4 20
c-9.33301 40 -31.666 73.833 -66.999 101.5s-83.666 48.167 -144.999 61.5l-47 -24l-197 88c-6.66699 4 -11.5 14.167 -14.5 30.5s-4.5 35.833 -4.5 58.5s1 47.167 3 73.5s4.66699 51.166 8 74.499s6.66602 43.833 9.99902 61.5s6.33301 29.5 9 35.5c12 22.667 32 45 60 67
s60.333 42.833 97 62.5s76.167 37.667 118.5 54s84.166 30.333 125.499 42s80.166 20.834 116.499 27.501s66.833 10 91.5 10c18 0 31.833 -6 41.5 -18s16.334 -27.333 20.001 -46s5 -39.5 4 -62.5s-3.33301 -45.333 -7 -67s-8 -41.334 -13 -59.001
s-9.16699 -30.834 -12.5 -39.501l-27 23c-12 10 -27.333 15.667 -46 17c-14.667 0.666992 -33.834 -1.16602 -57.501 -5.49902s-49 -10.333 -76 -18s-54.167 -16.5 -81.5 -26.5s-52 -20.667 -74 -32s-40 -22.833 -54 -34.5s-21 -22.5 -21 -32.5
c83.333 -12 153.666 -33.667 210.999 -65s104.166 -68.833 140.499 -112.5s63.5 -92.167 81.5 -145.5c5.33301 -16 10 -32 14 -48z" />
    <glyph glyph-name="uniFB90" unicode="&#x6a9;" horiz-adv-x="821" arabic-form="initial" 
d="M-9 405l564.004 0.00292969c-9.33301 40 -31.666 73.833 -66.999 101.5s-83.666 48.167 -144.999 61.5l-47 -24l-197 88c-6.66699 4 -11.5 14.167 -14.5 30.5s-4.5 35.833 -4.5 58.5s1 47.167 3 73.5s4.66699 51.166 8 74.499s6.66602 43.833 9.99902 61.5
s6.33301 29.5 9 35.5c12 22.667 32 45 60 67s60.333 42.833 97 62.5s76.167 37.667 118.5 54s84.166 30.333 125.499 42s80.166 20.834 116.499 27.501s66.833 10 91.5 10c18 0 31.833 -6 41.5 -18s16.334 -27.333 20.001 -46s5 -39.5 4 -62.5s-3.33301 -45.333 -7 -67
s-8 -41.334 -13 -59.001s-9.16699 -30.834 -12.5 -39.501l-27 23c-12 10 -27.333 15.667 -46 17c-14.667 0.666992 -33.834 -1.16602 -57.501 -5.49902s-49 -10.333 -76 -18s-54.167 -16.5 -81.5 -26.5s-52 -20.667 -74 -32s-40 -22.833 -54 -34.5s-21 -22.5 -21 -32.5
c83.333 -12 153.666 -33.667 210.999 -65s104.166 -68.833 140.499 -112.5s63.5 -92.334 81.5 -146.001s29.667 -109.334 35 -167.001s5.66602 -115.5 0.999023 -173.5s-11.667 -113.333 -21 -166l-772 1v406z" />
    <glyph glyph-name="uniFB91" unicode="&#x6a9;" horiz-adv-x="863" arabic-form="medial" 
d="M-12 405l566.005 -0.000976562c-10.667 40.667 -33.334 74.834 -68.001 102.501s-83.334 48.167 -146.001 61.5l-46 -24l-196 87c-6.66699 4 -11.5 14.333 -14.5 31s-4.5 36.334 -4.5 59.001s1 47.167 3 73.5s4.66699 51.166 8 74.499s6.83301 43.833 10.5 61.5
s6.83398 29.167 9.50098 34.5c12 22.667 31.833 45 59.5 67s59.834 42.833 96.501 62.5s76.167 37.667 118.5 54s84.166 30.333 125.499 42s80.166 20.834 116.499 27.501s67.166 10 92.499 10c18 0 31.667 -6 41 -18s15.833 -27.333 19.5 -46
s4.83398 -39.334 3.50098 -62.001s-3.83301 -44.834 -7.5 -66.501s-7.83398 -41.5 -12.501 -59.5s-9 -31.333 -13 -40c-6 6 -14.833 14 -26.5 24s-26.834 16 -45.501 18c-14.667 0 -33.834 -2.16699 -57.501 -6.5s-49 -10.333 -76 -18s-54 -16.5 -81 -26.5
s-51.5 -20.667 -73.5 -32s-40 -22.833 -54 -34.5s-21 -22.5 -21 -32.5c74 -10.667 137.833 -29.167 191.5 -55.5s98.667 -58.333 135 -96s65 -79.667 86 -126s36.167 -95.166 45.5 -146.499h103v-406h-888v406z" />
    <glyph glyph-name="uniFB93" unicode="&#x6af;" horiz-adv-x="1275" arabic-form="final" 
d="M1140 517l8.00781 -19.999l18 -92h118v-406h-498c-39.333 -2.66699 -80.666 -6.66699 -123.999 -12s-86.666 -10 -129.999 -14s-86.333 -6.33301 -129 -7s-83 2.5 -121 9.5s-72.833 18.667 -104.5 35s-58.834 39.333 -81.501 69s-40 67.167 -52 112.5
s-16.667 100.666 -14 165.999c0.666992 25.333 4.16699 51 10.5 77s16.166 54 29.499 84c12 28 22.167 48.667 30.5 62s16.166 20 23.499 20l53 -2c9.33301 -0.666992 15 -4 17 -10s2.16699 -14.167 0.5 -24.5s-3.83398 -22 -6.50098 -35s-3.83398 -27 -3.50098 -42
s3.16602 -30.167 8.49902 -45.5s15.333 -30.333 30 -45c13.333 -13.333 37.833 -22.5 73.5 -27.5s77.167 -7.33301 124.5 -7s97.666 2.5 150.999 6.5s104.5 8.5 153.5 13.5s93 9.83301 132 14.5s66.167 7.33398 81.5 8.00098l-2 40l-4 20
c-9.33301 40 -31.666 73.833 -66.999 101.5s-83.666 48.167 -144.999 61.5l-47 -24l-197 88c-6.66699 4 -11.5 14.167 -14.5 30.5s-4.5 35.833 -4.5 58.5s1 47.167 3 73.5s4.66699 51.166 8 74.499s6.66602 43.833 9.99902 61.5s6.33301 29.5 9 35.5c12 22.667 32 45 60 67
s60.333 42.833 97 62.5s76.167 37.667 118.5 54s84.166 30.333 125.499 42s80.166 20.834 116.499 27.501s66.833 10 91.5 10c18 0 31.833 -6 41.5 -18s16.334 -27.333 20.001 -46s5 -39.5 4 -62.5s-3.33301 -45.333 -7 -67s-8 -41.334 -13 -59.001
s-9.16699 -30.834 -12.5 -39.501l-27 23c-12 10 -27.333 15.667 -46 17c-14.667 0.666992 -33.834 -1.16602 -57.501 -5.49902s-49 -10.333 -76 -18s-54.167 -16.5 -81.5 -26.5s-52 -20.667 -74 -32s-40 -22.833 -54 -34.5s-21 -22.5 -21 -32.5
c83.333 -12 153.666 -33.667 210.999 -65s104.166 -68.833 140.499 -112.5s63.5 -92.167 81.5 -145.5c5.33301 -16 10 -32 14 -48zM527.008 1178c3.33301 23.333 4.83496 35.8301 4.50195 37.4971s0.833984 5.5 3.50098 11.5c12 22.667 32 45 60 67s60.333 42.833 97 62.5
s76.167 37.667 118.5 54s84.166 30.333 125.499 42s80.166 20.834 116.499 27.501s66.833 10 91.5 10c18 0 29 -1.33301 33 -4s6.66699 -5.66699 8 -9s1.5 -16.5 0.5 -39.5s-1.5 -37.333 -1.5 -43s-1.66699 -17.667 -5 -36s-8.33301 -30.166 -15 -35.499
c-6 3.33301 -15 10 -27 20s-27.333 15.667 -46 17c-14.667 0.666992 -33.834 -1.16602 -57.501 -5.49902s-49 -10.333 -76 -18s-54.167 -16.5 -81.5 -26.5l-74 -27.5l-67 -24.5c-22.667 -8 -93 -44.333 -211 -109c-1.33301 -4 -0.333008 5.66699 3 29z" />
    <glyph glyph-name="uniFB94" unicode="&#x6af;" horiz-adv-x="821" arabic-form="initial" 
d="M-9 405l564.004 0.00292969c-9.33301 40 -31.666 73.833 -66.999 101.5s-83.666 48.167 -144.999 61.5l-47 -24l-197 88c-6.66699 4 -11.5 14.167 -14.5 30.5s-4.5 35.833 -4.5 58.5s1 47.167 3 73.5s4.66699 51.166 8 74.499s6.66602 43.833 9.99902 61.5
s6.33301 29.5 9 35.5c12 22.667 32 45 60 67s60.333 42.833 97 62.5s76.167 37.667 118.5 54s84.166 30.333 125.499 42s80.166 20.834 116.499 27.501s66.833 10 91.5 10c18 0 31.833 -6 41.5 -18s16.334 -27.333 20.001 -46s5 -39.5 4 -62.5s-3.33301 -45.333 -7 -67
s-8 -41.334 -13 -59.001s-9.16699 -30.834 -12.5 -39.501l-27 23c-12 10 -27.333 15.667 -46 17c-14.667 0.666992 -33.834 -1.16602 -57.501 -5.49902s-49 -10.333 -76 -18s-54.167 -16.5 -81.5 -26.5s-52 -20.667 -74 -32s-40 -22.833 -54 -34.5s-21 -22.5 -21 -32.5
c83.333 -12 153.666 -33.667 210.999 -65s104.166 -68.833 140.499 -112.5s63.5 -92.334 81.5 -146.001s29.667 -109.334 35 -167.001s5.66602 -115.5 0.999023 -173.5s-11.667 -113.333 -21 -166l-772 1v406zM134.004 1121c3.33301 23.333 4.83496 35.8301 4.50195 37.4971
s0.833984 5.5 3.50098 11.5c12 22.667 32 45 60 67s60.333 42.833 97 62.5s76.167 37.667 118.5 54s84.166 30.333 125.499 42s80.166 20.834 116.499 27.501s66.833 10 91.5 10c18 0 29 -1.33301 33 -4s6.66699 -5.66699 8 -9s1.5 -16.5 0.5 -39.5s-1.5 -37.333 -1.5 -43
s-1.66699 -17.667 -5 -36s-8.33301 -30.166 -15 -35.499c-6 3.33301 -15 10 -27 20s-27.333 15.667 -46 17c-14.667 0.666992 -33.834 -1.16602 -57.501 -5.49902s-49 -10.333 -76 -18s-54.167 -16.5 -81.5 -26.5l-74 -27.5l-67 -24.5c-22.667 -8 -93 -44.333 -211 -109
c-1.33301 -4 -0.333008 5.66699 3 29z" />
    <glyph glyph-name="uniFB95" unicode="&#x6af;" horiz-adv-x="863" arabic-form="medial" 
d="M-12 405l566.005 -0.000976562c-10.667 40.667 -33.334 74.834 -68.001 102.501s-83.334 48.167 -146.001 61.5l-46 -24l-196 87c-6.66699 4 -11.5 14.333 -14.5 31s-4.5 36.334 -4.5 59.001s1 47.167 3 73.5s4.66699 51.166 8 74.499s6.83301 43.833 10.5 61.5
s6.83398 29.167 9.50098 34.5c12 22.667 31.833 45 59.5 67s59.834 42.833 96.501 62.5s76.167 37.667 118.5 54s84.166 30.333 125.499 42s80.166 20.834 116.499 27.501s67.166 10 92.499 10c18 0 31.667 -6 41 -18s15.833 -27.333 19.5 -46
s4.83398 -39.334 3.50098 -62.001s-3.83301 -44.834 -7.5 -66.501s-7.83398 -41.5 -12.501 -59.5s-9 -31.333 -13 -40c-6 6 -14.833 14 -26.5 24s-26.834 16 -45.501 18c-14.667 0 -33.834 -2.16699 -57.501 -6.5s-49 -10.333 -76 -18s-54 -16.5 -81 -26.5
s-51.5 -20.667 -73.5 -32s-40 -22.833 -54 -34.5s-21 -22.5 -21 -32.5c74 -10.667 137.833 -29.167 191.5 -55.5s98.667 -58.333 135 -96s65 -79.667 86 -126s36.167 -95.166 45.5 -146.499h103v-406h-888v406zM134.005 1121
c3.33301 23.333 4.83496 35.8301 4.50195 37.4971s0.833984 5.5 3.50098 11.5c12 22.667 32 45 60 67s60.333 42.833 97 62.5s76.167 37.667 118.5 54s84.166 30.333 125.499 42s80.166 20.834 116.499 27.501s66.833 10 91.5 10c18 0 29 -1.33301 33 -4
s6.66699 -5.66699 8 -9s1.5 -16.5 0.5 -39.5s-1.5 -37.333 -1.5 -43s-1.66699 -17.667 -5 -36s-8.33301 -30.166 -15 -35.499c-6 3.33301 -15 10 -27 20s-27.333 15.667 -46 17c-14.667 0.666992 -33.834 -1.16602 -57.501 -5.49902s-49 -10.333 -76 -18
s-54.167 -16.5 -81.5 -26.5l-74 -27.5l-67 -24.5c-22.667 -8 -93 -44.333 -211 -109c-1.33301 -4 -0.333008 5.66699 3 29z" />
    <glyph glyph-name="uniFBA5" unicode="&#x6c0;" horiz-adv-x="876" arabic-form="final" 
d="M888 -1l-36 -0.000976562c-34 0.666992 -68 2.33398 -102 5.00098s-66 10.167 -96 22.5s-57.333 30.833 -82 55.5s-44.667 59.334 -60 104.001l-127 -169c-7.33301 -9.33301 -20.333 -12.333 -39 -9c-25.333 4.66699 -50.833 14.667 -76.5 30s-50.334 33.333 -74.001 54
s-45.667 42.5 -66 65.5s-38 44.167 -53 63.5s-26.667 35.666 -35 48.999s-12.166 20.333 -11.499 21l62 266c2 9.33301 11.667 21 29 35c20 16.667 42 32.334 66 47.001s48.833 28 74.5 40s51.834 22.667 78.501 32s52.334 17.666 77.001 24.999
c0 12.667 -0.666992 25 -2 37s-2 23.667 -2 35c0 4 4.66699 9.16699 14 15.5s21.166 12.833 35.499 19.5s30.166 13.334 47.499 20.001s33.833 12.667 49.5 18s29.667 9.66602 42 12.999s20.833 5 25.5 5c2.66699 -30 4.66699 -61.5 6 -94.5s3.33301 -66 6 -99
s6.5 -65.667 11.5 -98s12.833 -62.833 23.5 -91.5c17.333 -38.667 41.333 -66 72 -82s66 -24.667 106 -26h36v-409zM259 484.999l145 -94.002c12 -8 22.5 -10.167 31.5 -6.5s16.5 10.834 22.5 21.501s10.5 23.834 13.5 39.501s4.66699 31.667 5 48s-1 32.333 -4 48
s-7.16699 28.5 -12.5 38.5z" />
    <glyph glyph-name="uniFBFD" unicode="&#x6cc;" horiz-adv-x="1068" arabic-form="final" 
d="M790 -1c-30.667 11.333 -58.333 22.498 -83 33.498s-46.667 23.167 -66 36.5c-27.333 16.667 -49 36.167 -65 58.5s-26.667 46.333 -32 72s-6 52.5 -2 80.5s12.667 56.333 26 85c9.33301 18.667 19.833 36.334 31.5 53.001s23.667 30.834 36 42.501s24.5 20 36.5 25
s23 5.16699 33 0.5c6.66699 -2.66699 18.5 -8.16699 35.5 -16.5s39 -16.833 66 -25.5s59 -16.667 96 -24s78.5 -11.333 124.5 -12h58v-409h-99c-16 -36 -35.5 -70.667 -58.5 -104s-48.667 -64.666 -77 -93.999s-58.333 -56.333 -90 -81s-63.667 -46 -96 -64
s-64.5 -32 -96.5 -42s-62.333 -15.333 -91 -16c-78.667 -2.66699 -147.334 9.66602 -206.001 36.999s-106.667 63.833 -144 109.5s-63.666 98 -78.999 157s-18.833 119 -10.5 180s29 120.333 62 178s78.833 108.167 137.5 151.5c38 8.66699 56 -1.33301 54 -30
c-19.333 -35.333 -33 -68.5 -41 -99.5s-11 -60.667 -9 -89s8.5 -55.666 19.5 -81.999s25.5 -52.833 43.5 -79.5c28.667 -40.667 64.5 -71.334 107.5 -92.001s87.667 -32 134 -34s91.333 5 135 21s80.167 40.333 109.5 73z" />
    <glyph glyph-name="uniFBFE" unicode="&#x6cc;" horiz-adv-x="571" arabic-form="initial" 
d="M291 407c0 36 -5.83398 75.833 -17.501 119.5s-28.167 92.5 -49.5 146.5l189 167l30.5 -79.5c10.333 -26.333 20 -54.333 29 -84s17 -61.667 24 -96s12.5 -73 16.5 -116s6 -91.167 6 -144.5c0 -52.667 -2.33301 -112.334 -7 -179.001
c-1.33301 -19.333 -4.33301 -37.666 -9 -54.999s-10.667 -32.5 -18 -45.5s-16.166 -23.333 -26.499 -31s-21.5 -11.5 -33.5 -11.5h-437v409h303zM168.999 -153l114 -111l114 111l157 -155l-157 -161l-114 114l-114 -114l-159 161z" />
    <glyph glyph-name="uniFBFF" unicode="&#x6cc;" horiz-adv-x="621" arabic-form="medial" 
d="M198 -153l114 -111l114 111l158 -155l-158 -161l-114 114l-114 -114l-158 161zM633 -1h-645v409h250c-0.666992 20.667 -3 41.167 -7 61.5s-8.83301 40.833 -14.5 61.5s-11.667 41.5 -18 62.5s-11.5 42.167 -15.5 63.5l110.5 54.5l111.5 55.5
c16 -58.667 29 -118.167 39 -178.5s13.333 -120.5 10 -180.5h179v-409z" />
    <glyph glyph-name="uniFE82" unicode="&#x622;" horiz-adv-x="475" arabic-form="final" 
d="M-25 1252c-1.33301 51.333 15.332 100.499 49.999 147.499s98.834 49.167 192.501 6.5s165.5 -27.667 215.5 45c-24 -153.333 -92.667 -204.166 -206 -152.499s-197.333 36.167 -252 -46.5zM303.998 407.999l179.999 0.000976562v-409h-213
c-24 10 -46.5 24.167 -67.5 42.5s-40.167 44.5 -57.5 78.5s-32.666 77.167 -45.999 129.5s-24 117.166 -32 194.499s-13.5 168.833 -16.5 274.5s-2.83301 228.5 0.5 368.5l252 111v-790z" />
    <glyph glyph-name="uniFE84" unicode="&#x623;" horiz-adv-x="475" arabic-form="final" 
d="M317 1404c-2 -16 -6.66602 -34.165 -13.999 -54.498l-19 -54.5c-33.333 -16.667 -63.5 -33.334 -90.5 -50.001l-69 -42c-19 -11.333 -33.667 -19.333 -44 -24s-15.833 -3.33398 -16.5 3.99902v21c0 6.66699 2.33301 13.167 7 19.5s10.167 12.5 16.5 18.5
s12.833 11.667 19.5 17s12.334 10.333 17.001 15c-20.667 10 -35 22.667 -43 38s-11 31.5 -9 48.5s7.66699 34 17 51s21 32.333 35 46s29.333 24.834 46 33.501s33 13 49 13c17.333 0 28 -4.33301 32 -13s4.33301 -18.334 1 -29.001s-9.16602 -20.334 -17.499 -29.001
s-15.833 -13 -22.5 -13c-4.66699 0 -9.83398 2.33301 -15.501 7s-11.5 5.66699 -17.5 3c-18.667 -7.33301 -29.334 -18 -32.001 -32s2.16602 -25.167 14.499 -33.5s31.5 -10.666 57.5 -6.99902s58.667 19.167 98 46.5zM308.001 408.002l176 0.000976562v-409h-208
c-24 10 -46.667 24.167 -68 42.5s-40.666 44.5 -57.999 78.5s-32.5 77.167 -45.5 129.5s-23.667 117.166 -32 194.499s-13.833 168.833 -16.5 274.5s-2.33398 228.5 0.999023 368.5l251 111v-790z" />
    <glyph glyph-name="uniFE86" unicode="&#x624;" horiz-adv-x="679" arabic-form="final" 
d="M424 411c-4 8.66699 -9.83691 20.498 -17.5039 35.498s-16.667 30.333 -27 46s-21.666 30 -33.999 43s-24.833 21.5 -37.5 25.5c-9.33301 0 -18.666 -3.16699 -27.999 -9.5s-17.833 -14.166 -25.5 -23.499s-14 -19.166 -19 -29.499s-7.5 -19.833 -7.5 -28.5
c10.667 -24 26.334 -42 47.001 -54s41.667 -19.667 63 -23s40.333 -3 57 1s26.334 9.66699 29.001 17zM462.996 1086c-1.33301 -11.333 -3.83203 -23.6631 -7.49902 -36.9961s-7.66699 -26.833 -12 -40.5s-8.83301 -27 -13.5 -40l-13 -35.5
c-47.333 -24 -90 -47.833 -128 -71.5l-97.5 -60.5c-27 -16.667 -47.833 -28 -62.5 -34s-22.334 -4 -23.001 6c0 9.33301 -0.166992 16.166 -0.5 20.499s-0.5 7.16602 -0.5 8.49902c0 9.33301 3.33301 18.666 10 27.999s14.5 18.166 23.5 26.499s18.5 16.166 28.5 23.499
s18 14 24 20c-29.333 14.667 -49.666 32.834 -60.999 54.501s-15.666 44.667 -12.999 69s10.667 48.5 24 72.5s30 45.833 50 65.5s41.667 35.5 65 47.5s46.333 18 69 18c24.667 0 40 -6.16699 46 -18.5s6.5 -26 1.5 -41s-13.333 -28.667 -25 -41s-22.5 -18.5 -32.5 -18.5
c-3.33301 0 -6.83301 1.16699 -10.5 3.5s-7.5 4.5 -11.5 6.5s-7.83301 3.66699 -11.5 5s-7.5 1 -11.5 -1c-18 -7.33301 -31 -16.833 -39 -28.5s-10.833 -23.334 -8.5 -35.001s9.16602 -21.667 20.499 -30s27.166 -12.666 47.499 -12.999s45 4.66699 74 15
s61.833 28.833 98.5 55.5zM682.997 408.001l0.000976562 -408.998h-60c-10.667 -50.667 -25.5 -99 -44.5 -145s-42.167 -87.333 -69.5 -124s-58.5 -67.667 -93.5 -93s-73.833 -42.333 -116.5 -51c-6.66699 -1.33301 -18.167 0.5 -34.5 5.5s-35.5 11.667 -57.5 20
s-45.333 18 -70 29l-72 31.5l-63.5 27c-19 8 -33.5 13.667 -43.5 17l10 39c48 0.666992 94.5 7.16699 139.5 19.5s86.667 29.333 125 51s72.666 47.167 102.999 76.5s54.833 61.666 73.5 96.999c-52.667 -2 -96.5 -1.66699 -131.5 1s-63.833 7.5 -86.5 14.5
s-40.5 15.833 -53.5 26.5s-24.167 22.667 -33.5 36c-22 32.667 -37 72.167 -45 118.5s-10 94.833 -6 145.5s13.5 101.167 28.5 151.5s34.333 96.166 58 137.499s51.167 75.666 82.5 102.999s65.333 43.333 102 48c38.667 -11.333 73.834 -28.666 105.501 -51.999
s59.667 -51.333 84 -84s45.166 -69.167 62.499 -109.5s31.333 -82.833 42 -127.5h65z" />
    <glyph glyph-name="uniFE88" unicode="&#x625;" horiz-adv-x="487" arabic-form="final" 
d="M320 -193c-1.33301 -16 -5.66504 -34.333 -12.998 -55l-19 -54c-33.333 -17.333 -63.333 -34.333 -90 -51l-68.5 -42.5c-19 -11.667 -33.833 -19.667 -44.5 -24s-16 -2.83301 -16 4.5s-0.166992 12.5 -0.5 15.5s-0.5 5.16699 -0.5 6.5c0 6.66699 2.33301 13.167 7 19.5
s10.167 12.5 16.5 18.5s13 11.5 20 16.5s12.833 9.5 17.5 13.5c-21.333 10 -35.833 22.833 -43.5 38.5s-10.667 32 -9 49s7.16699 34 16.5 51s21 32.333 35 46s29.5 24.834 46.5 33.501s33.5 13 49.5 13c17.333 0 28 -4.33301 32 -13s4.16699 -18.334 0.5 -29.001
s-9.66699 -20.334 -18 -29.001s-15.833 -13 -22.5 -13c-4.66699 0 -9.83398 2.5 -15.501 7.5s-11.167 6.16699 -16.5 3.5c-12.667 -5.33301 -21.667 -12.166 -27 -20.499s-7.33301 -16.5 -6 -24.5s6.16602 -15 14.499 -21s19.5 -9.16699 33.5 -9.5s31.167 3.16699 51.5 10.5
s43.5 20.333 69.5 39zM312.001 408l187.999 0.000976562v-409h-220c-24 10 -46.5 24.167 -67.5 42.5s-40.167 44.5 -57.5 78.5s-32.666 77.167 -45.999 129.5s-24 117.166 -32 194.499s-13.5 168.833 -16.5 274.5s-2.83301 228.5 0.5 368.5l251 111v-790z" />
    <glyph glyph-name="uniFE8A" unicode="&#x626;" horiz-adv-x="1068" arabic-form="final" 
d="M422 770c-1.33301 -11.333 -3.8291 -23.665 -7.49609 -36.998s-7.66699 -26.833 -12 -40.5s-8.83301 -27 -13.5 -40l-13 -36.5c-47.333 -24 -90 -47.667 -128 -71l-97 -60c-26.667 -16.667 -47.334 -28 -62.001 -34s-22.334 -4 -23.001 6
c0 4.66699 -0.166992 8.66699 -0.5 12s-0.5 6.33301 -0.5 9c-0.666992 2.66699 -1 5 -1 7c0 10 3.33301 19.667 10 29s14.667 18.333 24 27s18.833 16.667 28.5 24s17.834 14 24.501 20c-30 14.667 -50.5 32.834 -61.5 54.501s-15.333 44.667 -13 69
s10.166 48.5 23.499 72.5s29.833 45.833 49.5 65.5s41.334 35.5 65.001 47.5s46.834 18 69.501 18c16 0 28 -3 36 -9s12.667 -13.333 14 -22s0.166016 -18.334 -3.50098 -29.001s-8.66699 -20.334 -15 -29.001s-13.333 -16 -21 -22s-14.834 -9 -21.501 -9
c-3.33301 0 -6.83301 1.16699 -10.5 3.5l-11 7c-3.66699 2.33301 -7.5 4.16602 -11.5 5.49902s-8 1 -12 -1c-18 -7.33301 -30.833 -17 -38.5 -29s-10.334 -23.667 -8.00098 -35s9.16602 -21.333 20.499 -30s27 -13 47 -13c20.667 0 45.5 5.16699 74.5 15.5
s61.833 28.5 98.5 54.5zM790.004 -0.999023c-30.667 11.333 -58.333 22.498 -83 33.498s-46.667 23.167 -66 36.5c-27.333 16.667 -49 36.167 -65 58.5s-26.667 46.333 -32 72s-6 52.5 -2 80.5s12.667 56.333 26 85c9.33301 18.667 19.833 36.334 31.5 53.001
s23.667 30.834 36 42.501s24.5 20 36.5 25s23 5.16699 33 0.5c6.66699 -2.66699 18.5 -8.16699 35.5 -16.5s39 -16.833 66 -25.5s59 -16.667 96 -24s78.5 -11.333 124.5 -12h58v-409h-99c-16 -36 -35.5 -70.667 -58.5 -104s-48.667 -64.666 -77 -93.999
s-58.333 -56.333 -90 -81s-63.667 -46 -96 -64s-64.5 -32 -96.5 -42s-62.333 -15.333 -91 -16c-78.667 -2.66699 -147.334 9.66602 -206.001 36.999s-106.667 63.833 -144 109.5s-63.666 98 -78.999 157s-18.833 119 -10.5 180s29 120.333 62 178
s78.833 108.167 137.5 151.5c38 8.66699 56 -1.33301 54 -30c-19.333 -35.333 -33 -68.5 -41 -99.5s-11 -60.667 -9 -89s8.5 -55.666 19.5 -81.999s25.5 -52.833 43.5 -79.5c28.667 -40.667 64.5 -71.334 107.5 -92.001s87.667 -32 134 -34s91.333 5 135 21
s80.167 40.333 109.5 73z" />
    <glyph glyph-name="uniFE8B" unicode="&#x626;" horiz-adv-x="554" arabic-form="initial" 
d="M418 1100c-1.33301 -11.333 -3.83203 -23.6621 -7.49902 -36.9951s-7.83398 -26.833 -12.501 -40.5l-14 -40.5l-13 -37c-47.333 -24 -89.833 -47.667 -127.5 -71l-96.5 -60c-26.667 -16.667 -47.334 -28 -62.001 -34s-22.334 -4 -23.001 6
c0 9.33301 -0.166992 16.166 -0.5 20.499s-0.5 7.16602 -0.5 8.49902c0 10 3.33301 19.5 10 28.5s14.5 17.833 23.5 26.5s18.333 16.5 28 23.5s17.5 13.5 23.5 19.5c-29.333 14.667 -49.666 32.834 -60.999 54.501s-15.833 44.667 -13.5 69s10.333 48.666 24 72.999
s30.334 46.166 50.001 65.499s41.334 35.166 65.001 47.499s46.834 18.5 69.501 18.5c16 0 28 -3 36 -9s12.667 -13.333 14 -22s0.166016 -18.334 -3.50098 -29.001s-8.5 -20.334 -14.5 -29.001s-12.833 -16 -20.5 -22s-14.834 -9 -21.501 -9
c-3.33301 0 -6.83301 1.16699 -10.5 3.5l-11.5 7c-4 2.33301 -8 4.16602 -12 5.49902s-8 1 -12 -1c-18 -7.33301 -30.833 -17 -38.5 -29s-10.5 -23.667 -8.5 -35s8.83301 -21.166 20.5 -29.499s27.667 -12.666 48 -12.999s45 4.66699 74 15s61.833 28.833 98.5 55.5z
M286.001 407.004c0 36 -5.66797 75.833 -17.001 119.5s-28 92.5 -50 146.5l190 167l30.5 -79.5c10.333 -26.333 20 -54.333 29 -84s17 -61.667 24 -96s12.5 -73 16.5 -116s6 -91.167 6 -144.5c0 -52.667 -2.33301 -112.334 -7 -179.001
c-1.33301 -19.333 -4.33301 -37.666 -9 -54.999s-10.667 -32.5 -18 -45.5s-16.166 -23.333 -26.499 -31s-21.5 -11.5 -33.5 -11.5h-425v409h290z" />
    <glyph glyph-name="uniFE8C" unicode="&#x626;" horiz-adv-x="542" arabic-form="medial" 
d="M445 1070c-1.33301 -11.333 -3.66797 -23.668 -7.00098 -37.001s-7.33301 -26.833 -12 -40.5l-14 -40c-4.66699 -13 -8.66699 -24.833 -12 -35.5c-47.333 -24 -90 -47.833 -128 -71.5l-97 -60.5c-26.667 -16.667 -47.334 -28 -62.001 -34s-22.334 -4 -23.001 6
c0 4.66699 -0.166992 8.83398 -0.5 12.501s-0.5 6.83398 -0.5 9.50098v7c0 10 3.33301 19.667 10 29s14.5 18.166 23.5 26.499s18.333 16.333 28 24s17.5 14.5 23.5 20.5c-29.333 14 -49.666 32 -60.999 54s-15.666 45 -12.999 69s10.667 48.167 24 72.5
s30 46.166 50 65.499s41.667 35 65 47s46.333 18 69 18c24.667 0 40 -6.33301 46 -19s6.5 -26.5 1.5 -41.5s-13.333 -28.667 -25 -41s-22.5 -18.5 -32.5 -18.5c-3.33301 0 -6.83301 1.16699 -10.5 3.5l-11.5 7c-4 2.33301 -8 4.33301 -12 6s-8 1.5 -12 -0.5
c-18 -7.33301 -30.833 -17 -38.5 -29s-10.5 -23.833 -8.5 -35.5s8.83301 -21.667 20.5 -30s27.667 -12.666 48 -12.999s44.833 4.66699 73.5 15s61.334 28.5 98.001 54.5zM553.998 -1.00195h-566.002v409h216c0 20.667 -2.16699 41.167 -6.5 61.5
s-9.16602 40.833 -14.499 61.5s-11.166 41.5 -17.499 62.5s-11.5 42.167 -15.5 63.5l110 54.5l111 55.5c16 -58.667 29.167 -118.167 39.5 -178.5s13.833 -120.5 10.5 -180.5h133v-409z" />
    <glyph glyph-name="uniFE8E" unicode="&#x627;" horiz-adv-x="458" arabic-form="final" 
d="M304 408l176.999 0.000976562v-409h-210c-24 10 -46.5 24.167 -67.5 42.5s-40.167 44.5 -57.5 78.5s-32.666 77.167 -45.999 129.5s-24 117.166 -32 194.499s-13.5 168.833 -16.5 274.5s-2.83301 228.5 0.5 368.5l252 111v-790z" />
    <glyph glyph-name="uniFE90" unicode="&#x628;" horiz-adv-x="1275" arabic-form="final" 
d="M591 -192l164 -164l-164 -166l-166 166zM952 405c-1.33301 35.333 -7.32715 75.333 -17.9941 120s-27.334 93.667 -50.001 147l191 168l33 -89c11.333 -29.333 21.833 -60.833 31.5 -94.5s18 -70.834 25 -111.501s12.167 -87.334 15.5 -140.001h108v-406h-494
c-39.333 -2.66699 -80.666 -6.66699 -123.999 -12s-86.833 -10 -130.5 -14s-86.667 -6.33301 -129 -7s-82.666 2.5 -120.999 9.5s-73.5 18.667 -105.5 35s-59.333 39.333 -82 69s-39.834 67.167 -51.501 112.5s-16.167 100.666 -13.5 165.999
c1.33301 25.333 5.16602 51 11.499 77s15.166 54 26.499 84c13.333 28 24 48.667 32 62s15.667 20 23 20l56 -2c9.33301 -1.33301 14.666 -5.16602 15.999 -11.499s1.16602 -14.666 -0.500977 -24.999s-3.83398 -22.166 -6.50098 -35.499s-4 -27.333 -4 -42
s2.66699 -29.5 8 -44.5s15.666 -29.5 30.999 -43.5c19.333 -18.667 47 -31.5 83 -38.5s76.333 -10.167 121 -9.5s92 4 142 10s98.5 12.333 145.5 19l131 18.5c40.333 5.66699 73.5 8.5 99.5 8.5z" />
    <glyph glyph-name="uniFE91" unicode="&#x628;" horiz-adv-x="475" arabic-form="initial" 
d="M219 -121l164 -163l-164 -167l-166 167zM211 408c0 35.333 -5.66895 74.832 -17.002 118.499s-28 92.5 -50 146.5l190 167l45.5 -120.5c15 -40.333 27.667 -86.5 38 -138.5s17.333 -113.167 21 -183.5s1.83398 -155.5 -5.49902 -255.5
c-1.33301 -19.333 -4.33301 -37.666 -9 -54.999s-10.667 -32.5 -18 -45.5s-16.166 -23.333 -26.499 -31s-21.833 -11.5 -34.5 -11.5l-349 -1v409z" />
    <glyph glyph-name="uniFE92" unicode="&#x628;" horiz-adv-x="496" arabic-form="medial" 
d="M240 -121l164 -163l-164 -167l-166 167zM505 -1h-513.999v409h172c-0.666992 20.667 -3 41.167 -7 61.5s-8.83301 40.833 -14.5 61.5s-11.667 41.5 -18 62.5s-11.5 42.167 -15.5 63.5l110 54.5l112 55.5c15.333 -58.667 28.166 -118.167 38.499 -178.5
s13.833 -120.5 10.5 -180.5h126v-409z" />
    <glyph glyph-name="uniFE96" unicode="&#x62a;" horiz-adv-x="1288" arabic-form="final" 
d="M487 1073l114 -112l114 112l158 -156l-158 -160l-114 114l-114 -114l-158 160zM952 405c-1.33301 35.333 -7.32715 75.333 -17.9941 120s-27.334 93.667 -50.001 147l191 168l33 -89c11.333 -29.333 21.833 -60.833 31.5 -94.5s18 -70.834 25 -111.501
s12.167 -87.334 15.5 -140.001h116v-406h-502c-39.333 -2.66699 -80.666 -6.66699 -123.999 -12s-86.833 -10 -130.5 -14s-86.667 -6.33301 -129 -7s-82.666 2.5 -120.999 9.5s-73.5 18.667 -105.5 35s-59.333 39.333 -82 69s-39.834 67.167 -51.501 112.5
s-16.167 100.666 -13.5 165.999c1.33301 25.333 5.16602 51 11.499 77s15.166 54 26.499 84c13.333 28 24 48.667 32 62s15.667 20 23 20l56 -2c9.33301 -1.33301 14.666 -5.16602 15.999 -11.499s1.16602 -14.666 -0.500977 -24.999s-3.83398 -22.166 -6.50098 -35.499
s-4 -27.333 -4 -42s2.66699 -29.5 8 -44.5s15.666 -29.5 30.999 -43.5c19.333 -18.667 47 -31.5 83 -38.5s76.333 -10.167 121 -9.5s92 4 142 10s98.5 12.333 145.5 19l131 18.5c40.333 5.66699 73.5 8.5 99.5 8.5z" />
    </font>
</defs>
</svg>
