<?xml version="1.0" standalone="no"?>
<!DOCTYPE svg PUBLIC "-//W3C//DTD SVG 1.1//EN" "http://www.w3.org/Graphics/SVG/1.1/DTD/svg11.dtd" >
<svg>
<metadata>
Created by FontForge 20090914 at Wed Oct 19 01:09:10 2011
 By www-data
(c) by Abolfazl Seilsepour - +98 912 591 3420  -  seilsepor@yahoo.com
</metadata>
<defs>
<font id="FarEkhlass" horiz-adv-x="0" >
  <font-face 
    font-family="Far.Ekhlass"
    font-weight="400"
    font-stretch="normal"
    units-per-em="2048"
    panose-1="3 0 4 1 0 8 7 5 2 1"
    ascent="1638"
    descent="-410"
    bbox="-233 -627 1881 1581"
    underline-thickness="60"
    underline-position="-650"
    unicode-range="U+0020-U+FEFC"
  />
<missing-glyph horiz-adv-x="1024" 
d="M128 0v1343h768v-1343h-768zM256 128h512v1087h-512v-1087z" />
    <glyph glyph-name=".notdef" unicode="&#x652;&#x64b;" horiz-adv-x="1024" 
d="M128 0v1343h768v-1343h-768zM256 128h512v1087h-512v-1087z" />
    <glyph glyph-name="uniE818" unicode="&#x651;&#x64b;" 
d="M510 1409l-3 -90l-390 2v88h393zM514 1539l3 -90l-400 2v93zM532 1278l-0.000976562 -95c0 -32 -9 -59.333 -27 -82c-23.333 -27.333 -55.666 -41 -96.999 -41c-44 2 -74 18.667 -90 50c-15.333 -28.667 -47.333 -43 -96 -43c-43.333 -3.33301 -76.333 8.66699 -99 36
c-18 22.667 -27 49.334 -27 80.001v95h93v-75c5.33301 -38.667 21 -57.334 47 -56.001c19.333 2 29 31 29 87v44h95v-44c6 -58 23.333 -87 52 -87c23.333 0 32 19 26 57l3 74h91z" />
    <glyph glyph-name="uniFC5E" unicode="&#x651;&#x64c;" arabic-form="isolated" 
d="M597 1153l-0.000976562 -95c0 -32 -9 -59.333 -27 -82c-23.333 -27.333 -55.666 -41 -96.999 -41c-44 2 -74 18.667 -90 50c-15.333 -28.667 -47.333 -43 -96 -43c-43.333 -3.33301 -76.333 8.66699 -99 36c-18 22.667 -27 49.334 -27 80.001v95h93v-75
c5.33301 -38.667 21 -57.334 47 -56.001c19.333 2 29 31 29 87v44h95v-44c6 -58 23.333 -87 52 -87c23.333 0 32 19 26 57l3 74h91zM499.999 1479c-41.333 0 -62 -22.333 -62 -67c0 -45.333 20.667 -68 62 -68s62 22.667 62 68c0 44.667 -20.667 67 -62 67zM290.999 1479
c-40.667 0 -61 -22.333 -61 -67c0 -45.333 20.333 -68 61 -68c41.333 0 62 22.667 62 68c0 44.667 -20.667 67 -62 67zM393.999 1313c-0.666992 -1.33301 -1.33398 -2.33301 -2.00098 -3l-10 -10l-3 -7l-186 -132l-31 60l79 55c-15.333 2.66699 -33.666 14.667 -54.999 36
c-26.667 27.333 -40 60 -40 98c0 92 47.667 138 143 138c46 0 81 -10.333 105 -31c24 20.667 58.667 31 104 31c97.333 0 146 -46 146 -138c0 -38 -14 -70.667 -42 -98l-201 -151l-30 60l78 55c-14.667 2.66699 -32 14 -52 34z" />
    <glyph glyph-name="uniFC5F" unicode="&#x651;&#x64d;" arabic-form="isolated" 
d="M544 1535l0.000976562 -96.001c0 -31.333 -9 -58.333 -27 -81c-22.667 -28 -55.334 -42 -98.001 -42c-43.333 2.66699 -73 19.334 -89 50.001c-15.333 -28.667 -47.333 -43 -96 -43c-43.333 -3.33301 -76.333 9 -99 37c-18 22.667 -27 49 -27 79v96h93v-76
c5.33301 -38.667 21 -57 47 -55c19.333 1.33301 29 30.333 29 87v44h95v-44c6 -58 23.333 -87 52 -87c23.333 0 32 19 26 57l3 74h91zM512.001 1181l3 -91l-396 4v87h393zM512.001 1305v-92l-388 -2l-6 94h394z" />
    <glyph glyph-name="uniFC60" unicode="&#x651;&#x64e;" arabic-form="isolated" 
d="M531 1295l0.000976562 -94.999c0 -32 -9 -59.333 -27 -82c-22.667 -28 -55.334 -42 -98.001 -42c-43.333 2.66699 -73 19.667 -89 51c-15.333 -28.667 -47.333 -43 -96 -43c-43.333 -3.33301 -76.333 8.66699 -99 36c-18 23.333 -27 50 -27 80v95h93v-75
c5.33301 -38.667 21 -57.334 47 -56.001c19.333 2 29 31 29 87v44h95v-43c6 -58 23.333 -87 52 -87c23.333 0 32 18.667 26 56l3 74h91zM513.001 1394l3 -78h-398l3 78h392z" />
    <glyph glyph-name="uniFC61" unicode="&#x651;&#x64f;" arabic-form="isolated" 
d="M293 1395c0 -46 20.667 -69 62 -69c40.667 0 61 23 61 69c0 44.667 -20.333 67 -61 67c-41.333 0 -62 -22.333 -62 -67zM446 1284l-4 -8l-185 -132l-32 60l79 55c-14.667 2.66699 -32 14 -52 34c-28.667 28.667 -43 62 -43 100c0 92 48 138 144 138
c96.667 0 145 -46 145 -138c0 -38 -13.333 -70.667 -40 -98zM553 1145l-0.000976562 -95c0 -32 -9 -59.333 -27 -82c-23.333 -27.333 -55.666 -41 -96.999 -41c-44 2 -74 18.667 -90 50c-15.333 -28.667 -47.333 -43 -96 -43c-43.333 -3.33301 -76.333 8.66699 -99 36
c-18 22.667 -27 49.334 -27 80.001v95h93v-75c5.33301 -38.667 21 -57.334 47 -56.001c19.333 2 29 31 29 87v44h95v-44c6 -58 23.333 -87 52 -87c23.333 0 32 19 26 57l3 74h91z" />
    <glyph glyph-name="uniFC62" unicode="&#x651;&#x650;" arabic-form="isolated" 
d="M551 1495l0.000976562 -96c0 -32 -9 -59.333 -27 -82c-22.667 -28 -55.334 -42 -98.001 -42c-43.333 2.66699 -73 19.667 -89 51c-15.333 -28.667 -47.333 -43 -96 -43c-43.333 -3.33301 -76.333 9 -99 37c-18 22.667 -27 49 -27 79v96h93v-76
c5.33301 -38.667 21 -57 47 -55c19.333 1.33301 29 30 29 86v45h95v-44c6 -58 23.333 -87 52 -87c23.333 0 32 18.667 26 56l3 75h91zM534.001 1262l3 -78h-397l3 78h391z" />
    <glyph glyph-name="uniFD3F" unicode="&#x652;&#x64e;" horiz-adv-x="1135" 
d="M1079 453c0 -32 -34.668 -68.333 -104.001 -109c-7.33301 -104 -23.666 -156 -48.999 -156c-102 96 -178 144 -228 144c5.33301 -51.333 31.666 -99.833 78.999 -145.5s71 -71.5 71 -77.5c0 -10.667 -20.333 -22.667 -61 -36c-46 -14 -97.333 -22 -154 -24
c-48 -144.667 -113 -274 -195 -388c-63.333 -88.667 -131.333 -161.667 -204 -219c-58 -46 -99 -69 -123 -69c-14 0 -21 7 -21 21c0 6.66699 24.333 37.334 73 92.001c60 68 109.333 137.333 148 208c58.667 109.333 98.334 231 119.001 365
c-66.667 11.333 -100 26.333 -100 45c94 95.333 141 169.333 141 222c-48.667 0 -120.334 -49.333 -215.001 -148c-12.667 0 -25.167 17.5 -37.5 52.5s-19.5 72.167 -21.5 111.5c-71.333 37.333 -107 70.666 -107 99.999c0 25.333 33.333 57.666 100 96.999
c6.66699 106 25.334 159 56.001 159l68 -65c46 -45.333 97 -70.666 153 -75.999c0 48 -24.667 96 -74 144s-74 75.667 -74 83c0 15.333 36.333 30.333 109 45c-21.333 109.333 -64.833 221.666 -130.5 336.999s-138.167 207.333 -217.5 276c-14 12 -21 23 -21 33
c0 10.667 8.33301 16 25 16c50.667 0 127 -50 229 -150c134 -131.333 238.667 -297.666 314 -498.999c139.333 -2 209 -20.667 209 -56c-92 -96 -138 -170.333 -138 -223c41.333 0 86 24.667 134 74s75 74 81 74c25.333 0 44 -54.667 56 -164
c73.333 -36 110 -67.333 110 -94zM712.999 446c0 34.667 -12.667 64.167 -38 88.5s-55.666 36.5 -90.999 36.5s-65.666 -12.167 -90.999 -36.5s-38 -53.833 -38 -88.5c0 -35.333 12.667 -65.666 38 -90.999s55.666 -38 90.999 -38s65.666 12.667 90.999 38
s38 55.666 38 90.999z" />
    <glyph glyph-name="uniFDF2" unicode="&#xfedf;&#xfee0;&#xfeea;" horiz-adv-x="1425" arabic-form="isolated" 
d="M569 129l-0.000976562 451.001c-14 8 -42.667 3.66699 -86 -13c-43.333 -14.667 -83.333 -45.334 -120 -92.001c-26.667 -30 -48 -63.333 -64 -100c-13.333 -30.667 -23.333 -63.667 -30 -99c-5.33301 -26 -8.66602 -54.667 -9.99902 -86l-3 -61h313zM1182 1047v-78.001
c0 -27.333 -7.66699 -50.666 -23 -69.999c-18 -22 -43 -33 -75 -33c-34 2 -61.333 23.333 -82 64c-20.667 -38.667 -50 -58 -88 -58c-34.667 -2 -60.667 7.66699 -78 29c-15.333 19.333 -23 42 -23 68v78h58v-60c5.33301 -41.333 24.333 -61 57 -59c26 2 39 31.333 39 88v31
h59v-31c6 -58.667 26.667 -88 62 -88c30.667 0 42.667 20.333 36 61l3 58h55zM970.999 1239l53 2v-135h-53v133zM1307 125l-0.000976562 692.001h123v-815h-240v-4h-197l2 4h-155v-4h-174v4l-103 -4l2 115l-65 -115l-373 4c-2 72 -2 137 0 195c2 59.333 16.333 129 43 209
c26.667 81.333 71.667 150.666 135 207.999c64.667 58 123.334 90.333 176.001 97v2c57.333 14 129 14 215 0v-578h232l4 684l129 -2v-692h246z" />
    <glyph glyph-name="uniFEF5" unicode="&#xfedf;&#xfe82;" horiz-adv-x="729" arabic-form="isolated" 
d="M464 1192c-6.66699 -39.333 -18.333 -67.333 -35 -84c-22 -24.667 -50 -37 -84 -37c-23.333 0 -52.666 6.33301 -87.999 19c-40.667 14.667 -66.334 22 -77.001 22c-29.333 0 -47.333 -17.667 -54 -53h-55c10 82 46.333 123 109 123c22.667 0 52.667 -7 90 -21
c40.667 -14.667 65.667 -22 75 -22c38 0 58 17.667 60 53h59zM315.001 129c51.333 88.667 142 168.668 272 240.001l-338 614l-92 -102l272 -471c-130 -90.667 -221.333 -184.334 -274 -281.001v-127h582v979l-127 2v-854h-295z" />
    <glyph glyph-name="uniFEF6" unicode="&#xfee0;&#xfe82;" horiz-adv-x="851" arabic-form="final" 
d="M464 1192c-6.66699 -39.333 -18.333 -67.333 -35 -84c-22 -24.667 -50 -37 -84 -37c-23.333 0 -52.666 6.33301 -87.999 19c-40.667 14.667 -66.334 22 -77.001 22c-29.333 0 -47.333 -17.667 -54 -53h-55c10 82 46.333 123 109 123c22.667 0 52.667 -7 90 -21
c40.667 -14.667 65.667 -22 75 -22c38 0 58 17.667 60 53h59zM870.001 2v127.001h-152v852l-127 2v-854h-295c52 88.667 143 168.667 273 240l-338 614l-92 -102l272 -471c-130.667 -90.667 -222 -184.334 -274 -281.001v-127h733z" />
    <glyph glyph-name="uniFEF7" unicode="&#xfedf;&#xfe84;" horiz-adv-x="729" arabic-form="isolated" 
d="M610 129v853.999l126 -2v-979h-581v127c52.667 96.667 144 190.334 274 281.001l-272 471l92 102l338 -614c-130 -71.333 -220.667 -151.333 -272 -240h295zM329 1118l-0.000976562 -59h-211l16 59h50c-20.667 26.667 -27 59.667 -19 99
c10.667 47.333 50.334 71 119.001 71h6l18 -61h-18c-36 0 -57 -12.333 -63 -37c-6.66699 -21.333 5.33301 -45.333 36 -72h66z" />
    <glyph glyph-name="uniFEF8" unicode="&#xfee0;&#xfe84;" horiz-adv-x="860" arabic-form="final" 
d="M327 1118l-0.000976562 -59h-211l16 59h50c-20.667 26.667 -27 59.667 -19 99c10.667 47.333 50.334 71 119.001 71h6l18 -61h-18c-36 0 -57 -12.333 -63 -37c-6.66699 -21.333 5.33301 -45.333 36 -72h66zM135.999 2l-0.000976562 126.999
c52.667 96.667 144.334 190.334 275.001 281.001l-272 471l92 102l338 -614c-130 -71.333 -221 -151.333 -273 -240h295v854l127 -2v-852h152v-127h-734z" />
    <glyph glyph-name="uniFEF9" unicode="&#xfedf;&#xfe88;" horiz-adv-x="710" arabic-form="isolated" 
d="M333 -192l-0.000976562 -59.001h-211l16 59h50c-20.667 26.667 -27 59.334 -19 98.001c10.667 48 50.334 72 119.001 72h6l18 -61h-18c-36 0 -57 -12.333 -63 -37c-6.66699 -21.333 5.33301 -45.333 36 -72h66zM584.999 128.999l-0.000976562 853.999l127 -2v-979h-582
v127c52.667 96.667 144.334 190.334 275.001 281.001l-273 471l92 102l338 -614c-130 -71.333 -220.667 -151.333 -272 -240h295z" />
    <glyph glyph-name="uniFEFA" unicode="&#xfee0;&#xfe88;" horiz-adv-x="843" arabic-form="final" 
d="M346 -192l-0.000976562 -59.001h-211l16 59h50c-20.667 26.667 -27 59.334 -19 98.001c10.667 48 50.334 72 119.001 72h6l18 -61h-18c-36 0 -57 -12.333 -63 -37c-6.66699 -21.333 5.33301 -45.333 36 -72h66zM134.999 1.99902v126.999
c52.667 96.667 144 190.334 274 281.001l-272 471l92 102l338 -614c-130 -71.333 -220.667 -151.333 -272 -240h295v854l127 -2v-852h151v-127h-733z" />
    <glyph glyph-name="uniFEFB" unicode="&#xfedf;&#xfe8e;" horiz-adv-x="704" arabic-form="isolated" 
d="M575 129v853.999l127 -2v-979h-582v127c52.667 96.667 144 190.334 274 281.001l-272 471l92 102l338 -614c-130 -71.333 -220.667 -151.333 -272 -240h295z" />
    <glyph glyph-name="uniFEFC" unicode="&#xfee0;&#xfe8e;" horiz-adv-x="847" arabic-form="final" 
d="M137 2v126.999c52.667 96.667 144 190.334 274 281.001l-272 471l92 102l338 -614c-130 -71.333 -220.667 -151.333 -272 -240h295v854l127 -2v-852h151v-127h-733z" />
    <glyph glyph-name="afii57410" unicode="&#x622;" horiz-adv-x="360" arabic-form="isolated" 
d="M397 1192c-6.66699 -39.333 -18.333 -67.333 -35 -84c-22 -24.667 -50 -37 -84 -37c-23.333 0 -52.666 6.33301 -87.999 19c-40.667 14.667 -66.334 22 -77.001 22c-29.333 0 -47.333 -17.667 -54 -53h-55c10 82 46.333 123 109 123c22.667 0 52.667 -7 90 -21
c40.667 -14.667 65.667 -22 75 -22c38 0 58 17.667 60 53h59zM119.001 -2h129v985h-129v-985z" />
    <glyph glyph-name="afii57411" unicode="&#x623;" horiz-adv-x="249" arabic-form="isolated" 
d="M120 983h129v-985h-129v985zM280 1118l-0.000976562 -59h-211l16 59h50c-20.667 26.667 -27 59.667 -19 99c10.667 47.333 50.334 71 119.001 71h6l18 -61h-18c-36 0 -57 -12.333 -63 -37c-6.66699 -21.333 5.33301 -45.333 36 -72h66z" />
    <glyph glyph-name="afii57412" unicode="&#x624;" horiz-adv-x="684" arabic-form="isolated" 
d="M559 129l-0.000976562 451c-14 8 -42.667 3.66699 -86 -13c-43.333 -14.667 -83.333 -45.334 -120 -92.001s-62.667 -91.667 -78 -135c-13.333 -37.333 -21.666 -78.666 -24.999 -123.999l-2 -26l-2 -61h313zM552.999 27l1.99805 86.002l-65 -115l-373 4
c-2 72 -2 137 0 195c2 59.333 16.333 129 43 209c26.667 81.333 71.667 150.666 135 207.999c64.667 58 123.334 90.333 176.001 97v2c57.333 14 129 14 215 0v-713c-17.333 -71.333 -57 -129 -119 -173c-69.333 -48.667 -158.666 -73.334 -267.999 -74.001l64 129
c54.667 0 101 21 139 63c24 26 41 53.333 51 82zM638.997 872.002v-59h-211l17 59h49c-20.667 26.667 -27 59.667 -19 99c10.667 47.333 50.334 71 119.001 71h6l19 -61h-19c-36 0 -57 -12.333 -63 -37c-6.66699 -20.667 5.66602 -44.667 36.999 -72h65z" />
    <glyph glyph-name="afii57413" unicode="&#x625;" horiz-adv-x="249" arabic-form="isolated" 
d="M120 983h129v-985h-129v985zM280 -192l-0.000976562 -56.999h-211l16 57h50c-21.333 26.667 -27.666 60 -18.999 100c10 46.667 49.667 70 119 70h6l18 -61h-18c-36 0 -57 -11.667 -63 -35c-6.66699 -20.667 5.33301 -45.334 36 -74.001h66z" />
    <glyph glyph-name="afii57414" unicode="&#x626;" horiz-adv-x="950" arabic-form="isolated" 
d="M129 424l122.999 60.999v-206c0 -154 30.667 -258.333 92 -313c61.333 -55.333 139 -80 233 -74c96 6 159.667 56.333 191 151l-340 107c-14.667 118.667 -6.66699 210 24 274c53.333 100 125 163.333 215 190c90.667 26.667 171.334 20 242.001 -20l45 -141
c-94.667 34 -177 43 -247 27c-60.667 -13.333 -104.667 -43 -132 -89c-13.333 -40 -22 -85 -26 -135l253 -82l125 -43c-18.667 -154.667 -63.667 -255.667 -135 -303c-69.333 -48.667 -153.333 -73 -252 -73c-98 -2 -191.333 32 -280 102
c-89.333 70.667 -133 206.334 -131 407.001v160zM310.999 667.999l-0.000976562 -60h-211l16 60h50c-20.667 26.667 -27 59.334 -19 98.001c10.667 48 50.334 72 119.001 72h6l18 -62h-18c-36 0 -57 -12.333 -63 -37c-6.66699 -20.667 5.33301 -44.334 36 -71.001h66z" />
    <glyph glyph-name="afii57415" unicode="&#x627;" horiz-adv-x="256" arabic-form="isolated" 
d="M126 983h129v-985h-129v985z" />
    <glyph glyph-name="afii57416" unicode="&#x628;" horiz-adv-x="1097" arabic-form="isolated" 
d="M604 -251v129h133v-129h-133zM975 129l4.00098 483h123v-610l-580 -2c-322.667 -1.33301 -495.334 146.667 -518.001 444l123 62c0 -254.667 129 -381 387 -379z" />
    <glyph glyph-name="afii57417" unicode="&#x629;" horiz-adv-x="679" arabic-form="isolated" 
d="M557 129l-0.000976562 451c-14 8 -42.667 3.66699 -86 -13c-43.333 -14.667 -83.333 -45.334 -120 -92.001s-62.667 -91.667 -78 -135c-13.333 -37.333 -21.666 -78.666 -24.999 -123.999l-2 -26l-2 -61h313zM552.999 113l-65.001 -114.999l-373 4c-2 72 -2 137 0 195
c2 59.333 16.333 129 43 209c26.667 81.333 71.667 150.666 135 207.999c64.667 58 123.334 90.333 176.001 97v2c57.333 14 129 14 215 0v-715h-133zM346.998 956.001v-59h-211l16 59h49c-20 26.667 -26 59.667 -18 99c10 47.333 49.667 71 119 71h6l18 -61h-18
c-36 0 -57.333 -12.333 -64 -37c-6 -21.333 6.33301 -45.333 37 -72h66z" />
    <glyph glyph-name="afii57418" unicode="&#x62a;" horiz-adv-x="1214" arabic-form="isolated" 
d="M1222 2l-384.999 -2h-195c-322.667 -1.33301 -495.334 146.667 -518.001 444l123 62c0 -254.667 129 -381 387 -379l461 2l4 483h123v-610zM579.001 813v139l133 2v-141h-133zM742.001 813v139l134 2v-141h-134z" />
    <glyph glyph-name="afii57419" unicode="&#x62b;" horiz-adv-x="1218" arabic-form="isolated" 
d="M1227 2l-384.999 -2h-195c-322.667 -1.33301 -495.334 146.667 -518.001 444l123 62c0 -254.667 129 -381 387 -379l461 2l4 483h123v-610zM584.001 813v139l133 2v-141h-133zM747.001 813v139l134 2v-141h-134zM657.001 979v141h134v-139z" />
    <glyph glyph-name="afii57420" unicode="&#x62c;" horiz-adv-x="851" arabic-form="isolated" 
d="M373 -251c-168 0 -252 82.999 -252 248.999c-2 166 96.333 250 295 252l295 2c-2 41.333 -11 79.666 -27 114.999c-24.667 82.667 -72.334 139.334 -143.001 170.001c-69.333 32.667 -188.666 30.334 -357.999 -6.99902l45 142c134.667 39.333 252.667 39 354 -1
c94.667 -37.333 169.667 -107.333 225 -210c28 -80 43 -151 45 -213v-127h-340c-177.333 14 -266 -27.667 -266 -125c-10 -73.333 31 -110 123 -110l250 -4l-2 -133h-244zM803 -251.001v139h-133v-139h133z" />
    <glyph glyph-name="afii57421" unicode="&#x62d;" horiz-adv-x="843" arabic-form="isolated" 
d="M371 -251c-168 0 -252 82.999 -252 248.999c-2 166 96.333 250 295 252l295 2c-2 41.333 -11 79.666 -27 114.999c-24.667 82.667 -72.334 139.334 -143.001 170.001c-69.333 32.667 -188.666 30.334 -357.999 -6.99902l45 142c134.667 39.333 252.667 39 354 -1
c94.667 -37.333 169.667 -107.333 225 -210c28 -80 43 -151 45 -213v-127h-340c-177.333 14 -266 -27.667 -266 -125c-10 -73.333 31 -110 123 -110l250 -4l-2 -133h-244z" />
    <glyph glyph-name="afii57422" unicode="&#x62e;" horiz-adv-x="854" arabic-form="isolated" 
d="M371 -251c-168 0 -252 82.999 -252 248.999c-2 166 96.333 250 295 252l295 2c-2 41.333 -11 79.666 -27 114.999c-24.667 82.667 -72.334 139.334 -143.001 170.001c-69.333 32.667 -188.666 30.334 -357.999 -6.99902l45 142c134.667 39.333 252.667 39 354 -1
c94.667 -37.333 169.667 -107.333 225 -210c28 -80 43 -151 45 -213v-127h-340c-177.333 14 -266 -27.667 -266 -125c-10 -73.333 31 -110 123 -110l250 -4l-2 -133h-244zM365 808.999v129h133v-129h-133z" />
    <glyph glyph-name="afii57423" unicode="&#x62f;" horiz-adv-x="794" arabic-form="isolated" 
d="M657 129c-2 82 -11 140.669 -27 176.002c-27.333 61.333 -64.666 114.666 -111.999 159.999c-56 55.333 -124.333 97.666 -205 126.999l45 121c55.333 0 125.666 -34.333 210.999 -103c81.333 -65.333 142 -142.333 182 -231c38.667 -86 53 -211.667 43 -377l-70 -4h-608
l41 131h500z" />
    <glyph glyph-name="afii57424" unicode="&#x630;" horiz-adv-x="784" arabic-form="isolated" 
d="M649 129c-2 82 -11 140.669 -27 176.002c-27.333 61.333 -64.666 114.666 -111.999 159.999c-56 55.333 -124.333 97.666 -205 126.999l45 121c55.333 0 125.666 -34.333 210.999 -103c81.333 -65.333 142 -142.333 182 -231c38.667 -86 53 -211.667 43 -377l-70 -4h-608
l41 131h500zM356 813.002v139l133 2v-141h-133z" />
    <glyph glyph-name="afii57425" unicode="&#x631;" horiz-adv-x="409" arabic-form="isolated" 
d="M413 0c-17.333 -71.333 -57.334 -128.999 -120.001 -172.999c-69.333 -48.667 -158.333 -73.334 -267 -74.001l63 129c54.667 0 101.334 21 140.001 63c38.667 40.667 59 87 61 139v528h123v-612z" />
    <glyph glyph-name="afii57426" unicode="&#x632;" horiz-adv-x="413" arabic-form="isolated" 
d="M413 0c-17.333 -71.333 -57.334 -128.999 -120.001 -172.999c-69.333 -48.667 -158.333 -73.334 -267 -74.001l63 129c54.667 0 101.334 21 140.001 63c38.667 40.667 59 87 61 139v528h123v-612zM277.999 801.001v139l133 2v-141h-133z" />
    <glyph glyph-name="afii57427" unicode="&#x633;" horiz-adv-x="1384" arabic-form="isolated" 
d="M895 129h119l4 483h123v-483h117l4 483h123v-610h-508l-2 -16c-2 -56.667 -35.667 -109.334 -101 -158.001c-63.333 -48.667 -143.666 -73 -240.999 -73c-98 -2 -191.667 32 -281 102c-89.333 70.667 -133 206.334 -131 407.001v160l123 61v-206
c0 -154 30.667 -258.333 92 -313c62 -56 129.667 -84 203 -84c71.333 0 128.666 20.667 171.999 62c40 38 60.333 84.667 61 140v528h123v-483z" />
    <glyph glyph-name="afii57428" unicode="&#x634;" horiz-adv-x="1388" arabic-form="isolated" 
d="M934 813l-2 139l133 2l2 -141h-133zM897 129h119l4 483h123v-483h117l4 483h123v-610h-508l-2 -16c-2 -56.667 -35.667 -109.334 -101 -158.001c-63.333 -48.667 -143.666 -73 -240.999 -73c-98 -2 -191.667 32 -281 102c-89.333 70.667 -133 206.334 -131 407.001v160
l123 61v-206c0 -154 30.667 -258.333 92 -313c62 -56 129.667 -84 203 -84c71.333 0 128.666 20.667 171.999 62c40 38 60.333 84.667 61 140v528h123v-483zM1098 813l-2 139l133 2v-141h-131zM1008 979l-2 141h133l2 -139z" />
    <glyph glyph-name="afii57429" unicode="&#x635;" horiz-adv-x="1714" arabic-form="isolated" 
d="M1573 129c-2 82 -10.668 140.667 -26.001 176c-25.333 110 -63 187.333 -113 232c-49.333 46.667 -91.666 69 -126.999 67l-33 -4l-356 -471h655zM784.999 489v2.99902h129v-158l286 385l86 20c67.333 6.66699 138.333 -17 213 -71
c74.667 -52 131.334 -141.667 170.001 -269c28.667 -79.333 43.667 -170.666 45 -273.999v-127h-823l-12 -12c-22.667 -66.667 -58.334 -119.334 -107.001 -158.001c-2.66699 -2.66699 -6 -5 -10 -7c-2.66699 -2 -6.66699 -4.33301 -12 -7
c-56.667 -39.333 -127.667 -59 -213 -59h-8c-98 -2 -191.667 32 -281 102c-89.333 70.667 -133 206.334 -131 407.001v160l123 61v-4l8 4v-206c0 -154 30.667 -258.333 92 -313c58.667 -54.667 125.667 -82 201 -82c72 0 127.333 20.333 166 61c40.667 42.667 68 89 82 139
v405h-4z" />
    <glyph glyph-name="afii57430" unicode="&#x636;" horiz-adv-x="1714" arabic-form="isolated" 
d="M1585 129c-2 82 -10.668 140.667 -26.001 176c-25.333 110 -63 187.333 -113 232c-49.333 46.667 -91.666 69 -126.999 67l-33 -4l-356 -471h655zM1307 813v129h133v-129h-133zM796.999 489v2.99902h129v-158l286 385l86 20c67.333 6.66699 138.333 -17 213 -71
c74.667 -52 131.334 -141.667 170.001 -269c28.667 -79.333 43.667 -170.666 45 -273.999v-127h-823l-12 -12c-22.667 -66.667 -58.334 -119.334 -107.001 -158.001c-2.66699 -2.66699 -6 -5 -10 -7c-2.66699 -2 -6.66699 -4.33301 -12 -7
c-56.667 -39.333 -127.667 -59 -213 -59h-8c-98 -2 -191.667 32 -281 102c-89.333 70.667 -133 206.334 -131 407.001v160l123 61v-4l8 4v-206c0 -154 30.667 -258.333 92 -313c58.667 -54.667 125.667 -82 201 -82c72 0 127.333 20.333 166 61c40.667 42.667 68 89 82 139
v405h-4z" />
    <glyph glyph-name="afii57431" unicode="&#x637;" horiz-adv-x="1214" arabic-form="isolated" 
d="M1076 129c-2 82 -10.668 140.667 -26.001 176c-25.333 110 -63 187.333 -113 232c-49.333 46.667 -91.666 69 -126.999 67l-33 -4l-356 -471h655zM1156 0l-12 -2.00098h-1018l82 131h82l-2 854h129v-649l287 385l86 20c67.333 6.66699 138.333 -17 213 -71
c74 -52 130.667 -141.667 170 -269c28 -79.333 43 -170.666 45 -273.999v-127z" />
    <glyph glyph-name="afii57432" unicode="&#x638;" horiz-adv-x="1208" arabic-form="isolated" 
d="M1074 129c-2 82 -10.668 140.667 -26.001 176c-25.333 110 -63 187.333 -113 232c-49.333 46.667 -91.666 69 -126.999 67l-33 -4l-356 -471h655zM795.999 813v129h133v-129h-133zM1154 0l-12 -2.00098h-1018l82 131h82l-2 854h129v-649l287 385l86 20
c67.333 6.66699 138.333 -17 213 -71c74 -52 130.667 -141.667 170 -269c28 -79.333 43 -170.666 45 -273.999v-127z" />
    <glyph glyph-name="afii57433" unicode="&#x639;" horiz-adv-x="827" arabic-form="isolated" 
d="M712 252l59 -4.00098l58 -127h-316c-177.333 14 -266 -27.667 -266 -125c-10 -73.333 31 -110 123 -110l250 -4l-2 -133h-244c-168 0 -252 83 -252 249c12 136 90.667 221.333 236 256c-42 76.667 -55.667 156.667 -41 240c14 82 65.667 146 155 192
c88 44.667 183 51.667 285 21l55 -125c-118.667 28 -211.667 27 -279 -3c-62.667 -27.333 -91.667 -73.666 -87 -138.999c8 -125.333 66.667 -188 176 -188h90z" />
    <glyph glyph-name="afii57434" unicode="&#x63a;" horiz-adv-x="817" arabic-form="isolated" 
d="M521 811v129h134v-129h-134zM708 252l59 -4.00098l58 -127h-316c-177.333 14 -266 -27.667 -266 -125c-10 -73.333 31 -110 123 -110l250 -4l-2 -133h-244c-168 0 -252 83 -252 249c12 136 90.667 221.333 236 256c-42 76.667 -55.667 156.667 -41 240
c14 82 65.667 146 155 192c88 44.667 183 51.667 285 21l55 -125c-118.667 28 -211.667 27 -279 -3c-62.667 -27.333 -91.667 -73.666 -87 -138.999c8 -125.333 66.667 -188 176 -188h90z" />
    <glyph glyph-name="afii57441" unicode="&#x641;" horiz-adv-x="1310" arabic-form="isolated" 
d="M1058 129l135.001 -0.000976562v451c-14.667 8.66699 -43.334 4.66699 -86.001 -12c-46.667 -18 -87.667 -44.333 -123 -79c-38.667 -34.667 -63.334 -83 -74.001 -145c-10 -61.333 1.66699 -111.666 35 -150.999c38.667 -42.667 76.334 -64 113.001 -64z
M630.001 126.999v1.99902h201c-51.333 90 -63.666 182.333 -36.999 277c26 94 71 167 135 219c63.333 50.667 122 79.334 176 86.001v2c57.333 14 129 14 215 0v-578l-4 -135l-94 2l-592 -2c-162.667 0 -284.334 34 -365.001 102c-81.333 68 -128.333 182 -141 342l123 62
c0 -126 34 -221 102 -285c67.333 -62.667 161 -94 281 -94zM1078 808.998v141h133v-141h-133z" />
    <glyph glyph-name="afii57442" unicode="&#x642;" horiz-adv-x="909" arabic-form="isolated" 
d="M638 129l135.001 -0.000976562v451c-14.667 8.66699 -43.334 4.66699 -86.001 -12c-46.667 -18 -87.667 -44.333 -123 -79c-38.667 -34.667 -63.334 -83 -74.001 -145c-10 -61.333 1.66699 -111.666 35 -150.999c38.667 -42.667 76.334 -64 113.001 -64z
M765.001 -0.000976562c-181.333 -6 -299.335 36.998 -354.002 128.998c-51.333 90 -63.666 182.333 -36.999 277c26 94 71 167 135 219c63.333 50.667 122 79.334 176 86.001v2c57.333 14 132.333 16 225 6l-2 -549c2 -49.333 -0.666992 -104 -8 -164l-2 -20
c-10.667 -58 -47.667 -110.667 -111 -158c-63.333 -48.667 -143.666 -73 -240.999 -73c-98 -2 -191.667 32 -281 102c-89.333 70.667 -133 206.334 -131 407.001v160l123 61v-206c0 -154 30.667 -258.333 92 -313c62 -56 129.667 -84 203 -84c76 0 133.333 21 172 63
c18 20.667 31.667 39 41 55zM539.999 812.997l-2 139l133 2v-141h-131zM700.999 812.997v139l133 2v-141h-133z" />
    <glyph glyph-name="afii57443" unicode="&#x643;" horiz-adv-x="1287" arabic-form="isolated" 
d="M640 -2c-321.333 0 -493.331 148.666 -515.998 445.999l123 62c0 -254.667 128.333 -380.334 385 -377.001h501c-2.66699 82 -11.667 140.667 -27 176c-24.667 83.333 -72.334 140 -143.001 170c-69.333 32.667 -189 30.667 -359 -6c20 94 100 265.333 240 514h133
l-166 -342c71.333 4 135.666 -6.33301 192.999 -31c97.333 -41.333 172.333 -111.666 225 -210.999c28 -79.333 43 -170.666 45 -273.999v-123l-74 -4h-560z" />
    <glyph glyph-name="afii57444" unicode="&#x644;" horiz-adv-x="909" arabic-form="isolated" 
d="M785 981l123 -0.00195312v-811c2 -67.333 -2 -128.666 -12 -183.999c-8 -57.333 -44.333 -110 -109 -158c-63.333 -48.667 -143.666 -73 -240.999 -73c-98 -2 -191.667 32 -281 102c-89.333 70.667 -133 206.334 -131 407.001v160l123 61v-206
c0 -154 30.667 -258.333 92 -313c62 -56 129.667 -84 203 -84c71.333 0 128.666 20.667 171.999 62c40 38 60.333 84.667 61 140v897z" />
    <glyph glyph-name="afii57445" unicode="&#x645;" horiz-adv-x="872" arabic-form="isolated" 
d="M743 129c-0.666992 5.33301 -1 14.332 -1 26.999l-2 34c-1.33301 31.333 -4.33301 60 -9 86c-7.33301 35.333 -17.666 68.333 -30.999 99c-16.667 36.667 -38.667 70 -66 100c-34 46.667 -73.667 77.334 -119 92.001c-42.667 16.667 -71.334 21 -86.001 13v-451h314z
M296 712.999c90 14 163.667 14 221 0v-2c53.333 -6.66699 112.333 -39 177 -97c63.333 -57.333 108.333 -126.666 135 -207.999c26.667 -80 41 -149.667 43 -209c2 -58 2 -123 0 -195l-373 -4l-66 115l-16 -117c-17.333 -71.333 -57.333 -129 -120 -173
c-69.333 -48.667 -158.333 -73.334 -267 -74.001l63 129c54 0 100.667 20.333 140 61c38.667 40.667 59 87 61 139z" />
    <glyph glyph-name="afii57446" unicode="&#x646;" horiz-adv-x="899" arabic-form="isolated" 
d="M469 813l-2 139l133 2l2 -141h-133zM780 612l123 -0.00195312v-442c2 -67.333 -2 -128.666 -12 -183.999c-8 -57.333 -44.333 -110 -109 -158c-63.333 -48.667 -143.666 -73 -240.999 -73c-98 -2 -191.667 32 -281 102c-89.333 70.667 -133 206.334 -131 407.001v160
l123 61v-206c0 -154 30.667 -258.333 92 -313c62 -56 129.667 -84 203 -84c71.333 0 128.666 20.667 171.999 62c40 38 60.333 84.667 61 140v528z" />
    <glyph glyph-name="afii57470" unicode="&#x647;" horiz-adv-x="679" arabic-form="isolated" 
d="M557 129l-0.000976562 451c-14 8 -42.667 3.66699 -86 -13c-43.333 -14.667 -83.333 -45.334 -120 -92.001s-62.667 -91.667 -78 -135c-13.333 -37.333 -21.666 -78.666 -24.999 -123.999l-2 -26l-2 -61h313zM552.999 113l-65.001 -114.999l-373 4c-2 72 -2 137 0 195
c2 59.333 16.333 129 43 209c26.667 81.333 71.667 150.666 135 207.999c64.667 58 123.334 90.333 176.001 97v2c57.333 14 129 14 215 0v-715h-133z" />
    <glyph glyph-name="afii57448" unicode="&#x648;" horiz-adv-x="694" arabic-form="isolated" 
d="M565 129l-0.000976562 451c-14 8 -42.667 3.66699 -86 -13c-43.333 -14.667 -83.333 -45.334 -120 -92.001s-62.667 -91.667 -78 -135c-13.333 -37.333 -21.666 -78.666 -24.999 -123.999l-2 -26l-2 -61h313zM558.999 27l1.99805 86.002l-65 -115l-373 4
c-2 72 -2 137 0 195c2 59.333 16.333 129 43 209c26.667 81.333 71.667 150.666 135 207.999c64.667 58 123.334 90.333 176.001 97v2c57.333 14 129 14 215 0v-713c-17.333 -71.333 -57 -129 -119 -173c-69.333 -48.667 -158.666 -73.334 -267.999 -74.001l64 129
c54.667 0 101 21 139 63c24 26 41 53.333 51 82z" />
    <glyph glyph-name="afii57449" unicode="&#x649;" horiz-adv-x="948" arabic-form="isolated" 
d="M138 424l123.001 60.999v-206c0 -154 30.667 -258.333 92 -313c61.333 -55.333 139.333 -80 234 -74c96 6 159.333 56.333 190 151l-340 107c-14.667 118.667 -6.33398 210 24.999 274c53.333 100 125 163.333 215 190s170.333 20 241 -20l45 -141
c-94 34 -176.333 43 -247 27c-60 -13.333 -103.667 -43 -131 -89c-14 -40 -23 -85 -27 -135l254 -82l125 -43c-18.667 -154.667 -63.667 -255.667 -135 -303c-70 -48.667 -154 -73 -252 -73c-98 -2 -191.667 32 -281 102c-89.333 70.667 -133 206.334 -131 407.001v160z" />
    <glyph glyph-name="afii57450" unicode="&#x64a;" horiz-adv-x="948" arabic-form="isolated" 
d="M138 424l123.001 60.999v-206c0 -154 30.667 -258.333 92 -313c61.333 -55.333 139.333 -80 234 -74c96 6 159.333 56.333 190 151l-340 107c-14.667 118.667 -6.33398 210 24.999 274c53.333 100 125 163.333 215 190s170.333 20 241 -20l45 -141
c-94 34 -176.333 43 -247 27c-60 -13.333 -103.667 -43 -131 -89c-14 -40 -23 -85 -27 -135l254 -82l125 -43c-18.667 -154.667 -63.667 -255.667 -135 -303c-70 -48.667 -154 -73 -252 -73c-98 -2 -191.667 32 -281 102c-89.333 70.667 -133 206.334 -131 407.001v160z" />
    <glyph glyph-name="afii57506" unicode="&#x67e;" horiz-adv-x="1218" arabic-form="isolated" 
d="M1227 2l-384.999 -2h-195c-322.667 -1.33301 -495.334 146.667 -518.001 444l123 62c0 -254.667 129 -381 387 -379l461 2l4 483h123v-610zM717.001 -108v-139h-133v141zM881.001 -108v-139h-134v141zM791.001 -274v-141h-134v141h134z" />
    <glyph glyph-name="afii57507" unicode="&#x686;" horiz-adv-x="964" arabic-form="isolated" 
d="M375 -251c-168 0 -252 82.999 -252 248.999c-2 166 96.333 250 295 252l295 2c-2 41.333 -11 79.666 -27 114.999c-24.667 82.667 -72.334 139.334 -143.001 170.001c-69.333 32.667 -188.666 30.334 -357.999 -6.99902l45 142c134.667 39.333 252.667 39 354 -1
c94.667 -37.333 169.667 -107.333 225 -210c28 -80 43 -151 45 -213v-127h-340c-177.333 14 -266 -27.667 -266 -125c-10 -73.333 31 -110 123 -110l250 -4l-2 -133h-244zM670 -106.001v-141h133v139zM834 -106.001v-141h133v139zM744 -274.001v-141h133v141h-133z" />
    <glyph glyph-name="afii57508" unicode="&#x698;" horiz-adv-x="409" arabic-form="isolated" 
d="M413 0c-17.333 -71.333 -57.334 -128.999 -120.001 -172.999c-69.333 -48.667 -158.333 -73.334 -267 -74.001l63 129c54.667 0 101.334 21 140.001 63c38.667 40.667 59 87 61 139v549h123v-633zM191.999 731.001l-2 139l133 2v-141h-131zM353.999 731.001v139l133 2
v-141h-133zM263.999 897.001v141h133v-139z" />
    <glyph glyph-name="afii57509" unicode="&#x6af;" horiz-adv-x="1287" arabic-form="isolated" 
d="M640 -2c-321.333 0 -493.331 148.666 -515.998 445.999l123 62c0 -254.667 128.333 -380.334 385 -377.001h501c-2.66699 82 -11.667 140.667 -27 176c-24.667 83.333 -72.334 140 -143.001 170c-69.333 32.667 -189 30.667 -359 -6c20 94 100 265.333 240 514h133
l-166 -342c71.333 4 135.666 -6.33301 192.999 -31c97.333 -41.333 172.333 -111.666 225 -210.999c28 -79.333 43 -170.666 45 -273.999v-123l-74 -4h-560zM683.002 981.999l83 1c-66 -104.667 -133 -246.667 -201 -426l-47 76c57.333 156.667 112.333 273 165 349z" />
    <glyph glyph-name="uniFB57" unicode="&#x67e;" horiz-adv-x="1355" arabic-form="final" 
d="M653 0c-322.667 -1.33301 -495.333 146.667 -518 444l123 62c0 -254.667 129 -381 387 -379l461 2l4 483h123v-487h137v-123zM723.001 -108v-139h-133v141zM887.001 -108v-139h-134v141zM797.001 -274v-141h-134v141h134z" />
    <glyph glyph-name="uniFB58" unicode="&#x67e;" horiz-adv-x="237" arabic-form="initial" 
d="M117 612h123v-610h-252v127h125zM82 -108v-139h-133l3 141zM246 -108v-139h-133v141zM156 -274v-141h-133v141h133z" />
    <glyph glyph-name="uniFB59" unicode="&#x67e;" horiz-adv-x="370" arabic-form="medial" 
d="M-14 0l4 127l131 2l4 483h123v-487h137v-123zM86 -108v-139h-133l3 141zM250 -108v-139h-133v141zM160 -274v-141h-133v141h133z" />
    <glyph glyph-name="uniFB7B" unicode="&#x686;" horiz-adv-x="985" arabic-form="final" 
d="M866 0c-76.667 -2 -122.333 38.332 -137 120.999h-213c-177.333 14 -266 -27.667 -266 -125c-10 -73.333 31 -110 123 -110l250 -4l-2 -133h-244c-168 0 -252 83 -252 249c-2 166 96.333 250 295 252l295 2c-2 41.333 -11 79.666 -27 114.999
c-24.667 82.667 -72.334 139.334 -143.001 170.001c-69.333 32.667 -188.666 30.334 -357.999 -6.99902l45 142c134.667 39.333 252.667 39 354 -1c94.667 -37.333 169.667 -107.333 225 -210c28 -80 43 -151 45 -213c-18 -81.333 6.66699 -121 74 -119h74v-127z
M672.001 -106.001v-141h133v139zM746.001 -274.001v-141h133v141h-133zM836.001 -106.001v-141h133v139z" />
    <glyph glyph-name="uniFB7C" unicode="&#x686;" horiz-adv-x="704" arabic-form="initial" 
d="M705 -2l-724.998 -0.00195312v131h582c-2.66699 82 -11.667 140.667 -27 176c-24.667 83.333 -72.334 140 -143.001 170c-69.333 32.667 -189 30.667 -359 -6l45 141c135.333 40 253.666 40 354.999 0c94.667 -37.333 169.667 -107.666 225 -210.999
c28 -79.333 43 -170.666 45 -273.999zM193.002 -106.002v-141h133v139zM357.002 -106.002v-141h133v139zM267.002 -274.002v-141h133v141h-133z" />
    <glyph glyph-name="uniFB7D" unicode="&#x686;" horiz-adv-x="827" arabic-form="medial" 
d="M699 2l-69.998 -4.00195h-649v131h582c-2.66699 82 -11.667 140.667 -27 176c-24.667 83.333 -72.334 140 -143.001 170c-69.333 32.667 -189 30.667 -359 -6l45 141c135.333 40 253.666 40 354.999 0c94.667 -37.333 169.667 -107.666 225 -210.999
c28 -79.333 43 -170.666 45 -273.999h143v-123h-147zM193.002 -106.002v-141h133v139zM357.002 -106.002v-141h133v139zM267.002 -274.002v-141h133v141h-133z" />
    <glyph glyph-name="uniFB8B" unicode="&#x698;" horiz-adv-x="544" arabic-form="final" 
d="M417 0c-17.333 -71.333 -57.334 -128.999 -120.001 -172.999c-69.333 -48.667 -158.333 -73.334 -267 -74.001l63 129c54.667 0 101.334 21 140.001 63c38.667 40.667 59 87 61 139v549h123v-504h143v-131zM195.999 813.001l-2 139l133 2v-141h-131zM357.999 813.001v139
l133 2v-141h-133zM267.999 979.001v141h133v-139z" />
    <glyph glyph-name="uniFB8F" unicode="&#x6a9;" horiz-adv-x="1413" arabic-form="final" 
d="M640 -2c-321.333 0 -493.331 148.667 -515.998 446l123 62c0 -254.667 128.333 -380.334 385 -377.001h501c-2.66699 82 -11.667 140.667 -27 176l-2 6c-25.333 80 -72.333 134.667 -141 164c-69.333 32.667 -189 30.667 -359 -6c20 94 100 265.333 240 514h133
l-166 -342c71.333 4 135.666 -6.33301 192.999 -31c89.333 -38 159.666 -100 210.999 -186c5.33301 -8 10 -16.333 14 -25c28 -79.333 43 -170.666 45 -273.999h164v-123h-164l-74 -4h-560z" />
    <glyph glyph-name="uniFB90" unicode="&#x6a9;" horiz-adv-x="714" arabic-form="initial" 
d="M246 641c71.333 4 135.668 -6.33496 193.001 -31.002c97.333 -41.333 172.333 -111.666 225 -210.999c28 -79.333 43 -170.666 45 -273.999v-123l-74 -4h-649v131h582c-2.66699 82 -11.667 140.667 -27 176c-24.667 83.333 -72.334 140 -143.001 170
c-69.333 32.667 -189 30.667 -359 -6c20 94 100 265.333 240 514h133z" />
    <glyph glyph-name="uniFB91" unicode="&#x6a9;" horiz-adv-x="849" arabic-form="medial" 
d="M707 2l-73.998 -4.00195h-649v131h582c-2.66699 82 -11.667 140.667 -27 176c-24.667 83.333 -72.334 140 -143.001 170c-69.333 32.667 -189 30.667 -359 -6c20 94 100 265.333 240 514h133l-166 -342c71.333 4 135.666 -6.33301 192.999 -31
c97.333 -41.333 172.333 -111.666 225 -210.999c28 -79.333 43 -170.666 45 -273.999h164v-123h-164z" />
    <glyph glyph-name="uniFB93" unicode="&#x6af;" horiz-adv-x="1413" arabic-form="final" 
d="M640 -2c-321.333 0 -493.331 148.667 -515.998 446l123 62c0 -254.667 128.333 -380.334 385 -377.001h501c-2.66699 82 -11.667 140.667 -27 176l-2 6c-25.333 80 -72.333 134.667 -141 164c-69.333 32.667 -189 30.667 -359 -6c20 94 100 265.333 240 514h133
l-166 -342c71.333 4 135.666 -6.33301 192.999 -31c89.333 -38 159.666 -100 210.999 -186c5.33301 -8 10 -16.333 14 -25c28 -79.333 43 -170.666 45 -273.999h164v-123h-164l-74 -4h-560zM683.002 982l83 1c-66 -104.667 -133 -246.667 -201 -426l-47 76
c57.333 156.667 112.333 273 165 349z" />
    <glyph glyph-name="uniFB94" unicode="&#x6af;" horiz-adv-x="769" arabic-form="initial" 
d="M301 641c71.333 4 135.668 -6.33496 193.001 -31.002c97.333 -41.333 172.333 -111.666 225 -210.999c28 -79.333 43 -170.666 45 -273.999v-123l-74 -4h-699v131h632c-2.66699 82 -11.667 140.667 -27 176c-24.667 83.333 -72.334 140 -143.001 170
c-69.333 32.667 -189 30.667 -359 -6c20 94 100 265.333 240 514h133zM174.002 981.998l83 1c-66 -104.667 -133 -246.667 -201 -426l-47 76c57.333 156.667 112.333 273 165 349z" />
    <glyph glyph-name="uniFB95" unicode="&#x6af;" horiz-adv-x="909" arabic-form="medial" 
d="M-16 -2l0.000976562 130.999h642c-2.66699 82 -11.667 140.667 -27 176l-2 6c-25.333 80 -72.333 134.667 -141 164c-69.333 32.667 -189 30.667 -359 -6c20 94 100 265.333 240 514h133l-166 -342c71.333 4 135.666 -6.33301 192.999 -31
c86.667 -36.667 155.667 -96.667 207 -180c6.66699 -10 12.667 -20.333 18 -31c28 -79.333 43 -170.666 45 -273.999h164v-123h-164l-74 -4h-709zM178.001 981.999l83 1c-66 -104.667 -133 -246.667 -201 -426l-47 76c57.333 156.667 112.333 273 165 349z" />
    <glyph glyph-name="uniFBA5" unicode="&#x6c0;" horiz-adv-x="811" arabic-form="final" 
d="M557 129l-0.000976562 451c-14 8 -42.667 3.66699 -86 -13c-43.333 -14.667 -83.333 -45.334 -120 -92.001s-62.667 -91.667 -78 -135c-13.333 -37.333 -21.666 -78.666 -24.999 -123.999l-2 -26l-2 -61h313zM552.999 113l-65.001 -114.999l-373 4c-2 72 -2 137 0 195
c2 59.333 16.333 129 43 209c26.667 81.333 71.667 150.666 135 207.999c64.667 58 123.334 90.333 176.001 97v2c57.333 14 129 14 215 0v-578h144v-137h-174v4l-103 -4zM346.998 956.001v-59h-211l16 59h49c-20 26.667 -26 59.667 -18 99c10 47.333 49.667 71 119 71h6
l18 -61h-18c-36 0 -57.333 -12.333 -64 -37c-6 -21.333 6.33301 -45.333 37 -72h66z" />
    <glyph glyph-name="uniFBFD" unicode="&#x6cc;" horiz-adv-x="1214" arabic-form="final" 
d="M799 174l125 -43c-18.667 -154.667 -63.667 -255.667 -135 -303c-70 -48.667 -154 -73 -252 -73c-98 -2 -191.667 32 -281 102c-89.333 70.667 -133 206.334 -131 407.001v160l123 61v-206c0 -154 30.667 -258.333 92 -313c61.333 -55.333 139.333 -80 234 -74
c96 6 159.333 56.333 190 151l-340 107c90 355.333 313.333 513.666 670 474.999v-500h135v-123h-252v471c-160.667 14 -287 -60.333 -379 -223z" />
    <glyph glyph-name="uniFBFE" unicode="&#x6cc;" horiz-adv-x="245" arabic-form="initial" 
d="M123 612h123v-610h-252v127h125zM-83 -251l-3 141h133v-141h-130zM78 -251v141h133v-141h-133z" />
    <glyph glyph-name="uniFBFF" unicode="&#x6cc;" horiz-adv-x="360" arabic-form="medial" 
d="M-9 2v127h124l4 483h123v-487h131v-123h-382zM95 -251v139l133 2v-141h-133zM-66 -251l-3 139l133 2v-141h-130z" />
    <glyph glyph-name="uniFE82" unicode="&#x622;" horiz-adv-x="391" arabic-form="final" 
d="M399 1192c-6.66699 -39.333 -18.333 -67.333 -35 -84c-22 -24.667 -50 -37 -84 -37c-23.333 0 -52.666 6.33301 -87.999 19c-40.667 14.667 -66.334 22 -77.001 22c-29.333 0 -47.333 -17.667 -54 -53h-55c10 82 46.333 123 109 123c22.667 0 52.667 -7 90 -21
c40.667 -14.667 65.667 -22 75 -22c38 0 58 17.667 60 53h59zM401.001 -2v127h-139v858h-129v-985h268z" />
    <glyph glyph-name="uniFE84" unicode="&#x623;" horiz-adv-x="376" arabic-form="final" 
d="M282 1118l-0.000976562 -59h-211l16 59h50c-20.667 26.667 -27 59.667 -19 99c10.667 47.333 50.334 71 119.001 71h6l18 -61h-18c-36 0 -57 -12.333 -63 -37c-6.66699 -21.333 5.33301 -45.333 36 -72h66zM121.999 -2v985h129v-858h139v-127h-268z" />
    <glyph glyph-name="uniFE86" unicode="&#x624;" horiz-adv-x="827" arabic-form="final" 
d="M565 129l-0.000976562 451c-14 8 -42.667 3.66699 -86 -13c-43.333 -14.667 -83.333 -45.334 -120 -92.001s-62.667 -91.667 -78 -135c-13.333 -37.333 -21.666 -78.666 -24.999 -123.999l-2 -26l-2 -61h313zM552.999 0l-133.001 -1.99805l-297 4c-2 72 -2 137 0 195
c2 59.333 16.333 129 43 209c26.667 81.333 71.667 150.666 135 207.999c64.667 58 123.334 90.333 176.001 97v2c57.333 14 129 14 215 0v-80h7v-504h143v-129h-143c-18 -70 -58 -127 -120 -171c-70 -48.667 -159 -73.334 -267 -74.001l63 129c54 0 100.333 20.333 139 61
c14.667 16.667 27.667 35 39 55zM653.998 872.002v-59h-211l16 59h49c-20.667 26.667 -26.667 59.667 -18 99c10 47.333 49.333 71 118 71h7l18 -61h-18c-36.667 0 -58 -12.333 -64 -37c-6 -20.667 6.33301 -44.667 37 -72h66z" />
    <glyph glyph-name="uniFE88" unicode="&#x625;" horiz-adv-x="376" arabic-form="final" 
d="M282 -192l-0.000976562 -59.001h-211l16 59h50c-20.667 26.667 -27 59.334 -19 98.001c10.667 48 50.334 72 119.001 72h6l18 -61h-18c-36 0 -57 -12.333 -63 -37c-6.66699 -21.333 5.33301 -45.333 36 -72h66zM121.999 -2.00098v985h129v-858h139v-127h-268z" />
    <glyph glyph-name="uniFE8A" unicode="&#x626;" horiz-adv-x="1214" arabic-form="final" 
d="M803 174l123.999 -43c-18 -154.667 -63 -255.667 -135 -303c-69.333 -48.667 -153.333 -73 -252 -73h-8c-95.333 0 -186 34 -272 102c-89.333 70.667 -133 206.334 -131 407.001v160l123 61v-206c0 -154 30.667 -258.333 92 -313c61.333 -55.333 139 -80 233 -74
c96 6 159.667 56.333 191 151l-340 107c90 355.333 313 513.666 669 474.999v-500h136v-123h-252v471c-161.333 14 -287.666 -60.333 -378.999 -223zM308.999 668l-0.000976562 -60h-211l16 60h50c-20.667 26.667 -27 59.334 -19 98.001c10.667 48 50.334 72 119.001 72h6
l18 -62h-18c-36 0 -57 -12.333 -63 -37c-6.66699 -20.667 5.33301 -44.334 36 -71.001h66z" />
    <glyph glyph-name="uniFE8B" unicode="&#x626;" horiz-adv-x="239" arabic-form="initial" 
d="M281 770l-0.000976562 -59.001h-211l16 59h49c-20 26.667 -26 59.334 -18 98.001c10.667 48 50.334 72 119.001 72h6l18 -61h-18c-36 0 -57.333 -12.333 -64 -37c-6 -21.333 6.33301 -45.333 37 -72h66zM122.999 611.999h123v-610h-254v127h127z" />
    <glyph glyph-name="uniFE8C" unicode="&#x626;" horiz-adv-x="360" arabic-form="medial" 
d="M273 791l-0.000976562 -59.999h-211l16 60h49c-20 26 -26 58.667 -18 98c10.667 48 50.334 72 119.001 72h6l18 -62h-18c-36 0 -57.333 -12.333 -64 -37c-6 -20.667 6.33301 -44.334 37 -71.001h66zM-16.001 2.00098v127h127l4 483h123v-487h129v-123h-383z" />
    <glyph glyph-name="uniFE8E" unicode="&#x627;" horiz-adv-x="372" arabic-form="final" 
d="M118 -2v985h129v-858h139v-127h-268z" />
    <glyph glyph-name="uniFE90" unicode="&#x628;" horiz-adv-x="1345" arabic-form="final" 
d="M726 -251v129h133v-129h-133zM644 0c-322.667 -1.33301 -495.333 146.667 -518 444l123 62c0 -254.667 129 -381 387 -379l461 2l4 483h123v-487h137v-123z" />
    <glyph glyph-name="uniFE91" unicode="&#x628;" horiz-adv-x="245" arabic-form="initial" 
d="M123 612h123v-610h-254v127h127zM35 -251v129h133v-129h-133z" />
    <glyph glyph-name="uniFE92" unicode="&#x628;" horiz-adv-x="366" arabic-form="medial" 
d="M27 -251v129h133v-129h-133zM-16 2v127h127l4 483h123v-483h137v-127h-391z" />
    <glyph glyph-name="uniFE96" unicode="&#x62a;" horiz-adv-x="1347" arabic-form="final" 
d="M642 0c-322.667 -1.33301 -495.333 146.667 -518 444l123 62c0 -254.667 129 -381 387 -379l461 2l4 483h123v-487h137v-123zM579.001 813v139l133 2v-141h-133zM742.001 813v139l134 2v-141h-134z" />
    <glyph glyph-name="uniFE97" unicode="&#x62a;" horiz-adv-x="245" arabic-form="initial" 
d="M123 612h123v-610h-252v127h125zM-42 813l-3 139l133 2v-141h-130zM119 813v139l133 2v-141h-133z" />
    <glyph glyph-name="uniFE98" unicode="&#x62a;" horiz-adv-x="360" arabic-form="medial" 
d="M-12 2v127h125l4 483h123v-487h131v-123h-383zM113 813v139l133 2v-141h-133zM-48 813l-3 139l133 2v-141h-130z" />
    <glyph glyph-name="uniFE9A" unicode="&#x62b;" horiz-adv-x="1351" arabic-form="final" 
d="M647 0c-322.667 -1.33301 -495.333 146.667 -518 444l123 62c0 -254.667 129 -381 387 -379l461 2l4 483h123v-487h137v-123zM584.001 813v139l133 2v-141h-133zM747.001 813v139l134 2v-141h-134zM657.001 979v141h134v-139z" />
    <glyph glyph-name="uniFE9B" unicode="&#x62b;" horiz-adv-x="241" arabic-form="initial" 
d="M115 612h123v-610h-252v127h125zM-50 813l-3 139l133 2v-141h-130zM111 813v139l133 2v-141h-133zM21 979v141h133v-139z" />
    <glyph glyph-name="uniFE9C" unicode="&#x62b;" horiz-adv-x="360" arabic-form="medial" 
d="M-14 2v127h125l4 483h123v-487h131v-123h-383zM21 979v141h133v-139zM111 813v139l133 2v-141h-133zM-50 813l-3 139l133 2v-141h-130z" />
    <glyph glyph-name="uniFE9E" unicode="&#x62c;" horiz-adv-x="985" arabic-form="final" 
d="M866 0c-76.667 -2 -122.333 38.332 -137 120.999h-213c-177.333 14 -266 -27.667 -266 -125c-10 -73.333 31 -110 123 -110l250 -4l-2 -133h-244c-168 0 -252 83 -252 249c-2 166 96.333 250 295 252l295 2c-2 41.333 -11 79.666 -27 114.999
c-24.667 82.667 -72.334 139.334 -143.001 170.001c-69.333 32.667 -188.666 30.334 -357.999 -6.99902l45 142c134.667 39.333 252.667 39 354 -1c94.667 -37.333 169.667 -107.333 225 -210c28 -80 43 -151 45 -213c-18 -81.333 6.66699 -121 74 -119h74v-127z
M672.001 -106.001v-141h133v139z" />
    <glyph glyph-name="uniFE9F" unicode="&#x62c;" horiz-adv-x="698" arabic-form="initial" 
d="M701 2l-73.998 -4.00195h-649v131h582c-2.66699 82 -11.667 140.667 -27 176c-24.667 83.333 -72.334 140 -143.001 170c-69.333 32.667 -189 30.667 -359 -6l45 141c135.333 40 253.666 40 354.999 0c94.667 -37.333 169.667 -107.666 225 -210.999
c28 -79.333 43 -170.666 45 -273.999v-123zM408.002 -251.002v129h-133v-129h133z" />
    <glyph glyph-name="uniFEA0" unicode="&#x62c;" horiz-adv-x="837" arabic-form="medial" 
d="M707 2l-69.998 -4.00195h-649v131h582c-2.66699 82 -11.667 140.667 -27 176c-24.667 83.333 -72.334 140 -143.001 170c-69.333 32.667 -189 30.667 -359 -6l45 141c135.333 40 253.666 40 354.999 0c94.667 -37.333 169.667 -107.666 225 -210.999
c28 -79.333 43 -170.666 45 -273.999h143v-123h-147zM418.002 -251.002v129h-133v-129h133z" />
    <glyph glyph-name="uniFEA2" unicode="&#x62d;" horiz-adv-x="976" arabic-form="final" 
d="M862 0c-76.667 -2 -122.333 38.332 -137 120.999h-213c-177.333 14 -266 -27.667 -266 -125c-10 -73.333 31 -110 123 -110l250 -4l-2 -133h-244c-168 0 -252 83 -252 249c-2 166 96.333 250 295 252l295 2c-2 41.333 -11 79.666 -27 114.999
c-24.667 82.667 -72.334 139.334 -143.001 170.001c-69.333 32.667 -188.666 30.334 -357.999 -6.99902l45 142c134.667 39.333 252.667 39 354 -1c94.667 -37.333 169.667 -107.333 225 -210c28 -80 43 -151 45 -213c-18 -81.333 6.66699 -121 74 -119h74v-127z" />
    <glyph glyph-name="uniFEA3" unicode="&#x62d;" horiz-adv-x="700" arabic-form="initial" 
d="M703 2l-73.998 -4.00195h-649v131h582c-2.66699 82 -11.667 140.667 -27 176c-24.667 83.333 -72.334 140 -143.001 170c-69.333 32.667 -189 30.667 -359 -6l45 141c135.333 40 253.666 40 354.999 0c94.667 -37.333 169.667 -107.666 225 -210.999
c28 -79.333 43 -170.666 45 -273.999v-123z" />
    <glyph glyph-name="uniFEA4" unicode="&#x62d;" horiz-adv-x="839" arabic-form="medial" 
d="M711 2l-69.998 -4.00195h-649v131h582c-2.66699 82 -11.667 140.667 -27 176c-24.667 83.333 -72.334 140 -143.001 170c-69.333 32.667 -189 30.667 -359 -6l45 141c135.333 40 253.666 40 354.999 0c94.667 -37.333 169.667 -107.666 225 -210.999
c28 -79.333 43 -170.666 45 -273.999h143v-123h-147z" />
    <glyph glyph-name="uniFEA6" unicode="&#x62e;" horiz-adv-x="989" arabic-form="final" 
d="M870 0c-76.667 -2 -122.333 38.332 -137 120.999h-213c-177.333 14 -266 -27.667 -266 -125c-10 -73.333 31 -110 123 -110l250 -4l-2 -133h-244c-168 0 -252 83 -252 249c-2 166 96.333 250 295 252l295 2c-2 41.333 -11 79.666 -27 114.999
c-24.667 82.667 -72.334 139.334 -143.001 170.001c-69.333 32.667 -188.666 30.334 -357.999 -6.99902l45 142c134.667 39.333 252.667 39 354 -1c94.667 -37.333 169.667 -107.333 225 -210c28 -80 43 -151 45 -213c-18 -81.333 6.66699 -121 74 -119h74v-127z
M510.001 949.999v-141h-133v141h133z" />
    <glyph glyph-name="uniFEA7" unicode="&#x62e;" horiz-adv-x="710" arabic-form="initial" 
d="M709 2l-73.998 -4.00195h-649v131h582c-2.66699 82 -11.667 140.667 -27 176c-24.667 83.333 -72.334 140 -143.001 170c-69.333 32.667 -189 30.667 -359 -6l45 141c135.333 40 253.666 40 354.999 0c94.667 -37.333 169.667 -107.666 225 -210.999
c28 -79.333 43 -170.666 45 -273.999v-123zM242.002 812.998v129h133v-129h-133z" />
    <glyph glyph-name="uniFEA8" unicode="&#x62e;" horiz-adv-x="833" arabic-form="medial" 
d="M705 2l-69.998 -4.00195h-649v131h582c-2.66699 82 -11.667 140.667 -27 176c-24.667 83.333 -72.334 140 -143.001 170c-69.333 32.667 -189 30.667 -359 -6l45 141c135.333 40 253.666 40 354.999 0c94.667 -37.333 169.667 -107.666 225 -210.999
c28 -79.333 43 -170.666 45 -273.999h143v-123h-147zM242.002 812.998v129h133v-129h-133z" />
    <glyph glyph-name="uniFEAA" unicode="&#x62f;" horiz-adv-x="923" arabic-form="final" 
d="M784 2l-69.999 -3.99805h-608l41 131h500c-2 82 -11 140.667 -27 176c-27.333 61.333 -64.666 114.666 -111.999 159.999c-56 55.333 -124.333 97.666 -205 126.999l45 121c55.333 0 125.666 -34.333 210.999 -103c83.333 -66.667 144.666 -143.667 183.999 -231
c28 -67.333 43 -152 45 -254h143v-123h-147z" />
    <glyph glyph-name="uniFEAC" unicode="&#x630;" horiz-adv-x="923" arabic-form="final" 
d="M786 2l-69.999 -3.99805h-608l41 131h500c-2 82 -11 140.667 -27 176c-27.333 61.333 -64.666 114.666 -111.999 159.999c-56 55.333 -124.333 97.666 -205 126.999l45 121c55.333 0 125.666 -34.333 210.999 -103c83.333 -66.667 144.666 -143.667 183.999 -231
c28 -67.333 43 -152 45 -254h143v-123h-147zM356.001 813.002v139l133 2v-141h-133z" />
    <glyph glyph-name="uniFEAE" unicode="&#x631;" horiz-adv-x="544" arabic-form="final" 
d="M415 0c-17.333 -71.333 -57.334 -128.999 -120.001 -172.999c-69.333 -48.667 -158.333 -73.334 -267 -74.001l63 129c54.667 0 101.334 21 140.001 63c38.667 40.667 59 87 61 139v528h123v-483h143v-131z" />
    <glyph glyph-name="uniFEB0" unicode="&#x632;" horiz-adv-x="542" arabic-form="final" 
d="M413 0c-17.333 -71.333 -57.334 -128.999 -120.001 -172.999c-69.333 -48.667 -158.333 -73.334 -267 -74.001l63 129c54.667 0 101.334 21 140.001 63c38.667 40.667 59 87 61 139v528h123v-483h143v-131zM291.999 813.001v139l133 2v-141h-133z" />
    <glyph glyph-name="uniFEB2" unicode="&#x633;" horiz-adv-x="1525" arabic-form="final" 
d="M914 612v-483.001h111l4 483h131v-483h109l4 483h131v-487h141v-127h-174v4h-461l-16 -16c-2 -6 -4.66699 -12.667 -8 -20l-8 -21c-12.667 -40 -43 -79 -91 -117c-2.66699 -2.66699 -6 -5 -10 -7c-2.66699 -2 -6.66699 -4.33301 -12 -7
c-56.667 -39.333 -127.667 -59 -213 -59h-8c-98 -2 -191.667 32 -281 102c-89.333 70.667 -133 206.334 -131 407.001v160l123 61v-4l8 4v-206c0 -154 30.667 -258.333 92 -313c58.667 -54.667 125.667 -82 201 -82c72 0 127.333 20.333 166 61s59 87 61 139v528h131z" />
    <glyph glyph-name="uniFEB3" unicode="&#x633;" horiz-adv-x="733" arabic-form="initial" 
d="M492 129h116l5 483h122v-610h-743v127h127l4 483h123v-483h119l4 483h123v-483z" />
    <glyph glyph-name="uniFEB4" unicode="&#x633;" horiz-adv-x="860" arabic-form="medial" 
d="M703 2h-711v127h127l4 483h123v-483h119l4 483h123v-483h116l5 483h122v-487h142v-127h-174v4z" />
    <glyph glyph-name="uniFEB6" unicode="&#x634;" horiz-adv-x="1521" arabic-form="final" 
d="M951 813l-2 139l133 2l2 -141h-133zM1017 979l-2 141h133l2 -139zM1107 813l-2 139l133 2v-141h-131zM914 612v-483.001h111l4 483h131v-483h109l4 483h131v-487h141v-127h-174v4h-461l-16 -16c-2 -6 -4.66699 -12.667 -8 -20l-8 -21c-12.667 -40 -43 -79 -91 -117
c-2.66699 -2.66699 -6 -5 -10 -7c-2.66699 -2 -6.66699 -4.33301 -12 -7c-56.667 -39.333 -127.667 -59 -213 -59h-8c-98 -2 -191.667 32 -281 102c-89.333 70.667 -133 206.334 -131 407.001v160l123 61v-4l8 4v-206c0 -154 30.667 -258.333 92 -313
c58.667 -54.667 125.667 -82 201 -82c72 0 127.333 20.333 166 61s59 87 61 139v528h131z" />
    <glyph glyph-name="uniFEB7" unicode="&#x634;" horiz-adv-x="737" arabic-form="initial" 
d="M279 813l-2 139l133 2l2 -141h-133zM488 129h116l5 483h122v-610h-743v127h127l4 483h123v-483h119l4 483h123v-483zM353 979l-3 141h134l2 -139zM443 813l-2 139l133 2v-141h-131z" />
    <glyph glyph-name="uniFEB8" unicode="&#x634;" horiz-adv-x="860" arabic-form="medial" 
d="M283 813l-2 139l133 2l2 -141h-133zM703 2h-711v127h127l4 483h123v-483h119l4 483h123v-483h116l5 483h122v-487h142v-127h-174v4zM447 813l-2 139l133 2v-141h-131zM357 979l-3 141h134l2 -139z" />
    <glyph glyph-name="uniFEBA" unicode="&#x635;" horiz-adv-x="1855" arabic-form="final" 
d="M1596 129c-2 82 -10.668 140.667 -26.001 176c-25.333 110 -63 187.333 -113 232c-49.333 46.667 -91.666 69 -126.999 67l-33 -4l-356 -471h655zM807.999 489v2.99902h129v-158l286 385l86 20c67.333 6.66699 138.333 -17 213 -71
c74.667 -52 131.334 -141.667 170.001 -269c28.667 -79.333 43.667 -170.666 45 -273.999h136v-127h-197v2l-12 -2h-750l-12 -12c-22.667 -66.667 -58.334 -119.334 -107.001 -158.001c-2.66699 -2.66699 -6 -5 -10 -7c-2.66699 -2 -6.66699 -4.33301 -12 -7
c-56.667 -39.333 -127.667 -59 -213 -59h-8c-98 -2 -191.667 32 -281 102c-89.333 70.667 -133 206.334 -131 407.001v160l123 61v-4l8 4v-206c0 -154 30.667 -258.333 92 -313c58.667 -54.667 125.667 -82 201 -82c72 0 127.333 20.333 166 61c40.667 42.667 68 89 82 139
v405h-4z" />
    <glyph glyph-name="uniFEBB" unicode="&#x635;" horiz-adv-x="1071" arabic-form="initial" 
d="M928 129c-2 82 -10.668 140.667 -26.001 176c-25.333 110 -63 187.333 -113 232c-49.333 46.667 -91.666 69 -126.999 67l-33 -4l-356 -471h655zM268.999 334l287 384.999l86 20c67.333 6.66699 138.333 -17 213 -71c74 -52 130.667 -141.667 170 -269
c28 -79.333 43 -170.666 45 -273.999v-123l-74 -4h-1018v131h164l-2 363h129v-158z" />
    <glyph glyph-name="uniFEBC" unicode="&#x635;" horiz-adv-x="1202" arabic-form="medial" 
d="M936 129c-2 82 -10.668 140.667 -26.001 176c-25.333 110 -63 187.333 -113 232c-49.333 46.667 -91.666 69 -126.999 67l-33 -4l-356 -471h655zM1016 0l-12 -2.00098h-1018v131h164l-2 363h129v-158l287 385l86 20c67.333 6.66699 138.333 -17 213 -71
c74 -52 130.667 -141.667 170 -269c28 -79.333 43 -170.666 45 -273.999h135v-127h-197v2z" />
    <glyph glyph-name="uniFEBE" unicode="&#x636;" horiz-adv-x="1857" arabic-form="final" 
d="M1604 129c-2 82 -10.668 140.667 -26.001 176c-25.333 110 -63 187.333 -113 232c-49.333 46.667 -91.666 69 -126.999 67l-33 -4l-356 -471h655zM1326 813v129h133v-129h-133zM815.999 489v2.99902h129v-158l286 385l86 20c67.333 6.66699 138.333 -17 213 -71
c74.667 -52 131.334 -141.667 170.001 -269c28.667 -79.333 43.667 -170.666 45 -273.999h136v-127h-197v2l-12 -2h-750l-12 -12c-22.667 -66.667 -58.334 -119.334 -107.001 -158.001c-2.66699 -2.66699 -6 -5 -10 -7c-2.66699 -2 -6.66699 -4.33301 -12 -7
c-56.667 -39.333 -127.667 -59 -213 -59h-8c-98 -2 -191.667 32 -281 102c-89.333 70.667 -133 206.334 -131 407.001v160l123 61v-4l8 4v-206c0 -154 30.667 -258.333 92 -313c58.667 -54.667 125.667 -82 201 -82c72 0 127.333 20.333 166 61c40.667 42.667 68 89 82 139
v405h-4z" />
    <glyph glyph-name="uniFEBF" unicode="&#x636;" horiz-adv-x="1144" arabic-form="initial" 
d="M644 813v129h133v-129h-133zM922 129c-2 82 -10.668 140.667 -26.001 176c-25.333 110 -63 187.333 -113 232c-49.333 46.667 -91.666 69 -126.999 67l-33 -4l-356 -471h655zM262.999 334l287 384.999l86 20c67.333 6.66699 138.333 -17 213 -71
c74 -52 130.667 -141.667 170 -269c28 -79.333 43 -170.666 45 -273.999v-123l-74 -4h-1018v131h164l-2 363h129v-158z" />
    <glyph glyph-name="uniFEC0" unicode="&#x636;" horiz-adv-x="1185" arabic-form="medial" 
d="M930 129c-2 82 -10.668 140.667 -26.001 176c-25.333 110 -63 187.333 -113 232c-49.333 46.667 -91.666 69 -126.999 67l-33 -4l-356 -471h655zM651.999 813v129h133v-129h-133zM1010 0l-12 -2.00098h-1018v131h164l-2 363h129v-158l287 385l86 20
c67.333 6.66699 138.333 -17 213 -71c74 -52 130.667 -141.667 170 -269c28 -79.333 43 -170.666 45 -273.999h135v-127h-197v2z" />
    <glyph glyph-name="uniFEC2" unicode="&#x637;" horiz-adv-x="1335" arabic-form="final" 
d="M1068 129c-2 82 -10.668 140.667 -26.001 176c-25.333 110 -63 187.333 -113 232c-49.333 46.667 -91.666 69 -126.999 67l-33 -4l-356 -471h655zM1148 0l-12 -2.00098h-1018l82 131h82l-2 854h129v-649l287 385l86 20c67.333 6.66699 138.333 -17 213 -71
c74 -52 130.667 -141.667 170 -269c28 -79.333 43 -170.666 45 -273.999h135v-127h-197v2z" />
    <glyph glyph-name="uniFEC3" unicode="&#x637;" horiz-adv-x="1067" arabic-form="initial" 
d="M930 129c-2 82 -10.668 140.667 -26.001 176c-25.333 110 -63 187.333 -113 232c-49.333 46.667 -91.666 69 -126.999 67l-33 -4l-356 -471h655zM270.999 334l287 384.999l86 20c67.333 6.66699 138.333 -17 213 -71c74 -52 130.667 -141.667 170 -269
c28 -79.333 43 -170.666 45 -273.999v-123l-74 -4h-1018v131h164l-2 854h129v-649z" />
    <glyph glyph-name="uniFEC4" unicode="&#x637;" horiz-adv-x="1185" arabic-form="medial" 
d="M930 129c-2 82 -10.668 140.667 -26.001 176c-25.333 110 -63 187.333 -113 232c-49.333 46.667 -91.666 69 -126.999 67l-33 -4l-356 -471h655zM1010 0l-12 -2.00098h-1018v131h164l-2 854h129v-649l287 385l86 20c67.333 6.66699 138.333 -17 213 -71
c74 -52 130.667 -141.667 170 -269c28 -79.333 43 -170.666 45 -273.999h135v-127h-197v2z" />
    <glyph glyph-name="uniFEC6" unicode="&#x638;" horiz-adv-x="1318" arabic-form="final" 
d="M1058 129c-2 82 -10.668 140.667 -26.001 176c-25.333 110 -63 187.333 -113 232c-49.333 46.667 -91.666 69 -126.999 67l-33 -4l-356 -471h655zM779.999 813v129h133v-129h-133zM1138 0l-12 -2.00098h-1018l82 131h82l-2 854h129v-649l287 385l86 20
c67.333 6.66699 138.333 -17 213 -71c74 -52 130.667 -141.667 170 -269c28 -79.333 43 -170.666 45 -273.999h135v-127h-197v2z" />
    <glyph glyph-name="uniFEC7" unicode="&#x638;" horiz-adv-x="1073" arabic-form="initial" 
d="M652 813v129h133v-129h-133zM930 129c-2 82 -10.668 140.667 -26.001 176c-25.333 110 -63 187.333 -113 232c-49.333 46.667 -91.666 69 -126.999 67l-33 -4l-356 -471h655zM270.999 334l287 384.999l86 20c67.333 6.66699 138.333 -17 213 -71
c74 -52 130.667 -141.667 170 -269c28 -79.333 43 -170.666 45 -273.999v-123l-74 -4h-1018v131h164l-2 854h129v-649z" />
    <glyph glyph-name="uniFEC8" unicode="&#x638;" horiz-adv-x="1185" arabic-form="medial" 
d="M930 129c-2 82 -10.668 140.667 -26.001 176c-25.333 110 -63 187.333 -113 232c-49.333 46.667 -91.666 69 -126.999 67l-33 -4l-356 -471h655zM651.999 813v129h133v-129h-133zM1010 0l-12 -2.00098h-1018v131h164l-2 854h129v-649l287 385l86 20
c67.333 6.66699 138.333 -17 213 -71c74 -52 130.667 -141.667 170 -269c28 -79.333 43 -170.666 45 -273.999h135v-127h-197v2z" />
    <glyph glyph-name="uniFECA" unicode="&#x639;" horiz-adv-x="980" arabic-form="final" 
d="M702 252l100 -4c10 -81.333 48.333 -121 115 -119h74v-127l-138 -2c-76.667 -2 -122.334 38.333 -137.001 121h-213c-177.333 14 -266 -27.667 -266 -125c-10 -73.333 31 -110 123 -110l250 -4l-2 -133h-244c-168 0 -252 83 -252 249c12 136 90.667 221.333 236 256
c-42 76.667 -55.667 156.667 -41 240c14 82 65.667 146 155 192c87.333 44.667 189 51.667 305 21l41 -136c-127.333 36.667 -222.666 39.667 -285.999 9c-62 -31.333 -90.667 -78 -86 -140c8 -125.333 66.667 -188 176 -188h90z" />
    <glyph glyph-name="uniFECB" unicode="&#x639;" horiz-adv-x="778" arabic-form="initial" 
d="M162 125c-52.667 67.333 -71.6689 158.665 -57.002 273.998c14 118 72.667 207 176 267c102 58.667 216 67.334 342 26.001l45 -141c-141.333 36.667 -250.666 31.334 -327.999 -15.999c-74.667 -46.667 -108.667 -111.667 -102 -195
c6.66699 -75.333 29.334 -131 68.001 -167c32.667 -29.333 74 -44 124 -44h291l62 -131h-650l-6 2v-2h-137v127h172z" />
    <glyph glyph-name="uniFECC" unicode="&#x639;" horiz-adv-x="763" arabic-form="medial" 
d="M160 125c-52.667 67.333 -71.6689 158.665 -57.002 273.998c14 118 72.667 207 176 267c102 58.667 216 67.334 342 26.001l45 -141c-141.333 36.667 -250.666 31.334 -327.999 -15.999c-74.667 -46.667 -108.667 -111.667 -102 -195
c6.66699 -75.333 29.334 -131 68.001 -167c32.667 -29.333 74 -44 124 -44h353v-131h-650l-6 2v-2h-137v127h172z" />
    <glyph glyph-name="uniFECE" unicode="&#x63a;" horiz-adv-x="980" arabic-form="final" 
d="M521 811v129h134v-129h-134zM708 252l100 -4c10 -81.333 48.333 -121 115 -119h74v-127l-138 -2c-76.667 -2 -122.334 38.333 -137.001 121h-213c-177.333 14 -266 -27.667 -266 -125c-10 -73.333 31 -110 123 -110l250 -4l-2 -133h-244c-168 0 -252 83 -252 249
c12 136 90.667 221.333 236 256c-42 76.667 -55.667 156.667 -41 240c14 82 65.667 146 155 192c87.333 44.667 189 51.667 305 21l41 -136c-127.333 36.667 -222.666 39.667 -285.999 9c-62 -31.333 -90.667 -78 -86 -140c8 -125.333 66.667 -188 176 -188h90z" />
    <glyph glyph-name="uniFECF" unicode="&#x63a;" horiz-adv-x="768" arabic-form="initial" 
d="M369 813v129h133v-129h-133zM164 125c-52.667 67.333 -71.6689 158.665 -57.002 273.998c14 118 72.667 207 176 267c102 58.667 216 67.334 342 26.001l45 -141c-141.333 36.667 -250.666 31.334 -327.999 -15.999c-74.667 -46.667 -108.667 -111.667 -102 -195
c6.66699 -75.333 29.334 -131 68.001 -167c32.667 -29.333 74 -44 124 -44h291l62 -131h-650l-6 2v-2h-137v127h172z" />
    <glyph glyph-name="uniFED0" unicode="&#x63a;" horiz-adv-x="763" arabic-form="medial" 
d="M365 813v129h133v-129h-133zM160 125c-52.667 67.333 -71.6689 158.665 -57.002 273.998c14 118 72.667 207 176 267c102 58.667 216 67.334 342 26.001l45 -141c-141.333 36.667 -250.666 31.334 -327.999 -15.999c-74.667 -46.667 -108.667 -111.667 -102 -195
c6.66699 -75.333 29.334 -131 68.001 -167c32.667 -29.333 74 -44 124 -44h353v-131h-650l-6 2v-2h-137v127h172z" />
    <glyph glyph-name="uniFED2" unicode="&#x641;" horiz-adv-x="1464" arabic-form="final" 
d="M1071 129l135.001 -0.000976562v451c-14.667 8.66699 -43.334 4.66699 -86.001 -12c-46.667 -18 -87.667 -44.333 -123 -79c-38.667 -34.667 -63.334 -83 -74.001 -145c-10 -61.333 1.66699 -111.666 35 -150.999c38.667 -42.667 76.334 -64 113.001 -64z
M643.001 126.999v1.99902h201c-51.333 90 -63.666 182.333 -36.999 277c26 94 71 167 135 219c63.333 50.667 122 79.334 176 86.001v2c57.333 14 129 14 215 0v-578h143v-137h-174v4l-659 -2c-162.667 0 -284.334 34 -365.001 102c-81.333 68 -128.333 182 -141 342l123 62
c0 -126 34 -221 102 -285c67.333 -62.667 161 -94 281 -94zM1091 808.998v141h133v-141h-133z" />
    <glyph glyph-name="uniFED3" unicode="&#x641;" horiz-adv-x="667" arabic-form="initial" 
d="M408 129l135.001 -0.000976562v451c-14.667 8.66699 -43.334 4.66699 -86.001 -12c-46.667 -18 -87.667 -44.333 -123 -79c-38.667 -34.667 -63 -83 -73 -145c-10.667 -61.333 0.666016 -111.666 33.999 -150.999c38.667 -42.667 76.334 -64 113.001 -64z
M-16.999 126.999l-3.00098 1.99902h201c-51.333 90 -63.666 182.333 -36.999 277c26 94 71 167 135 219c63.333 50.667 122 79.334 176 86.001v2c57.333 14 129 14 215 0v-715l-98 4l-589 -2v127zM431 812.998v139l133 2v-141h-133z" />
    <glyph glyph-name="uniFED4" unicode="&#x641;" horiz-adv-x="802" arabic-form="medial" 
d="M406 129l135.001 -0.000976562v451c-14.667 8.66699 -43.334 4.66699 -86.001 -12c-46.667 -18 -87.667 -44.333 -123 -79c-38.667 -34.667 -63 -83 -73 -145c-10.667 -61.333 0.666016 -111.666 33.999 -150.999c38.667 -42.667 76.334 -64 113.001 -64z
M613.001 1.99902l1.99902 -4.00098h-637v131h201c-51.333 90 -63.666 182.333 -36.999 277c26 94 71 167 135 219c63.333 50.667 122 79.334 176 86.001v2c57.333 14 129 14 215 0v-578h144v-137h-175v4h-24zM427 808.998v141h133v-141h-133z" />
    <glyph glyph-name="uniFED6" unicode="&#x642;" horiz-adv-x="1040" arabic-form="final" 
d="M619 129l135.001 -0.000976562v451c-14.667 8.66699 -43.334 4.66699 -86.001 -12c-46.667 -18 -87.667 -44.333 -123 -79c-38.667 -34.667 -63.334 -83 -74.001 -145c-10 -61.333 1.66699 -111.666 35 -150.999c38.667 -42.667 76.334 -64 113.001 -64z
M879.001 -2.00098l-0.00195312 -12.002c-10.667 -58 -47.667 -110.667 -111 -158c-63.333 -48.667 -143.666 -73 -240.999 -73c-98 -2 -191.667 32 -281 102c-89.333 70.667 -133 206.334 -131 407.001v160l123 61v-206c0 -154 30.667 -258.333 92 -313
c62 -56 129.667 -84 203 -84c76 0 133.333 21 172 63c18 20.667 31.667 39 41 55c-181.333 -6 -299.333 37 -354 129c-51.333 90 -63.666 182.333 -36.999 277c26 94 71 167 135 219c63.333 50.667 122 79.334 176 86.001v2c57.333 14 131 16 221 6l2 -590h170v-131h-180z
M520.999 812.997l-2 139l133 2v-141h-131zM681.999 812.997v139l133 2v-141h-133z" />
    <glyph glyph-name="uniFED7" unicode="&#x642;" horiz-adv-x="669" arabic-form="initial" 
d="M410 129l135.001 -0.000976562v451c-14.667 8.66699 -43.334 4.66699 -86.001 -12c-46.667 -18 -87.667 -44.333 -123 -79c-38.667 -34.667 -63 -83 -73 -145c-10.667 -61.333 0.666016 -111.666 33.999 -150.999c38.667 -42.667 76.334 -64 113.001 -64z
M-14.999 126.999l-3.00098 1.99902h201c-51.333 90 -63.666 182.333 -36.999 277c26 94 71 167 135 219c63.333 50.667 122 79.334 176 86.001v2c57.333 14 129 14 215 0v-715l-98 4l-589 -2v127zM312 812.998l-2 139l133 2v-141h-131zM474 812.998v139l133 2v-141h-133z
" />
    <glyph glyph-name="uniFED8" unicode="&#x642;" horiz-adv-x="800" arabic-form="medial" 
d="M402 129l135.001 -0.000976562v451c-14.667 8.66699 -43.334 4.66699 -86.001 -12c-46.667 -18 -87.667 -44.333 -123 -79c-38.667 -34.667 -63 -83 -73 -145c-10.667 -61.333 0.666016 -111.666 33.999 -150.999c38.667 -42.667 76.334 -64 113.001 -64z
M609.001 1.99902l1.99902 -4.00098h-637v131h201c-51.333 90 -63.666 182.333 -36.999 277c26 94 71 167 135 219c63.333 50.667 122 79.334 176 86.001v2c57.333 14 129 14 215 0v-578h144v-137h-175v4h-24zM361 808.998v141h133v-141h-133zM525 808.998v141h133v-141h-133
z" />
    <glyph glyph-name="uniFEDE" unicode="&#x644;" horiz-adv-x="1028" arabic-form="final" 
d="M892 -2c-1.33301 -2.66699 -2 -6.66699 -2 -12c-2 -56.667 -35.667 -109.334 -101 -158.001c-63.333 -48.667 -143.666 -73 -240.999 -73c-98 -2 -191.667 32 -281 102c-89.333 70.667 -133 206.334 -131 407.001v160l123 61v-206c0 -154 30.667 -258.333 92 -313
c62 -56 129.667 -84 203 -84c71.333 0 128.666 20.667 171.999 62c40 38 60.333 84.667 61 140v897h123v-852h144v-131h-162z" />
    <glyph glyph-name="uniFEDF" unicode="&#x644;" horiz-adv-x="239" arabic-form="initial" 
d="M117 981h123v-979h-254v127h127z" />
    <glyph glyph-name="uniFEE0" unicode="&#x644;" horiz-adv-x="360" arabic-form="medial" 
d="M174 2h-188v127h127l-2 854l129 -2v-856h129v-127h-197z" />
    <glyph glyph-name="uniFEE2" unicode="&#x645;" horiz-adv-x="1015" arabic-form="final" 
d="M729 129c-0.666992 5.33301 -1 14.332 -1 26.999l-2 34c-1.33301 31.333 -4.33301 60 -9 86c-7.33301 35.333 -17.666 68.333 -30.999 99c-16.667 36.667 -38.667 70 -66 100c-34 46.667 -73.667 77.334 -119 92.001c-42.667 16.667 -71.334 21 -86.001 13v-451h314z
M809 1.99902l-248 -4h-76l-66 115l-16 -117c-17.333 -71.333 -57.333 -129 -120 -173c-69.333 -48.667 -158.333 -73.334 -267 -74.001l63 129c54 0 100.667 20.333 140 61c38.667 40.667 59 87 61 139l2 635c90 14 163.667 14 221 0v-2
c53.333 -6.66699 112.333 -39 177 -97c63.333 -57.333 108.333 -126.666 135 -207.999c26.667 -80 41 -149 43 -207c1.33301 -15.333 2 -40 2 -74h162v-127h-213v4z" />
    <glyph glyph-name="uniFEE3" unicode="&#x645;" horiz-adv-x="702" arabic-form="initial" 
d="M570 129l-2 42.999l-1 18c-1.33301 31.333 -4.33301 60 -9 86c-7.33301 35.333 -17.666 68.333 -30.999 99c-16.667 36.667 -38.667 70 -66 100c-34 46.667 -73.667 77.334 -119 92.001c-42.667 16.667 -71.334 21 -86.001 13v-451h314zM262 -2.00098l-102 3.99902v-4
h-174v137h143v578c86 14 157.667 14 215 0v-2c53.333 -6.66699 112.333 -39 177 -97c63.333 -57.333 108.333 -126.666 135 -207.999c26.667 -80 41 -149.667 43 -209c2 -58 2 -123 0 -195l-373 -4l-66 115z" />
    <glyph glyph-name="uniFEE4" unicode="&#x645;" horiz-adv-x="841" arabic-form="medial" 
d="M570 129c-0.666992 5.33301 -1 14.332 -1 26.999l-2 34c-1.33301 31.333 -4.33301 60 -9 86c-7.33301 35.333 -17.666 68.333 -30.999 99c-16.667 36.667 -38.667 70 -66 100c-34 46.667 -73.667 77.334 -119 92.001c-42.667 16.667 -71.334 21 -86.001 13v-451h314z
M326 -2.00098l-66 114.999l2 -115l-102 4v-4h-174v137h143v578c86 14 157.667 14 215 0v-2c53.333 -6.66699 112.333 -39 177 -97c63.333 -57.333 108.333 -126.666 135 -207.999c26.667 -80 41 -149 43 -207c1.33301 -15.333 2 -40 2 -74h162v-123z" />
    <glyph glyph-name="uniFEE6" unicode="&#x646;" horiz-adv-x="1048" arabic-form="final" 
d="M476 813l-2 139l133 2l2 -141h-133zM894 2c-0.666992 -2 -1.33105 -4.66797 -1.99805 -8.00098s-1.33398 -6 -2.00098 -8c-16.667 -58 -53.667 -110.667 -111 -158c-55.333 -48.667 -132.333 -73 -231 -73c-98 -2 -191.667 32 -281 102
c-89.333 70.667 -133 206.334 -131 407.001v160l123 61v-206c0 -154 30.667 -258.333 92 -313c62 -56 129.667 -84 203 -84c71.333 0 128.666 20.667 171.999 62c40 38 60.333 84.667 61 140v528h123v-487h158v-123h-174z" />
    <glyph glyph-name="uniFEE7" unicode="&#x646;" horiz-adv-x="239" arabic-form="initial" 
d="M117 612h123v-610h-254v127h127zM113 813v139l133 2v-141h-133z" />
    <glyph glyph-name="uniFEE8" unicode="&#x646;" horiz-adv-x="360" arabic-form="medial" 
d="M-8 2v127h125l4 483h123v-487h131v-123h-383zM113 809v139l133 2v-141h-133z" />
    <glyph glyph-name="uniFEEA" unicode="&#x647;" horiz-adv-x="811" arabic-form="final" 
d="M557 129l-0.000976562 451c-14 8 -42.667 3.66699 -86 -13c-43.333 -14.667 -83.333 -45.334 -120 -92.001s-62.667 -91.667 -78 -135c-13.333 -37.333 -21.666 -78.666 -24.999 -123.999l-2 -26l-2 -61h313zM552.999 113l-65.001 -114.999l-373 4c-2 72 -2 137 0 195
c2 59.333 16.333 129 43 209c26.667 81.333 71.667 150.666 135 207.999c64.667 58 123.334 90.333 176.001 97v2c57.333 14 129 14 215 0v-578h144v-137h-174v4l-103 -4z" />
    <glyph glyph-name="uniFEEB" unicode="&#x647;" horiz-adv-x="874" arabic-form="initial" 
d="M252 590c-20.667 0 -55.333 -1.33496 -104 -4.00195l86 127c300 54 500 -50.667 600 -314c28 -79.333 43 -170.666 45 -273.999v-123l-74 -4h-813v131h170c-37.333 53.333 -53 128.333 -47 225c6 92.667 51.667 171.334 137 236.001zM422.001 128.998v418
c-100 -36.667 -160 -111 -180 -223c12 -90 36 -155 72 -195h108zM551.001 128.998l186 -0.000976562c-2 82 -10.667 140.667 -26 176c-24.667 122.667 -78 203.334 -160 242.001v-418z" />
    <glyph glyph-name="uniFEEC" unicode="&#x647;" horiz-adv-x="1001" arabic-form="medial" 
d="M414 129v418c-100 -36.667 -160 -111 -180 -223c12 -90 36 -155 72 -195h108zM543 129l186 -0.000976562c-2 82 -10.667 140.667 -26 176c-24.667 122.667 -78 203.334 -160 242.001v-418zM-16 -2.00098l0.000976562 130.999h170c-37.333 53.333 -53 128.333 -47 225
c6 92.667 51.667 171.334 137 236.001c-20.667 0 -55.334 -1.33301 -104.001 -4l86 127c300 54 500 -50.667 600 -314c28 -79.333 43 -169.333 45 -270h143v-131h-1030z" />
    <glyph glyph-name="uniFEEE" unicode="&#x648;" horiz-adv-x="821" arabic-form="final" 
d="M557 129l-0.000976562 451c-14 8 -42.667 3.66699 -86 -13c-43.333 -14.667 -83.333 -45.334 -120 -92.001s-62.667 -91.667 -78 -135c-13.333 -37.333 -21.666 -78.666 -24.999 -123.999l-2 -26l-2 -61h313zM544.999 0l-133.001 -1.99805l-297 4c-2 72 -2 137 0 195
c2 59.333 16.333 129 43 209c26.667 81.333 71.667 150.666 135 207.999c64.667 58 123.334 90.333 176.001 97v2c57.333 14 129 14 215 0v-80h7v-504h143v-129h-143c-18 -70 -58 -127 -120 -171c-70 -48.667 -159 -73.334 -267 -74.001l63 129c54 0 100.333 20.333 139 61
c14.667 16.667 27.667 35 39 55z" />
    <glyph glyph-name="uniFEF0" unicode="&#x649;" horiz-adv-x="1214" arabic-form="final" 
d="M799 174l125 -43c-18.667 -154.667 -63.667 -255.667 -135 -303c-70 -48.667 -154 -73 -252 -73c-98 -2 -191.667 32 -281 102c-89.333 70.667 -133 206.334 -131 407.001v160l123 61v-206c0 -154 30.667 -258.333 92 -313c61.333 -55.333 139.333 -80 234 -74
c96 6 159.333 56.333 190 151l-340 107c90 355.333 313.333 513.666 670 474.999v-500h135v-123h-252v471c-160.667 14 -287 -60.333 -379 -223z" />
    <glyph glyph-name="space" unicode=" " horiz-adv-x="500" 
 />
    <glyph glyph-name="exclam" unicode="!" horiz-adv-x="251" 
d="M247 188l-127 5l2 831h127zM257 0h-135v135h135v-135z" />
    <glyph glyph-name="percent" unicode="%" horiz-adv-x="991" 
d="M481 1024h-162v170h162v-170zM927 1223l-778 -1288l-80 47l778 1290zM702 45h-162v170h162v-170z" />
    <glyph glyph-name="parenleft" unicode="(" horiz-adv-x="557" 
d="M411 -219c-112.667 126.667 -195.333 242.665 -248 347.998c-62.667 123.333 -94 261.333 -94 414c0 248.667 107.333 496.334 322 743.001l88 -82c-179.333 -211.333 -269 -427 -269 -647c0 -277.333 95 -508.666 285 -693.999z" />
    <glyph glyph-name="parenright" unicode=")" horiz-adv-x="557" 
d="M495 522c0 -247.333 -107.334 -494.331 -322.001 -740.998l-86 82c178 206 267 421.667 267 647c0 277.333 -95 508.666 -285 693.999l86 82c112.667 -128.667 195.334 -244.667 248.001 -348c61.333 -126.667 92 -265.334 92 -416.001z" />
    <glyph glyph-name="asterisk" unicode="*" horiz-adv-x="980" 
d="M792 297l-235 14l143 -200l-102 -50l-107 213l-100 -223l-99 60l136 198l-240 -16v106l240 -24l-140 194l103 62l100 -225l105 225l92 -60l-138 -194l242 22v-102z" />
    <glyph glyph-name="plus" unicode="+" horiz-adv-x="1017" 
d="M954 389h-387v-389h-117v389h-389v117h389v387h117v-387h387v-117z" />
    <glyph glyph-name="comma" unicode="," horiz-adv-x="274" 
d="M34 0c66.667 58.667 99 121.667 97 189c-2.66699 36 -24 53 -64 51c0 98 54 147 162 147v-166c0 -59.333 -47.667 -133 -143 -221h-52z" />
    <glyph glyph-name="hyphen" unicode="-" horiz-adv-x="1017" 
d="M954 389h-893v117h893v-117z" />
    <glyph glyph-name="period" unicode="." horiz-adv-x="649" 
d="M576 410h-506v95h506v-95z" />
    <glyph glyph-name="slash" unicode="/" horiz-adv-x="782" 
d="M720 1223l-538 -1268l-119 45l539 1268z" />
    <glyph glyph-name="zero" unicode="0" horiz-adv-x="485" 
d="M286 190l-170 140l135 145l168 -139z" />
    <glyph glyph-name="zero" unicode="&#x6f0;" horiz-adv-x="485" 
d="M286 190l-170 140l135 145l168 -139z" />
    <glyph glyph-name="zero" unicode="&#x660;" horiz-adv-x="485" 
d="M286 190l-170 140l135 145l168 -139z" />
    <glyph glyph-name="one" unicode="1" horiz-adv-x="378" 
d="M327 2l-127 -2l-59 887l125 102z" />
    <glyph glyph-name="one" unicode="&#x6f1;" horiz-adv-x="378" 
d="M327 2l-127 -2l-59 887l125 102z" />
    <glyph glyph-name="one" unicode="&#x661;" horiz-adv-x="378" 
d="M327 2l-127 -2l-59 887l125 102z" />
    <glyph glyph-name="two" unicode="2" horiz-adv-x="652" 
d="M264 989c2 -202 38.332 -320.667 108.999 -356c50.667 14 75 42.667 73 86l-20 225l137 41l20 -264c10.667 -56 -11.666 -114 -66.999 -174c-32 -30 -70.333 -47.667 -115 -53l-33 -2c-32 2 -53.667 8.66699 -65 20l39 -512h-125l-80 942z" />
    <glyph glyph-name="two" unicode="&#x6f2;" horiz-adv-x="652" 
d="M264 989c2 -202 38.332 -320.667 108.999 -356c50.667 14 75 42.667 73 86l-20 225l137 41l20 -264c10.667 -56 -11.666 -114 -66.999 -174c-32 -30 -70.333 -47.667 -115 -53l-33 -2c-32 2 -53.667 8.66699 -65 20l39 -512h-125l-80 942z" />
    <glyph glyph-name="two" unicode="&#x662;" horiz-adv-x="652" 
d="M264 989c2 -202 38.332 -320.667 108.999 -356c50.667 14 75 42.667 73 86l-20 225l137 41l20 -264c10.667 -56 -11.666 -114 -66.999 -174c-32 -30 -70.333 -47.667 -115 -53l-33 -2c-32 2 -53.667 8.66699 -65 20l39 -512h-125l-80 942z" />
    <glyph glyph-name="three" unicode="3" horiz-adv-x="903" 
d="M264 989c2 -202 38.332 -320.667 108.999 -356c50.667 14 75 42.667 73 86l-20 225l137 41l20 -264c12.667 -45.333 38 -68 76 -68c68.667 6.66699 82.334 103.667 41.001 291l129 41l21 -266c-12.667 -119.333 -72 -188.333 -178 -207c-42 4 -94 15.667 -156 35
c-32 -30 -70.333 -47.667 -115 -53l-33 -2c-32 2 -53.667 8.66699 -65 20l39 -512h-125l-80 942z" />
    <glyph glyph-name="three" unicode="&#x6f3;" horiz-adv-x="903" 
d="M264 989c2 -202 38.332 -320.667 108.999 -356c50.667 14 75 42.667 73 86l-20 225l137 41l20 -264c12.667 -45.333 38 -68 76 -68c68.667 6.66699 82.334 103.667 41.001 291l129 41l21 -266c-12.667 -119.333 -72 -188.333 -178 -207c-42 4 -94 15.667 -156 35
c-32 -30 -70.333 -47.667 -115 -53l-33 -2c-32 2 -53.667 8.66699 -65 20l39 -512h-125l-80 942z" />
    <glyph glyph-name="three" unicode="&#x663;" horiz-adv-x="903" 
d="M264 989c2 -202 38.332 -320.667 108.999 -356c50.667 14 75 42.667 73 86l-20 225l137 41l20 -264c12.667 -45.333 38 -68 76 -68c68.667 6.66699 82.334 103.667 41.001 291l129 41l21 -266c-12.667 -119.333 -72 -188.333 -178 -207c-42 4 -94 15.667 -156 35
c-32 -30 -70.333 -47.667 -115 -53l-33 -2c-32 2 -53.667 8.66699 -65 20l39 -512h-125l-80 942z" />
    <glyph glyph-name="four" unicode="4" horiz-adv-x="716" 
d="M341 457c-75.333 34.667 -129.331 84.334 -161.998 149.001c-18.667 37.333 -28 68 -28 92c0 20 6 35.667 18 47c37.333 57.333 98.666 114 183.999 170c82.667 54.667 153 82 211 82l45 -120c-124.667 -28.667 -213 -68.334 -265 -119.001
c-45.333 -44.667 -56 -87 -32 -127c15.333 -28.667 39.333 -52.667 72 -72c36.667 -19.333 63.334 -28.333 80.001 -27c12 2 31 3 57 3c3.33301 3.33301 20.333 6 51 8l76 -109c-140 -30 -236.333 -71.667 -289 -125c-36.667 -38.667 -61.334 -79 -74.001 -121
c-10.667 -40 14.666 -65 75.999 -75c58 -10 148 -1.33301 270 26l68 -121c-94 -30.667 -188.333 -46 -283 -46c-71.333 0 -143 8.66699 -215 26c-35.333 31.333 -55 62.666 -59 93.999c-0.666992 10.667 -1 20.334 -1 29.001c0 20 1.66699 33 5 39
c27.333 115.333 82 206 164 272z" />
    <glyph glyph-name="four" unicode="&#x6f4;" horiz-adv-x="716" 
d="M341 457c-75.333 34.667 -129.331 84.334 -161.998 149.001c-18.667 37.333 -28 68 -28 92c0 20 6 35.667 18 47c37.333 57.333 98.666 114 183.999 170c82.667 54.667 153 82 211 82l45 -120c-124.667 -28.667 -213 -68.334 -265 -119.001
c-45.333 -44.667 -56 -87 -32 -127c15.333 -28.667 39.333 -52.667 72 -72c36.667 -19.333 63.334 -28.333 80.001 -27c12 2 31 3 57 3c3.33301 3.33301 20.333 6 51 8l76 -109c-140 -30 -236.333 -71.667 -289 -125c-36.667 -38.667 -61.334 -79 -74.001 -121
c-10.667 -40 14.666 -65 75.999 -75c58 -10 148 -1.33301 270 26l68 -121c-94 -30.667 -188.333 -46 -283 -46c-71.333 0 -143 8.66699 -215 26c-35.333 31.333 -55 62.666 -59 93.999c-0.666992 10.667 -1 20.334 -1 29.001c0 20 1.66699 33 5 39
c27.333 115.333 82 206 164 272z" />
    <glyph glyph-name="four" unicode="&#x664;" horiz-adv-x="716" 
d="M341 457c-75.333 34.667 -129.331 84.334 -161.998 149.001c-18.667 37.333 -28 68 -28 92c0 20 6 35.667 18 47c37.333 57.333 98.666 114 183.999 170c82.667 54.667 153 82 211 82l45 -120c-124.667 -28.667 -213 -68.334 -265 -119.001
c-45.333 -44.667 -56 -87 -32 -127c15.333 -28.667 39.333 -52.667 72 -72c36.667 -19.333 63.334 -28.333 80.001 -27c12 2 31 3 57 3c3.33301 3.33301 20.333 6 51 8l76 -109c-140 -30 -236.333 -71.667 -289 -125c-36.667 -38.667 -61.334 -79 -74.001 -121
c-10.667 -40 14.666 -65 75.999 -75c58 -10 148 -1.33301 270 26l68 -121c-94 -30.667 -188.333 -46 -283 -46c-71.333 0 -143 8.66699 -215 26c-35.333 31.333 -55 62.666 -59 93.999c-0.666992 10.667 -1 20.334 -1 29.001c0 20 1.66699 33 5 39
c27.333 115.333 82 206 164 272z" />
    <glyph glyph-name="five" unicode="5" horiz-adv-x="874" 
d="M718 852c63.333 -96 106.332 -214 128.999 -354c6 -37.333 9 -73.333 9 -108c0 -93.333 -22.333 -175 -67 -245c-61.333 -96.667 -160 -145 -296 -145c-135.333 -0 -233.666 48.333 -294.999 145c-44.667 70 -67 151.667 -67 245c0 34.667 3 70.667 9 108
c24.667 140 67.667 258 129 354c61.333 98 136 147 224 147c88.667 0 163.667 -49 225 -147zM360.999 738c-15.333 -26 -30.0029 -60 -44.0029 -102c-11.333 -32.667 -23.666 -76 -36.999 -130c-23.333 -97.333 -20 -178.666 10 -243.999c30.667 -65.333 99.667 -98 207 -98
c105.333 0 173.333 32.667 204 98c31.333 68 35 149.333 11 244c-13.333 53.333 -25.666 96.666 -36.999 129.999c-13.333 42 -27.666 76 -42.999 102c-34.667 59.333 -79.667 89 -135 89c-56 0 -101.333 -29.667 -136 -89z" />
    <glyph glyph-name="five" unicode="&#x6f5;" horiz-adv-x="874" 
d="M718 852c63.333 -96 106.332 -214 128.999 -354c6 -37.333 9 -73.333 9 -108c0 -93.333 -22.333 -175 -67 -245c-61.333 -96.667 -160 -145 -296 -145c-135.333 -0 -233.666 48.333 -294.999 145c-44.667 70 -67 151.667 -67 245c0 34.667 3 70.667 9 108
c24.667 140 67.667 258 129 354c61.333 98 136 147 224 147c88.667 0 163.667 -49 225 -147zM360.999 738c-15.333 -26 -30.0029 -60 -44.0029 -102c-11.333 -32.667 -23.666 -76 -36.999 -130c-23.333 -97.333 -20 -178.666 10 -243.999c30.667 -65.333 99.667 -98 207 -98
c105.333 0 173.333 32.667 204 98c31.333 68 35 149.333 11 244c-13.333 53.333 -25.666 96.666 -36.999 129.999c-13.333 42 -27.666 76 -42.999 102c-34.667 59.333 -79.667 89 -135 89c-56 0 -101.333 -29.667 -136 -89z" />
    <glyph glyph-name="five" unicode="&#x665;" horiz-adv-x="874" 
d="M718 852c63.333 -96 106.332 -214 128.999 -354c6 -37.333 9 -73.333 9 -108c0 -93.333 -22.333 -175 -67 -245c-61.333 -96.667 -160 -145 -296 -145c-135.333 -0 -233.666 48.333 -294.999 145c-44.667 70 -67 151.667 -67 245c0 34.667 3 70.667 9 108
c24.667 140 67.667 258 129 354c61.333 98 136 147 224 147c88.667 0 163.667 -49 225 -147zM360.999 738c-15.333 -26 -30.0029 -60 -44.0029 -102c-11.333 -32.667 -23.666 -76 -36.999 -130c-23.333 -97.333 -20 -178.666 10 -243.999c30.667 -65.333 99.667 -98 207 -98
c105.333 0 173.333 32.667 204 98c31.333 68 35 149.333 11 244c-13.333 53.333 -25.666 96.666 -36.999 129.999c-13.333 42 -27.666 76 -42.999 102c-34.667 59.333 -79.667 89 -135 89c-56 0 -101.333 -29.667 -136 -89z" />
    <glyph glyph-name="six" unicode="6" horiz-adv-x="860" 
d="M114 858l61 125l521 -37l41 -371l82 -585h-130l-81 583l-37 236z" />
    <glyph glyph-name="six" unicode="&#x6f6;" horiz-adv-x="860" 
d="M114 858l61 125l521 -37l41 -371l82 -585h-130l-81 583l-37 236z" />
    <glyph glyph-name="six" unicode="&#x666;" horiz-adv-x="860" 
d="M114 858l61 125l521 -37l41 -371l82 -585h-130l-81 583l-37 236z" />
    <glyph glyph-name="seven" unicode="7" horiz-adv-x="1024" 
d="M970 997l-352 -919.001c-32.667 -48 -64 -72 -94 -72c-11.333 0 -22.333 3.33301 -33 10c-24.667 16.667 -43.334 42.667 -56.001 78l-313 905h156l219 -651c20.667 -75.333 42.334 -76.666 65.001 -3.99902l240 651z" />
    <glyph glyph-name="seven" unicode="&#x6f7;" horiz-adv-x="1024" 
d="M970 997l-352 -919.001c-32.667 -48 -64 -72 -94 -72c-11.333 0 -22.333 3.33301 -33 10c-24.667 16.667 -43.334 42.667 -56.001 78l-313 905h156l219 -651c20.667 -75.333 42.334 -76.666 65.001 -3.99902l240 651z" />
    <glyph glyph-name="seven" unicode="&#x667;" horiz-adv-x="1024" 
d="M970 997l-352 -919.001c-32.667 -48 -64 -72 -94 -72c-11.333 0 -22.333 3.33301 -33 10c-24.667 16.667 -43.334 42.667 -56.001 78l-313 905h156l219 -651c20.667 -75.333 42.334 -76.666 65.001 -3.99902l240 651z" />
    <glyph glyph-name="eight" unicode="8" horiz-adv-x="1007" 
d="M802 10l-239.999 652.001c-22.667 72 -44.334 70.333 -65.001 -5l-219 -651h-156l313 905c22 62.667 48.667 94 80 94c14 0 29 -6 45 -18c20.667 -12.667 40 -32.334 58 -59.001l352 -920z" />
    <glyph glyph-name="eight" unicode="&#x6f8;" horiz-adv-x="1007" 
d="M802 10l-239.999 652.001c-22.667 72 -44.334 70.333 -65.001 -5l-219 -651h-156l313 905c22 62.667 48.667 94 80 94c14 0 29 -6 45 -18c20.667 -12.667 40 -32.334 58 -59.001l352 -920z" />
    <glyph glyph-name="eight" unicode="&#x668;" horiz-adv-x="1007" 
d="M802 10l-239.999 652.001c-22.667 72 -44.334 70.333 -65.001 -5l-219 -651h-156l313 905c22 62.667 48.667 94 80 94c14 0 29 -6 45 -18c20.667 -12.667 40 -32.334 58 -59.001l352 -920z" />
    <glyph glyph-name="nine" unicode="9" horiz-adv-x="843" 
d="M405 391c-82 0 -150.335 29.333 -205.002 88c-56 60 -84 124.333 -84 193c0 88.667 28 165 84 229s124.333 96 205 96c28.667 0 55.334 -4 80.001 -12c46.667 -14 88.334 -41.333 125.001 -82c56 -64 84 -141 84 -231c0 -14 -1.66699 -33.333 -5 -58
c6.66699 -200.667 41 -404.667 103 -612l-129 -2c-48 136 -82.333 283.333 -103 442c-44 -34 -95.667 -51 -155 -51zM561.998 721c-6 31.333 -19.332 58.666 -39.999 81.999c-30.667 34 -69 51 -115 51c-106.667 0 -160 -59.333 -160 -178c0 -22 15.667 -50.667 47 -86
c30 -34 67.667 -51 113 -51c43.333 0 80.666 17.667 111.999 53c22.667 22.667 37 49.334 43 80.001v49z" />
    <glyph glyph-name="nine" unicode="&#x6f9;" horiz-adv-x="843" 
d="M405 391c-82 0 -150.335 29.333 -205.002 88c-56 60 -84 124.333 -84 193c0 88.667 28 165 84 229s124.333 96 205 96c28.667 0 55.334 -4 80.001 -12c46.667 -14 88.334 -41.333 125.001 -82c56 -64 84 -141 84 -231c0 -14 -1.66699 -33.333 -5 -58
c6.66699 -200.667 41 -404.667 103 -612l-129 -2c-48 136 -82.333 283.333 -103 442c-44 -34 -95.667 -51 -155 -51zM561.998 721c-6 31.333 -19.332 58.666 -39.999 81.999c-30.667 34 -69 51 -115 51c-106.667 0 -160 -59.333 -160 -178c0 -22 15.667 -50.667 47 -86
c30 -34 67.667 -51 113 -51c43.333 0 80.666 17.667 111.999 53c22.667 22.667 37 49.334 43 80.001v49z" />
    <glyph glyph-name="nine" unicode="&#x669;" horiz-adv-x="843" 
d="M405 391c-82 0 -150.335 29.333 -205.002 88c-56 60 -84 124.333 -84 193c0 88.667 28 165 84 229s124.333 96 205 96c28.667 0 55.334 -4 80.001 -12c46.667 -14 88.334 -41.333 125.001 -82c56 -64 84 -141 84 -231c0 -14 -1.66699 -33.333 -5 -58
c6.66699 -200.667 41 -404.667 103 -612l-129 -2c-48 136 -82.333 283.333 -103 442c-44 -34 -95.667 -51 -155 -51zM561.998 721c-6 31.333 -19.332 58.666 -39.999 81.999c-30.667 34 -69 51 -115 51c-106.667 0 -160 -59.333 -160 -178c0 -22 15.667 -50.667 47 -86
c30 -34 67.667 -51 113 -51c43.333 0 80.666 17.667 111.999 53c22.667 22.667 37 49.334 43 80.001v49z" />
    <glyph glyph-name="colon" unicode=":" horiz-adv-x="397" 
d="M295 360h-162v170h162v-170zM295 0h-162v170h162v-170z" />
    <glyph glyph-name="equal" unicode="=" horiz-adv-x="1017" 
d="M954 565h-893v117h893v-117zM954 211h-893v117h893v-117z" />
    <glyph glyph-name="bracketleft" unicode="[" horiz-adv-x="514" 
d="M452 -180h-371l-12 1427h375v-106h-234l13 -1214h229v-107z" />
    <glyph glyph-name="bracketright" unicode="]" horiz-adv-x="514" 
d="M452 -180h-375v107h234l-11 1214h-231v106h373z" />
    <glyph glyph-name="braceleft" unicode="{" horiz-adv-x="647" 
d="M567 -151c0 -14 -0.666992 -23 -2 -27l-48 -4c-113.333 0 -191.666 18.667 -234.999 56c-46.667 32.667 -70 85.667 -70 159v334c0 48.667 -46.333 103 -139 163h4c44 18 77.333 42 100 72c23.333 30 35 60.667 35 92v334c0 150 116 225 348 225c1.33301 -4 2 -12 2 -24
v-37c-92.667 0 -154.667 -11.667 -186 -35c-32.667 -18 -49 -61 -49 -129v-334c0 -47.333 -39.667 -102 -119 -164c79.333 -50 119 -104.333 119 -163v-334c-10.667 -102 68.666 -154.333 237.999 -157c1.33301 -1.33301 2 -5 2 -11v-16z" />
    <glyph glyph-name="braceright" unicode="}" horiz-adv-x="655" 
d="M71 -135c0 6 0.669922 9.66699 2.00293 11c169.333 2.66699 248.666 55 237.999 157v334c0 58.667 39.333 113 118 163c-78.667 62 -118 116.667 -118 164v334c0 68 -16.667 111 -50 129c-31.333 23.333 -93.333 35 -186 35v37c0 12 0.666992 20 2 24
c232 0 348 -75 348 -225v-334c0 -31.333 11.667 -62 35 -92s56.666 -54 99.999 -72h5c-93.333 -60 -140 -114.333 -140 -163v-334c0 -73.333 -23 -126.333 -69 -159c-42.667 -37.333 -121.334 -56 -236.001 -56l-47 4c-1.33301 4 -2 13 -2 27v16z" />
    <glyph glyph-name="copyright" unicode="&#xa9;" horiz-adv-x="1816" 
d="M862 1495c125.333 0 247.5 -32 366.5 -96s211.833 -155.5 278.5 -274.5s100 -243.167 100 -372.5s-32.833 -253.333 -98.5 -372s-157.667 -210.5 -276 -275.5s-241.833 -97.5 -370.5 -97.5c-129.333 0 -252.833 32.5 -370.5 97.5s-209.5 156.833 -275.5 275.5
s-99 242.667 -99 372s33.5 253.5 100.5 372.5s160 210.5 279 274.5s240.833 96 365.5 96zM862 1431c-114 0 -225.169 -29.333 -333.502 -88s-193.166 -142.334 -254.499 -251.001s-92 -222 -92 -340s30 -230.833 90 -338.5s144 -191.667 252 -252s220.667 -90.5 338 -90.5
s230 30.167 338 90.5s192.167 144.333 252.5 252s90.5 220.5 90.5 338.5s-30.667 231.333 -92 340s-146.166 192.334 -254.499 251.001s-219.833 88 -334.5 88zM1230 1230l22 -293.999h-41c-26 83.333 -66.167 145.5 -120.5 186.5s-120.166 61.5 -197.499 61.5
c-58 0 -109.333 -12 -154 -36s-81.334 -55.667 -110.001 -95c-21.333 -30.667 -39 -71 -53 -121s-21 -102 -21 -156c0 -148.667 32 -258.167 96 -328.5s148 -105.5 252 -105.5c136 0 245 56.667 327 170l39 -20c-97.333 -142 -231 -213 -401 -213
c-140.667 0 -257 45.333 -349 136s-138 200.667 -138 330c0 134 49 248.333 147 343s223 142 375 142c33.333 0 60.333 -2 81 -6s59 -15 115 -33c16.667 -6 29 -9 37 -9c11.333 0 21 3.16699 29 9.5s16 19.166 24 38.499h41z" />
    <glyph glyph-name="guillemotleft" unicode="&#xab;" horiz-adv-x="616" 
d="M554 662c-92.667 -93.333 -139 -207.666 -139 -342.999c0 -109.333 43 -216.333 129 -321l-78 -41c-104.667 126 -157 249 -157 369c0 76 15 144 45 204c27.333 55.333 69 112.666 125 171.999zM315 662c-94.667 -92.667 -142 -206.999 -142 -342.999
c0 -108.667 44.667 -215.667 134 -321l-78 -41c-106.667 122.667 -160 245.667 -160 369c0 69.333 15.667 137.333 47 204c24.667 51.333 65.667 108.666 123 171.999z" />
    <glyph glyph-name="guillemotright" unicode="&#xbb;" horiz-adv-x="616" 
d="M554 326c0 -123.333 -52.999 -246.333 -158.999 -369l-78 41c88.667 105.333 133 212.333 133 321c0 136 -47 250.333 -141 343l77 40c59.333 -66.667 99.666 -124 120.999 -172c31.333 -66.667 47 -134.667 47 -204zM315.001 326c0 -120 -52.667 -243.001 -158 -369.001
l-78 41c87.333 103.333 131 210.333 131 321c0 136 -47 250.333 -141 343l78 40c57.333 -63.333 98.333 -120.666 123 -171.999c30 -60 45 -128 45 -204z" />
    <glyph glyph-name="multiply" unicode="&#xd7;" horiz-adv-x="1017" 
d="M620 807c0 -74 -37.667 -111 -113 -111c-73.333 0 -110 37 -110 111s36.667 111 110 111c75.333 0 113 -37 113 -111zM954 389h-893v117h893v-117zM620 86c0 -73.333 -37.667 -110 -113 -110c-73.333 0 -110 36.667 -110 110c0 75.333 36.667 113 110 113
c75.333 0 113 -37.667 113 -113z" />
    <glyph glyph-name="divide" unicode="&#xf7;" horiz-adv-x="927" 
d="M866 125l-80 -80l-322 322l-321 -322l-82 80l324 321l-324 322l82 82l321 -324l322 324l80 -82l-322 -322z" />
    <glyph glyph-name="afii57388" unicode="&#x60c;" horiz-adv-x="430" 
d="M328 387c-66.667 -58 -99 -120.667 -97 -188c2.66699 -36.667 24 -54 64 -52v-147h-162v166c0 60 47.667 133.667 143 221h52z" />
    <glyph glyph-name="afii57403" unicode="&#x61b;" horiz-adv-x="430" 
d="M328 748c-66.667 -58.667 -99 -121.667 -97 -189c2.66699 -36 24 -53 64 -51v-148h-162v166c0 60 47.667 134 143 222h52zM297 0h-162v170h162v-170z" />
    <glyph glyph-name="afii57407" unicode="&#x61f;" horiz-adv-x="782" 
d="M717 801c-55.333 83.333 -118.334 125 -189.001 125c-54 0 -119.333 -21.333 -196 -64c-44 -43.333 -66 -95 -66 -155c0 -72.667 28.667 -135.667 86 -189l178 -129c45.333 -57.333 68 -111.333 68 -162v-71h-131v80c0 32 -29.333 71.333 -88 118l-158 129
c-58.667 58.667 -88 132.667 -88 222c0 100.667 40.333 183 121 247c76.667 60 165.334 90 266.001 90c48 0 98 -12.667 150 -38c41.333 -20 81.333 -57.667 120 -113zM599.999 -8h-133v137h133v-137z" />
    <glyph glyph-name="afii57409" unicode="&#x621;" horiz-adv-x="573" 
d="M579 129v-127.001h-455l37 127h104c-42 58.667 -55 130.334 -39 215.001c20.667 101.333 105.334 152 254.001 152h17l37 -134h-37c-78.667 0 -125.334 -25.667 -140.001 -77c-10 -44.667 16.667 -96.667 80 -156h142z" />
    <glyph glyph-name="afii57440" unicode="&#x640;" horiz-adv-x="243" 
d="M263 0h-281v131h281v-131z" />
    <glyph glyph-name="afii57451" unicode="&#x64b;" horiz-adv-x="4" 
d="M425 1251l-3 -89l-390 2v87h393zM429 1381l3 -89l-400 2v92z" />
    <glyph glyph-name="afii57452" unicode="&#x64c;" 
d="M322 1402c0 -46.667 20.667 -70 62 -70c40.667 0 61 23.333 61 70c0 44 -20.333 66 -61 66c-41.333 0 -62 -22 -62 -66zM333 1265c-15.333 3.33301 -33.332 15.667 -53.999 37c-27.333 27.333 -41 59.666 -41 96.999c0 92 47.333 138 142 138c97.333 0 146 -46 146 -138
c0 -37.333 -13.667 -69.666 -41 -96.999c-40.667 -44 -42.334 -42.667 -5.00098 4l-9 -25l-186 -130l-32 59zM113.001 1402c0 -46.667 20.667 -70 62 -70c40.667 0 61 23.333 61 70c0 44 -20.333 66 -61 66c-41.333 0 -62 -22 -62 -66zM124.001 1266
c-14.667 2.66699 -32 14 -52 34c-28.667 28.667 -43 61.667 -43 99c0 92 48 138 144 138c97.333 0 146 -46 146 -138c0 -37.333 -14.333 -70.333 -43 -99c-42.667 -42.667 -44 -41 -4 5l-10 -24l-185 -130l-32 59z" />
    <glyph glyph-name="afii57453" unicode="&#x64d;" 
d="M418 -468l3 -81l-396 -2v83h393zM418 -345l3 -85l-396 -2v87h393z" />
    <glyph glyph-name="afii57454" unicode="&#x64e;" horiz-adv-x="452" 
d="M406 1394l3 -84l-396 -3v87h393z" />
    <glyph glyph-name="afii57455" unicode="&#x64f;" 
d="M123 1403c0 -46 20.667 -69 62 -69c40.667 0 61 23 61 69c0 44 -20.333 66 -61 66c-41.333 0 -62 -22 -62 -66zM132 1267c-10 0.666992 -27.333 13.333 -52 38c-27.333 26.667 -41 58.667 -41 96c0 91.333 48 137 144 137c97.333 0 146 -45.667 146 -137
c0 -37.333 -14 -69.333 -42 -96c-4 -11.333 -9 -19 -15 -23l-185 -130l-32 58z" />
    <glyph glyph-name="afii57456" unicode="&#x650;" 
d="M500 -511l3 -87h-396v87h393z" />
    <glyph glyph-name="afii57457" unicode="&#x651;" 
d="M479 1404l-0.000976562 -95c0 -32 -9 -59.333 -27 -82c-23.333 -27.333 -55.666 -41 -96.999 -41c-44 2 -74 18.667 -90 50c-15.333 -28.667 -47.333 -43 -96 -43c-43.333 -3.33301 -76.333 8.66699 -99 36c-18 22.667 -27 49.334 -27 80.001v95h93v-75
c5.33301 -38.667 21 -57.334 47 -56.001c19.333 2 29 31 29 87v44h95v-44c6 -58 23.333 -87 52 -87c23.333 0 32 19 26 57l3 74h91z" />
    <glyph glyph-name="afii57458" unicode="&#x652;" 
d="M324 1351c2 -94 -42 -142.335 -132 -145.002c-92 0 -139 47 -141 141c-2.66699 96 41 145 131 147c44 2.66699 80.333 -12.666 109 -45.999c22 -29.333 33 -61.666 33 -96.999zM235 1351c0 48 -15.667 72 -47 72c-30 0 -45 -24.667 -45 -74c2 -47.333 18.333 -71 49 -71
c28.667 0 43 24.333 43 73z" />
    <glyph glyph-name="afii61664" unicode="&#x200c;" horiz-adv-x="37" 
 />
    <glyph glyph-name="afii301" unicode="&#x200d;" horiz-adv-x="37" 
 />
    <glyph glyph-name="afii299" unicode="&#x200e;" horiz-adv-x="40" 
d="M274 1456l-122 -125l-29 29l78 78h-160v-1438h-41v1479h197l-74 73l29 29z" />
    <glyph glyph-name="afii300" unicode="&#x200f;" horiz-adv-x="40" 
d="M41 0h-41v1438h-159l78 -78l-29 -29l-123 125l123 125l29 -29l-74 -73h196v-1479z" />
    <glyph glyph-name="quoteleft" unicode="&#x2018;" horiz-adv-x="314" 
d="M299 1122c-38 -25.333 -71.001 -56.333 -99.001 -93c-32 -42.667 -48 -83.667 -48 -123c0 -23.333 6.66699 -44.333 20 -63c16.667 20 36 30 58 30c43.333 0 65 -21.333 65 -64c0 -25.333 -10.333 -45 -31 -59c-18 -12.667 -40 -19 -66 -19
c-35.333 0 -63.666 11 -84.999 33c-22 21.333 -33 49.333 -33 84c0 60 23 120.333 69 181c41.333 54 91.333 96.667 150 128v-35z" />
    <glyph glyph-name="quoteright" unicode="&#x2019;" horiz-adv-x="314" 
d="M215 857c-38.667 -50 -88 -92.6689 -148 -128.002v36c97.333 69.333 146 141.333 146 216c0 26.667 -7 48.334 -21 65.001c-14 -20.667 -34.333 -31 -61 -31c-17.333 0 -32.333 5.66699 -45 17c-12 12 -18 27 -18 45c0 24.667 10.667 44.334 32 59.001
c18 13.333 40 20 66 20c78.667 0 118 -39.667 118 -119c0 -60.667 -23 -120.667 -69 -180z" />
    <glyph glyph-name="quotedblleft" unicode="&#x201c;" horiz-adv-x="437" 
d="M388 1155c-53.333 -46.667 -79.333 -96.667 -78 -150c2 -29.333 19 -43.333 51 -42v-118h-131v133c0 48 38.333 107 115 177h43zM213 1155c-53.333 -46.667 -79.333 -96.667 -78 -150c2 -29.333 19 -43.333 51 -42v-118h-131v133c0 47.333 38.667 106.333 116 177h42z
" />
    <glyph glyph-name="quotedblright" unicode="&#x201d;" horiz-adv-x="437" 
d="M388 1021c0 -46 -39 -104.668 -117 -176.001h-41c53.333 46.667 79 96.334 77 149.001c0 29.333 -16.333 43.333 -49 42v119h130v-134zM213 1021c0 -46 -39 -104.667 -117 -176h-41c54 48 80 97.667 78 149c-1.33301 29.333 -18 43.333 -50 42v119h130v-134z" />
    <glyph glyph-name="guilsinglleft" unicode="&#x2039;" horiz-adv-x="1110" 
d="M915 -20h-183l-479 477l479 479h183l-480 -479z" />
    <glyph glyph-name="guilsinglright" unicode="&#x203a;" horiz-adv-x="1110" 
d="M856 457l-479 -477h-162l479 477l-479 479h162z" />
    <glyph glyph-name="uniE820" unicode="&#xe820;" horiz-adv-x="504" 
d="M456 965l3 -84l-396 -3v87h393z" />
    <glyph glyph-name="uniE821" unicode="&#xe821;" 
d="M123 1059c0 -46 20.667 -69 62 -69c40.667 0 61 23 61 69c0 44 -20.333 66 -61 66c-41.333 0 -62 -22 -62 -66zM132 923c-10 0.666992 -27.333 13.333 -52 38c-27.333 26.667 -41 58.667 -41 96c0 91.333 48 137 144 137c97.333 0 146 -45.667 146 -137
c0 -37.333 -14 -69.333 -42 -96c-51.333 -55.333 -118 -106.333 -200 -153l-32 58z" />
    <glyph glyph-name="uniE822" unicode="&#xe822;" 
d="M324 977c2 -94 -42 -142.335 -132 -145.002c-92 0 -139 47 -141 141c-2.66699 96 41 145 131 147c44 2.66699 80.333 -12.666 109 -45.999c22 -29.333 33 -61.666 33 -96.999zM235 976.998c0 48 -15.667 72 -47 72c-30 0 -45 -24.667 -45 -74
c2 -47.333 18.333 -71 49 -71c28.667 0 43 24.333 43 73z" />
    <glyph glyph-name="uniE823" unicode="&#xe823;" horiz-adv-x="4" 
d="M425 932l-3 -89l-390 2v87h393zM429 1062l3 -89l-400 2v92z" />
    <glyph glyph-name="uniE824" unicode="&#xe824;" 
d="M255 946c-14.667 2.66699 -32 14 -52 34c-28.667 28.667 -43 62 -43 100c0 92 48 138 144 138c97.333 0 146 -46 146 -138c0 -38 -14 -70.667 -42 -98c-43.333 -40 -45 -39 -5 3l-10 -22l-185 -132l-32 60zM306 1149c-41.333 0 -62 -22.333 -62 -67
c0 -45.333 20.667 -68 62 -68c40.667 0 61 22.667 61 68c0 44.667 -20.333 67 -61 67zM463 946c-14.667 2.66699 -32.333 14.667 -53 36c-27.333 27.333 -41 60 -41 98c0 92 47.333 138 142 138c97.333 0 146 -46 146 -138c0 -38 -14.333 -71.333 -43 -100
c-38.667 -39.333 -39.667 -37.333 -3 6l-9 -23l-186 -132l-32 60zM515.001 1149c-41.333 0 -62 -22.333 -62 -67c0 -45.333 20.667 -68 62 -68c40.667 0 61 22.667 61 68c0 44.667 -20.333 67 -61 67z" />
    <glyph glyph-name="uniE825" unicode="&#xe825;" horiz-adv-x="1" 
d="M471 1036l0.000976562 -95.999c0 -30.667 -9 -57.334 -27 -80.001c-22.667 -28 -55.334 -42 -98.001 -42c-43.333 2.66699 -73 19.334 -89 50.001c-15.333 -29.333 -47.333 -44 -96 -44c-43.333 -2 -76.333 10.667 -99 38c-18 22.667 -27 48.667 -27 78v96h93v-75
c5.33301 -39.333 21 -58 47 -56c19.333 1.33301 29 30.666 29 87.999v43h95v-43c6 -58.667 23.333 -88 52 -88c23.333 0 32 19.333 26 58l3 73h91z" />
    <glyph glyph-name="uniE826" unicode="&#xe826;" horiz-adv-x="394" 
d="M418 87l3 -85l-396 -2v87h393z" />
    <glyph glyph-name="uniE827" unicode="&#xe827;" 
d="M418 -243l3 -81l-396 -2v83h393zM418 -120l3 -85l-396 -2v87h393z" />
    <glyph glyph-name="uniE828" unicode="&#xe828;" 
d="M552 1198l0.000976562 -96c0 -32 -9 -59.333 -27 -82c-22.667 -28 -55.334 -42 -98.001 -42c-43.333 2.66699 -73 19.667 -89 51c-15.333 -28.667 -47.333 -43 -96 -43c-43.333 -3.33301 -76.333 9 -99 37c-18 22.667 -27 49 -27 79v96h93v-76
c5.33301 -38.667 21 -57 47 -55c19.333 1.33301 29 30 29 86v45h95v-44c6 -58 23.333 -87 52 -87c23.333 0 32 18.667 26 56l3 75h91zM535.001 1339l3 -78h-397l3 78h391z" />
    <glyph glyph-name="uniE829" unicode="&#xe829;" 
d="M552 1144l0.000976562 -96c0 -32 -9 -59.333 -27 -82c-22.667 -28 -55.334 -42 -98.001 -42c-43.333 2.66699 -73 19.667 -89 51c-15.333 -28.667 -47.333 -43 -96 -43c-43.333 -3.33301 -76.333 9 -99 37c-18 22.667 -27 49 -27 79v96h93v-76
c5.33301 -38.667 21 -57 47 -55c19.333 1.33301 29 30 29 86v45h95v-44c6 -58 23.333 -87 52 -87c23.333 0 32 18.667 26 56l3 75h91zM329.001 1403c0 -46 20.667 -69 62 -69s62 23 62 69c0 44 -20.667 66 -62 66s-62 -22 -62 -66zM339.001 1267
c-10.667 1.33301 -28.333 14.332 -53 38.999c-27.333 26.667 -41 58.334 -41 95.001c0 92 47.667 138 143 138c97.333 0 146 -46 146 -138c0 -36.667 -19.167 -75.167 -57.5 -115.5s-99.833 -84.5 -184.5 -132.5l-30 58z" />
    <glyph glyph-name="uniE82A" unicode="&#xe82a;" 
d="M426 1295l-3 -89l-391 2v87h394zM429 1425l3 -89l-400 2v92zM431 1143l0.000976562 -96c0 -32 -9 -59.333 -27 -82c-22.667 -28 -55.334 -42 -98.001 -42c-43.333 2.66699 -73 19.667 -89 51c-15.333 -28.667 -47.333 -43 -96 -43c-43.333 -3.33301 -76.333 9 -99 37
c-18 22.667 -27 49 -27 79v96h93v-76c5.33301 -38.667 21 -57 47 -55c19.333 1.33301 29 30 29 86v45h95v-44c6 -58 23.333 -87 52 -87c23.333 0 32 18.667 26 56l3 75h91z" />
    <glyph glyph-name="uniE82B" unicode="&#xe82b;" 
d="M558 1148l0.000976562 -96c0 -32 -9 -59.333 -27 -82c-23.333 -28 -56 -42 -98 -42c-43.333 2.66699 -73.333 19.667 -90 51c-14.667 -28.667 -46.667 -43 -96 -43c-42.667 -3.33301 -75.334 9 -98.001 37c-18 22.667 -27 49 -27 79v96h92v-76c6 -38.667 22 -57 48 -55
c19.333 1.33301 29 30 29 86v45h95v-44c6 -58 23.333 -87 52 -87c23.333 0 32 18.667 26 56l2 75h92zM192.001 1268c-14.667 2.66699 -32 14 -52 34c-28.667 28.667 -43 62 -43 100c0 92 48 138 144 138c97.333 0 146 -46 146 -138c0 -38 -14 -70.667 -42 -98
c-43.333 -40 -45 -39 -5 3l-10 -22l-185 -132l-32 59zM243.001 1471c-41.333 0 -62 -22.333 -62 -67c0 -45.333 20.667 -68 62 -68s62 22.667 62 68c0 44.667 -20.667 67 -62 67zM400.001 1268c-14 2.66699 -31 14 -51 34c-28.667 28.667 -43 62 -43 100
c0 92 47.667 138 143 138c96.667 0 145 -46 145 -138c0 -38 -13.333 -70.667 -40 -98c-39.333 -36 -41.333 -34.667 -6 4l-9 -23l-186 -132l-32 59zM452.001 1471c-41.333 0 -62 -22.333 -62 -67c0 -45.333 20.667 -68 62 -68c40.667 0 61 22.667 61 68
c0 44.667 -20.333 67 -61 67z" />
    <glyph glyph-name="uniE82C" unicode="&#xe82c;" 
d="M552 1319l0.000976562 -96c0 -32 -9 -59.333 -27 -82c-22.667 -28 -55.334 -42 -98.001 -42c-43.333 2.66699 -73 19.667 -89 51c-15.333 -28.667 -47.333 -43 -96 -43c-43.333 -3.33301 -76.333 9 -99 37c-18 22.667 -27 49 -27 79v96h93v-76
c5.33301 -38.667 21 -57 47 -55c19.333 1.33301 29 30 29 86v45h95v-44c6 -58 23.333 -87 52 -87c23.333 0 32 18.667 26 56l3 75h91zM535.001 1075l3 -78h-397l3 78h391z" />
    <glyph glyph-name="uniE82D" unicode="&#xe82d;" 
d="M421 1526l0.000976562 -94.999c0 -32 -9 -59.333 -27 -82c-22.667 -28 -55.334 -42 -98.001 -42c-43.333 2.66699 -73 19.667 -89 51c-15.333 -28.667 -47.333 -43 -96 -43c-43.333 -3.33301 -76.333 8.66699 -99 36c-18 23.333 -27 50 -27 80v95h93v-75
c5.33301 -38.667 21 -57.334 47 -56.001c19.333 2 29 31 29 87v44h95v-43c6 -58 23.333 -87 52 -87c23.333 0 32 18.667 26 56l3 74h91zM378.001 1107l-3 -90l-388 2v88h391zM383.001 1237l3 -90l-399 2v93z" />
    </font>
</defs>
</svg>
