<?xml version="1.0" standalone="no"?>
<!DOCTYPE svg PUBLIC "-//W3C//DTD SVG 1.1//EN" "http://www.w3.org/Graphics/SVG/1.1/DTD/svg11.dtd" >
<svg>
<metadata>
Created by FontForge 20090914 at Wed Oct 19 02:00:16 2011
 By www-data
(c) by Abolfazl Seilsepour - +98 912 591 3420  -  seilsepor@yahoo.com - FontFarsi.ir
</metadata>
<defs>
<font id="FarTV" horiz-adv-x="372" >
  <font-face 
    font-family="Far.TV"
    font-weight="400"
    font-stretch="normal"
    units-per-em="2048"
    panose-1="0 0 7 0 0 0 0 0 0 0"
    ascent="1638"
    descent="-410"
    bbox="-71 -880 2117 2114"
    underline-thickness="75"
    underline-position="-763"
    unicode-range="U+0020-U+FEFC"
  />
<missing-glyph horiz-adv-x="1298" 
d="M100 -4v1481h998v-1481h-998zM266 163h666v1148h-666v-1148z" />
    <glyph glyph-name=".notdef" unicode="&#x652;&#x64d;" horiz-adv-x="1298" 
d="M100 -4v1481h998v-1481h-998zM266 163h666v1148h-666v-1148z" />
    <glyph glyph-name="copyright" unicode="&#x652;&#x64b;" horiz-adv-x="1816" 
d="M862 1495c125.333 0 247.5 -32 366.5 -96s211.833 -155.5 278.5 -274.5s100 -243.167 100 -372.5s-32.833 -253.333 -98.5 -372s-157.667 -210.5 -276 -275.5s-241.833 -97.5 -370.5 -97.5c-129.333 0 -252.833 32.5 -370.5 97.5s-209.5 156.833 -275.5 275.5
s-99 242.667 -99 372s33.5 253.5 100.5 372.5s160 210.5 279 274.5s240.833 96 365.5 96zM862 1431c-114 0 -225.169 -29.333 -333.502 -88s-193.166 -142.334 -254.499 -251.001s-92 -222 -92 -340s30 -230.833 90 -338.5s144 -191.667 252 -252s220.667 -90.5 338 -90.5
s230 30.167 338 90.5s192.167 144.333 252.5 252s90.5 220.5 90.5 338.5s-30.667 231.333 -92 340s-146.166 192.334 -254.499 251.001s-219.833 88 -334.5 88zM1230 1230l22 -293.999h-41c-26 83.333 -66.167 145.5 -120.5 186.5s-120.166 61.5 -197.499 61.5
c-58 0 -109.333 -12 -154 -36s-81.334 -55.667 -110.001 -95c-21.333 -30.667 -39 -71 -53 -121s-21 -102 -21 -156c0 -148.667 32 -258.167 96 -328.5s148 -105.5 252 -105.5c136 0 245 56.667 327 170l39 -20c-97.333 -142 -231 -213 -401 -213
c-140.667 0 -257 45.333 -349 136s-138 200.667 -138 330c0 134 49 248.333 147 343s223 142 375 142c33.333 0 60.333 -2 81 -6s59 -15 115 -33c16.667 -6 29 -9 37 -9c11.333 0 21 3.16699 29 9.5s16 19.166 24 38.499h41z" />
    <glyph glyph-name="uniE818" unicode="&#x651;&#x64b;" horiz-adv-x="539" 
d="M449 1591l-24 -29l-23 -31h-107l-35 50l-38 -90h-169v145l39 83l55 -28l-23 -60v-54h73l14 45l7 26l-2 55l22 12l49 26v-124h86l-2 37l-1 21l-31 49l56 42l23 -30l17 -45l14 -39v-61zM432 1848l-347 -85l-19 71l348 89zM428 1979l-347 -86l-20 72l349 88z" />
    <glyph glyph-name="uniFC5E" unicode="&#x651;&#x64c;" horiz-adv-x="550" arabic-form="isolated" 
d="M403 1956h-74l-32 -25v-38l32 -30l21 1l53 4v88zM459 1561l-23 -28l-23 -30h-106l-33 49l-38 -89h-165v143l38 81l55 -28l-23 -58v-54h72l13 45l7 25l-1 55l20 11l48 25v-121h86l-3 37l-1 20l-11 17l-5 9l-15 22l55 40l22 -28l17 -45l14 -38v-60zM470 1820l-118 -28
l-248 -58l-23 63l23 11l37 17v55h-28l-23 -16l-27 40l33 46l39 -1l64 -2v-98l-20 -29l67 25l-18 31v87l42 34l37 30h84l37 -31l42 -33v-143z" />
    <glyph glyph-name="uniFC5F" unicode="&#x651;&#x64d;" horiz-adv-x="539" arabic-form="isolated" 
d="M420 1729l-346 -86l-19 71l348 88zM433 1587l-347 -86l-19 71l348 88zM434 1892l-24 -29l-23 -30h-107l-35 49l-38 -90h-169v146l39 82l56 -28l-24 -60v-54h75l12 46l7 23v58l20 12l49 24v-122h87l-2 37l-1 22l-32 48l56 42l54 -72v-104z" />
    <glyph glyph-name="uniFC60" unicode="&#x651;&#x64e;" horiz-adv-x="534" arabic-form="isolated" 
d="M463 1571l-22 -28l-24 -31h-105l-34 48l-37 -88h-165v143l38 81l55 -28l-23 -58v-53h72l12 44l7 25v55l20 11l47 25v-121h86l-2 37l-2 21l-10 17l-5 8l-15 22l55 40l22 -28l16 -45l14 -38v-59zM431 1844l-339 -85l-20 70l342 87z" />
    <glyph glyph-name="uniFC61" unicode="&#x651;&#x64f;" horiz-adv-x="538" arabic-form="isolated" 
d="M349 1934h-76l-16 -13l-18 -13v-40l36 -28l20 2l54 3v89zM429 1602l-23 -29l-24 -31h-107l-35 50l-38 -90h-169v145l39 83l56 -27l-24 -61v-54h75l13 46l6 24v56l20 12l49 26v-124h87l-2 37l-1 24l-32 47l56 41l24 -31l16 -44l14 -37v-63zM190 1824l-20 32v83l43 36
l38 31h86l39 -30l41 -33v-147l-120 -28l-246 -57l-18 66l60 17z" />
    <glyph glyph-name="uniFC62" unicode="&#x651;&#x650;" horiz-adv-x="538" arabic-form="isolated" 
d="M449 1712l-346 -86l-19 72l348 88zM463 1875l-24 -28l-23 -31h-107l-35 50l-38 -91h-169v146l39 83l56 -28l-24 -61v-54h75l12 45l7 25v56l20 13l49 25v-124h87l-2 38l-1 23l-32 47l56 42l54 -72v-104z" />
    <glyph glyph-name="uniFD3E" unicode="&#x652;&#x64e;" horiz-adv-x="1135" 
d="M1075 -462c0 -10 -8 -15 -24 -15c-50.667 0 -127 50.333 -229 151c-134 130.667 -238.667 297 -314 499c-139.333 2 -209 20.333 -209 55c91.333 96 137 170.333 137 223c-41.333 0 -85.833 -24.5 -133.5 -73.5s-74.834 -73.5 -81.501 -73.5
c-25.333 0 -43.666 54.333 -54.999 163c-74 36 -111 67.667 -111 95c0 30.667 35 66.667 105 108c7.33301 104 23.666 156 48.999 156c102 -96 177.667 -144 227 -144c-4.66699 51.333 -30.667 100 -78 146s-71 72 -71 78c0 10.667 20.333 22.334 61 35.001
c46 14 97.333 22 154 24c48 144.667 113 274 195 388c63.333 88.667 131.333 161.667 204 219c58 46 99 69 123 69c13.333 0 20 -7.66699 20 -23c0 -6.66699 -24.333 -37 -73 -91c-60 -67.333 -109 -136.666 -147 -207.999c-59.333 -109.333 -99 -230.666 -119 -363.999
c66.667 -10.667 100 -25.667 100 -45c-94 -94.667 -141 -168.334 -141 -221.001c48 0 119.667 49 215 147c12 0 24.333 -17.667 37 -53s20 -72.333 22 -111c70.667 -36.667 106 -70 106 -100c0 -24.667 -33.333 -56.667 -100 -96
c-5.33301 -106.667 -23.666 -160 -54.999 -160l-68 65c-46 45.333 -97 70.666 -153 75.999c0 -47.333 24.5 -95 73.5 -143s73.5 -76 73.5 -84c0 -15.333 -36 -30.333 -108 -45c21.333 -108.667 64.833 -220.834 130.5 -336.501s138.167 -207.834 217.5 -276.501
c13.333 -11.333 20 -22.666 20 -33.999zM680 568c0 35.333 -12.667 65.666 -38 90.999s-55.666 38 -90.999 38c-36 0 -66.5 -12.667 -91.5 -38s-37.5 -55.666 -37.5 -90.999c0 -34.667 12.5 -64.167 37.5 -88.5s55.5 -36.5 91.5 -36.5c35.333 0 65.666 12.167 90.999 36.5
s38 53.833 38 88.5z" />
    <glyph glyph-name="uniFDF2" unicode="&#xfedf;&#xfee0;&#xfeea;" horiz-adv-x="1974" arabic-form="isolated" 
d="M1384 1321l-185.998 0.000976562v-1135h-313v684c-211.333 -10 -390.333 -94.667 -537 -254c-144 -155.333 -229.333 -360.666 -256 -615.999h188c15.333 87.333 32.666 158.333 51.999 213c16.667 55.333 41.667 110.666 75 165.999
c71.333 124 152.666 207.333 243.999 250c8 1.33301 23.667 6.66602 47 15.999v-645h1184v1321h-186v-1135h-312v1135zM1063 1626v-168c0 -48 17.667 -72 53 -72h299c42 0 63 24.667 63 74v166h-75v-145c0 -10 -5.66699 -15 -17 -15h-77v160h-76v-160h-78
c-9.33301 0 -14 5 -14 15v145h-78zM1315 1702v225h-80v-225h80z" />
    <glyph glyph-name="uniFEF5" unicode="&#xfedf;&#xfe82;" horiz-adv-x="1163" arabic-form="isolated" 
d="M581 1305c-14.667 -15.333 -26 -23 -34 -23s-29.333 8.33301 -64 25c-22.667 9.33301 -41 14 -55 14c-20.667 0 -35.667 -4.66699 -45 -14l-51 -52l51 -55l20 21c10 13.333 21.667 20 35 20c12.667 0 31.667 -6.66699 57 -20c25.333 -14 45.333 -21 60 -21
c17.333 0 32.333 6.33301 45 19l16 12l39 39l-55 51zM92 186v-186h979v1321h-191v-1135h-301v858h-186v-858h-301z" />
    <glyph glyph-name="uniFEF6" unicode="&#xfee0;&#xfe82;" horiz-adv-x="1071" arabic-form="final" 
d="M92 186v-186h991v186h-12v1135h-191v-1135h-301v858h-186v-858h-301zM586 1305c-15.333 -15.333 -28.333 -23 -39 -23c-6.66699 0 -19 4 -37 12c-41.333 18 -67.333 27 -78 27c-22 0 -37.667 -4.66699 -47 -14l-53 -52l53 -55l18 21c10 13.333 23 20 39 20
c6 0 27.333 -7.33301 64 -22c18 -12.667 35 -19 51 -19c20 0 35 6.33301 45 19l55 51l-55 51z" />
    <glyph glyph-name="uniFEF7" unicode="&#xfedf;&#xfe84;" horiz-adv-x="1163" arabic-form="isolated" 
d="M92 186v-186h979v1321h-191v-1135h-301v684h-186v-684h-301zM520 1104c-44 0 -66 21.666 -66 64.999c0 50.667 23.333 76 70 76h72v76h-66c-98 0 -147 -49 -147 -147c0 -23.333 7.33301 -46.666 22 -69.999h-63v-78h291v78h-113z" />
    <glyph glyph-name="uniFEF8" unicode="&#xfee0;&#xfe84;" horiz-adv-x="1071" arabic-form="final" 
d="M92 186v-186h991v186h-12v1135h-191v-1135h-301v684h-186v-684h-301zM520 1104c-44 0 -66 21.666 -66 64.999c0 50.667 23.333 76 70 76h72v76h-66c-98 0 -147 -49 -147 -147c0 -23.333 7.33301 -46.666 22 -69.999h-63v-78h291v78h-113z" />
    <glyph glyph-name="uniFEF9" unicode="&#xfedf;&#xfe88;" horiz-adv-x="1163" arabic-form="isolated" 
d="M92 186v-186h979v1321h-191v-1135h-301v1135h-186v-1135h-301zM274 -432c-46 0 -69 22.332 -69 66.999c0 49.333 23 74 69 74h72v78h-61c-100 0 -150 -49.667 -150 -149c0 -25.333 6.66699 -48.666 20 -69.999h-63v-76h293v76h-111z" />
    <glyph glyph-name="uniFEFA" unicode="&#xfee0;&#xfe88;" horiz-adv-x="1071" arabic-form="final" 
d="M92 186v-186h991v186h-12v1135h-191v-1135h-301v1135h-186v-1135h-301zM274 -432c-46 0 -69 22.332 -69 66.999c0 49.333 23 74 69 74h72v78h-61c-100 0 -150 -49.667 -150 -149c0 -25.333 6.66699 -48.666 20 -69.999h-63v-76h293v76h-111z" />
    <glyph glyph-name="uniFEFB" unicode="&#xfedf;&#xfe8e;" horiz-adv-x="1163" arabic-form="isolated" 
d="M92 186v-186h979v1321h-191v-1135h-301v1135h-186v-1135h-301z" />
    <glyph glyph-name="uniFEFC" unicode="&#xfee0;&#xfe8e;" horiz-adv-x="1071" arabic-form="final" 
d="M92 186v-186h991v186h-12v1135h-191v-1135h-301v1135h-186v-1135h-301z" />
    <glyph glyph-name="afii57410" unicode="&#x622;" horiz-adv-x="321" arabic-form="isolated" 
d="M254 1321h-186v-1321h186v1321zM296 1558c-17.333 -20 -34.999 -30 -52.999 -30c-14.667 0 -45 11 -91 33c-28 13.333 -53 20 -75 20c-28.667 0 -51.334 -7.66699 -68.001 -23l-76 -70l76 -81l28 27c20 23.333 38.667 35 56 35c16 0 45.333 -12.667 88 -38
c34.667 -16 60 -24 76 -24c28 0 50.667 9 68 27l77 74l-77 73z" />
    <glyph glyph-name="afii57411" unicode="&#x623;" arabic-form="isolated" 
d="M280 1321h-189v-1321h189v1321zM222 1544c-46 0 -69 22 -69 66c0 48.667 23.667 73 71 73h70v78h-61c-100 0 -150 -49 -150 -147c0 -28.667 6.66699 -52 20 -70h-63v-80h293v80h-111z" />
    <glyph glyph-name="afii57412" unicode="&#x624;" horiz-adv-x="802" arabic-form="isolated" 
d="M434 870c-98.667 0 -180.666 -31.332 -245.999 -93.999c-64 -64 -96 -141 -96 -231v-219c0 -94 32 -172 96 -234c66 -61.333 148 -92 246 -92h86v-82c0 -33.333 -3.33301 -58 -10 -74c-16.667 -36.667 -50.334 -55 -101.001 -55h-317v-188h262c92 0 159 10.667 201 32
c26 13.333 53.333 35.333 82 66c48.667 59.333 73 131.666 73 216.999v954h-276zM436.001 1104c-46.667 0 -70 21.666 -70 64.999c0 50.667 24 76 72 76h72v76h-64c-99.333 0 -149 -49 -149 -147c0 -21.333 6.66699 -44.666 20 -69.999h-61v-78h291v78h-111zM414.001 186
c-89.333 0 -134 46 -134 138v223c0 90 44.667 135 134 135h106v-496h-106z" />
    <glyph glyph-name="afii57413" unicode="&#x625;" horiz-adv-x="321" arabic-form="isolated" 
d="M254 1321h-187v-1321h187v1321zM196 -432c-44.667 0 -67 22.332 -67 66.999c0 49.333 22.333 74 67 74h74v78h-66c-96.667 0 -145 -49.667 -145 -149c0 -25.333 6.66699 -48.666 20 -69.999h-63v-76h291v76h-111z" />
    <glyph glyph-name="afii57414" unicode="&#x626;" horiz-adv-x="1159" arabic-form="isolated" 
d="M880 -102c0 -72.667 -43.001 -109 -129.001 -109h-353c-78.667 0 -118 39.667 -118 119v620h-189v-606c0 -214 112 -321 336 -321h332c56.667 0 108.334 12.333 155.001 37c100 54.667 150 148.667 150 282v266h-406v361c0 90 44 135 132 135h276v188h-254
c-96.667 0 -178.667 -31.333 -246 -94c-65.333 -63.333 -98 -140.333 -98 -231v-545h412v-102zM221.999 762c-46 0 -69 21 -69 63c0 50.667 23 76 69 76h72v80h-64c-98 0 -147 -50 -147 -150c0 -24.667 6.66699 -47.667 20 -69h-63v-80h293v80h-111z" />
    <glyph glyph-name="afii57415" unicode="&#x627;" arabic-form="isolated" 
d="M280 1321h-188v-1321h188v1321z" />
    <glyph glyph-name="afii57416" unicode="&#x628;" horiz-adv-x="1761" arabic-form="isolated" 
d="M790 -399h187v188h-187v-188zM92 774v-432c0 -98.667 31.333 -180.667 94 -246c64 -64 142 -96 234 -96h1247v870h-189v-684h-1060c-90.667 0 -136 45.333 -136 136v452h-190z" />
    <glyph glyph-name="afii57417" unicode="&#x629;" horiz-adv-x="974" arabic-form="isolated" 
d="M883 0l-0.000976562 870c-217.333 -10 -397.666 -94 -540.999 -252c-142 -158.667 -225.333 -364.667 -250 -618h791zM327.999 186c40 152 107.333 272.333 202 361c46 41.333 100 74 162 98v-459h-364zM378.999 985c-44 0 -66 21.666 -66 64.999
c0 50.667 23.333 76 70 76h72v76h-66c-98 0 -147 -49 -147 -147c0 -23.333 7.33301 -46.666 22 -69.999h-63v-78h291v78h-113z" />
    <glyph glyph-name="afii57418" unicode="&#x62a;" horiz-adv-x="1761" arabic-form="isolated" 
d="M641 682h188v188h-188v-188zM934 682h188v188h-188v-188zM92 774v-432c0 -98.667 31.333 -180.667 94 -246c64 -64 142 -96 234 -96h1247v870h-189v-684h-1060c-90.667 0 -136 45.333 -136 136v452h-190z" />
    <glyph glyph-name="afii57419" unicode="&#x62b;" horiz-adv-x="1761" arabic-form="isolated" 
d="M641 682h188v188h-188v-188zM934 682h188v188h-188v-188zM92 774v-432c0 -98.667 31.333 -180.667 94 -246c64 -64 142 -96 234 -96h1247v870h-189v-684h-1060c-90.667 0 -136 45.333 -136 136v452h-190zM788 973h187v186h-187v-186z" />
    <glyph glyph-name="afii57420" unicode="&#x62c;" horiz-adv-x="1032" arabic-form="isolated" 
d="M749 -399h187v188h-187v-188zM602 -211h-209c-75.333 0 -113 35.667 -113 107c0 69.333 38.333 104 115 104h541v545c0 90.667 -33 167.667 -99 231c-62.667 62.667 -143 94 -241 94h-336v-188h356c88.667 0 133 -45 133 -135v-361h-325c-140 0 -237.667 -49 -293 -147
c-26 -46 -39 -93.667 -39 -143c0 -124 52 -211 156 -261c46 -22.667 112.667 -34 200 -34h154v188z" />
    <glyph glyph-name="afii57421" unicode="&#x62d;" horiz-adv-x="1054" arabic-form="isolated" 
d="M936 -211h-543c-75.333 0 -113 35.667 -113 107c0 69.333 38.333 104 115 104h541v545c0 90.667 -33 167.667 -99 231c-62.667 62.667 -143 94 -241 94h-336v-188h356c88.667 0 133 -45 133 -135v-361h-325c-140 0 -237.667 -49 -293 -147c-26 -46 -39 -93.667 -39 -143
c0 -124 52 -211 156 -261c46 -22.667 112.667 -34 200 -34h488v188z" />
    <glyph glyph-name="afii57422" unicode="&#x62e;" horiz-adv-x="1032" arabic-form="isolated" 
d="M428 1135h188v186h-188v-186zM936 -211h-543c-75.333 0 -113 35.667 -113 107c0 69.333 38.333 104 115 104h541v545c0 90.667 -33 167.667 -99 231c-62.667 62.667 -143 94 -241 94h-336v-188h356c88.667 0 133 -45 133 -135v-361h-325c-140 0 -237.667 -49 -293 -147
c-26 -46 -39 -93.667 -39 -143c0 -124 52 -211 156 -261c46 -22.667 112.667 -34 200 -34h488v188z" />
    <glyph glyph-name="afii57423" unicode="&#x62f;" horiz-adv-x="911" arabic-form="isolated" 
d="M819 0v342c0 122 -22.667 219 -68 291c-100.667 158 -252.667 237 -456 237h-35v-188h25c230.667 0 346 -109.333 346 -328v-168h-539v-186h727z" />
    <glyph glyph-name="afii57424" unicode="&#x630;" horiz-adv-x="911" arabic-form="isolated" 
d="M819 0v342c0 122 -22.667 219 -68 291c-100.667 158 -252.667 237 -456 237h-35v-188h25c230.667 0 346 -109.333 346 -328v-168h-539v-186h727zM260 1135h186v186h-186v-186z" />
    <glyph glyph-name="afii57425" unicode="&#x631;" horiz-adv-x="540" arabic-form="isolated" 
d="M262 870v-875.999c0 -90.667 -24 -149.334 -72 -176.001c-36 -19.333 -79.667 -29 -131 -29h-8v-188h41c237.333 0 356 133 356 399v870h-186z" />
    <glyph glyph-name="afii57426" unicode="&#x632;" horiz-adv-x="540" arabic-form="isolated" 
d="M262 1135h186v186h-186v-186zM262 870v-875.999c0 -90.667 -24 -149.334 -72 -176.001c-36 -19.333 -79.667 -29 -131 -29h-8v-188h41c237.333 0 356 133 356 399v870h-186z" />
    <glyph glyph-name="afii57427" unicode="&#x633;" horiz-adv-x="2197" arabic-form="isolated" 
d="M92 -78c0 -214 112 -321 336 -321h332c81.333 0 152.333 25.667 213 77c59.333 51.333 90 114.333 92 189l2 133h1036v870h-186v-684h-332v521h-186v-521h-332v355h-187v-643c0 -72.667 -43 -109 -129 -109h-344c-84.667 0 -127 39.667 -127 119v633h-188v-619z" />
    <glyph glyph-name="afii57428" unicode="&#x634;" horiz-adv-x="2197" arabic-form="isolated" 
d="M1255 971h187v186h-187v-186zM1548 971h186v186h-186v-186zM92 -78c0 -214 112 -321 336 -321h332c81.333 0 152.333 25.667 213 77c59.333 51.333 90 114.333 92 189l2 133h1036v870h-186v-684h-332v521h-186v-521h-332v355h-187v-643c0 -72.667 -43 -109 -129 -109
h-344c-84.667 0 -127 39.667 -127 119v633h-188v-619zM1401 1260h188v188h-188v-188z" />
    <glyph glyph-name="afii57429" unicode="&#x635;" horiz-adv-x="1957" arabic-form="isolated" 
d="M1864 0l-0.000976562 544.999c0 90.667 -33 167.667 -99 231c-64.667 62.667 -145.667 94 -243 94h-642v-972c0 -72.667 -43 -109 -129 -109h-344c-84.667 0 -127 39.667 -127 119v633h-188v-619c0 -214 112 -321 336 -321h321c48.667 0 86.334 4 113.001 12
c46 16 89 44 129 84c50.667 54.667 76 141.334 76 260.001v43h797zM1067 185.999v496h477c87.333 0 131 -45 131 -135v-361h-608z" />
    <glyph glyph-name="afii57430" unicode="&#x636;" horiz-adv-x="1957" arabic-form="isolated" 
d="M1864 0l-0.000976562 544.999c0 90.667 -33 167.667 -99 231c-64.667 62.667 -145.667 94 -243 94h-642v-972c0 -72.667 -43 -109 -129 -109h-344c-84.667 0 -127 39.667 -127 119v633h-188v-619c0 -214 112 -321 336 -321h321c48.667 0 86.334 4 113.001 12
c46 16 89 44 129 84c50.667 54.667 76 141.334 76 260.001v43h797zM1266 1135h186v186h-186v-186zM1067 185.999v496h477c87.333 0 131 -45 131 -135v-361h-608z" />
    <glyph glyph-name="afii57431" unicode="&#x637;" horiz-adv-x="1462" arabic-form="isolated" 
d="M571 1321h-186v-1135h-293v-186h1278v545c0 90.667 -32.667 167.667 -98 231c-65.333 62.667 -147.333 94 -246 94h-455v451zM571 682h477c87.333 0 131 -45 131 -135v-361h-608v496z" />
    <glyph glyph-name="afii57432" unicode="&#x638;" horiz-adv-x="1462" arabic-form="isolated" 
d="M571 1321h-186v-1135h-293v-186h1278v545c0 90.667 -32.667 167.667 -98 231c-65.333 62.667 -147.333 94 -246 94h-455v451zM829 1135h187v186h-187v-186zM571 682h477c87.333 0 131 -45 131 -135v-361h-608v496z" />
    <glyph glyph-name="afii57433" unicode="&#x639;" horiz-adv-x="1054" arabic-form="isolated" 
d="M176 39c-24.667 -45.333 -36.999 -93 -36.999 -143c0 -124.667 51.333 -211.667 154 -261c48 -22.667 115.333 -34 202 -34h492v188h-549c-75.333 0 -113 35.667 -113 107c0 69.333 39 104 117 104h488v186h-201c-106.667 0 -181 21.333 -223 64
c-52 52 -78 113.333 -78 184c0 165.333 88 248 264 248h238v188h-252c-113.333 0 -206.333 -32 -279 -96c-102.667 -90 -154 -203.333 -154 -340c0 -90 33.667 -174.667 101 -254c-80.667 -39.333 -137.334 -86.333 -170.001 -141z" />
    <glyph glyph-name="afii57434" unicode="&#x63a;" horiz-adv-x="1007" arabic-form="isolated" 
d="M131 39c-26 -44 -39 -91.667 -39 -143c0 -124 52 -211 156 -261c46 -22.667 112.667 -34 200 -34h494v188h-549c-75.333 0 -113 35.667 -113 107c0 69.333 38.333 104 115 104h488v186h-201c-90.667 0 -155 13 -193 39c-70.667 46.667 -106 116.334 -106 209.001
c0 165.333 88 248 264 248h236v188h-252c-112 0 -204.333 -32 -277 -96c-102 -90 -153 -203.333 -153 -340c0 -90.667 32 -175.334 96 -254.001c-78 -38.667 -133.333 -85.667 -166 -141zM508 1135h188v186h-188v-186z" />
    <glyph glyph-name="afii57441" unicode="&#x641;" horiz-adv-x="1761" arabic-form="isolated" 
d="M1251 1135h189v186h-189v-186zM1667 870l-264 -0.000976562c-100 0 -175.333 -15.667 -226 -47c-116 -69.333 -174 -175.666 -174 -318.999c0 -107.333 53.333 -213.333 160 -318h-706c-13.333 0 -26 0.666992 -38 2l-26 2c-74 9.33301 -111 60 -111 152v432h-190v-432
c0 -98.667 31.333 -180.667 94 -246c64 -64 142 -96 234 -96h1247v870zM1481 200.999c-97.333 35.333 -170.667 83.667 -220 145c-43.333 56 -65 110.667 -65 164c0 92 38.333 147.333 115 166c20 4 52.667 6 98 6h72v-481z" />
    <glyph glyph-name="afii57442" unicode="&#x642;" horiz-adv-x="1159" arabic-form="isolated" 
d="M821 870c-114.667 0 -202.001 -25.667 -262.001 -77c-80.667 -70.667 -121 -163 -121 -277c0 -128.667 40.333 -240.667 121 -336c80.667 -93.333 187.667 -153.333 321 -180v-102c0 -72.667 -43 -109 -129 -109h-352c-79.333 0 -119 39.667 -119 119v633h-188v-619
c0 -214 112 -321 336 -321h332c56.667 0 108.334 12.333 155.001 37c100 54.667 150 148.667 150 282v950h-244zM494.999 1135h187v186h-187v-186zM787.999 1135h187v186h-187v-186zM877.999 186c-70 22 -130 64.333 -180 127c-47.333 64.667 -71 129.667 -71 195
c0 116 62 174 186 174h65v-496z" />
    <glyph glyph-name="afii57443" unicode="&#x643;" horiz-adv-x="1765" arabic-form="isolated" 
d="M1672 0v354.001c0 93.333 -33 170.666 -99 231.999c-62.667 62.667 -143 94 -241 94h-437v98l637 479h-309l-518 -387v-376h647c88.667 0 133 -46 133 -138v-170h-1067c-90 0 -135 45.333 -135 136v452h-191v-432c0 -98.667 31.333 -180.667 94 -246
c64.667 -64 142.667 -96 234 -96h1252z" />
    <glyph glyph-name="afii57444" unicode="&#x644;" horiz-adv-x="1159" arabic-form="isolated" 
d="M880 1321v-1423c0 -72.667 -43 -109 -129 -109h-344c-84.667 0 -127 39.667 -127 119v633h-188v-619c0 -214 112 -321 336 -321h332c92 0 169 32 231 96c50.667 54.667 76 141.334 76 260.001v1364h-187z" />
    <glyph glyph-name="afii57445" unicode="&#x645;" horiz-adv-x="919" arabic-form="isolated" 
d="M67 -588c110 10 195.333 53.667 256 131c49.333 66 74 156.333 74 271h86c97.333 0 178.333 31.333 243 94c66 61.333 99 139 99 233v729h-275c-97.333 0 -178.333 -31.333 -243 -94c-64.667 -64 -97 -142.333 -97 -235v-734c0 -114 -47.667 -182.667 -143 -206v-189z
M397 547c0 90 44.333 135 133 135h106v-543c0 -36.667 -13.333 -69 -40 -97s-57 -42 -91 -42h-108v547z" />
    <glyph glyph-name="afii57446" unicode="&#x646;" horiz-adv-x="1159" arabic-form="isolated" 
d="M880 870v-972.001c0 -72.667 -43 -109 -129 -109h-344c-84.667 0 -127 39.667 -127 119v633h-188v-619c0 -214 112 -321 336 -321h332c92 0 169 32 231 96c50.667 54.667 76 141.334 76 260.001v913h-187zM493 1135h187v186h-187v-186z" />
    <glyph glyph-name="afii57470" unicode="&#x647;" horiz-adv-x="974" arabic-form="isolated" 
d="M883 0l-0.000976562 870c-217.333 -10 -397.666 -94 -540.999 -252c-142 -158.667 -225.333 -364.667 -250 -618h791zM327.999 186c40 152 107.333 272.333 202 361c46 41.333 100 74 162 98v-459h-364z" />
    <glyph glyph-name="afii57448" unicode="&#x648;" horiz-adv-x="802" arabic-form="isolated" 
d="M434 870c-98.667 0 -180.666 -31.332 -245.999 -93.999c-64 -64 -96 -141 -96 -231v-219c0 -94 32 -172 96 -234c66 -61.333 148 -92 246 -92h86v-82c0 -33.333 -3.33301 -58 -10 -74c-16.667 -36.667 -50.334 -55 -101.001 -55h-317v-188h262c92 0 159 10.667 201 32
c26 13.333 53.333 35.333 82 66c48.667 59.333 73 131.666 73 216.999v954h-276zM414.001 186.001c-89.333 0 -134 46 -134 138v223c0 90 44.667 135 134 135h106v-496h-106z" />
    <glyph glyph-name="afii57449" unicode="&#x649;" horiz-adv-x="1159" arabic-form="isolated" 
d="M880 -102c0 -72.667 -43.001 -109 -129.001 -109h-352c-79.333 0 -119 39.667 -119 119v633h-188v-619c0 -214 112 -321 336 -321h332c56.667 0 108.334 12.333 155.001 37c100 54.667 150 148.667 150 282v266h-406v361c0 90 43.667 135 131 135h277v188h-254
c-97.333 0 -179.333 -31.333 -246 -94c-65.333 -63.333 -98 -140.333 -98 -231v-545h411v-102z" />
    <glyph glyph-name="afii57450" unicode="&#x64a;" horiz-adv-x="1159" arabic-form="isolated" 
d="M880 -102c0 -72.667 -43.001 -109 -129.001 -109h-352c-79.333 0 -119 39.667 -119 119v633h-188v-619c0 -214 112 -321 336 -321h332c56.667 0 108.334 12.333 155.001 37c100 54.667 150 148.667 150 282v266h-406v361c0 90 43.667 135 131 135h277v188h-254
c-97.333 0 -179.333 -31.333 -246 -94c-65.333 -63.333 -98 -140.333 -98 -231v-545h411v-102z" />
    <glyph glyph-name="afii57506" unicode="&#x67e;" horiz-adv-x="1761" arabic-form="isolated" 
d="M92 774v-432c0 -98.667 31.333 -180.667 94 -246c64 -64 142 -96 234 -96h1247v870h-189v-684h-1060c-90.667 0 -136 45.333 -136 136v452h-190zM833 -324v170h-168v-170h168zM1102 -324v170h-170v-170h170zM964 -571v168h-165v-168h165z" />
    <glyph glyph-name="afii57507" unicode="&#x686;" horiz-adv-x="1054" arabic-form="isolated" 
d="M622 -211h-229c-75.333 0 -113 35.667 -113 107c0 69.333 38.333 104 115 104h541v545c0 90.667 -33 167.667 -99 231c-62.667 62.667 -143 94 -241 94h-336v-188h356c88.667 0 133 -45 133 -135v-361h-325c-140 0 -237.667 -49 -293 -147c-26 -46 -39 -93.667 -39 -143
c0 -124 52 -211 156 -261c46 -22.667 112.667 -34 200 -34h174v188zM942 -154h-105v-102h105v102zM794 -154h-102v-102h102v102zM868 -301h-104v-102h104v102z" />
    <glyph glyph-name="afii57508" unicode="&#x698;" horiz-adv-x="620" arabic-form="isolated" 
d="M343 870v-875.999c0 -90.667 -24 -149.334 -72 -176.001c-36 -19.333 -79.667 -29 -131 -29h-8v-188h41c237.333 0 356 133 356 399v870h-186zM82 1135h186v186h-186v-186zM375 1135h186v186h-186v-186zM227 1427h189v187h-189v-187z" />
    <glyph glyph-name="afii57509" unicode="&#x6af;" horiz-adv-x="1765" arabic-form="isolated" 
d="M1672 0v354.001c0 93.333 -33 170.666 -99 231.999c-62.667 62.667 -143 94 -241 94h-437v98l637 479h-309l-518 -387v-376h647c88.667 0 133 -46 133 -138v-170h-1067c-90 0 -135 45.333 -135 136v452h-191v-432c0 -98.667 31.333 -180.667 94 -246
c64.667 -64 142.667 -96 234 -96h1252zM706 986.001l399 300h-150l-249 -194v-106z" />
    <glyph glyph-name="uniFB57" unicode="&#x67e;" horiz-adv-x="1667" arabic-form="final" 
d="M1681 186h-14v684h-186v-684h-1063c-90.667 0 -136 45.333 -136 136v452h-190v-432c0 -98.667 31.333 -180.667 94 -246c64 -64 142 -96 234 -96h1261v186zM833 -324v170h-168v-170h168zM1102 -324v170h-170v-170h170zM964 -571v168h-165v-168h165z" />
    <glyph glyph-name="uniFB58" unicode="&#x67e;" horiz-adv-x="671" arabic-form="initial" 
d="M0 0h580v870h-191v-684h-389v-186zM311 -324v170h-168v-170h168zM580 -324v170h-170v-170h170zM444 -571v168h-170v-168h170z" />
    <glyph glyph-name="uniFB59" unicode="&#x67e;" horiz-adv-x="579" arabic-form="medial" 
d="M592 186h-12v684h-191v-684h-389v-186h592v186zM311 -324v170h-168v-170h168zM580 -324v170h-170v-170h170zM444 -571v168h-170v-168h170z" />
    <glyph glyph-name="uniFB7B" unicode="&#x686;" horiz-adv-x="942" arabic-form="final" 
d="M950 186h-14v359c0 90.667 -33 167.667 -99 231c-62.667 62.667 -143 94 -241 94h-336v-188h356c88.667 0 133 -45 133 -135v-361h-325c-140 0 -237.667 -49 -293 -147c-26 -46 -39 -93.667 -39 -143c0 -124 52 -211 156 -261c46 -22.667 112.667 -34 200 -34h174v188
h-229c-75.333 0 -113 35.667 -113 107c0 69.333 38.333 104 115 104h555v186zM942 -154h-105v-102h105v102zM794 -154h-102v-102h102v102zM868 -301h-104v-102h104v102z" />
    <glyph glyph-name="uniFB7C" unicode="&#x686;" horiz-adv-x="1073" arabic-form="initial" 
d="M981 0l-0.000976562 545c0 91.333 -33.333 168.333 -100 231c-65.333 62.667 -146.666 94 -243.999 94h-336v-188h358c89.333 0 134 -45 134 -135v-361h-793v-186h981zM515.999 -379v168h-170v-168h170zM783.999 -379v168h-168v-168h168zM648.999 -629v166h-170v-166h170
z" />
    <glyph glyph-name="uniFB7D" unicode="&#x686;" horiz-adv-x="980" arabic-form="medial" 
d="M993 0l-0.000976562 186h-12v359c0 91.333 -33.333 168.333 -100 231c-65.333 62.667 -146.666 94 -243.999 94h-336v-188h358c89.333 0 134 -45 134 -135v-361h-793v-186h993zM515.999 -379v168h-170v-168h170zM783.999 -379v168h-168v-168h168zM648.999 -629v166h-170
v-166h170z" />
    <glyph glyph-name="uniFB8B" unicode="&#x698;" horiz-adv-x="545" arabic-form="final" 
d="M559 0v186.001h-17v684h-186v-876c0 -90.667 -24 -149.334 -72 -176.001c-36 -19.333 -79.667 -29 -131 -29h-8v-188h41c237.333 0 356 133 356 399h17zM125 1135h186v186h-186v-186zM418 1135h186v186h-186v-186zM270 1427h189v187h-189v-187z" />
    <glyph glyph-name="uniFB8F" unicode="&#x6a9;" horiz-adv-x="1675" arabic-form="final" 
d="M1688 0v186.001h-12v168c0 93.333 -33.667 170.666 -101 231.999c-64.667 62.667 -145 94 -241 94h-439v98l637 479h-309l-516 -387v-376h647c88.667 0 133 -46 133 -138v-170h-1069c-90 0 -135 45.333 -135 136v452h-191v-432c0 -98.667 31.333 -180.667 94 -246
c64.667 -64 142.667 -96 234 -96h1268z" />
    <glyph glyph-name="uniFB90" unicode="&#x6a9;" horiz-adv-x="1355" arabic-form="initial" 
d="M1262 354c0 93.333 -33 170.667 -99 232c-62.667 62.667 -143 94 -241 94h-437v98l637 479h-309l-518 -387v-376h647c88.667 0 133 -46 133 -138v-170h-1075v-186h1262v354z" />
    <glyph glyph-name="uniFB91" unicode="&#x6a9;" horiz-adv-x="1265" arabic-form="medial" 
d="M1278 186l-12 0.000976562v168c0 93.333 -33.667 170.666 -101 231.999c-64.667 62.667 -145 94 -241 94h-439v98l637 479h-309l-516 -387v-376h647c88.667 0 133 -46 133 -138v-170h-1077v-186h1278v186z" />
    <glyph glyph-name="uniFB93" unicode="&#x6af;" horiz-adv-x="1675" arabic-form="final" 
d="M1688 0v186.001h-12v168c0 93.333 -33.667 170.666 -101 231.999c-64.667 62.667 -145 94 -241 94h-439v98l637 479h-309l-516 -387v-376h647c88.667 0 133 -46 133 -138v-170h-1069c-90 0 -135 45.333 -135 136v452h-191v-432c0 -98.667 31.333 -180.667 94 -246
c64.667 -64 142.667 -96 234 -96h1268zM706 986.001l399 300h-150l-249 -194v-106z" />
    <glyph glyph-name="uniFB94" unicode="&#x6af;" horiz-adv-x="1355" arabic-form="initial" 
d="M295 494l647 0.000976562c88.667 0 133 -46 133 -138v-170h-1075v-186h1262v354c0 93.333 -33 170.666 -99 231.999c-62.667 62.667 -143 94 -241 94h-437v98l637 479h-309l-518 -387v-376zM296 986.001l399 300h-150l-249 -194v-106z" />
    <glyph glyph-name="uniFB95" unicode="&#x6af;" horiz-adv-x="1265" arabic-form="medial" 
d="M1278 186l-12 0.000976562v168c0 93.333 -33.667 170.666 -101 231.999c-64.667 62.667 -145 94 -241 94h-439v98l637 479h-309l-516 -387v-376h647c88.667 0 133 -46 133 -138v-170h-1077v-186h1278v186zM296 986.001l399 300h-150l-249 -194v-106z" />
    <glyph glyph-name="uniFBA5" unicode="&#x6c0;" horiz-adv-x="884" arabic-form="final" 
d="M280 0c15.333 87.333 32.668 158.334 52.001 213.001c16.667 55.333 41.667 110.666 75 165.999c71.333 124 152.666 207.333 243.999 250c8 1.33301 23.667 6.66602 47 15.999v-645h201v186h-14v684c-211.333 -10 -390.333 -94.667 -537 -254
c-144 -155.333 -229.333 -360.666 -256 -615.999h188zM379.002 985.001c-44 0 -66 21.666 -66 64.999c0 50.667 23.333 76 70 76h72v76h-66c-98 0 -147 -49 -147 -147c0 -23.333 7.33301 -46.666 22 -69.999h-63v-78h291v78h-113z" />
    <glyph glyph-name="uniFBFD" unicode="&#x6cc;" horiz-adv-x="1064" arabic-form="final" 
d="M880 -102c0 -72.667 -42.999 -109 -128.999 -109h-352c-79.333 0 -119 39.667 -119 119v633h-188v-619c0 -214 112 -321 336 -321h332c45.333 0 81.333 4.66699 108 14c51.333 18.667 93.666 46.667 126.999 84c46.667 52.667 70 110 70 172l2 129h14v186h-436v-186h235
v-102z" />
    <glyph glyph-name="uniFBFE" unicode="&#x6cc;" horiz-adv-x="716" arabic-form="initial" 
d="M434 -399h189v188h-189v-188zM143 -399h189v188h-189v-188zM0 0h621v870h-187v-684h-434v-186z" />
    <glyph glyph-name="uniFBFF" unicode="&#x6cc;" horiz-adv-x="620" arabic-form="medial" 
d="M434 -399h187v188h-187v-188zM141 -399h187v188h-187v-188zM621 870h-187v-684h-434v-186h633v186h-12v684z" />
    <glyph glyph-name="uniFE82" unicode="&#x622;" horiz-adv-x="280" arabic-form="final" 
d="M280 186v1135h-188v-1321h200v186h-12zM296 1558c-17.333 -20 -34.999 -30 -52.999 -30c-14.667 0 -45 11 -91 33c-28 13.333 -53 20 -75 20c-28.667 0 -51.334 -7.66699 -68.001 -23l-76 -70l76 -81l28 27c20 23.333 38.667 35 56 35c16 0 45.333 -12.667 88 -38
c34.667 -16 60 -24 76 -24c28 0 50.667 9 68 27l77 74l-77 73z" />
    <glyph glyph-name="uniFE84" unicode="&#x623;" horiz-adv-x="280" arabic-form="final" 
d="M280 186v1135h-189v-1321h201v186h-12zM220 1544c-46 0 -69 21.999 -69 65.999c0 48.667 23.667 73 71 73h72v78h-64c-99.333 0 -149 -49 -149 -147c0 -25.333 6.66699 -48.666 20 -69.999h-61v-80h291v80h-111z" />
    <glyph glyph-name="uniFE86" unicode="&#x624;" horiz-adv-x="710" arabic-form="final" 
d="M434 870c-98.667 0 -180.667 -31.332 -246 -93.999c-64 -64 -96 -141 -96 -231v-219c0 -94 32 -172 96 -234c66 -61.333 148 -92 246 -92h86v-82c0 -53.333 -12.333 -88 -37 -104c-18 -16.667 -42.667 -25 -74 -25h-317v-188h262c92 0 159 10.667 201 32
c28.667 13.333 56 35.333 82 66c48.667 59.333 73 131.666 73 216.999v84h13v186h-13v684h-276zM436 1104c-46.667 0 -70 21.666 -70 64.999c0 50.667 24 76 72 76h72v76h-64c-99.333 0 -149 -49 -149 -147c0 -21.333 6.66699 -44.666 20 -69.999h-61v-78h291v78h-111z
M414 186c-89.333 0 -134 46 -134 138v223c0 90 44.667 135 134 135h106v-496h-106z" />
    <glyph glyph-name="uniFE88" unicode="&#x625;" horiz-adv-x="282" arabic-form="final" 
d="M280 186v1135h-189v-1321h201v186h-12zM222 -432c-46 0 -69 22.332 -69 66.999c0 49.333 23 74 69 74h72v78h-61c-100 0 -150 -49.667 -150 -149c0 -25.333 6.66699 -48.666 20 -69.999h-63v-76h293v76h-111z" />
    <glyph glyph-name="uniFE8A" unicode="&#x626;" horiz-adv-x="1064" arabic-form="final" 
d="M880 -102c0 -72.667 -42.999 -109 -128.999 -109h-353c-78.667 0 -118 39.667 -118 119v620h-189v-606c0 -214 112 -321 336 -321h332c45.333 0 81.333 4.66699 108 14c51.333 18.667 93.666 46.667 126.999 84c46.667 52.667 70 110 70 172l2 129h14v186h-436v-186h236
v-102zM220.001 762c-44.667 0 -67 21 -67 63c0 50.667 23 76 69 76h72v80h-64c-99.333 0 -149 -50 -149 -150c0 -22.667 7.33301 -45.667 22 -69h-63v-80h291v80h-111z" />
    <glyph glyph-name="uniFE8B" unicode="&#x626;" horiz-adv-x="579" arabic-form="initial" 
d="M0 0h487v870h-186v-684h-301v-186zM428 1104c-46.667 0 -70 21.666 -70 64.999c0 50.667 24.667 76 74 76h72v76h-66c-98 0 -147 -49 -147 -147c0 -21.333 6.66699 -44.666 20 -69.999h-61v-78h289v78h-111z" />
    <glyph glyph-name="uniFE8C" unicode="&#x626;" horiz-adv-x="493" arabic-form="medial" 
d="M487 870h-186v-684h-301v-186h500v186h-13v684zM432 1104c-46.667 0 -70 21.666 -70 64.999c0 50.667 23.333 76 70 76h72v76h-66c-98 0 -147 -49 -147 -147c0 -23.333 7.33301 -46.666 22 -69.999h-63v-78h291v78h-109z" />
    <glyph glyph-name="uniFE8E" unicode="&#x627;" horiz-adv-x="280" arabic-form="final" 
d="M280 186v1135h-188v-1321h201v186h-13z" />
    <glyph glyph-name="uniFE90" unicode="&#x628;" horiz-adv-x="1667" arabic-form="final" 
d="M1681 186h-14v684h-186v-684h-1063c-90.667 0 -136 45.333 -136 136v452h-190v-432c0 -98.667 31.333 -180.667 94 -246c64 -64 142 -96 234 -96h1261v186zM790 -399h187v188h-187v-188z" />
    <glyph glyph-name="uniFE91" unicode="&#x628;" horiz-adv-x="579" arabic-form="initial" 
d="M301 -399h186v188h-186v-188zM0 0h487v870h-186v-684h-301v-186z" />
    <glyph glyph-name="uniFE92" unicode="&#x628;" horiz-adv-x="487" arabic-form="medial" 
d="M301 -399h186v188h-186v-188zM487 870h-186v-684h-301v-186h500v186h-13v684z" />
    <glyph glyph-name="uniFE96" unicode="&#x62a;" horiz-adv-x="1667" arabic-form="final" 
d="M1681 186h-14v684h-186v-684h-1063c-90.667 0 -136 45.333 -136 136v452h-190v-432c0 -98.667 31.333 -180.667 94 -246c64 -64 142 -96 234 -96h1261v186zM641 682h188v188h-188v-188zM934 682h188v188h-188v-188z" />
    <glyph glyph-name="uniFE97" unicode="&#x62a;" horiz-adv-x="712" arabic-form="initial" 
d="M0 0h621v870h-187v-684h-434v-186zM141 1135h187v186h-187v-186zM434 1135h187v186h-187v-186z" />
    <glyph glyph-name="uniFE98" unicode="&#x62a;" horiz-adv-x="620" arabic-form="medial" 
d="M621 870h-187v-684h-434v-186h633v186h-12v684zM141 1135h187v186h-187v-186zM434 1135h187v186h-187v-186z" />
    <glyph glyph-name="uniFE9A" unicode="&#x62b;" horiz-adv-x="1667" arabic-form="final" 
d="M1681 186h-14v684h-186v-684h-1063c-90.667 0 -136 45.333 -136 136v452h-190v-432c0 -98.667 31.333 -180.667 94 -246c64 -64 142 -96 234 -96h1261v186zM641 682h188v188h-188v-188zM934 682h188v188h-188v-188zM784 973h191v186h-191v-186z" />
    <glyph glyph-name="uniFE9B" unicode="&#x62b;" horiz-adv-x="712" arabic-form="initial" 
d="M0 0h621v870h-187v-684h-434v-186zM141 1135h187v186h-187v-186zM434 1135h187v186h-187v-186zM287 1427h188v187h-188v-187z" />
    <glyph glyph-name="uniFE9C" unicode="&#x62b;" horiz-adv-x="647" arabic-form="medial" 
d="M647 870h-188v-684h-459v-186h662v186h-15v684zM166 1135h190v186h-190v-186zM459 1135h188v186h-188v-186zM313 1427h187v187h-187v-187z" />
    <glyph glyph-name="uniFE9E" unicode="&#x62c;" horiz-adv-x="942" arabic-form="final" 
d="M749 -399h187v188h-187v-188zM602 -211h-209c-75.333 0 -113 35.667 -113 107c0 69.333 38.333 104 115 104h555v186h-14v359c0 90.667 -33 167.667 -99 231c-62.667 62.667 -143 94 -241 94h-336v-188h356c88.667 0 133 -45 133 -135v-361h-325
c-140 0 -237.667 -49 -293 -147c-26 -46 -39 -93.667 -39 -143c0 -124 52 -211 156 -261c46 -22.667 112.667 -34 200 -34h154v188z" />
    <glyph glyph-name="uniFE9F" unicode="&#x62c;" horiz-adv-x="1073" arabic-form="initial" 
d="M981 0l-0.000976562 545c0 91.333 -33.333 168.333 -100 231c-65.333 62.667 -146.666 94 -243.999 94h-336v-188h358c89.333 0 134 -45 134 -135v-361h-793v-186h981zM468.999 -399h190v188h-190v-188z" />
    <glyph glyph-name="uniFEA0" unicode="&#x62c;" horiz-adv-x="980" arabic-form="medial" 
d="M993 0l-0.000976562 186h-12v359c0 91.333 -33.333 168.333 -100 231c-65.333 62.667 -146.666 94 -243.999 94h-336v-188h358c89.333 0 134 -45 134 -135v-361h-793v-186h993zM468.999 -399h190v188h-190v-188z" />
    <glyph glyph-name="uniFEA2" unicode="&#x62d;" horiz-adv-x="942" arabic-form="final" 
d="M950 186h-14v359c0 90.667 -33 167.667 -99 231c-62.667 62.667 -143 94 -241 94h-336v-188h356c88.667 0 133 -45 133 -135v-361h-325c-140 0 -237.667 -49 -293 -147c-26 -46 -39 -93.667 -39 -143c0 -124 52 -211 156 -261c46 -22.667 112.667 -34 200 -34h488v188
h-543c-75.333 0 -113 35.667 -113 107c0 69.333 38.333 104 115 104h555v186z" />
    <glyph glyph-name="uniFEA3" unicode="&#x62d;" horiz-adv-x="1073" arabic-form="initial" 
d="M981 0l-0.000976562 545c0 91.333 -33.333 168.333 -100 231c-65.333 62.667 -146.666 94 -243.999 94h-336v-188h358c89.333 0 134 -45 134 -135v-361h-793v-186h981z" />
    <glyph glyph-name="uniFEA4" unicode="&#x62d;" horiz-adv-x="980" arabic-form="medial" 
d="M993 0l-0.000976562 186h-12v359c0 91.333 -33.333 168.333 -100 231c-65.333 62.667 -146.666 94 -243.999 94h-336v-188h358c89.333 0 134 -45 134 -135v-361h-793v-186h993z" />
    <glyph glyph-name="uniFEA6" unicode="&#x62e;" horiz-adv-x="942" arabic-form="final" 
d="M428 1135h188v186h-188v-186zM950 186h-14v359c0 90.667 -33 167.667 -99 231c-62.667 62.667 -143 94 -241 94h-336v-188h356c88.667 0 133 -45 133 -135v-361h-325c-140 0 -237.667 -49 -293 -147c-26 -46 -39 -93.667 -39 -143c0 -124 52 -211 156 -261
c46 -22.667 112.667 -34 200 -34h488v188h-543c-75.333 0 -113 35.667 -113 107c0 69.333 38.333 104 115 104h555v186z" />
    <glyph glyph-name="uniFEA7" unicode="&#x62e;" horiz-adv-x="1073" arabic-form="initial" 
d="M981 0l-0.000976562 545c0 91.333 -33.333 168.333 -100 231c-65.333 62.667 -146.666 94 -243.999 94h-336v-188h358c89.333 0 134 -45 134 -135v-361h-793v-186h981zM468.999 1135h190v186h-190v-186z" />
    <glyph glyph-name="uniFEA8" unicode="&#x62e;" horiz-adv-x="980" arabic-form="medial" 
d="M993 0l-0.000976562 186h-12v359c0 91.333 -33.333 168.333 -100 231c-65.333 62.667 -146.666 94 -243.999 94h-336v-188h358c89.333 0 134 -45 134 -135v-361h-793v-186h993zM468.999 1135h190v186h-190v-186z" />
    <glyph glyph-name="uniFEAA" unicode="&#x62f;" horiz-adv-x="819" arabic-form="final" 
d="M831 0v186h-12v156c0 122 -22.667 219 -68 291c-100.667 158 -252.667 237 -456 237h-35v-188h25c230.667 0 346 -109.333 346 -328v-168h-539v-186h739z" />
    <glyph glyph-name="uniFEAC" unicode="&#x630;" horiz-adv-x="819" arabic-form="final" 
d="M260 1135h186v186h-186v-186zM831 0v186h-12v156c0 122 -22.667 219 -68 291c-100.667 158 -252.667 237 -456 237h-35v-188h25c230.667 0 346 -109.333 346 -328v-168h-539v-186h739z" />
    <glyph glyph-name="uniFEAE" unicode="&#x631;" horiz-adv-x="452" arabic-form="final" 
d="M465 0v186.001h-17v684h-186v-876c0 -90.667 -24 -149.334 -72 -176.001c-36 -19.333 -79.667 -29 -131 -29h-8v-188h41c237.333 0 356 133 356 399h17z" />
    <glyph glyph-name="uniFEB0" unicode="&#x632;" horiz-adv-x="452" arabic-form="final" 
d="M262 1135h186v186h-186v-186zM465 0v186.001h-17v684h-186v-876c0 -90.667 -24 -149.334 -72 -176.001c-36 -19.333 -79.667 -29 -131 -29h-8v-188h41c237.333 0 356 133 356 399h17z" />
    <glyph glyph-name="uniFEB2" unicode="&#x633;" horiz-adv-x="2103" arabic-form="final" 
d="M2117 0v185.999h-14v684h-186v-684h-332v521h-186v-521h-332v355h-187v-643c0 -72.667 -43 -109 -129 -109h-344c-84.667 0 -127 39.667 -127 119v633h-188v-619c0 -214 112 -321 336 -321h332c92 0 169 32 231 96c50.667 54.667 76 141.334 76 260.001v43h1050z" />
    <glyph glyph-name="uniFEB3" unicode="&#x633;" horiz-adv-x="1953" arabic-form="initial" 
d="M823 541h-186v-355h-637v-186h1860v870h-187v-684h-332v521h-186v-521h-332v355z" />
    <glyph glyph-name="uniFEB4" unicode="&#x633;" horiz-adv-x="1859" arabic-form="medial" 
d="M823 541h-186v-355h-637v-186h1874v186h-14v684h-187v-684h-332v521h-186v-521h-332v355z" />
    <glyph glyph-name="uniFEB6" unicode="&#x634;" horiz-adv-x="2103" arabic-form="final" 
d="M1255 971h187v186h-187v-186zM1548 971h186v186h-186v-186zM2117 0v185.999h-14v684h-186v-684h-332v521h-186v-521h-332v355h-187v-643c0 -72.667 -43 -109 -129 -109h-344c-84.667 0 -127 39.667 -127 119v633h-188v-619c0 -214 112 -321 336 -321h332
c92 0 169 32 231 96c50.667 54.667 76 141.334 76 260.001v43h1050zM1401 1260h188v190h-188v-190z" />
    <glyph glyph-name="uniFEB7" unicode="&#x634;" horiz-adv-x="1953" arabic-form="initial" 
d="M823 541h-186v-355h-637v-186h1860v870h-187v-684h-332v521h-186v-521h-332v355zM1014 971h186v186h-186v-186zM1307 971h186v186h-186v-186zM1159 1260h189v190h-189v-190z" />
    <glyph glyph-name="uniFEB8" unicode="&#x634;" horiz-adv-x="1859" arabic-form="medial" 
d="M823 541h-186v-355h-637v-186h1874v186h-14v684h-187v-684h-332v521h-186v-521h-332v355zM1014 971h186v186h-186v-186zM1307 971h186v186h-186v-186zM1159 1260h189v190h-189v-190z" />
    <glyph glyph-name="uniFEBA" unicode="&#x635;" horiz-adv-x="1863" arabic-form="final" 
d="M1878 0l-0.000976562 185.999h-14v359c0 90.667 -33 167.667 -99 231c-64.667 62.667 -145.667 94 -243 94h-642v-972c0 -72.667 -43 -109 -129 -109h-344c-84.667 0 -127 39.667 -127 119v633h-188v-619c0 -214 112 -321 336 -321h321c48.667 0 86.334 4 113.001 12
c46 16 89 44 129 84c50.667 54.667 76 141.334 76 260.001v43h811zM1067 185.999v496h477c87.333 0 131 -45 131 -135v-361h-608z" />
    <glyph glyph-name="uniFEBB" unicode="&#x635;" horiz-adv-x="1724" arabic-form="initial" 
d="M0 186v-186h1632v545c0 90.667 -32.667 167.667 -98 231c-62.667 62.667 -144 94 -244 94h-643v-684h-164v400h-188v-400h-295zM836 682h475c88.667 0 133 -45 133 -135v-361h-608v496z" />
    <glyph glyph-name="uniFEBC" unicode="&#x635;" horiz-adv-x="1632" arabic-form="medial" 
d="M0 186v-186h1645v186h-13v359c0 90.667 -32.667 167.667 -98 231c-62.667 62.667 -144 94 -244 94h-643v-684h-164v400h-188v-400h-295zM836 682h475c88.667 0 133 -45 133 -135v-361h-608v496z" />
    <glyph glyph-name="uniFEBE" unicode="&#x636;" horiz-adv-x="1863" arabic-form="final" 
d="M1878 0l-0.000976562 185.999h-14v359c0 90.667 -33 167.667 -99 231c-64.667 62.667 -145.667 94 -243 94h-642v-972c0 -72.667 -43 -109 -129 -109h-344c-84.667 0 -127 39.667 -127 119v633h-188v-619c0 -214 112 -321 336 -321h321c48.667 0 86.334 4 113.001 12
c46 16 89 44 129 84c50.667 54.667 76 141.334 76 260.001v43h811zM1266 1135h186v186h-186v-186zM1067 185.999v496h477c87.333 0 131 -45 131 -135v-361h-608z" />
    <glyph glyph-name="uniFEBF" unicode="&#x636;" horiz-adv-x="1724" arabic-form="initial" 
d="M0 186v-186h1632v545c0 90.667 -32.667 167.667 -98 231c-62.667 62.667 -144 94 -244 94h-643v-684h-164v400h-188v-400h-295zM934 1135h188v186h-188v-186zM836 682h475c88.667 0 133 -45 133 -135v-361h-608v496z" />
    <glyph glyph-name="uniFEC0" unicode="&#x636;" horiz-adv-x="1632" arabic-form="medial" 
d="M0 186v-186h1645v186h-13v359c0 90.667 -32.667 167.667 -98 231c-62.667 62.667 -144 94 -244 94h-643v-684h-164v400h-188v-400h-295zM934 1135h188v186h-188v-186zM836 682h475c88.667 0 133 -45 133 -135v-361h-608v496z" />
    <glyph glyph-name="uniFEC2" unicode="&#x637;" horiz-adv-x="1370" arabic-form="final" 
d="M571 1321h-186v-1135h-293v-186h1290v186h-12v359c0 90.667 -32.667 167.667 -98 231c-65.333 62.667 -147.333 94 -246 94h-455v451zM571 682h477c87.333 0 131 -45 131 -135v-361h-608v496z" />
    <glyph glyph-name="uniFEC3" unicode="&#x637;" horiz-adv-x="1370" arabic-form="initial" 
d="M479 1321h-186v-1135h-293v-186h1278v545c0 90.667 -32.667 167.667 -98 231c-65.333 62.667 -147.333 94 -246 94h-455v451zM479 682h477c87.333 0 131 -45 131 -135v-361h-608v496z" />
    <glyph glyph-name="uniFEC4" unicode="&#x637;" horiz-adv-x="1277" arabic-form="medial" 
d="M479 1321h-186v-1135h-293v-186h1290v186h-12v359c0 90.667 -32.667 167.667 -98 231c-65.333 62.667 -147.333 94 -246 94h-455v451zM479 682h477c87.333 0 131 -45 131 -135v-361h-608v496z" />
    <glyph glyph-name="uniFEC6" unicode="&#x638;" horiz-adv-x="1370" arabic-form="final" 
d="M571 1321h-186v-1135h-293v-186h1290v186h-12v359c0 90.667 -32.667 167.667 -98 231c-65.333 62.667 -147.333 94 -246 94h-455v451zM829 1135h187v186h-187v-186zM571 682h477c87.333 0 131 -45 131 -135v-361h-608v496z" />
    <glyph glyph-name="uniFEC7" unicode="&#x638;" horiz-adv-x="1370" arabic-form="initial" 
d="M479 1321h-186v-1135h-293v-186h1278v545c0 90.667 -32.667 167.667 -98 231c-65.333 62.667 -147.333 94 -246 94h-455v451zM737 1135h187v186h-187v-186zM479 682h477c87.333 0 131 -45 131 -135v-361h-608v496z" />
    <glyph glyph-name="uniFEC8" unicode="&#x638;" horiz-adv-x="1277" arabic-form="medial" 
d="M479 1321h-186v-1135h-293v-186h1290v186h-12v359c0 90.667 -32.667 167.667 -98 231c-65.333 62.667 -147.333 94 -246 94h-455v451zM737 1135h187v186h-187v-186zM479 682h477c87.333 0 131 -45 131 -135v-361h-608v496z" />
    <glyph glyph-name="uniFECA" unicode="&#x639;" horiz-adv-x="899" arabic-form="final" 
d="M446 205c-238.667 -20.667 -358 -123.669 -358 -309.002c0 -134 54.667 -224.333 164 -271c36.667 -16 100.667 -24 192 -24h486v188h-527c-86 0 -129 36.333 -129 109c0 50 24 83.333 72 100l33 4c6.66699 0.666992 12.334 1.33398 17.001 2.00098
c7.33301 0.666992 14 1.33398 20 2.00098c53.333 4.66699 97 19.667 131 45c54 -34 120.667 -51 200 -51h164v186h-223l31 37c75.333 88 125.666 172.667 150.999 254c15.333 49.333 23 98 23 146c0 164.667 -111.333 247 -334 247c-64 0 -145.333 -5.33301 -244 -16
l-104 -256c103.333 -74.667 174.333 -179.667 213 -315zM428 669.998c40.667 6.66699 78.333 9.99902 113 9.99902c103.333 0 155 -35 155 -105c0 -53.333 -35.333 -129.666 -106 -228.999c-22.667 126 -76.667 234 -162 324z" />
    <glyph glyph-name="uniFECB" unicode="&#x639;" horiz-adv-x="1075" arabic-form="initial" 
d="M983 0v186h-201c-107.333 0 -182.333 21.333 -225 64c-52 52 -78 113.333 -78 184c0 165.333 89.667 248 269 248h94v188h-113c-112 0 -204 -32 -276 -96c-104 -87.333 -156 -200 -156 -338c0 -88.667 30.667 -172 92 -250h-389v-186h983z" />
    <glyph glyph-name="uniFECC" unicode="&#x639;" horiz-adv-x="960" arabic-form="medial" 
d="M274 598c44 -29.333 81.001 -67 111.001 -113c18 -26 37 -58 57 -96c22 -42 44.667 -102.667 68 -182c-23.333 -14 -53.333 -21 -90 -21h-420v-186h367c79.333 0 136.666 4 171.999 12c18.667 6.66699 41.667 19.667 69 39c39.333 -22.667 70 -37 92 -43
c22 -5.33301 65.667 -8 131 -8h142v186h-221l30 37c75.333 88 126 172.667 152 254c18 49.333 27 98 27 146c0 164.667 -112.667 247 -338 247c-64 0 -144 -5.33301 -240 -16zM494.001 670c40.667 6.66699 78.001 10 112.001 10c102.667 0 154 -35 154 -105
c0 -52 -35 -128.333 -105 -229c-24.667 128.667 -78.334 236.667 -161.001 324z" />
    <glyph glyph-name="uniFECE" unicode="&#x63a;" horiz-adv-x="901" arabic-form="final" 
d="M446 205c-238.667 -20.667 -358 -123.669 -358 -309.002c0 -134 54.667 -224.333 164 -271c36.667 -16 100.667 -24 192 -24h486v188h-527c-86 0 -129 36.333 -129 109c0 50 24 83.333 72 100l33 4c6.66699 0.666992 12.334 1.33398 17.001 2.00098
c7.33301 0.666992 14 1.33398 20 2.00098c53.333 4.66699 97 19.667 131 45c54 -34 120.667 -51 200 -51h164v186h-223l31 37c75.333 88 125.666 172.667 150.999 254c15.333 49.333 23 98 23 146c0 164.667 -111.333 247 -334 247c-64 0 -145.333 -5.33301 -244 -16
l-104 -256c103.333 -74.667 174.333 -179.667 213 -315zM508 1135h190v186h-190v-186zM428 669.998c40.667 6.66699 78.333 9.99902 113 9.99902c103.333 0 155 -35 155 -105c0 -53.333 -35.333 -129.666 -106 -228.999c-22.667 126 -76.667 234 -162 324z" />
    <glyph glyph-name="uniFECF" unicode="&#x63a;" horiz-adv-x="1075" arabic-form="initial" 
d="M504 1135h188v186h-188v-186zM983 0v186h-201c-107.333 0 -182.333 21.333 -225 64c-52 52 -78 113.333 -78 184c0 165.333 89.667 248 269 248h94v188h-113c-112 0 -204 -32 -276 -96c-104 -87.333 -156 -200 -156 -338c0 -88.667 30.667 -172 92 -250h-389v-186h983z
" />
    <glyph glyph-name="uniFED0" unicode="&#x63a;" horiz-adv-x="960" arabic-form="medial" 
d="M571 1135h189v186h-189v-186zM274 598c44 -29.333 81.001 -67 111.001 -113c18 -26 37 -58 57 -96c22 -42 44.667 -102.667 68 -182c-23.333 -14 -53.333 -21 -90 -21h-420v-186h367c79.333 0 136.666 4 171.999 12c18.667 6.66699 41.667 19.667 69 39
c39.333 -22.667 70 -37 92 -43c22 -5.33301 65.667 -8 131 -8h142v186h-221l30 37c75.333 88 126 172.667 152 254c18 49.333 27 98 27 146c0 164.667 -112.667 247 -338 247c-64 0 -144 -5.33301 -240 -16zM494.001 670c40.667 6.66699 78.001 10 112.001 10
c102.667 0 154 -35 154 -105c0 -52 -35 -128.333 -105 -229c-24.667 128.667 -78.334 236.667 -161.001 324z" />
    <glyph glyph-name="uniFED2" unicode="&#x641;" horiz-adv-x="1667" arabic-form="final" 
d="M1251 1135h189v186h-189v-186zM1667 870l-264 -0.000976562c-100 0 -175.333 -15.667 -226 -47c-116 -69.333 -174 -175.666 -174 -318.999c0 -107.333 53.333 -213.333 160 -318h-706c-13.333 0 -26 0.666992 -38 2l-26 2c-74 9.33301 -111 60 -111 152v432h-190v-432
c0 -98.667 31.333 -180.667 94 -246c64 -64 142 -96 234 -96h1261v186h-14v684zM1481 200.999c-97.333 35.333 -170.667 83.667 -220 145c-43.333 56 -65 110.667 -65 164c0 92 38.333 147.333 115 166c20 4 52.667 6 98 6h72v-481z" />
    <glyph glyph-name="uniFED3" unicode="&#x641;" horiz-adv-x="1056" arabic-form="initial" 
d="M549 1135h188v186h-188v-186zM965 0l-0.000976562 870h-265c-109.333 0 -191.666 -20.333 -246.999 -61c-101.333 -74 -152 -175.667 -152 -305c0 -106.667 52.667 -212.667 158 -318h-459v-186h965zM777.999 201c-94 32.667 -167 81 -219 145
c-43.333 56 -65 110.667 -65 164c0 92 38 147.333 114 166c20.667 4 52 6 94 6h76v-481z" />
    <glyph glyph-name="uniFED4" unicode="&#x641;" horiz-adv-x="964" arabic-form="medial" 
d="M549 1135h188v186h-188v-186zM977 0l-0.000976562 186h-12v684h-265c-109.333 0 -191.666 -20.333 -246.999 -61c-101.333 -74 -152 -175.667 -152 -305c0 -106.667 52.667 -212.667 158 -318h-459v-186h977zM777.999 201c-94 32.667 -167 81 -219 145
c-43.333 56 -65 110.667 -65 164c0 92 38 147.333 114 166c20.667 4 52 6 94 6h76v-481z" />
    <glyph glyph-name="uniFED6" unicode="&#x642;" horiz-adv-x="1064" arabic-form="final" 
d="M495 1135h187v186h-187v-186zM788 1135h187v186h-187v-186zM880 -102c0 -72.667 -43 -109 -129 -109h-352c-79.333 0 -119 39.667 -119 119v633h-188v-619c0 -214 112 -321 336 -321h332c203.333 0 305 106.333 305 319v80h16v186h-16v684h-244
c-114.667 0 -202 -25.667 -262 -77c-80.667 -70.667 -121 -163 -121 -277c0 -128.667 40.333 -240.667 121 -336c80.667 -93.333 187.667 -153.333 321 -180v-102zM878 186c-70.667 23.333 -130 65.667 -178 127c-48.667 64 -73 129 -73 195c0 116 62 174 186 174h65v-496z
" />
    <glyph glyph-name="uniFED7" unicode="&#x642;" horiz-adv-x="1056" arabic-form="initial" 
d="M965 0l-0.000976562 870h-265c-109.333 0 -191.666 -20.333 -246.999 -61c-101.333 -74 -152 -175.667 -152 -305c0 -106.667 52.667 -212.667 158 -318h-459v-186h965zM394.999 1135h187v186h-187v-186zM685.999 1135h188v186h-188v-186zM777.999 201
c-94 32.667 -167 81 -219 145c-43.333 56 -65 110.667 -65 164c0 92 38 147.333 114 166c20.667 4 52 6 94 6h76v-481z" />
    <glyph glyph-name="uniFED8" unicode="&#x642;" horiz-adv-x="964" arabic-form="medial" 
d="M977 0l-0.000976562 186h-12v684h-265c-109.333 0 -191.666 -20.333 -246.999 -61c-101.333 -74 -152 -175.667 -152 -305c0 -106.667 52.667 -212.667 158 -318h-459v-186h977zM394.999 1135h187v186h-187v-186zM685.999 1135h188v186h-188v-186zM777.999 201
c-94 32.667 -167 81 -219 145c-43.333 56 -65 110.667 -65 164c0 92 38 147.333 114 166c20.667 4 52 6 94 6h76v-481z" />
    <glyph glyph-name="uniFEDE" unicode="&#x644;" horiz-adv-x="1067" arabic-form="final" 
d="M1081 186l-14 -0.000976562v1135h-187v-1423c0 -72.667 -43 -109 -129 -109h-344c-84.667 0 -127 39.667 -127 119v633h-188v-619c0 -214 112 -321 336 -321h332c92 0 169 32 231 96c50.667 54.667 76 141.334 76 260.001v43h14v186z" />
    <glyph glyph-name="uniFEDF" unicode="&#x644;" horiz-adv-x="579" arabic-form="initial" 
d="M0 0h487v1321h-186v-1135h-301v-186z" />
    <glyph glyph-name="uniFEE0" unicode="&#x644;" horiz-adv-x="487" arabic-form="medial" 
d="M487 1321h-186v-1135h-301v-186h500v186h-13v1135z" />
    <glyph glyph-name="uniFEE2" unicode="&#x645;" horiz-adv-x="825" arabic-form="final" 
d="M67 -586c111.333 6 196.668 49 256.001 129c49.333 66 74 156.333 74 271h88c141.333 0 243.666 62 306.999 186h47v186h-14v684h-275c-96 0 -176.333 -31.333 -241 -94c-66 -63.333 -99 -140.333 -99 -231v-738c0 -114.667 -47.667 -182.667 -143 -204v-189z
M397.002 547c0 90 44.333 135 133 135h106v-543c0 -36.667 -13.333 -69 -40 -97s-57 -42 -91 -42h-108v547z" />
    <glyph glyph-name="uniFEE3" unicode="&#x645;" horiz-adv-x="1011" arabic-form="initial" 
d="M0 186v-186.001h303v-186h272c98 0 179.333 31.333 244 94c67.333 60.667 101 138.334 101 233.001v729h-275c-98.667 0 -180.667 -31.333 -246 -94c-64 -64 -96 -141 -96 -231v-359h-303zM489 546.999c0 90 44.667 135 134 135h108v-543c0 -36.667 -13.667 -69 -41 -97
s-58 -42 -92 -42h-109v547z" />
    <glyph glyph-name="uniFEE4" unicode="&#x645;" horiz-adv-x="919" arabic-form="medial" 
d="M932 0l0.000976562 186h-12v684h-275c-98.667 0 -180.667 -31.333 -246 -94c-64 -64 -96 -141 -96 -231v-359h-303v-186h303v-186h272c143.333 0 246.666 62 309.999 186h47zM489.001 547c0 90 44.667 135 134 135h106v-543c0 -36.667 -13.333 -69 -40 -97
s-57 -42 -91 -42h-109v547z" />
    <glyph glyph-name="uniFEE6" unicode="&#x646;" horiz-adv-x="1067" arabic-form="final" 
d="M1081 186l-14 -0.000976562v684h-187v-972c0 -72.667 -43 -109 -129 -109h-344c-84.667 0 -127 39.667 -127 119v633h-188v-619c0 -214 112 -321 336 -321h332c92 0 169 32 231 96c50.667 54.667 76 141.334 76 260.001v43h14v186zM493 1135h187v186h-187v-186z" />
    <glyph glyph-name="uniFEE7" unicode="&#x646;" horiz-adv-x="579" arabic-form="initial" 
d="M0 0h487v870h-186v-684h-301v-186zM301 1135h186v186h-186v-186z" />
    <glyph glyph-name="uniFEE8" unicode="&#x646;" horiz-adv-x="487" arabic-form="medial" 
d="M301 1135h186v186h-186v-186zM487 870h-186v-684h-301v-186h500v186h-13v684z" />
    <glyph glyph-name="uniFEEA" unicode="&#x647;" horiz-adv-x="884" arabic-form="final" 
d="M280 0c15.333 87.333 32.668 158.334 52.001 213.001c16.667 55.333 41.667 110.666 75 165.999c71.333 124 152.666 207.333 243.999 250c8 1.33301 23.667 6.66602 47 15.999v-645h201v186h-14v684c-211.333 -10 -390.333 -94.667 -537 -254
c-144 -155.333 -229.333 -360.666 -256 -615.999h188z" />
    <glyph glyph-name="uniFEEB" unicode="&#x647;" horiz-adv-x="1316" arabic-form="initial" 
d="M0 186v-186h1225v545c0 91.333 -33.667 168.333 -101 231c-64.667 62.667 -145.667 94 -243 94h-406v-329c-118.667 -57.333 -178 -150.333 -178 -279v-76h-297zM475 276c0 71.333 30.667 107 92 107c63.333 0 95 -32.667 95 -98v-99h-187v90zM840 262
c0 128.667 -59.333 221.667 -178 279v141h241c88.667 0 133 -45 133 -135v-361h-196v76z" />
    <glyph glyph-name="uniFEEC" unicode="&#x647;" horiz-adv-x="1200" arabic-form="medial" 
d="M0 186v-186h1210v186h-10v359c0 90.667 -32.667 167.667 -98 231c-64.667 62.667 -146 94 -244 94h-373v-331c-125.333 -43.333 -188 -136.333 -188 -279v-74h-297zM485 270c0 64.667 27.333 97 82 97c56 0 84 -30.333 84 -91v-90h-166v84zM840 262
c0 142.667 -63 235.667 -189 279v141h230c88.667 0 133 -45 133 -135v-361h-174v76z" />
    <glyph glyph-name="uniFEEE" unicode="&#x648;" horiz-adv-x="710" arabic-form="final" 
d="M434 870c-98.667 0 -180.666 -31.332 -245.999 -93.999c-64 -64 -96 -141 -96 -231v-219c0 -94 32 -172 96 -234c66 -61.333 148 -92 246 -92h86v-82c0 -33.333 -3.33301 -58 -10 -74c-16.667 -36.667 -50.334 -55 -101.001 -55h-317v-188h262c92 0 159 10.667 201 32
c26 13.333 53.333 35.333 82 66c48.667 59.333 73 131.666 73 216.999v84h13v186h-13v684h-276zM414.001 186.001c-89.333 0 -134 46 -134 138v223c0 90 44.667 135 134 135h106v-496h-106z" />
    <glyph glyph-name="uniFEF0" unicode="&#x649;" horiz-adv-x="1064" arabic-form="final" 
d="M880 -102c0 -72.667 -42.999 -109 -128.999 -109h-352c-79.333 0 -119 39.667 -119 119v633h-188v-619c0 -214 112 -321 336 -321h332c45.333 0 81.333 4.66699 108 14c51.333 18.667 93.666 46.667 126.999 84c46.667 52.667 70 110 70 172l2 129h14v186h-436v-186h235
v-102z" />
    <glyph glyph-name="space" unicode=" " horiz-adv-x="492" 
 />
    <glyph glyph-name="exclam" unicode="!" horiz-adv-x="432" 
d="M92 0h204v244h-204v-244zM296 401v922h-204v-922h204z" />
    <glyph glyph-name="percent" unicode="%" horiz-adv-x="940" 
d="M647 1321l-555 -1321h203l551 1321h-199zM811 125v188h-191v-188h191zM131 1198v-186h186v186h-186z" />
    <glyph glyph-name="parenleft" unicode="(" horiz-adv-x="718" 
d="M485 1511c-87.333 -87.333 -155.667 -168.998 -205 -244.998c-125.333 -192 -188 -393.333 -188 -604c0 -219.333 61.333 -422.333 184 -609c45.333 -67.333 115 -147 209 -239l142 108c-44 37.333 -86.333 83.666 -127 138.999c-58.667 78.667 -99.667 141.667 -123 189
c-63.333 123.333 -95 264 -95 422c0 198 72.667 394 218 588c40.667 57.333 83 103.666 127 138.999z" />
    <glyph glyph-name="parenright" unicode=")" horiz-adv-x="741" 
d="M100 1399c45.333 -40 88.333 -86.332 129 -138.999c56 -75.333 102.333 -153.333 139 -234c50.667 -107.333 76 -225.333 76 -354c0 -155.333 -32 -296 -96 -422c-31.333 -62 -71 -125 -119 -189c-39.333 -50.667 -82.333 -97 -129 -139l141 -108
c96 94 165 173.667 207 239c122.667 186.667 184 389.667 184 609c0 213.333 -62 414.666 -186 603.999c-54.667 82 -123 163.667 -205 245z" />
    <glyph glyph-name="asterisk" unicode="*" horiz-adv-x="1024" 
d="M896 543l-282 -41l-78 293h-41l-80 -293l-283 43l-18 -43l240 -191l-107 -284l35 -27l233 193l232 -193l35 31l-105 282l238 189z" />
    <glyph glyph-name="plus" unicode="+" horiz-adv-x="890" 
d="M814 274v195h-272v272h-195v-272h-274v-195h274v-274h195v274h272z" />
    <glyph glyph-name="comma" unicode="," horiz-adv-x="464" 
d="M90 244l80 -66l-80 -96l101 -82l141 172c27.333 34 41 66 41 96s-21 63 -63 99l-72 57z" />
    <glyph glyph-name="hyphen" unicode="-" horiz-adv-x="1056" 
d="M92 342h872v186h-872v-186z" />
    <glyph glyph-name="period" unicode="." 
d="M92 0h188v186h-188v-186z" />
    <glyph glyph-name="slash" unicode="/" horiz-adv-x="940" 
d="M647 1321l-555 -1321h203l551 1321h-199z" />
    <glyph glyph-name="zero" unicode="0" horiz-adv-x="579" 
d="M92 571l199 -196l196 194l-196 199z" />
    <glyph glyph-name="zero" unicode="&#x6f0;" horiz-adv-x="579" 
d="M92 571l199 -196l196 194l-196 199z" />
    <glyph glyph-name="zero" unicode="&#x660;" horiz-adv-x="579" 
d="M92 571l199 -196l196 194l-196 199z" />
    <glyph glyph-name="one" unicode="1" 
d="M280 1321h-188v-1321h188v1321z" />
    <glyph glyph-name="one" unicode="&#x6f1;" 
d="M280 1321h-188v-1321h188v1321z" />
    <glyph glyph-name="one" unicode="&#x661;" 
d="M280 1321h-188v-1321h188v1321z" />
    <glyph glyph-name="two" unicode="2" horiz-adv-x="889" 
d="M606 977c0 -56 -21.667 -99.667 -65 -131c-19.333 -10 -55 -15 -107 -15h-154v490h-188v-1321h188v641h189c94 0 172 32.667 234 98c61.333 68 92 150 92 246v336h-189v-344z" />
    <glyph glyph-name="two" unicode="&#x6f2;" horiz-adv-x="889" 
d="M606 977c0 -56 -21.667 -99.667 -65 -131c-19.333 -10 -55 -15 -107 -15h-154v490h-188v-1321h188v641h189c94 0 172 32.667 234 98c61.333 68 92 150 92 246v336h-189v-344z" />
    <glyph glyph-name="two" unicode="&#x662;" horiz-adv-x="889" 
d="M606 977c0 -56 -21.667 -99.667 -65 -131c-19.333 -10 -55 -15 -107 -15h-154v490h-188v-1321h188v641h189c94 0 172 32.667 234 98c61.333 68 92 150 92 246v336h-189v-344z" />
    <glyph glyph-name="three" unicode="3" horiz-adv-x="1239" 
d="M956 977c0 -56 -21.667 -99.667 -65 -131c-19.333 -10 -55 -15 -107 -15h-71v490h-187v-490h-246v490h-188v-1321h188v641h539c94 0 172 32.667 234 98c61.333 68 92 150 92 246v336h-189v-344z" />
    <glyph glyph-name="three" unicode="&#x6f3;" horiz-adv-x="1239" 
d="M956 977c0 -56 -21.667 -99.667 -65 -131c-19.333 -10 -55 -15 -107 -15h-71v490h-187v-490h-246v490h-188v-1321h188v641h539c94 0 172 32.667 234 98c61.333 68 92 150 92 246v336h-189v-344z" />
    <glyph glyph-name="three" unicode="&#x663;" horiz-adv-x="1239" 
d="M956 977c0 -56 -21.667 -99.667 -65 -131c-19.333 -10 -55 -15 -107 -15h-71v490h-187v-490h-246v490h-188v-1321h188v641h539c94 0 172 32.667 234 98c61.333 68 92 150 92 246v336h-189v-344z" />
    <glyph glyph-name="four" unicode="4" horiz-adv-x="841" 
d="M536 186c-107.333 0 -181.667 25.999 -223 77.999c-24.667 30.667 -37 65 -37 103c0 60 26.333 110 79 150c52 40.667 116.667 61 194 61h200v186h-221c-162 0 -243 65.667 -243 197c0 91.333 43.667 146.333 131 165c20 6 54 9 102 9h231v186h-229
c-124 0 -223 -30.667 -297 -92c-87.333 -73.333 -131 -165.666 -131 -276.999c0 -105.333 47 -200 141 -284c-95.333 -83.333 -143 -187.333 -143 -312c0 -102 40.333 -187.333 121 -256c78.667 -66.667 181.667 -100 309 -100h229v186h-213z" />
    <glyph glyph-name="four" unicode="&#x6f4;" horiz-adv-x="841" 
d="M536 186c-107.333 0 -181.667 25.999 -223 77.999c-24.667 30.667 -37 65 -37 103c0 60 26.333 110 79 150c52 40.667 116.667 61 194 61h200v186h-221c-162 0 -243 65.667 -243 197c0 91.333 43.667 146.333 131 165c20 6 54 9 102 9h231v186h-229
c-124 0 -223 -30.667 -297 -92c-87.333 -73.333 -131 -165.666 -131 -276.999c0 -105.333 47 -200 141 -284c-95.333 -83.333 -143 -187.333 -143 -312c0 -102 40.333 -187.333 121 -256c78.667 -66.667 181.667 -100 309 -100h229v186h-213z" />
    <glyph glyph-name="four" unicode="&#x664;" horiz-adv-x="841" 
d="M536 186c-107.333 0 -181.667 25.999 -223 77.999c-24.667 30.667 -37 65 -37 103c0 60 26.333 110 79 150c52 40.667 116.667 61 194 61h200v186h-221c-162 0 -243 65.667 -243 197c0 91.333 43.667 146.333 131 165c20 6 54 9 102 9h231v186h-229
c-124 0 -223 -30.667 -297 -92c-87.333 -73.333 -131 -165.666 -131 -276.999c0 -105.333 47 -200 141 -284c-95.333 -83.333 -143 -187.333 -143 -312c0 -102 40.333 -187.333 121 -256c78.667 -66.667 181.667 -100 309 -100h229v186h-213z" />
    <glyph glyph-name="five" unicode="5" horiz-adv-x="899" 
d="M764 971c-15.333 233.333 -121.334 350 -318.001 350c-193.333 0 -297.666 -116.667 -312.999 -350l-35 -543c-4 -51.333 -6 -85.333 -6 -102c0 -97.333 33.333 -176 100 -236c66 -60 152.667 -90 260 -90c106 0 191.333 30 256 90s97 138.667 97 236l-4 102z
M316.999 967c6 112 49.666 168 130.999 168c86.667 0 133.334 -56 140.001 -168l34 -611c0 -113.333 -56 -170 -168 -170c-116 0 -174 56.667 -174 170z" />
    <glyph glyph-name="five" unicode="&#x6f5;" horiz-adv-x="899" 
d="M764 971c-15.333 233.333 -121.334 350 -318.001 350c-193.333 0 -297.666 -116.667 -312.999 -350l-35 -543c-4 -51.333 -6 -85.333 -6 -102c0 -97.333 33.333 -176 100 -236c66 -60 152.667 -90 260 -90c106 0 191.333 30 256 90s97 138.667 97 236l-4 102z
M316.999 967c6 112 49.666 168 130.999 168c86.667 0 133.334 -56 140.001 -168l34 -611c0 -113.333 -56 -170 -168 -170c-116 0 -174 56.667 -174 170z" />
    <glyph glyph-name="five" unicode="&#x665;" horiz-adv-x="899" 
d="M764 971c-15.333 233.333 -121.334 350 -318.001 350c-193.333 0 -297.666 -116.667 -312.999 -350l-35 -543c-4 -51.333 -6 -85.333 -6 -102c0 -97.333 33.333 -176 100 -236c66 -60 152.667 -90 260 -90c106 0 191.333 30 256 90s97 138.667 97 236l-4 102z
M316.999 967c6 112 49.666 168 130.999 168c86.667 0 133.334 -56 140.001 -168l34 -611c0 -113.333 -56 -170 -168 -170c-116 0 -174 56.667 -174 170z" />
    <glyph glyph-name="six" unicode="6" horiz-adv-x="835" 
d="M743 995c0 94.667 -32.667 172.667 -98 234c-63.333 61.333 -144 92 -242 92h-311v-186h334c87.333 0 131 -46 131 -138v-997h186v995z" />
    <glyph glyph-name="six" unicode="&#x6f6;" horiz-adv-x="835" 
d="M743 995c0 94.667 -32.667 172.667 -98 234c-63.333 61.333 -144 92 -242 92h-311v-186h334c87.333 0 131 -46 131 -138v-997h186v995z" />
    <glyph glyph-name="six" unicode="&#x666;" horiz-adv-x="835" 
d="M743 995c0 94.667 -32.667 172.667 -98 234c-63.333 61.333 -144 92 -242 92h-311v-186h334c87.333 0 131 -46 131 -138v-997h186v995z" />
    <glyph glyph-name="seven" unicode="7" horiz-adv-x="1028" 
d="M588 317c-14.667 -87.333 -39.332 -131 -73.999 -131c-33.333 0 -57.333 43.667 -72 131l-151 1004h-199l158 -979c20 -131.333 58.667 -225 116 -281c42 -39.333 91.333 -59 148 -59c97.333 0 169.666 53.333 216.999 160c20 46 36.333 106 49 180l156 979h-197z" />
    <glyph glyph-name="seven" unicode="&#x6f7;" horiz-adv-x="1028" 
d="M588 317c-14.667 -87.333 -39.332 -131 -73.999 -131c-33.333 0 -57.333 43.667 -72 131l-151 1004h-199l158 -979c20 -131.333 58.667 -225 116 -281c42 -39.333 91.333 -59 148 -59c97.333 0 169.666 53.333 216.999 160c20 46 36.333 106 49 180l156 979h-197z" />
    <glyph glyph-name="seven" unicode="&#x667;" horiz-adv-x="1028" 
d="M588 317c-14.667 -87.333 -39.332 -131 -73.999 -131c-33.333 0 -57.333 43.667 -72 131l-151 1004h-199l158 -979c20 -131.333 58.667 -225 116 -281c42 -39.333 91.333 -59 148 -59c97.333 0 169.666 53.333 216.999 160c20 46 36.333 106 49 180l156 979h-197z" />
    <glyph glyph-name="eight" unicode="8" horiz-adv-x="1028" 
d="M936 0l-156 981c-20.667 131.333 -60.334 224.333 -119.001 279c-42.667 40.667 -91.667 61 -147 61c-98.667 0 -171.667 -52.667 -219 -158c-20.667 -47.333 -35.667 -108 -45 -182l-158 -981h199l151 1004c14.667 87.333 38.667 131 72 131
c34.667 0 59.334 -43.667 74.001 -131l151 -1004h197z" />
    <glyph glyph-name="eight" unicode="&#x6f8;" horiz-adv-x="1028" 
d="M936 0l-156 981c-20.667 131.333 -60.334 224.333 -119.001 279c-42.667 40.667 -91.667 61 -147 61c-98.667 0 -171.667 -52.667 -219 -158c-20.667 -47.333 -35.667 -108 -45 -182l-158 -981h199l151 1004c14.667 87.333 38.667 131 72 131
c34.667 0 59.334 -43.667 74.001 -131l151 -1004h197z" />
    <glyph glyph-name="eight" unicode="&#x668;" horiz-adv-x="1028" 
d="M936 0l-156 981c-20.667 131.333 -60.334 224.333 -119.001 279c-42.667 40.667 -91.667 61 -147 61c-98.667 0 -171.667 -52.667 -219 -158c-20.667 -47.333 -35.667 -108 -45 -182l-158 -981h199l151 1004c14.667 87.333 38.667 131 72 131
c34.667 0 59.334 -43.667 74.001 -131l151 -1004h197z" />
    <glyph glyph-name="nine" unicode="9" horiz-adv-x="835" 
d="M743 1321h-309c-98 0 -180 -30.667 -246 -92c-64 -62 -96 -140 -96 -234v-73c0 -92 32 -170 96 -234c66 -61.333 148 -92 246 -92h121v-596h188v1321zM414 782c-89.333 0 -134 46.667 -134 140v75c0 92 44.667 138 134 138h141v-353h-141z" />
    <glyph glyph-name="nine" unicode="&#x6f9;" horiz-adv-x="835" 
d="M743 1321h-309c-98 0 -180 -30.667 -246 -92c-64 -62 -96 -140 -96 -234v-73c0 -92 32 -170 96 -234c66 -61.333 148 -92 246 -92h121v-596h188v1321zM414 782c-89.333 0 -134 46.667 -134 140v75c0 92 44.667 138 134 138h141v-353h-141z" />
    <glyph glyph-name="nine" unicode="&#x669;" horiz-adv-x="835" 
d="M743 1321h-309c-98 0 -180 -30.667 -246 -92c-64 -62 -96 -140 -96 -234v-73c0 -92 32 -170 96 -234c66 -61.333 148 -92 246 -92h121v-596h188v1321zM414 782c-89.333 0 -134 46.667 -134 140v75c0 92 44.667 138 134 138h141v-353h-141z" />
    <glyph glyph-name="colon" unicode=":" 
d="M92 0h188v186h-188v-186zM92 500v-187h188v187h-188z" />
    <glyph glyph-name="equal" unicode="=" horiz-adv-x="890" 
d="M816 623h-743v-195h743v195zM816 315h-743v-196h743v196z" />
    <glyph glyph-name="bracketleft" unicode="[" horiz-adv-x="503" 
d="M427 1488h-354v-1890h354v195h-159v1499h159v196z" />
    <glyph glyph-name="bracketright" unicode="]" horiz-adv-x="503" 
d="M73 1292h159v-1499h-159v-195h354v1890h-354v-196z" />
    <glyph glyph-name="braceleft" unicode="{" horiz-adv-x="734" 
d="M276 1005c0 53.333 2.66895 94.9941 8.00195 124.994c7.33301 45.333 21.666 83 42.999 113c54 76 161.333 117.667 322 125v-125c-75.333 -7.33301 -125 -35.666 -149 -84.999c-9.33301 -19.333 -15.333 -42.666 -18 -69.999c-1.33301 -11.333 -2.33301 -24 -3 -38v-90
c0 -80 -14.333 -141.333 -43 -184c-38 -55.333 -103.667 -86.666 -197 -93.999l42 -6c16.667 -2.66699 32 -6.33398 46 -11.001c36.667 -11.333 67.667 -29.666 93 -54.999s42.333 -57.333 51 -96c5.33301 -24.667 8 -61 8 -109v-61c0 -31.333 1 -55.666 3 -72.999
c3.33301 -28 9.66602 -51.667 18.999 -71c24.667 -50.667 74 -78 148 -82v-122c-136.667 5.33301 -235 37.333 -295 96c-28 24 -47 51.333 -57 82c-14 40 -21 101.333 -21 184v55c0 26 -1 46 -3 60c-3.33301 22.667 -10 42.334 -20 59.001
c-26 43.333 -77.667 71.333 -155 84v131c46 2.66699 84.333 17.334 115 44.001c42 36 63 89.667 63 161v53z" />
    <glyph glyph-name="braceright" unicode="}" horiz-adv-x="706" 
d="M435 952c0 -71.333 21.001 -124.993 63.001 -160.993c31.333 -26.667 70.333 -41.334 117 -44.001v-131c-78.667 -12.667 -131 -40.667 -157 -84c-10 -16.667 -16.667 -36.334 -20 -59.001c-2 -14 -3 -34 -3 -60v-55c0 -82 -7 -143.333 -21 -184
c-10 -30 -28.333 -57.333 -55 -82c-60 -58.667 -158.333 -90.667 -295 -96v122c72.667 4 121.334 31.333 146.001 82c9.33301 19.333 15.666 43 18.999 71c2 17.333 3 41.666 3 72.999v61c0 46.667 3 83 9 109c9.33301 38 26.666 70 51.999 96
c25.333 25.333 56 43.666 92 54.999c13.333 4.66699 28.333 8.33398 45 11.001l42 6c-92.667 7.33301 -158 38.666 -196 93.999c-29.333 43.333 -44 104.666 -44 183.999v90c-0.666992 14 -1.66699 26.667 -3 38c-2.66699 27.333 -8.66699 50.666 -18 69.999
c-24 49.333 -73 77.666 -147 84.999v125c160.667 -7.33301 267.667 -49 321 -125c20.667 -30 34.667 -67.667 42 -113c5.33301 -29.333 8 -71 8 -125v-53z" />
    <glyph glyph-name="guillemotleft" unicode="&#xab;" horiz-adv-x="1003" 
d="M710 354c-8 8.66699 -12 17.667 -12 27c0 11.333 8.66699 25 26 41l205 205l-139 137l-221 -221c-56 -54 -84 -107.333 -84 -160c0 -54 28 -108 84 -162l221 -221l139 135zM298 354c-6.66699 7.33301 -10 16.332 -10 26.999c0 11.333 9 25 27 41l202 205l-137 137
l-221 -219c-57.333 -57.333 -86 -112 -86 -164c0 -51.333 28.667 -104.666 86 -159.999l221 -221l137 135z" />
    <glyph glyph-name="periodcentered" unicode="&#xb7;" horiz-adv-x="613" 
d="M413 994v-65l-92 -91h-65h-64l-92 93v63v64l90 94h63h67l93 -91v-67z" />
    <glyph glyph-name="periodcentered" unicode="&#x2219;" horiz-adv-x="613" 
d="M413 994v-65l-92 -91h-65h-64l-92 93v63v64l90 94h63h67l93 -91v-67z" />
    <glyph glyph-name="periodcentered" unicode="&#x2d9;" horiz-adv-x="613" 
d="M413 994v-65l-92 -91h-65h-64l-92 93v63v64l90 94h63h67l93 -91v-67z" />
    <glyph glyph-name="guillemotright" unicode="&#xbb;" horiz-adv-x="1003" 
d="M210 0l223 221c56 56 84 110 84 162c0 48.667 -28 102 -84 160l-221 221l-139 -137l223 -226c5.33301 -6 8 -11.333 8 -16v-2c0 -9.33301 -4.66699 -19 -14 -29l-217 -219zM622 0l221 221c57.333 57.333 86 110.666 86 159.999c0 50.667 -29.333 105.334 -88 164.001
l-219 219l-137 -137l202 -205c18 -16 27 -29.667 27 -41c0 -9.33301 -4 -18.333 -12 -27l-217 -219z" />
    <glyph glyph-name="multiply" unicode="&#xd7;" horiz-adv-x="933" 
d="M842 676l-134 133l-241 -242l-242 242l-133 -133l242 -242l-242 -241l133 -134l242 242l241 -242l134 131l-242 244z" />
    <glyph glyph-name="divide" unicode="&#xf7;" horiz-adv-x="1110" 
d="M434 645h253v248h-253v-248zM434 8h253v248h-253v-248zM112 342h897v217h-897v-217z" />
    <glyph glyph-name="afii57388" unicode="&#x60c;" horiz-adv-x="397" 
d="M163 185l-78 -62l113 -137l49 37c34 26 51 53.333 51 82c0 30 -11 56 -33 78l-9 14l-17 23l-93 112l-61 -51z" />
    <glyph glyph-name="afii57403" unicode="&#x61b;" 
d="M87 0h189v188h-189v-188zM290 410l-61 49l61 76l-76 63l-110 -133c-20.667 -22.667 -31 -48 -31 -76c0 -26.667 17 -52 51 -76l53 -41z" />
    <glyph glyph-name="afii57407" unicode="&#x61f;" horiz-adv-x="835" 
d="M555 397h188v385h-329c-89.333 0 -134 46.667 -134 140v75c0 92 44.667 138 134 138h329v186h-309c-98 0 -180 -30.667 -246 -92c-64 -62 -96 -140 -96 -234v-71c0 -93.333 32 -172 96 -236c66 -61.333 148 -92 246 -92h121v-199zM555 0h188v186h-188v-186z" />
    <glyph glyph-name="afii57409" unicode="&#x621;" horiz-adv-x="862" 
d="M783 360c-99.333 -23.333 -177.669 -35.001 -235.002 -35.001c-176.667 0 -265 59.333 -265 178c0 117.333 71.667 176 215 176c26.667 0 67.667 -4.66699 123 -14v182c-51.333 9.33301 -97.666 14 -138.999 14c-115.333 0 -208.666 -32.667 -279.999 -98
s-107 -150 -107 -254c0 -168.667 88.667 -280.667 266 -336l-123 -90c-49.333 -41.333 -91.666 -83.666 -126.999 -126.999l125 -123l39 35c123.333 106.667 215.666 177.667 276.999 213c74.667 42.667 151.667 74.667 231 96v183z" />
    <glyph glyph-name="afii57440" unicode="&#x640;" horiz-adv-x="581" 
d="M-71 0h692v184h-692v-184z" />
    <glyph glyph-name="afii57451" unicode="&#x64b;" horiz-adv-x="506" 
d="M403 1692l-340 -84l-18 70l341 86zM408 1566l-341 -86l-18 70l340 87z" />
    <glyph glyph-name="afii57452" unicode="&#x64c;" horiz-adv-x="550" 
d="M372 1675h-74l-32 -24v-38l32 -30l21 1l53 3v88zM439 1540l-118 -28l-248 -58l-23 62l23 12l37 17v55h-28l-23 -16l-27 40l33 46l39 -2l64 -2v-97l-20 -29l67 25l-18 31v87l42 33l37 30h84l37 -31l42 -32v-143z" />
    <glyph glyph-name="afii57453" unicode="&#x64d;" horiz-adv-x="1" 
d="M356 -668l-340 -84l-19 69l342 87zM360 -795l-340 -85l-19 69l341 88z" />
    <glyph glyph-name="afii57454" unicode="&#x64e;" horiz-adv-x="501" 
d="M405 1561l-340 -86l-19 70l342 87z" />
    <glyph glyph-name="afii57455" unicode="&#x64f;" horiz-adv-x="520" 
d="M363 1684h-74l-15 -12l-19 -13v-39l35 -28l20 2l53 4v86zM207 1577l-20 31v82l43 35l37 32h85l38 -32l40 -33v-142l-117 -28l-242 -57l-18 66l59 16z" />
    <glyph glyph-name="afii57456" unicode="&#x650;" horiz-adv-x="0" 
d="M358 -708l-340 -85l-18 70l340 86z" />
    <glyph glyph-name="afii57457" unicode="&#x651;" horiz-adv-x="530" 
d="M427 1573l-22 -29l-23 -30h-105l-35 48l-37 -89h-165v143l39 81l53 -27l-22 -59v-52h71l14 43l7 25l-1 56l20 11l48 24v-120h85l-2 36l-1 21l-11 17l-5 8l-15 23l55 40l22 -29l17 -44l13 -39v-58z" />
    <glyph glyph-name="afii57458" unicode="&#x652;" horiz-adv-x="430" 
d="M248 1639l-37 35h-49l-36 -39v-84h122v88zM331 1552l-83 -83h-119l-85 85v116l87 86h113l87 -86v-118z" />
    <glyph glyph-name="afii61664" unicode="&#x200c;" horiz-adv-x="150" 
 />
    <glyph glyph-name="afii301" unicode="&#x200d;" horiz-adv-x="150" 
 />
    <glyph glyph-name="afii299" unicode="&#x200e;" horiz-adv-x="577" 
d="M377 1468l-124 -125l-31 26l82 80h-162v-1453h-42v1492h199l-77 76l31 28z" />
    <glyph glyph-name="afii300" unicode="&#x200f;" horiz-adv-x="580" 
d="M380 -4h-42v1453h-161l78 -80l-26 -26l-129 125l129 124l26 -28l-75 -76h200v-1492z" />
    <glyph glyph-name="quoteleft" unicode="&#x2018;" horiz-adv-x="486" 
d="M381 1209l-78 62.001l78 95l-97 79l-140 -166c-26.667 -34.667 -40 -66.334 -40 -95.001c0 -30 21.333 -61.333 64 -94l71 -57z" />
    <glyph glyph-name="quoteright" unicode="&#x2019;" horiz-adv-x="486" 
d="M104 1269l78 -62l-78 -95l97 -79l140 167c26.667 34 40 65.333 40 94c0 30 -21.333 61.333 -64 94l-71 57z" />
    <glyph glyph-name="quotedblleft" unicode="&#x201c;" horiz-adv-x="681" 
d="M608 1149l-64 51.001l64 78l-80 65l-115 -137c-22 -28 -33 -54 -33 -78c0 -24.667 17.667 -50.334 53 -77.001l58 -47zM298 1151l-65 49l65 80l-82 66l-82 -105l-30 -33c-22 -23.333 -33 -50 -33 -80c0 -25.333 17 -51 51 -77l58 -45z" />
    <glyph glyph-name="quotedblright" unicode="&#x201d;" horiz-adv-x="681" 
d="M73 1208l63 -51l-63 -80l80 -65l84 106l29 33c21.333 22 32 46.667 32 74c0 30.667 -16.333 58.667 -49 84l-57 43zM382 1206l64 -51l-64 -78l80 -65l115 137c22 24 33 49.333 33 76c0 28 -17.333 55.333 -52 82l-57 45z" />
    <glyph glyph-name="guilsinglleft" unicode="&#x2039;" horiz-adv-x="888" 
d="M38 305l809 -315v213l-565 203l565 202v211l-809 -311v-203z" />
    <glyph glyph-name="guilsinglright" unicode="&#x203a;" horiz-adv-x="888" 
d="M847 305v203l-809 311v-211l565 -202l-565 -203v-213z" />
    <glyph glyph-name="uniE820" unicode="&#xe820;" horiz-adv-x="501" 
d="M409 1634l-340 -86l-19 70l342 87z" />
    <glyph glyph-name="uniE821" unicode="&#xe821;" horiz-adv-x="521" 
d="M358 1743h-74l-15 -12l-19 -13v-39l35 -28l20 2l53 4v86zM202 1636l-20 31v82l43 35l37 32h85l38 -32l40 -33v-142l-117 -28l-242 -57l-18 66l59 16z" />
    <glyph glyph-name="uniE822" unicode="&#xe822;" horiz-adv-x="430" 
d="M248 1639l-37 35h-49l-36 -39v-84h122v88zM331 1552l-83 -83h-119l-85 85v116l87 86h113l87 -86v-118z" />
    <glyph glyph-name="uniE823" unicode="&#xe823;" horiz-adv-x="506" 
d="M406 1764l-340 -84l-18 70l341 86zM411 1638l-341 -86l-18 70l340 87z" />
    <glyph glyph-name="uniE824" unicode="&#xe824;" horiz-adv-x="550" 
d="M380 1740h-74l-32 -24v-38l32 -30l21 1l53 3v88zM447 1605l-118 -28l-248 -58l-23 62l23 12l37 17v55h-28l-23 -16l-27 40l33 46l39 -2l64 -2v-97l-20 -29l67 25l-18 31v87l42 33l37 30h84l37 -31l42 -32v-143z" />
    <glyph glyph-name="uniE825" unicode="&#xe825;" horiz-adv-x="530" 
d="M442 1579l-22 -29l-23 -30h-105l-35 48l-37 -89h-165v143l39 81l53 -27l-22 -59v-52h71l14 43l7 25l-1 56l20 11l48 24v-120h85l-2 36l-1 21l-11 17l-5 8l-15 23l55 40l22 -29l17 -44l13 -39v-58z" />
    <glyph glyph-name="uniE826" unicode="&#xe826;" horiz-adv-x="2" 
d="M311 -721l-340 -85l-18 70l340 86z" />
    <glyph glyph-name="uniE827" unicode="&#xe827;" horiz-adv-x="1" 
d="M321 -667l-340 -84l-19 69l342 87zM325 -794l-340 -85l-19 69l341 88z" />
    <glyph glyph-name="uniE828" unicode="&#xe828;" horiz-adv-x="543" 
d="M444 1587l-22 -29l-23 -30h-105l-35 48l-37 -89h-165v143l39 81l53 -27l-22 -59v-52h71l14 43l7 25l-1 56l20 11l48 24v-120h85l-2 36l-1 21l-11 17l-5 8l-15 23l55 40l22 -29l17 -44l13 -39v-58zM402 1962l-340 -86l-19 70l342 87z" />
    <glyph glyph-name="uniE829" unicode="&#xe829;" horiz-adv-x="538" 
d="M383 1886h-76l-16 -13l-18 -13v-40l36 -28l20 2l54 3v89zM463 1554l-23 -29l-24 -31h-107l-35 50l-38 -90h-169v145l39 83l56 -27l-24 -61v-54h75l13 46l6 24v56l20 12l49 26v-124h87l-2 37l-1 24l-32 47l56 41l24 -31l16 -44l14 -37v-63zM224 1776l-20 32v83l43 36
l38 31h86l39 -30l41 -33v-147l-120 -28l-246 -57l-18 66l60 17z" />
    <glyph glyph-name="uniE82A" unicode="&#xe82a;" horiz-adv-x="538" 
d="M456 1561l-24 -29l-23 -31h-107l-35 50l-38 -90h-169v145l39 83l55 -28l-23 -60v-54h73l14 45l7 26l-2 55l22 12l49 26v-124h86l-2 37l-1 21l-31 49l56 42l23 -30l17 -45l14 -39v-61zM439 1818l-347 -85l-19 71l348 89zM435 1949l-347 -86l-20 72l349 88z" />
    <glyph glyph-name="uniE82B" unicode="&#xe82b;" horiz-adv-x="549" 
d="M453 1509l-22 -29l-23 -30h-105l-35 48l-37 -89h-165v143l39 81l53 -27l-22 -59v-52h71l14 43l7 25l-1 56l20 11l48 24v-120h85l-2 36l-1 21l-11 17l-5 8l-15 23l55 40l22 -29l17 -44l13 -39v-58zM391 2043h-74l-32 -24v-38l32 -30l21 1l53 3v88zM458 1908l-118 -28
l-248 -58l-23 62l23 12l37 17v55h-28l-23 -16l-27 40l33 46l39 -2l64 -2v-97l-20 -29l67 25l-18 31v87l42 33l37 30h84l37 -31l42 -32v-143z" />
    <glyph glyph-name="uniE82C" unicode="&#xe82c;" horiz-adv-x="538" 
d="M438 1545l-346 -86l-19 72l348 88zM452 1708l-24 -28l-23 -31h-107l-35 50l-38 -91h-169v146l39 83l56 -28l-24 -61v-54h75l12 45l7 25v56l20 13l49 25v-124h87l-2 38l-1 23l-32 47l56 42l54 -72v-104z" />
    <glyph glyph-name="uniE82D" unicode="&#xe82d;" horiz-adv-x="539" 
d="M434 1684l-346 -86l-19 71l348 88zM447 1542l-347 -86l-19 71l348 88zM448 1847l-24 -29l-23 -30h-107l-35 49l-38 -90h-169v146l39 82l56 -28l-24 -60v-54h75l12 46l7 23v58l20 12l49 24v-122h87l-2 37l-1 22l-32 48l56 42l54 -72v-104z" />
    <glyph glyph-name="uniFD3F" unicode="&#xfd3f;" horiz-adv-x="1135" 
d="M1079 603c0 -32 -34.668 -68.333 -104.001 -109c-7.33301 -104 -23.666 -156 -48.999 -156c-102 96 -178 144 -228 144c5.33301 -51.333 31.666 -99.833 78.999 -145.5s71 -71.5 71 -77.5c0 -10.667 -20.333 -22.667 -61 -36c-46 -14 -97.333 -22 -154 -24
c-48 -144.667 -113 -274 -195 -388c-63.333 -88.667 -131.333 -161.667 -204 -219c-58 -46 -99 -69 -123 -69c-14 0 -21 7 -21 21c0 6.66699 24.333 37.334 73 92.001c60 68 109.333 137.333 148 208c58.667 109.333 98.334 231 119.001 365
c-66.667 11.333 -100 26.333 -100 45c94 95.333 141 169.333 141 222c-48.667 0 -120.334 -49.333 -215.001 -148c-12.667 0 -25.167 17.5 -37.5 52.5s-19.5 72.167 -21.5 111.5c-71.333 37.333 -107 70.666 -107 99.999c0 25.333 33.333 57.666 100 96.999
c6.66699 106 25.334 159 56.001 159l68 -65c46 -45.333 97 -70.666 153 -75.999c0 48 -24.667 96 -74 144s-74 75.667 -74 83c0 15.333 36.333 30.333 109 45c-21.333 109.333 -64.833 221.666 -130.5 336.999s-138.167 207.333 -217.5 276c-14 12 -21 23 -21 33
c0 10.667 8.33301 16 25 16c50.667 0 127 -50 229 -150c134 -131.333 238.667 -297.666 314 -498.999c139.333 -2 209 -20.667 209 -56c-92 -96 -138 -170.333 -138 -223c41.333 0 86 24.667 134 74s75 74 81 74c25.333 0 44 -54.667 56 -164
c73.333 -36 110 -67.333 110 -94zM712.999 596c0 34.667 -12.667 64.167 -38 88.5s-55.666 36.5 -90.999 36.5s-65.666 -12.167 -90.999 -36.5s-38 -53.833 -38 -88.5c0 -35.333 12.667 -65.666 38 -90.999s55.666 -38 90.999 -38s65.666 12.667 90.999 38
s38 55.666 38 90.999z" />
    <glyph glyph-name="glyph1" horiz-adv-x="0" 
 />
    <glyph glyph-name="glyph2" horiz-adv-x="564" 
 />
  </font>
</defs>
</svg>
