<?xml version="1.0" standalone="no"?>
<!DOCTYPE svg PUBLIC "-//W3C//DTD SVG 1.1//EN" "http://www.w3.org/Graphics/SVG/1.1/DTD/svg11.dtd" >
<svg>
<metadata>
Created by FontForge 20090914 at Wed Oct 19 01:57:05 2011
 By www-data
(c) by Abolfazl Seilsepour - +98 912 591 3420  -  seilsepor@yahoo.com
</metadata>
<defs>
<font id="FarTasmeemBold" horiz-adv-x="1" >
  <font-face 
    font-family="Far.Tasmeem Bold"
    font-weight="700"
    font-stretch="normal"
    units-per-em="2048"
    panose-1="2 10 5 3 2 1 2 2 2 4"
    ascent="1638"
    descent="-410"
    bbox="-357.999 -1046 2639 1864"
    underline-thickness="100"
    underline-position="-670"
    unicode-range="U+0020-U+FEFC"
  />
<missing-glyph horiz-adv-x="1024" 
d="M103 -20v1318h818v-1318h-818zM281 148h462v982h-462v-982z" />
    <glyph glyph-name=".notdef" unicode="&#x652;&#x64b;" horiz-adv-x="1024" 
d="M103 -20v1318h818v-1318h-818zM281 148h462v982h-462v-982z" />
    <glyph glyph-name="uniE818" unicode="&#x651;&#x64b;" 
d="M442 1327c0 -36 -10 -66.332 -30 -90.999c-22.667 -29.333 -54 -44 -94 -44c-58.667 0 -96 11 -112 33c-23.333 -54 -71 -81 -143 -81c-83.333 0 -125 45 -125 135c0 36 19 94 57 174l99 -50c-20 -54 -30 -84.333 -30 -91c0 -22 4.33301 -33 13 -33
c22.667 0 38 13.333 46 40c5.33301 18 7 51 5 99l125 67c0 -106 15 -159 45 -159c8.66699 0 12.334 8.66699 11.001 26c-0.666992 13.333 -14.334 42.333 -41.001 87l94 70c28.667 -36.667 49.667 -73.334 63 -110.001c11.333 -31.333 17 -55.333 17 -72zM421 1720
l-446 -111l-30 118l447 113zM426 1568l-445 -112l-31 118l447 114z" />
    <glyph glyph-name="uniFC5E" unicode="&#x651;&#x64c;" horiz-adv-x="0" arabic-form="isolated" 
d="M437 1298c0 -34.667 -9.66602 -64.335 -28.999 -89.002c-22.667 -30 -53.667 -45 -93 -45c-58 0 -94.667 11 -110 33c-22 -52.667 -69 -79 -141 -79c-81.333 0 -122 44 -122 132c0 36 19 93.333 57 172l97 -52c-20 -50.667 -30 -80 -30 -88c0 -21.333 4.33301 -32 13 -32
c22 0 37 12.667 45 38c5.33301 18.667 7 51.667 5 99c22.667 13.333 63.667 35 123 65c0 -103.333 14.667 -155 44 -155c8 0 11.333 8.33301 10 25c-0.666992 14 -4.33398 26.333 -11.001 37c-4 6.66699 -14.333 22.334 -31 47.001l95 70
c26.667 -35.333 47 -71.666 61 -108.999c11.333 -30 17 -53 17 -69zM449.001 1718c0 -83.333 -50.6689 -137.002 -152.002 -161.002l-311 -74l-37 103l42 19c21.333 10.667 32 26.334 32 47.001c0 4.66699 1.33301 7 4 7c-5.33301 0 -20.666 -9.66699 -45.999 -29l-52 74
c34.667 46.667 71 69.334 109 68.001c63.333 -0.666992 95 -31 95 -91c0 -30.667 1.33301 -43.667 4 -39l2 1c-9.33301 16.667 -14 41 -14 73c0 42 18.333 78 55 108c32.667 26.667 66.334 40 101.001 40c43.333 0 81.333 -13.667 114 -41c36 -28.667 54 -63.667 54 -105z
M328.999 1718c0 18.667 -14.332 28 -42.999 28c-9.33301 0 -18 -3 -26 -9s-12 -14 -12 -24c0 -11.333 4.16699 -20.833 12.5 -28.5s17.166 -11.167 26.499 -10.5c28 2 42 16.667 42 44z" />
    <glyph glyph-name="uniFC5F" unicode="&#x651;&#x64d;" arabic-form="isolated" 
d="M413 1420l-445 -111l-30 118l448 114zM425 1672c0 -36.667 -10.001 -67 -30.001 -91c-22.667 -30 -54 -45 -94 -45c-58.667 0 -96 11.333 -112 34c-23.333 -54 -71 -81 -143 -81c-83.333 0 -125 45 -125 135c0 36 18.667 93.667 56 173l100 -50
c-20 -54 -30 -84.333 -30 -91c0 -22 4.33301 -33 13 -33c23.333 0 39 13 47 39c4.66699 18 6.33398 51.667 5.00098 101c22.667 13.333 64 35 124 65c0 -104.667 15 -157 45 -157c9.33301 0 13.333 8.33301 12 25c-0.666992 15.333 -15 44 -43 86l95 71
c53.333 -70 80 -130.333 80 -181zM427.999 1254l-446 -110l-30 117l448 113z" />
    <glyph glyph-name="uniFC60" unicode="&#x651;&#x64e;" horiz-adv-x="639" arabic-form="isolated" 
d="M582 1444c0 -34.667 -9.66602 -64.335 -28.999 -89.002c-22.667 -30 -53.667 -45 -93 -45c-58 0 -94.667 11 -110 33c-22 -52.667 -69 -79 -141 -79c-81.333 0 -122 44 -122 132c0 36 19 93.333 57 172l97 -52c-20 -50.667 -30 -80 -30 -88c0 -21.333 4.33301 -32 13 -32
c22 0 37 12.667 45 38c5.33301 18.667 7 51.667 5 99c22.667 13.333 63.667 35 123 65c0 -103.333 14.667 -155 44 -155c8 0 11.333 8.33301 10 25c-0.666992 14 -4.33398 26.333 -11.001 37c-4 6.66699 -14.333 22.334 -31 47.001l95 70
c26.667 -35.333 47 -71.666 61 -108.999c11.333 -30 17 -53 17 -69zM538.001 1731l-436 -109l-32 116l439 111z" />
    <glyph glyph-name="uniFC61" unicode="&#x651;&#x64f;" arabic-form="isolated" 
d="M446 1325c0 -36 -10.002 -66.332 -30.002 -90.999c-22.667 -29.333 -54 -44 -94 -44c-58.667 0 -96 11 -112 33c-23.333 -54 -71 -81 -143 -81c-83.333 0 -125 45 -125 135c0 36 18.667 94 56 174l100 -50c-20 -54 -30 -84.333 -30 -91c0 -22 4.33301 -33 13 -33
c23.333 0 39 13.333 47 40c4.66699 17.333 6.33398 50.333 5.00098 99c22.667 13.333 64 35.666 124 66.999c0 -106 15 -159 45 -159c9.33301 0 13.333 8.66699 12 26c-0.666992 15.333 -15 44.333 -43 87l96 70c28.667 -38 49.334 -74.667 62.001 -110
c11.333 -30 17 -54 17 -72zM318.998 1691c0 18.667 -14.666 27.999 -43.999 27.999c-9.33301 0 -18.333 -3.33301 -27 -10c-9.33301 -7.33301 -14 -16 -14 -26c0 -11.333 4.66699 -20.666 14 -27.999s18.666 -10.666 27.999 -9.99902c28.667 1.33301 43 16.666 43 45.999z
M125.999 1617c-10 16 -14.999 38.667 -14.999 68c0 42.667 18.667 79.667 56 111c33.333 28 67.666 42 102.999 42c44 0 83 -13.667 117 -41c36.667 -28.667 55 -64 55 -106c0 -86 -52 -141 -156 -165l-310 -72l-28 110z" />
    <glyph glyph-name="uniFC62" unicode="&#x651;&#x650;" horiz-adv-x="607" arabic-form="isolated" 
d="M532 1414l-445 -110l-31 117l448 113zM544 1665c0 -36 -10.001 -66.334 -30.001 -91.001c-22.667 -29.333 -54 -44 -94 -44c-58.667 0 -96 11.333 -112 34c-23.333 -54 -71 -81 -143 -81c-83.333 0 -125 44.667 -125 134c0 37.333 19 95.333 57 174l100 -50
c-20.667 -53.333 -31 -83.666 -31 -90.999c0 -22 4.33301 -33 13 -33c23.333 0 39 13 47 39c4.66699 18 6.33398 51.333 5.00098 100c22.667 13.333 64 35 124 65c0 -104.667 15 -157 45 -157c9.33301 0 13.333 8.66699 12 26c-0.666992 15.333 -15 44 -43 86l96 72
c52.667 -71.333 79 -132.333 79 -183z" />
    <glyph glyph-name="uniFD3F" unicode="&#x652;&#x64e;" horiz-adv-x="1135" 
d="M1079 603c0 -32 -34.668 -68.333 -104.001 -109c-7.33301 -104 -23.666 -156 -48.999 -156c-102 96 -178 144 -228 144c5.33301 -51.333 31.666 -99.833 78.999 -145.5s71 -71.5 71 -77.5c0 -10.667 -20.333 -22.667 -61 -36c-46 -14 -97.333 -22 -154 -24
c-48 -144.667 -113 -274 -195 -388c-63.333 -88.667 -131.333 -161.667 -204 -219c-58 -46 -99 -69 -123 -69c-14 0 -21 7 -21 21c0 6.66699 24.333 37.334 73 92.001c60 68 109.333 137.333 148 208c58.667 109.333 98.334 231 119.001 365
c-66.667 11.333 -100 26.333 -100 45c94 95.333 141 169.333 141 222c-48.667 0 -120.334 -49.333 -215.001 -148c-12.667 0 -25.167 17.5 -37.5 52.5s-19.5 72.167 -21.5 111.5c-71.333 37.333 -107 70.666 -107 99.999c0 25.333 33.333 57.666 100 96.999
c6.66699 106 25.334 159 56.001 159l68 -65c46 -45.333 97 -70.666 153 -75.999c0 48 -24.667 96 -74 144s-74 75.667 -74 83c0 15.333 36.333 30.333 109 45c-21.333 109.333 -64.833 221.666 -130.5 336.999s-138.167 207.333 -217.5 276c-14 12 -21 23 -21 33
c0 10.667 8.33301 16 25 16c50.667 0 127 -50 229 -150c134 -131.333 238.667 -297.666 314 -498.999c139.333 -2 209 -20.667 209 -56c-92 -96 -138 -170.333 -138 -223c41.333 0 86 24.667 134 74s75 74 81 74c25.333 0 44 -54.667 56 -164
c73.333 -36 110 -67.333 110 -94zM712.999 596c0 34.667 -12.667 64.167 -38 88.5s-55.666 36.5 -90.999 36.5s-65.666 -12.167 -90.999 -36.5s-38 -53.833 -38 -88.5c0 -35.333 12.667 -65.666 38 -90.999s55.666 -38 90.999 -38s65.666 12.667 90.999 38
s38 55.666 38 90.999z" />
    <glyph glyph-name="uniFDF2" unicode="&#xfedf;&#xfee0;&#xfeea;" horiz-adv-x="2682" arabic-form="isolated" 
d="M2542 -10c-86.667 19.333 -142.998 46.6689 -168.998 82.002l-34 -92h-419c-93.333 0 -164 10.333 -212 31c-44.667 20 -82.667 49 -114 87l21 -26l-35 -92h-417c-94 0 -165 10.667 -213 32l25 -12c0 -15.333 -15.333 -8 -46 22c-6.66699 3.33301 -10 5.33301 -10 6
c-19.333 10.667 -38.666 25.667 -57.999 45c-34 30.667 -57.333 57 -70 79l-35 -59c-8 -13.333 -14 -23 -18 -29c-18.667 -28.667 -46.667 -48.667 -84 -60c-62.667 -20 -134 -30 -214 -30c-265.333 0 -398 65.333 -398 196c0 35.333 12 95.333 36 180
c27.333 100 50.666 170.667 69.999 212c18.667 39.333 45 70.666 79 93.999c17.333 12.667 43.333 29 78 49l35 17c3.33301 1.33301 6 3 8 5l50 24l28 11l65 29c54.667 25.333 94 46.666 118 63.999l-32 64l124 199l51 -91l24 -47c45.333 -92 83.666 -217.667 114.999 -377
c15.333 -83.333 26.333 -138 33 -164c7.33301 -24 18.666 -50.333 33.999 -79c26 -49.333 61 -79.333 105 -90c14 -1.33301 47.333 -2 100 -2h272l-7 28c-2 20 -4 42 -6 66c-2.66699 29.333 -4 54 -4 74l-10 488c-2 54 -6.33301 94.333 -13 121
c-10 35.333 -27.333 71 -52 107l191 229l31 -50l30 -60c7.33301 -15.333 14 -31.666 20 -48.999c31.333 -84.667 46 -188.334 44 -311.001l-2 -299l4 -119c6 -60.667 27.667 -113.334 65 -158.001c30 -36 61.667 -57.667 95 -65c14 -1.33301 47 -2 99 -2h273l-7 28
c-2 20 -4 42 -6 66c-2.66699 29.333 -4 54 -4 74l-10 487c-2.66699 54.667 -7.33398 95.334 -14 122.001c-10 35.333 -27.333 71 -52 107l194 230l28 -51c11.333 -20.667 21.333 -40.667 30 -60c8 -15.333 14.667 -31.666 20 -48.999
c31.333 -84.667 46 -188.334 44 -311.001l-2 -299l5 -119c5.33301 -60 27 -112.667 65 -158c35.333 -41.333 87 -65.333 155 -72zM730.002 393.003c-11.333 78 -22 140.334 -32 187.001c-7.33301 36 -11 54.667 -11 56c6 14 4.66699 14.667 -4 2
c-12 -18.667 -25.333 -33.334 -40 -44.001c-17.333 -14.667 -36.666 -27.667 -57.999 -39c-20.667 -11.333 -64.667 -33.333 -132 -66c-96.667 -48.667 -158.334 -84 -185.001 -106c-19.333 -14.667 -29 -29.667 -29 -45c0 -18.667 22.333 -36.667 67 -54
c50 -20.667 107 -31 171 -31c112.667 0 202 16.667 268 50zM1595 1840c53.333 -72.667 80 -136.334 80 -191.001v-47c0 -39.333 18 -67 54 -83l-47 -126c-49.333 14.667 -74.666 23 -75.999 25l-6 -16c-18 -3.33301 -32 -5 -42 -5c-58.667 0 -93 10.333 -103 31l-13 -31
l-39 -4c-39.333 0 -73.333 16.667 -102 50c-20.667 24.667 -37 66.334 -49 125.001c-4 22.667 -11.333 41 -22 55l66 168c49.333 -60 76 -124.333 80 -193c1.33301 -36 5.33301 -57.667 12 -65c4 -5.33301 9.33301 -8 16 -8c5.33301 0 8.33301 0.333008 9 1l-3 20
c-2.66699 21.333 -7 39 -13 53l74 182c31.333 -68.667 47.333 -107.667 48 -117c5.33301 -14 9.66602 -43.333 12.999 -88c2.66699 -31.333 9 -47 19 -47h7l-3 33c-2 29.333 -9.66699 63 -23 101z" />
    <glyph glyph-name="uniFEF5" unicode="&#xfedf;&#xfe82;" horiz-adv-x="1048" arabic-form="isolated" 
d="M927 11c-43.333 12.667 -72.3369 23.001 -87.0039 31.001c-24.667 13.333 -32.667 16 -24 8l-2 26c0 -92 -40.333 -174.667 -121 -248c-76.667 -66 -186.667 -125.667 -330 -179l-370 198c215.333 29.333 366.333 74.666 453 135.999
c-11.333 104 -56.333 232.333 -135 385c-72 140.667 -161.333 249.667 -268 327l97 307c148.667 -131.333 256.334 -280.666 323.001 -447.999c56 -140.667 92.667 -275.334 110 -404.001c0.666992 2.66699 1 34 1 94l-15 680c-1.33301 50.667 -5.66602 91 -12.999 121
c-9.33301 35.333 -26.666 71 -51.999 107l194 230l28 -51c12 -20.667 22.333 -40.667 31 -60c6.66699 -15.333 13 -31.666 19 -48.999c32 -84.667 46.667 -188.334 44 -311.001l-2 -299c0 -24 0.333008 -47.333 1 -70c0.666992 -17.333 1.66699 -33.333 3 -48
c9.33301 -73.333 40 -133.333 92 -180c28.667 -24 67.334 -41.333 116.001 -52zM306.996 1096c-62 -31.333 -120.999 -47 -176.999 -47c-39.333 0 -74.333 7 -105 21l-31 16c-3.33301 1.33301 -5.33301 2 -6 2c-32.667 0 -93.334 -61.333 -182.001 -184l43 255
c49.333 48.667 98.333 73 147 73c22 0 45.333 -5.33301 70 -16l31 -14c12 -5.33301 29 -8 51 -8c40 0 88.333 9 145 27l152 51z" />
    <glyph glyph-name="uniFEF6" unicode="&#xfee0;&#xfe82;" horiz-adv-x="733" arabic-form="final" 
d="M961 10c-42.667 14 -71 24.667 -85 32c-24.667 13.333 -33.667 16.666 -27 9.99902v24c0 -93.333 -39.667 -176 -119 -248c-76.667 -66 -186.667 -125.667 -330 -179l-370 198c212.667 29.333 363.334 74.666 452.001 135.999c-10.667 100 -55.334 228.333 -134.001 385
c-72 140.667 -161.333 249.667 -268 327l97 307c148 -131.333 255.333 -281 322 -449c57.333 -142 93.666 -277 108.999 -405c1.33301 3.33301 2 35.333 2 96l-14 652c0 13.333 -0.666992 22.333 -2 27c-1.33301 58 -5.66602 98.667 -12.999 122
c-6.66699 30.667 -23.334 66.334 -50.001 107.001l193 230l28 -51c12 -20.667 22.333 -40.667 31 -60c7.33301 -15.333 14.333 -31.666 21 -48.999c27.333 -76 41 -179.667 41 -311v-369c0 -21.333 0.666992 -37.333 2 -48c8.66699 -73.333 39.334 -133.333 92.001 -180
c28.667 -24 67 -41.333 115 -52zM405 1137c-62 -31.333 -121 -47 -177 -47c-39.333 0 -74 7 -104 21l-35 17c-2 0.666992 -4.33301 1 -7 1c-31.333 0 -91.333 -61.333 -180 -184l43 255c50.667 48.667 100 73 148 73c22.667 0 46.667 -5.66699 72 -17l28 -13
c14 -6 31 -9 51 -9c45.333 0 94.333 9 147 27l152 52z" />
    <glyph glyph-name="uniFEF7" unicode="&#xfedf;&#xfe84;" horiz-adv-x="1067" arabic-form="isolated" 
d="M934 10c-42 14 -69.999 24.665 -83.999 31.998c-24.667 13.333 -34 17 -28 11v23c0 -93.333 -40 -176 -120 -248c-76 -66 -185.667 -125.667 -329 -179l-371 198c212.667 29.333 364 74.666 454 135.999c-12.667 102.667 -53.667 224 -123 364
c-72.667 145.333 -151.334 251 -236.001 317l101 300c78.667 -81.333 139 -154.666 181 -219.999c33.333 -55.333 67.333 -126 102 -212c55.333 -140.667 90.666 -283.334 105.999 -428.001l-5 45c1.33301 2.66699 2 34.334 2 95.001l-15 653c0 12 -0.666992 20.333 -2 25
c-2 58.667 -6.66699 99.667 -14 123c-6 30.667 -22.333 66.334 -49 107.001l194 230l28 -51c11.333 -20.667 21.666 -40.667 30.999 -60c6.66699 -15.333 13 -31.666 19 -48.999c28 -76 42 -179.667 42 -311v-369c0.666992 -21.333 1.33398 -37.666 2.00098 -48.999
c8.66699 -72.667 39 -132.334 91 -179.001c28.667 -24 67.334 -41.333 116.001 -52zM423.001 1288c-82 26.667 -133.333 39.999 -154 39.999c-62.667 0 -94 -22.667 -94 -68c0 -48.667 42.667 -73 128 -73h128l-36 -126l-322 -5h-6l-12 -1c-68.667 0 -115 30.333 -139 91
v230c46.667 -105.333 76.334 -163.666 89.001 -174.999c10 -8 27 -12 51 -12h-11c-6.66699 4.66699 -10 29.667 -10 75c0 118 66.333 177 199 177c29.333 0 62.666 -6 99.999 -18z" />
    <glyph glyph-name="uniFEF8" unicode="&#xfee0;&#xfe84;" horiz-adv-x="733" arabic-form="final" 
d="M354 1202c-88.667 38.667 -145.001 58 -169.001 58c-62.667 0 -94 -23.333 -94 -70c0 -45.333 36 -68 108 -68h156l-47 -130h-328c-67.333 0 -114.666 27 -141.999 81v217c54.667 -112 96 -168 124 -168h13c-12 10 -18 37.333 -18 82c0 114.667 64.333 172 193 172
c26 0 56.667 -5.66699 92 -17zM931.999 10c-42 14 -70.665 24.6709 -85.998 32.0039c-22.667 13.333 -30 16.666 -22 9.99902c-3.33301 31.333 -4.66602 43.666 -3.99902 36.999v-13c0 -93.333 -40 -176 -120 -248c-74.667 -64.667 -184.334 -124.334 -329.001 -179.001
l-371 198c212.667 29.333 363.667 74.666 453 135.999c-12 102.667 -53.333 224.667 -124 366c-71.333 144 -149.333 249 -234 315l101 300c79.333 -82.667 138.666 -156 177.999 -220c38 -62 73 -132.667 105 -212c54.667 -140.667 89.667 -283.334 105 -428.001l-5 45
c1.33301 2.66699 2 34.334 2 95.001l-14 652c-0.666992 13.333 -1.33398 22.333 -2.00098 27c-2 51.333 -6.66699 92 -14 122c-9.33301 35.333 -26.333 71 -51 107l195 231l58 -111l19 -49c29.333 -74.667 44 -178.667 44 -312l-2 -299c0 -24 0.333008 -47.333 1 -70
c0.666992 -17.333 1.66699 -33.666 3 -48.999c8 -72.667 38.333 -132.334 91 -179.001c28.667 -24 67 -41.333 115 -52z" />
    <glyph glyph-name="uniFEF9" unicode="&#xfedf;&#xfe88;" horiz-adv-x="890" arabic-form="isolated" 
d="M792 10c-42 14 -69.998 24.668 -83.998 32.001c-25.333 13.333 -34.333 16.666 -27 9.99902v22c0 -146.667 -107.667 -271 -323 -373l-336 177c124 24 221.333 59 292 105c-12.667 108 -57.334 235 -134.001 381c-82 159.333 -173 268 -273 326l99 312
c150.667 -134.667 259 -284.334 325 -449.001c56 -136.667 92 -272 108 -406c2 4 3 36.333 3 97l-14 652c-0.666992 13.333 -1.33398 22.333 -2.00098 27c-2 58 -6.66699 98.667 -14 122c-6.66699 30.667 -23.334 66.334 -50.001 107.001l194 230l28 -51
c11.333 -20.667 21.333 -40.667 30 -60c8 -15.333 14.667 -31.666 20 -48.999c28 -76 42 -179.667 42 -311l1 -369c0 -22 0.333008 -38.333 1 -49c8.66699 -72.667 39.334 -132.334 92.001 -179.001c28.667 -24 67 -41.333 115 -52zM354.002 -508.999
c-84 36.667 -140.667 55 -170 55c-62 0 -93 -23.333 -93 -70c0 -45.333 36 -68 108 -68h156l-47 -130h-276l-53 3c-68.667 2 -115 29.333 -139 82v223c54 -118.667 95.333 -178 124 -178h16c-15.333 14 -23 42.333 -23 85c0 114 65 171 195 171c16 0 46 -5 90 -15z" />
    <glyph glyph-name="uniFEFA" unicode="&#xfee0;&#xfe88;" horiz-adv-x="581" arabic-form="final" 
d="M797 10c-42.667 14 -72 24.667 -88 32c-21.333 13.333 -28.333 16.666 -21 9.99902c-2.66699 30.667 -3.66699 42.667 -3 36v-14c0 -147.333 -108.333 -271.666 -325 -372.999l-334 177c125.333 24 222 59 290 105c-10 101.333 -54 228.333 -132 381
c-82 159.333 -173 268 -273 326l99 312c148 -132 256.667 -281.667 326 -449c55.333 -136.667 91 -272 107 -406c2 4 3 36.333 3 97l-16 680c-2 50.667 -6.66699 91 -14 121c-9.33301 35.333 -26.333 71 -51 107l191 229l31 -50c11.333 -20.667 21.666 -40.667 30.999 -60
c6.66699 -15.333 13 -31.666 19 -48.999c31.333 -84.667 46 -188.334 44 -311.001l-2 -299c0 -24 0.333008 -47.333 1 -70c0.666992 -17.333 1.66699 -33.666 3 -48.999c6 -70.667 36.333 -130.334 91 -179.001c28.667 -24 67.334 -41.333 116.001 -52zM389 -530
c-85.333 37.333 -141.666 56 -168.999 56c-62.667 0 -94 -23.333 -94 -70c0 -45.333 36 -68 108 -68h156l-47 -130h-276l-53 3c-68 1.33301 -115 28.333 -141 81v217c55.333 -114 96.666 -171 123.999 -171h15c-13.333 12.667 -20 40.667 -20 84
c0 114.667 64.333 172 193 172c18 0 48.667 -5.33301 92 -16z" />
    <glyph glyph-name="uniFEFB" unicode="&#xfedf;&#xfe8e;" horiz-adv-x="1060" arabic-form="isolated" 
d="M930 10c-42.667 14 -71.002 24.665 -85.002 31.998c-24.667 13.333 -33.667 17 -27 11v23c0 -93.333 -40 -176 -120 -248c-76.667 -66 -186.667 -125.667 -330 -179l-370 198c212.667 29.333 363.667 74.666 453 135.999c-12 102.667 -53 224 -123 364
c-72.667 145.333 -151 251 -235 317l101 300c78.667 -81.333 139 -154.666 181 -219.999c33.333 -55.333 67 -126 101 -212c55.333 -140.667 90.666 -283.334 105.999 -428.001l-5 45c2 2.66699 3 34.334 3 95.001l-15 653c0 12 -0.666992 20.333 -2 25
c-2 58.667 -6.66699 99.667 -14 123c-6 30.667 -22.333 66.334 -49 107.001l193 230l28 -51c12 -20.667 22.333 -40.667 31 -60c6.66699 -15.333 13.334 -31.666 20.001 -48.999c28 -76 42 -179.667 42 -311v-369c0.666992 -21.333 1.33398 -37.666 2.00098 -48.999
c8.66699 -72.667 39 -132.334 91 -179.001c28.667 -24 67.334 -41.333 116.001 -52z" />
    <glyph glyph-name="uniFEFC" unicode="&#xfee0;&#xfe8e;" horiz-adv-x="733" arabic-form="final" 
d="M935 10c-42.667 14 -71.666 24.6699 -86.999 32.0029c-22 13.333 -29 16.666 -21 9.99902c-3.33301 31.333 -4.66602 43.666 -3.99902 36.999v-13c0 -94 -40.667 -176.667 -122 -248c-72 -64 -181 -123.667 -327 -179l-373 198c214.667 29.333 366 74.666 454 135.999
c-10.667 101.333 -51.334 223.333 -122.001 366c-72 144 -150.333 249 -235 315l101 300c79.333 -82.667 139 -156 179 -220c37.333 -62 72 -132.667 104 -212c55.333 -140.667 90.666 -283.334 105.999 -428.001l-5 45c1.33301 2.66699 2 34.334 2 95.001l-17 680
c-1.33301 50.667 -6 91 -14 121c-9.33301 35.333 -26.333 71 -51 107l194 230l28 -51c11.333 -20.667 21.666 -40.667 30.999 -60c6.66699 -15.333 13 -31.666 19 -48.999c31.333 -84.667 46 -188.334 44 -311.001l-2 -299c0 -24 0.333008 -47.333 1 -70
c0.666992 -17.333 1.66699 -33.666 3 -48.999c6 -70.667 36.333 -130.334 91 -179.001c28.667 -24 67.334 -41.333 116.001 -52z" />
    <glyph glyph-name="afii57410" unicode="&#x622;" horiz-adv-x="651" arabic-form="isolated" 
d="M514 -8c-102.667 32 -173.001 80.3311 -211.001 144.998c-24 46.667 -39 87.334 -45 122.001c-8.66699 48.667 -13 135.667 -13 261c0 118.667 -2.33301 193.334 -7 224.001c-5.33301 30 -21.666 70 -48.999 120l-11 21l193 234c33.333 -52.667 56 -94.667 68 -126
c23.333 -61.333 37.333 -109 42 -143c4 -35.333 6 -113.333 6 -234v-75c0 -175.333 43 -267.333 129 -276zM526.999 1211c-62 -31.333 -120.999 -47 -176.999 -47c-39.333 0 -74.333 7 -105 21l-31 16c-4 1.33301 -6.66699 2 -8 2c-31.333 0 -91.333 -61.333 -180 -184
l43 255c48.667 48.667 97 73 145 73c23.333 0 47.666 -5.66699 72.999 -17l31 -15c11.333 -4.66699 28 -7 50 -7c40 0 88.333 9.33301 145 28l152 49z" />
    <glyph glyph-name="afii57411" unicode="&#x623;" horiz-adv-x="606" arabic-form="isolated" 
d="M466 -8c-102.667 31.333 -173 79.6689 -211 145.002c-16.667 30 -29.667 64 -39 102l-16 98c-4 44 -6 102.333 -6 175l-2 123c-2 57.333 -7 101 -15 131l207 249c36 -106 54 -229.333 54 -370v-139c0 -50.667 6.33301 -101.334 19 -152.001
c12.667 -52.667 49.667 -82.334 111 -89.001zM518 1216c-82 36 -134 53.999 -156 53.999c-57.333 0 -86 -20.667 -86 -62s32.667 -62 98 -62h146l-45 -124h-253l-50 2c-63.333 2.66699 -106.666 28.334 -129.999 77.001v216c51.333 -114 89.666 -171 114.999 -171h7
c-10.667 9.33301 -16 34.333 -16 75c0 106 61 159 183 159c22 0 50.333 -4.33301 85 -13z" />
    <glyph glyph-name="afii57412" unicode="&#x624;" horiz-adv-x="1093" arabic-form="isolated" 
d="M781 1212c-86.667 28 -141 42 -163 42c-73.333 0 -110 -26 -110 -78c0 -18 8.66699 -35 26 -51c24.667 -21.333 65 -32 121 -32h139l-39 -136l-379 -6c-72 0 -122 33 -150 99v245c48.667 -112 80 -173.667 94 -185c12 -10 32 -15 60 -15h-6c-10 6.66699 -15 35 -15 85
c0 130.667 73.333 196 220 196c33.333 0 69.333 -6.33301 108 -19zM795 -253c-64.667 -156.667 -166.002 -234.999 -304.002 -234.999c-85.333 0 -182.666 39.333 -291.999 118c-55.333 40.667 -96 74 -122 100c-22 19.333 -33 36.333 -33 51c0 23.333 15 35 45 35l11 -1
c7.33301 -0.666992 13.333 -2 18 -4l46 -15c66 -19.333 127.333 -29 184 -29c127.333 0 230 71 308 213h3c-143.333 0 -263 44.333 -359 133c-94 87.333 -141 196.333 -141 327c0 108 33.667 200.333 101 277c68.667 80 152.334 120 251.001 120
c81.333 0 150.666 -35 207.999 -105c42.667 -50.667 76.667 -132 102 -244c31.333 -137.333 109.333 -212.333 234 -225l-97 -273c-57.333 12 -89.333 20.667 -96 26c-13.333 -106.667 -35.666 -196.334 -66.999 -269.001zM571.998 411.001
c-6 26.667 -9.99902 45.001 -11.999 55.001c-2.66699 13.333 -8.66699 29.666 -18 48.999c-10 21.333 -23 32 -39 32c-51.333 0 -77 -37.667 -77 -113c0 -106.667 59.333 -160 178 -160c29.333 0 38.666 -0.666992 27.999 -2c-22 16 -42 62.333 -60 139z" />
    <glyph glyph-name="afii57413" unicode="&#x625;" horiz-adv-x="542" arabic-form="isolated" 
d="M249 1386c82 -139.333 123 -331.667 123 -577l-2 -166c0 -156 8.33301 -258.667 25 -308c13.333 -40 49 -63.667 107 -71l-102 -272c-102.667 32 -173 80.333 -211 145c-39.333 68 -60 209.333 -62 424l-2 191c-1.33301 195.333 -24.333 330.333 -69 405zM238 -238.001
c-81.333 35.333 -133.668 53 -157.001 53c-55.333 0 -83 -20 -83 -60c0 -41.333 31.667 -62 95 -62h144l-43 -120h-299c-63.333 0 -106.666 25.333 -129.999 76v212c52 -112 90 -168 114 -168h9c-10.667 10 -16 34.667 -16 74c0 104.667 59.333 157 178 157
c20.667 0 49 -4.33301 85 -13z" />
    <glyph glyph-name="afii57414" unicode="&#x626;" horiz-adv-x="1431" arabic-form="isolated" 
d="M517 976c-81.333 36.667 -134.335 55 -159.002 55c-54.667 0 -82 -20 -82 -60s31.333 -60 94 -60h147l-47 -122h-297c-63.333 0 -106.333 26 -129 78v210c50.667 -110.667 88.334 -166 113.001 -166h6c-8.66699 7.33301 -13 32 -13 74c0 103.333 59.667 155 179 155
c22.667 0 50.334 -4.66699 83.001 -14zM1293 -9c-86.667 31.333 -149.33 73.3369 -187.997 126.004c-26.667 34.667 -43.334 63 -50.001 85c-10.667 31.333 -20.667 93.666 -30 186.999c-8 73.333 -17.667 119.666 -29 138.999c-6.66699 11.333 -21.334 17 -44.001 17
c-55.333 0 -118.333 -27.333 -189 -82c-69.333 -54 -104 -101 -104 -141c0 -16.667 35 -35.667 105 -57l68 -21c77.333 -24 116 -71.333 116 -142c0 -155.333 -45 -292 -135 -410c-92.667 -122 -201.334 -183 -326.001 -183c-127.333 0 -233.666 60.667 -318.999 182
c-82.667 116 -124 258 -124 426c0 98 16.333 195 49 291c34 102 71 153 111 153c28 0 42 -15 42 -45c0 -4.66699 -3 -20 -9 -46c-1.33301 -3.33301 -2.33301 -6 -3 -8l-2 -5l-35 -168c-6 -34.667 -9 -63.334 -9 -86.001c0 -117.333 31.667 -214.333 95 -291
c60 -75.333 134.667 -113 224 -113c58.667 0 112.667 15.667 162 47c50 31.333 75 66.333 75 105c0 15.333 -30.333 31 -91 47l-53 14c-80.667 22 -134.334 44.333 -161.001 67c-26 22 -39 54.333 -39 97c0 141.333 68.333 286.666 205 435.999c138 150 274 225 408 225
c138.667 0 216 -99 232 -297c12.667 -148 61 -243 145 -285z" />
    <glyph glyph-name="afii57415" unicode="&#x627;" horiz-adv-x="520" arabic-form="isolated" 
d="M230 1386c82.667 -139.333 123.998 -331.666 123.998 -576.999l-2 -166c0 -86 1.33301 -147.667 4 -185c2 -34 7.33301 -68.667 16 -104c14 -52.667 51.333 -82.334 112 -89.001l-102 -273c-103.333 32 -173.666 80.333 -210.999 145
c-39.333 68 -59.666 209.333 -60.999 424l-2 191c-2.66699 120 -7.66699 206 -15 258c-6 47.333 -24.333 96.333 -55 147z" />
    <glyph glyph-name="afii57416" unicode="&#x628;" horiz-adv-x="1439" arabic-form="isolated" 
d="M806 -315l-182 -182l-177 174l183 189zM1105 -20l-689.999 0.000976562c-98 0 -170 11.333 -216 34c-64 28 -119 83.333 -165 166v446c70 -181.333 140.333 -291.666 211 -330.999c32 -18 88.667 -27 170 -27h539c0 22 -2.33301 45.667 -7 71
c-10 63.333 -44 143 -102 239l-17 29l199 280c34 -51.333 59 -94 75 -128c22 -47.333 42.333 -112.333 61 -195c22 -104 51.333 -179.667 88 -227c35.333 -42.667 87 -67.334 155 -74.001l-95 -273c-86.667 19.333 -143.334 46.666 -170.001 81.999z" />
    <glyph glyph-name="afii57417" unicode="&#x629;" horiz-adv-x="1161" arabic-form="isolated" 
d="M1026 -10c-60 12.667 -110.667 36.668 -152 72.001c-42 36 -70 65.667 -84 89l-12 -22c-18.667 -30 -32.667 -51.667 -42 -65c-18.667 -28 -46 -48 -82 -60c-62.667 -20 -134 -30 -214 -30c-265.333 0 -398 65.333 -398 196c0 40.667 11.333 100.667 34 180
c24 88.667 47 159 69 211c18 37.333 44.667 69 80 95l38 25l85 47l47 23l94 40c61.333 30 100.666 51.667 117.999 65c-6 15.333 -17 36 -33 62l125 199c32 -55.333 57 -101 75 -137c47.333 -96.667 86.333 -222.334 117 -377.001c22 -123.333 43.667 -204.333 65 -243
c30.667 -56 86.334 -88.333 167.001 -97zM728 393.001c-11.333 78 -22.001 140.333 -32.001 187c-7.33301 36 -11 54.667 -11 56c6 14 5 15 -3 3c-4.66699 -8 -10.667 -16.667 -18 -26l-20 -18c-24 -20 -87.667 -55.333 -191 -106
c-97.333 -48 -159.666 -83.333 -186.999 -106c-19.333 -14.667 -29 -29.667 -29 -45c0 -18.667 22.333 -36.667 67 -54c50 -20.667 107 -31 171 -31c115.333 0 204.333 16.667 267 50zM581.999 1298c-82 26.667 -133.333 39.999 -154 39.999c-62.667 0 -94 -22.667 -94 -68
c0 -48.667 42.667 -73 128 -73h128l-36 -126l-322 -5h-6l-12 -1c-68.667 0 -115 30.333 -139 91v230c46.667 -105.333 76.334 -163.666 89.001 -174.999c10 -8 27 -12 51 -12h-11c-6.66699 4.66699 -10 29.667 -10 75c0 118 66.333 177 199 177
c29.333 0 62.666 -6 99.999 -18z" />
    <glyph glyph-name="afii57418" unicode="&#x62a;" horiz-adv-x="1439" arabic-form="isolated" 
d="M614 999l123 127l196 -194l-188 -192l-149 150l-123 -127l-196 198l190 189zM1105 -20l-689.999 0.000976562c-98 0 -170 11.333 -216 34c-64 28 -119 83.333 -165 166v446c70 -181.333 140.333 -291.666 211 -330.999c32 -18 88.667 -27 170 -27h539
c0 22 -2.33301 45.667 -7 71c-10 63.333 -44 143 -102 239l-17 29l199 280c34 -51.333 59 -94 75 -128c22 -47.333 42.333 -112.333 61 -195c22 -104 51.333 -179.667 88 -227c35.333 -42.667 87 -67.334 155 -74.001l-95 -273
c-86.667 19.333 -143.334 46.666 -170.001 81.999z" />
    <glyph glyph-name="afii57419" unicode="&#x62b;" horiz-adv-x="1439" arabic-form="isolated" 
d="M789 1202l-178 -187l-181 175l182 188zM610 999l123 127l196 -194l-188 -192l-150 150l-122 -127l-196 198l189 189zM1105 -20l-689.999 0.000976562c-98 0 -170 11.333 -216 34c-64 28 -119 83.333 -165 166v446c70 -181.333 140.333 -291.666 211 -330.999
c32 -18 88.667 -27 170 -27h539c0 22 -2.33301 45.667 -7 71c-10 63.333 -44 143 -102 239l-17 29l199 280c34 -51.333 59 -94 75 -128c22 -47.333 42.333 -112.333 61 -195c22 -104 51.333 -179.667 88 -227c35.333 -42.667 87 -67.334 155 -74.001l-95 -273
c-86.667 19.333 -143.334 46.666 -170.001 81.999z" />
    <glyph glyph-name="afii57420" unicode="&#x62c;" horiz-adv-x="1445" arabic-form="isolated" 
d="M840 -298l-192 -195l-203 192l192 194zM1315 -10c-86.667 19.333 -143.332 46.666 -169.999 81.999l-36 -92h-686c-98 0 -170 11.333 -216 34c-64 28 -119 83.333 -165 166v446c70 -181.333 140.333 -291.666 211 -330.999c32 -18 88.667 -27 170 -27h568
c-26.667 40.667 -52 92.334 -76 155.001l-26 69c-46 121.333 -116 182 -210 182c-34.667 0 -64.667 -6.33301 -90 -19c-19.333 -10.667 -45.666 -35.334 -78.999 -74.001c-28.667 -34.667 -53.334 -52 -74.001 -52c-30.667 0 -46 16.667 -46 50l1 14l3 16
c18 70.667 50 136 96 196c76 99.333 164.333 149 265 149c181.333 0 311.666 -119.667 390.999 -359l37 -111c46 -135.333 121.667 -209 227 -221z" />
    <glyph glyph-name="afii57421" unicode="&#x62d;" horiz-adv-x="1445" arabic-form="isolated" 
d="M1315 -10c-86.667 19.333 -143.332 46.666 -169.999 81.999l-36 -92h-686c-98 0 -170 11.333 -216 34c-64 28 -119 83.333 -165 166v446c70 -181.333 140.333 -291.666 211 -330.999c32 -18 88.667 -27 170 -27h568c-26.667 40.667 -52 92.334 -76 155.001l-26 69
c-46 121.333 -116 182 -210 182c-34.667 0 -64.667 -6.33301 -90 -19c-19.333 -10.667 -45.666 -35.334 -78.999 -74.001c-28.667 -34.667 -53.334 -52 -74.001 -52c-30.667 0 -46 16.667 -46 50l1 14l3 16c18 70.667 50 136 96 196c76 99.333 164.333 149 265 149
c181.333 0 311.666 -119.667 390.999 -359l37 -111c46 -135.333 121.667 -209 227 -221z" />
    <glyph glyph-name="afii57422" unicode="&#x62e;" horiz-adv-x="1445" arabic-form="isolated" 
d="M930 1202l-193 -194l-198 194l192 196zM1315 -10c-86.667 19.333 -143.332 46.666 -169.999 81.999l-36 -92h-686c-98 0 -170 11.333 -216 34c-64 28 -119 83.333 -165 166v446c70 -181.333 140.333 -291.666 211 -330.999c32 -18 88.667 -27 170 -27h568
c-26.667 40.667 -52 92.334 -76 155.001l-26 69c-46 121.333 -116 182 -210 182c-34.667 0 -64.667 -6.33301 -90 -19c-19.333 -10.667 -45.666 -35.334 -78.999 -74.001c-28.667 -34.667 -53.334 -52 -74.001 -52c-30.667 0 -46 16.667 -46 50l1 14l3 16
c18 70.667 50 136 96 196c76 99.333 164.333 149 265 149c181.333 0 311.666 -119.667 390.999 -359l37 -111c46 -135.333 121.667 -209 227 -221z" />
    <glyph glyph-name="afii57423" unicode="&#x62f;" horiz-adv-x="1060" arabic-form="isolated" 
d="M767 101c-18 -50.667 -31.9971 -82.333 -41.9971 -95c-12.667 -17.333 -33.334 -26 -62.001 -26h-357c-55.333 0 -101.666 5.33301 -138.999 16c-79.333 22.667 -119 76 -119 160c0 69.333 21.333 154.666 64 255.999c24.667 55.333 50 83 76 83c27.333 0 41 -15 41 -45
l-4 -42c-0.666992 -4 -1.33398 -9.33301 -2.00098 -16v-19c0 -44.667 14.667 -75 44 -91c17.333 -9.33301 68 -14 152 -14h233c2 -4.66699 1.33301 -0.666992 -2 12l-24 106c0 2 -0.666992 4.66699 -2 8c-12.667 50.667 -25.334 90.667 -38.001 120
c-20 50.667 -54 110 -102 178l109 300c106.667 -86 182 -234 226 -444l27 -117c11.333 -53.333 31.666 -93.666 60.999 -120.999c28 -26 68 -41.667 120 -47l-97 -274c-92.667 23.333 -150 52 -172 86z" />
    <glyph glyph-name="afii57424" unicode="&#x630;" horiz-adv-x="1060" arabic-form="isolated" 
d="M687 1199l-193 -205l-203 202l196 198zM767 101c-18 -50.667 -31.9971 -82.333 -41.9971 -95c-12.667 -17.333 -33.334 -26 -62.001 -26h-357c-55.333 0 -101.666 5.33301 -138.999 16c-79.333 22.667 -119 76 -119 160c0 69.333 21.333 154.666 64 255.999
c24.667 55.333 50 83 76 83c27.333 0 41 -15 41 -45l-4 -42c-0.666992 -4 -1.33398 -9.33301 -2.00098 -16v-19c0 -44.667 14.667 -75 44 -91c17.333 -9.33301 68 -14 152 -14h233c2 -4.66699 1.33301 -0.666992 -2 12l-24 106c0 2 -0.666992 4.66699 -2 8
c-12.667 50.667 -25.334 90.667 -38.001 120c-20 50.667 -54 110 -102 178l109 300c106.667 -86 182 -234 226 -444l27 -117c11.333 -53.333 31.666 -93.666 60.999 -120.999c28 -26 68 -41.667 120 -47l-97 -274c-92.667 23.333 -150 52 -172 86z" />
    <glyph glyph-name="afii57425" unicode="&#x631;" horiz-adv-x="833" arabic-form="isolated" 
d="M607 32c-33.333 -166 -69.333 -283.332 -108 -351.999c-62.667 -110.667 -155 -166 -277 -166c-93.333 0 -197.333 46.333 -312 139c-83.333 65.333 -125 108.666 -125 129.999c0 24.667 14 37 42 37c8.66699 0 16.667 -1 24 -3l43 -15c66.667 -22 130.667 -33 192 -33
c178 0 307.333 128.333 388 385c-2.66699 4 -5.66699 8 -9 12c-24 41.333 -47 87 -69 137c-26.667 63.333 -53.667 110.666 -81 141.999l115 315c43.333 -52 73.333 -98 90 -138l47 -112c64 -153.333 144.667 -236 242 -248l-97 -272
c-52.667 10.667 -94.667 27.334 -126 50.001l20 -14z" />
    <glyph glyph-name="afii57426" unicode="&#x632;" horiz-adv-x="759" arabic-form="isolated" 
d="M532 1074l-192 -205l-207 195l194 200zM556 32c-33.333 -166 -69.333 -283.332 -108 -351.999c-62.667 -110.667 -155 -166 -277 -166c-93.333 0 -197.333 46.333 -312 139c-83.333 65.333 -125 108.666 -125 129.999c0 24.667 14 37 42 37c8.66699 0 16.667 -1 24 -3
l43 -15c66.667 -22 130.667 -33 192 -33c178 0 307.333 128.333 388 385c-2.66699 4 -5.66699 8 -9 12c-24 41.333 -47 87 -69 137c-26.667 63.333 -53.667 110.666 -81 141.999l115 315c43.333 -52 73.333 -98 90 -138l47 -112c64 -153.333 144.667 -236 242 -248l-97 -272
c-52.667 10.667 -94.667 27.334 -126 50.001l20 -14z" />
    <glyph glyph-name="afii57427" unicode="&#x633;" horiz-adv-x="1433" arabic-form="isolated" 
d="M1122 1011c44.667 -74 75 -133.666 91 -178.999c23.333 -69.333 39.333 -167.333 48 -294c5.33301 -74 13.333 -135.667 24 -185c12 -52 49.333 -81.333 112 -88l-105 -274c-100 34 -158 69.333 -174 106l-32 -84c-28.667 -6.66699 -55.667 -10 -81 -10
c-130.667 0 -215.667 45.333 -255 136l-55 -127c-30 -10.667 -56.333 -16 -79 -16c-91.333 0 -159 27 -203 81c-56.667 -59.333 -138 -89 -244 -89c-40 0 -85 7.66699 -135 23l101 260l65 -3c48 0 83.667 8 107 24c-1.33301 22 -4.33301 45.333 -9 70
c-16 82 -36.333 143 -61 183l137 353c50 -76.667 82 -132.334 96 -167.001c18.667 -46 32 -100 40 -162l12 -146c5.33301 -67.333 17.666 -110.333 36.999 -129c19.333 -17.333 43.666 -26 72.999 -26c28.667 0 50.334 7 65.001 21l-42 189l151 370
c62 -152 95.667 -277.333 101 -376c4.66699 -81.333 13 -133.333 25 -156c15.333 -30.667 42.333 -46 81 -46c18.667 0 32.334 2 41.001 6l-4 36l-2 43c-4 106 -25.333 201 -64 285z" />
    <glyph glyph-name="afii57428" unicode="&#x634;" horiz-adv-x="1433" arabic-form="isolated" 
d="M909 1232l-167 -185l-179 169l168 189zM1016 996l-146 -171l-131 121l-103 -121l-166 159l146 169l129 -124l112 124zM1122 1011c44.667 -74 75 -133.666 91 -178.999c23.333 -69.333 39.333 -167.333 48 -294c5.33301 -74 13.333 -135.667 24 -185
c12 -52 49.333 -81.333 112 -88l-105 -274c-100 34 -158 69.333 -174 106l-32 -84c-28.667 -6.66699 -55.667 -10 -81 -10c-130.667 0 -215.667 45.333 -255 136l-55 -127c-30 -10.667 -56.333 -16 -79 -16c-91.333 0 -159 27 -203 81c-56.667 -59.333 -138 -89 -244 -89
c-40 0 -85 7.66699 -135 23l101 260l65 -3c48 0 83.667 8 107 24c-1.33301 22 -4.33301 45.333 -9 70c-16 82 -36.333 143 -61 183l137 353c50 -76.667 82 -132.334 96 -167.001c18.667 -46 32 -100 40 -162l12 -146c5.33301 -67.333 17.666 -110.333 36.999 -129
c19.333 -17.333 43.666 -26 72.999 -26c28.667 0 50.334 7 65.001 21l-42 189l151 370c62 -152 95.667 -277.333 101 -376c4.66699 -81.333 13 -133.333 25 -156c15.333 -30.667 42.333 -46 81 -46c18.667 0 32.334 2 41.001 6l-4 36l-2 43c-4 106 -25.333 201 -64 285z" />
    <glyph glyph-name="afii57429" unicode="&#x635;" horiz-adv-x="1439" arabic-form="isolated" 
d="M1300 -8c-101.333 32 -160.332 64.333 -176.999 97l-5 -10c-30.667 -66 -71.667 -99 -123 -99h-574c-98 0 -170 11.333 -216 34c-64 28 -119 83.333 -165 166v448c53.333 -139.333 94.666 -226.333 123.999 -261c24 -28 53 -52 87 -72c33.333 -18 79.333 -27 138 -27h3
l-8 64c-5.33301 42 -12 82 -20 120c-8.66699 44 -18 83.333 -28 118l100 242c32.667 -80.667 55.667 -144 69 -190c12 -39.333 19 -66.333 21 -81c14.667 26 43 65 85 117c106.667 127.333 223 191 349 191c112.667 0 196 -50.333 250 -151
c17.333 -32.667 30.333 -69 39 -109c10.667 -47.333 21.667 -109.333 33 -186c14 -86 54 -132 120 -138zM1049 268c-6 14.667 -11.334 50.667 -16.001 108c-7.33301 103.333 -53.666 155 -138.999 155c-128 0 -232.667 -87.667 -314 -263h469z" />
    <glyph glyph-name="afii57430" unicode="&#x636;" horiz-adv-x="1439" arabic-form="isolated" 
d="M965 1203l-187 -203l-210 193l190 205zM1300 -8c-101.333 32 -160.332 64.333 -176.999 97l-5 -10c-30.667 -66 -71.667 -99 -123 -99h-574c-98 0 -170 11.333 -216 34c-64 28 -119 83.333 -165 166v448c53.333 -139.333 94.666 -226.333 123.999 -261
c24 -28 53 -52 87 -72c33.333 -18 79.333 -27 138 -27h3l-8 64c-5.33301 42 -12 82 -20 120c-8.66699 44 -18 83.333 -28 118l100 242c32.667 -80.667 55.667 -144 69 -190c12 -39.333 19 -66.333 21 -81c14.667 26 43 65 85 117c106.667 127.333 223 191 349 191
c112.667 0 196 -50.333 250 -151c17.333 -32.667 30.333 -69 39 -109c10.667 -47.333 21.667 -109.333 33 -186c14 -86 54 -132 120 -138zM1049 268c-6 14.667 -11.334 50.667 -16.001 108c-7.33301 103.333 -53.666 155 -138.999 155c-128 0 -232.667 -87.667 -314 -263
h469z" />
    <glyph glyph-name="afii57431" unicode="&#x637;" horiz-adv-x="1439" arabic-form="isolated" 
d="M1300 -8c-100.667 30.667 -161.334 62.666 -182.001 95.999l-3 -7c-23.333 -67.333 -63.333 -101 -120 -101h-574c-98 0 -170 11.333 -216 34c-64 28 -119 83.333 -165 166v446c70 -181.333 140.333 -291.333 211 -330c32.667 -17.333 73.334 -26.666 122.001 -27.999
l-16 582c-2 86 -6.66699 147.333 -14 184c-6.66699 33.333 -22.667 73 -48 119l188 229c58 -104.667 93.667 -191.667 107 -261c12 -68.667 18 -185.667 18 -351v-116l-34 -46c122 160.667 250.667 241 386 241c64 0 122.333 -20.333 175 -61
c65.333 -53.333 109 -148 131 -284l16 -101c14 -86 54 -132 120 -138zM1049 267.999c-6 14.667 -11.334 50.667 -16.001 108c-7.33301 103.333 -53.666 155 -138.999 155c-128 0 -232.667 -87.667 -314 -263h469z" />
    <glyph glyph-name="afii57432" unicode="&#x638;" horiz-adv-x="1439" arabic-form="isolated" 
d="M1061 1205l-185 -207l-210 195l193 207zM1300 -8c-100.667 30.667 -161.334 62.666 -182.001 95.999l-3 -7c-23.333 -67.333 -63.333 -101 -120 -101h-574c-98 0 -170 11.333 -216 34c-64 28 -119 83.333 -165 166v446c70 -181.333 140.333 -291.333 211 -330
c32.667 -17.333 73.334 -26.666 122.001 -27.999l-16 582c-2 86 -6.66699 147.333 -14 184c-6.66699 33.333 -22.667 73 -48 119l188 229c58 -104.667 93.667 -191.667 107 -261c12 -68.667 18 -185.667 18 -351v-116l-34 -46c122 160.667 250.667 241 386 241
c64 0 122.333 -20.333 175 -61c65.333 -53.333 109 -148 131 -284l16 -101c14 -86 54 -132 120 -138zM1049 267.999c-6 14.667 -11.334 50.667 -16.001 108c-7.33301 103.333 -53.666 155 -138.999 155c-128 0 -232.667 -87.667 -314 -263h469z" />
    <glyph glyph-name="afii57433" unicode="&#x639;" horiz-adv-x="1447" arabic-form="isolated" 
d="M1315 -10c-86.667 19.333 -142.998 46.667 -168.998 82l-34 -92h-691c-98 0 -170 11.333 -216 34c-64 28 -119 83.333 -165 166v446c70 -181.333 140.333 -291.666 211 -330.999c32 -18 88.667 -27 170 -27h64c-72.667 41.333 -109 127.333 -109 258
c0 125.333 51 232.333 153 321c99.333 87.333 221.666 131 366.999 131c76 0 154.667 -16 236 -48l198 -305c-136 70 -249 105 -339 105c-87.333 0 -161.333 -22.333 -222 -67c-59.333 -43.333 -89 -96.333 -89 -159c0 -62 30.667 -115.667 92 -161
c64.667 -47.333 136 -72 214 -74l107 292c49.333 -112.667 94.333 -187.334 135 -224.001c45.333 -40 106.666 -65 183.999 -75z" />
    <glyph glyph-name="afii57434" unicode="&#x63a;" horiz-adv-x="1447" arabic-form="isolated" 
d="M851 1228l-193 -205l-179 170l193 207zM1315 -10c-86.667 19.333 -142.998 46.667 -168.998 82l-34 -92h-691c-98 0 -170 11.333 -216 34c-64 28 -119 83.333 -165 166v446c70 -181.333 140.333 -291.666 211 -330.999c32 -18 88.667 -27 170 -27h64
c-72.667 41.333 -109 127.333 -109 258c0 125.333 51 232.333 153 321c99.333 87.333 221.666 131 366.999 131c76 0 154.667 -16 236 -48l198 -305c-136 70 -249 105 -339 105c-87.333 0 -161.333 -22.333 -222 -67c-59.333 -43.333 -89 -96.333 -89 -159
c0 -62 30.667 -115.667 92 -161c64.667 -47.333 136 -72 214 -74l107 292c49.333 -112.667 94.333 -187.334 135 -224.001c45.333 -40 106.666 -65 183.999 -75z" />
    <glyph glyph-name="afii57441" unicode="&#x641;" horiz-adv-x="1449" arabic-form="isolated" 
d="M1317 -10c-86.667 19.333 -143.333 46.666 -170 81.999l-36 -92h-690c-98 0 -170 11.333 -216 34c-64 28 -119 83.333 -165 166v446c70 -181.333 140.333 -291.666 211 -330.999c32 -18 88.667 -27 170 -27h358c-100.667 61.333 -151 159 -151 293
c0 74 23.333 138 70 192c49.333 57.333 108.666 86 177.999 86c70.667 0 133.334 -29.333 188.001 -88c52.667 -55.333 94.334 -139 125.001 -251c21.333 -77.333 45 -131.666 71 -162.999c33.333 -42.667 84.666 -67.334 153.999 -74.001zM1051 1144l-192 -205l-203 200
l192 200zM917.001 500c-26 52 -51.333 78 -76 78c-20 0 -30 -16 -30 -48c0 -92.667 49 -156 147 -190c0 50.667 -13.667 104 -41 160z" />
    <glyph glyph-name="afii57442" unicode="&#x642;" horiz-adv-x="1449" arabic-form="isolated" 
d="M1317 -10c-86.667 19.333 -143.333 46.666 -170 81.999l-36 -92h-690c-98 0 -170 11.333 -216 34c-64 28 -119 83.333 -165 166v446c70 -181.333 140.333 -291.666 211 -330.999c32 -18 88.667 -27 170 -27h358c-100.667 61.333 -151 159 -151 293
c0 74 23.333 138 70 192c49.333 57.333 108.666 86 177.999 86c70.667 0 133.334 -29.333 188.001 -88c52.667 -55.333 94.334 -139 125.001 -251c21.333 -77.333 45 -131.666 71 -162.999c33.333 -42.667 84.666 -67.334 153.999 -74.001zM686.001 1210l118 135l200 -185
l-181 -203l-154 139l-119 -129l-208 189l184 199zM917.001 500c-26 52 -51.333 78 -76 78c-20 0 -30 -16 -30 -48c0 -92.667 49 -156 147 -190c0 50.667 -13.667 104 -41 160z" />
    <glyph glyph-name="afii57443" unicode="&#x643;" horiz-adv-x="1445" arabic-form="isolated" 
d="M1313 -10c-86.667 19.333 -143.334 46.666 -170.001 81.999l-36 -92h-686c-98 0 -170 11.333 -216 34c-64 28 -119 83.333 -165 166v446c70 -181.333 140.333 -291.666 211 -330.999c32 -18 88.667 -27 170 -27h572l-9 13l-22 41c-24.667 44 -80 66 -166 66h-334l-76 4
c-46 1.33301 -88 13 -126 35l9 67c15.333 99.333 42.666 172.333 81.999 219c40.667 46.667 111.334 98 212.001 154l92 46l683 311l-214 -378l-368 -166c-31.333 -12.667 -43.666 -15 -36.999 -7h198c60.667 0 110.667 -11.333 150 -34
c24.667 -16.667 42.667 -32.334 54 -47.001c8.66699 -12.667 16.667 -26 24 -40c8 -15.333 20.667 -42.333 38 -81c28.667 -63.333 52.667 -108.333 72 -135c33.333 -41.333 84.333 -65.666 153 -72.999z" />
    <glyph glyph-name="afii57444" unicode="&#x644;" horiz-adv-x="1173" arabic-form="isolated" 
d="M1029 -10c-87.333 19.333 -143.997 46.6641 -169.997 81.9971l-36 -92h-416c-98 0 -170 11.333 -216 34c-64 28 -119 83.333 -165 166v446c70 -181.333 140.333 -291.666 211 -330.999c32 -18 88.667 -27 170 -27h272c1.33301 -3.33301 0.666016 -1 -2.00098 7l-4 21
c-6.66699 35.333 -10 82 -10 140l-10 488c-2 48 -7.66699 88.333 -17 121c-6 30.667 -22.333 66.334 -49 107.001l194 230l28 -51c11.333 -20.667 21.666 -40.667 30.999 -60c6.66699 -15.333 13 -31.666 19 -48.999c28 -76 42 -179.667 42 -311l3 -394
c0.666992 -8 1 -16 1 -24c6 -60 28 -112.667 66 -158c35.333 -41.333 86.666 -65.333 153.999 -72z" />
    <glyph glyph-name="afii57445" unicode="&#x645;" horiz-adv-x="1447" arabic-form="isolated" 
d="M1315 -10c-86.667 19.333 -142.666 45.666 -167.999 78.999l9 28c-16.667 -49.333 -35.667 -98.666 -57 -147.999c-36.667 -89.333 -72 -134 -106 -134c-16.667 0 -38.334 9 -65.001 27l-44 32c-24.667 18 -56.667 37 -96 57c-42.667 24.667 -77.667 41 -105 49h-225
c-52.667 0 -86.667 1 -102 3c-62 2.66699 -112.333 13 -151 31c-64 28 -119 83.333 -165 166v446c70 -181.333 140.333 -291.333 211 -330c20 -10.667 37 -17.667 51 -21c15.333 -3.33301 35.333 -5 60 -5l65 -2l75 164l57 133c44.667 102.667 84 172.334 118 209.001
c36.667 40.667 84.667 61 144 61c58.667 0 111.334 -19 158.001 -57c67.333 -50.667 129.666 -140.667 186.999 -270c36 -82.667 66.333 -139.667 91 -171c36 -42.667 87.667 -67.334 155 -74.001zM942.001 300l-4.99902 24.999c-12 56 -26.333 101.333 -43 136
c-12 28 -28.667 54 -50 78c-22.667 24.667 -46 37 -70 37c-20 0 -38.333 -16 -55 -48c-21.333 -43.333 -49 -111 -83 -203c31.333 -9.33301 80.666 -31.333 147.999 -66c52 -29.333 91.333 -52.666 118 -69.999z" />
    <glyph glyph-name="afii57446" unicode="&#x646;" horiz-adv-x="1439" arabic-form="isolated" 
d="M727 808l-164 -186l-180 172l169 184zM1105 -20l-689.999 0.000976562c-98 0 -170 11.333 -216 34c-64 28 -119 83.333 -165 166v446c70 -181.333 140.333 -291.666 211 -330.999c32 -18 88.667 -27 170 -27h539c0 22 -2.33301 45.667 -7 71c-10 63.333 -44 143 -102 239
l-17 29l199 280c34 -51.333 59 -94 75 -128c22 -47.333 42.333 -112.333 61 -195c22 -104 51.333 -179.667 88 -227c35.333 -42.667 87 -67.334 155 -74.001l-95 -273c-86.667 19.333 -143.334 46.666 -170.001 81.999z" />
    <glyph glyph-name="afii57470" unicode="&#x647;" horiz-adv-x="1161" arabic-form="isolated" 
d="M1026 -10c-60 12.667 -110.667 36.668 -152 72.001c-42 36 -70 65.667 -84 89l-12 -22c-18.667 -30 -32.667 -51.667 -42 -65c-18.667 -28 -46 -48 -82 -60c-62.667 -20 -134 -30 -214 -30c-265.333 0 -398 65.333 -398 196c0 40.667 11.333 100.667 34 180
c24 88.667 47 159 69 211c18 37.333 44.667 69 80 95l38 25l85 47l47 23l94 40c61.333 30 100.666 51.667 117.999 65c-6 15.333 -17 36 -33 62l125 199c32 -55.333 57 -101 75 -137c47.333 -96.667 86.333 -222.334 117 -377.001c22 -123.333 43.667 -204.333 65 -243
c30.667 -56 86.334 -88.333 167.001 -97zM728 393.001c-11.333 78 -22.001 140.333 -32.001 187c-7.33301 36 -11 54.667 -11 56c6 14 5 15 -3 3c-4.66699 -8 -10.667 -16.667 -18 -26l-20 -18c-24 -20 -87.667 -55.333 -191 -106
c-97.333 -48 -159.666 -83.333 -186.999 -106c-19.333 -14.667 -29 -29.667 -29 -45c0 -18.667 22.333 -36.667 67 -54c50 -20.667 107 -31 171 -31c115.333 0 204.333 16.667 267 50z" />
    <glyph glyph-name="afii57448" unicode="&#x648;" horiz-adv-x="1093" arabic-form="isolated" 
d="M795 -253c-64.667 -156.667 -166.002 -234.999 -304.002 -234.999c-85.333 0 -182.666 39.333 -291.999 118c-55.333 40.667 -96 74 -122 100c-22 19.333 -33 36.333 -33 51c0 23.333 15 35 45 35l11 -1c7.33301 -0.666992 13.333 -2 18 -4l46 -15
c66 -19.333 127.333 -29 184 -29c127.333 0 230 71 308 213h3c-143.333 0 -263 44.333 -359 133c-94 87.333 -141 196.333 -141 327c0 108 33.667 200.333 101 277c68.667 80 152.334 120 251.001 120c81.333 0 150.666 -35 207.999 -105
c42.667 -50.667 76.667 -132 102 -244c31.333 -137.333 109.333 -212.333 234 -225l-97 -273c-57.333 12 -89.333 20.667 -96 26c-13.333 -106.667 -35.666 -196.334 -66.999 -269.001zM571.998 411.001c-6 26.667 -9.99902 45.001 -11.999 55.001
c-2.66699 13.333 -8.66699 29.666 -18 48.999c-10 21.333 -23 32 -39 32c-51.333 0 -77 -37.667 -77 -113c0 -106.667 59.333 -160 178 -160c29.333 0 38.666 -0.666992 27.999 -2c-22 16 -42 62.333 -60 139z" />
    <glyph glyph-name="afii57449" unicode="&#x649;" horiz-adv-x="1431" arabic-form="isolated" 
d="M1293 -9c-86.667 31.333 -149.333 73.3359 -188 126.003c-20 26 -36 55.667 -48 89c-11.333 29.333 -22 90.333 -32 183c-7.33301 69.333 -15 111.333 -23 126c-9.33301 20 -26 30 -50 30c-54.667 0 -113.334 -23.667 -176.001 -71c-78 -58 -117 -108.667 -117 -152
c0 -16.667 35 -35.667 105 -57l68 -21c77.333 -24 116 -71.333 116 -142c0 -155.333 -45 -292 -135 -410c-92.667 -122 -201.334 -183 -326.001 -183c-127.333 0 -233.666 60.667 -318.999 182c-82.667 116 -124 258 -124 426c0 114 17.333 215.667 52 305
c34.667 92.667 70.667 139 108 139c28 0 42 -15 42 -45c0 -8.66699 -1.66699 -19.334 -5 -32.001c-3.33301 -12 -9 -30.333 -17 -55c-24 -80.667 -36 -156 -36 -226c0 -117.333 31.667 -214.333 95 -291c60 -75.333 134.667 -113 224 -113c70 0 131.667 21 185 63
c34.667 28 52 57.667 52 89c0 16.667 -13.667 28 -41 34l-102 27c-77.333 19.333 -129 39.333 -155 60c-30.667 25.333 -46 60 -46 104c0 139.333 64.667 281.666 194 426.999c135.333 156 275 234 419 234c74 0 132.667 -32.333 176 -97
c30.667 -42.667 49.334 -109.334 56.001 -200.001c12.667 -148 61 -243 145 -285z" />
    <glyph glyph-name="afii57450" unicode="&#x64a;" horiz-adv-x="1431" arabic-form="isolated" 
d="M1293 -9c-86.667 31.333 -149.333 73.3359 -188 126.003c-20 26 -36 55.667 -48 89c-11.333 29.333 -22 90.333 -32 183c-7.33301 69.333 -15 111.333 -23 126c-9.33301 20 -26 30 -50 30c-54.667 0 -113.334 -23.667 -176.001 -71c-78 -58 -117 -108.667 -117 -152
c0 -16.667 35 -35.667 105 -57l68 -21c77.333 -24 116 -71.333 116 -142c0 -155.333 -45 -292 -135 -410c-92.667 -122 -201.334 -183 -326.001 -183c-127.333 0 -233.666 60.667 -318.999 182c-82.667 116 -124 258 -124 426c0 114 17.333 215.667 52 305
c34.667 92.667 70.667 139 108 139c28 0 42 -15 42 -45c0 -8.66699 -1.66699 -19.334 -5 -32.001c-3.33301 -12 -9 -30.333 -17 -55c-24 -80.667 -36 -156 -36 -226c0 -117.333 31.667 -214.333 95 -291c60 -75.333 134.667 -113 224 -113c70 0 131.667 21 185 63
c34.667 28 52 57.667 52 89c0 16.667 -13.667 28 -41 34l-102 27c-77.333 19.333 -129 39.333 -155 60c-30.667 25.333 -46 60 -46 104c0 139.333 64.667 281.666 194 426.999c135.333 156 275 234 419 234c74 0 132.667 -32.333 176 -97
c30.667 -42.667 49.334 -109.334 56.001 -200.001c12.667 -148 61 -243 145 -285z" />
    <glyph glyph-name="afii57506" unicode="&#x67e;" horiz-adv-x="1439" arabic-form="isolated" 
d="M1105 -20l-689.999 0.000976562c-98 0 -170 11.333 -216 34c-64 28 -119 83.333 -165 166v446c70 -181.333 140.333 -291.666 211 -330.999c32 -18 88.667 -27 170 -27h539c0 22 -2.33301 45.667 -7 71c-10 63.333 -44 143 -102 239l-17 29l199 280
c34 -51.333 59 -94 75 -128c22 -47.333 42.333 -112.333 61 -195c22 -104 51.333 -179.667 88 -227c35.333 -42.667 87 -67.334 155 -74.001l-95 -273c-86.667 19.333 -143.334 46.666 -170.001 81.999zM430.001 -570.999l179 189l178 -176l-178 -188zM610.001 -366.999
l-123 -126l-196 192l185 193l151 -149l122 127l198 -199l-190 -190z" />
    <glyph glyph-name="afii57507" unicode="&#x686;" horiz-adv-x="1445" arabic-form="isolated" 
d="M1315 -10c-86.667 19.333 -143.332 46.666 -169.999 81.999l-36 -92h-686c-98 0 -170 11.333 -216 34c-64 28 -119 83.333 -165 166v446c70 -181.333 140.333 -291.666 211 -330.999c32 -18 88.667 -27 170 -27h568c-26.667 40.667 -52 92.334 -76 155.001l-26 69
c-46 121.333 -116 182 -210 182c-34.667 0 -64.667 -6.33301 -90 -19c-19.333 -10.667 -45.666 -35.334 -78.999 -74.001c-28.667 -34.667 -53.334 -52 -74.001 -52c-30.667 0 -46 16.667 -46 50l1 14l3 16c18 70.667 50 136 96 196c76 99.333 164.333 149 265 149
c181.333 0 311.666 -119.667 390.999 -359l37 -111c46 -135.333 121.667 -209 227 -221zM455.002 -571l178 189l179 -176l-179 -188zM634.002 -367l-123 -127l-195 193l184 193l152 -149l122 127l197 -198l-189 -191z" />
    <glyph glyph-name="afii57508" unicode="&#x698;" horiz-adv-x="759" arabic-form="isolated" 
d="M556 32c-33.333 -166 -69.333 -283.332 -108 -351.999c-62.667 -110.667 -155 -166 -277 -166c-93.333 0 -197.333 46.333 -312 139c-83.333 65.333 -125 108.666 -125 129.999c0 24.667 14 37 42 37c8.66699 0 16.667 -1 24 -3l43 -15c66.667 -22 130.667 -33 192 -33
c178 0 307.333 128.333 388 385c-2.66699 4 -5.66699 8 -9 12c-24 41.333 -47 87 -69 137c-26.667 63.333 -53.667 110.666 -81 141.999l115 315c43.333 -52 73.333 -98 90 -138l47 -112c64 -153.333 144.667 -236 242 -248l-97 -272
c-52.667 10.667 -94.667 27.334 -126 50.001l20 -14zM512 1321l-178 -188l-178 176l178 187zM333 1117l123 127l196 -193l-185 -192l-151 149l-122 -127l-197 198l188 190z" />
    <glyph glyph-name="afii57509" unicode="&#x6af;" horiz-adv-x="1445" arabic-form="isolated" 
d="M418 1011c40.667 46.667 111.333 98 212 154l93 46l563 251l-132 -235l-814 -405c23.333 92 49.333 155 78 189zM737.999 673h179.001c60.667 0 110.667 -11.333 150 -34c24.667 -16.667 42.667 -32.334 54 -47.001c8.66699 -12.667 16.667 -26 24 -40
c8 -15.333 20.667 -42.333 38 -81c28.667 -63.333 52.667 -108.333 72 -135c33.333 -41.333 84.333 -65.666 153 -72.999l-95 -273c-86.667 19.333 -143.334 46.666 -170.001 81.999l-36 -92h-686c-98 0 -170 11.333 -216 34c-64 28 -119 83.333 -165 166v446
c70 -181.333 140.333 -291.666 211 -330.999c32 -18 88.667 -27 170 -27h572l-9 13l-22 41c-24.667 44 -80 66 -166 66h-334l-76 4c-46 1.33301 -88 13 -126 35l9 67c15.333 99.333 42.666 172.333 81.999 219c40.667 46.667 111.334 98 212.001 154l92 46l683 311
l-214 -378l-368 -166c-7.33301 -2.66699 -13.333 -5 -18 -7z" />
    <glyph glyph-name="uniFB57" unicode="&#x67e;" horiz-adv-x="1099" arabic-form="final" 
d="M1113 -20l-689.999 0.00195312c-96.667 0 -168 11.333 -214 34c-65.333 28.667 -121 84 -167 166v446c70 -181.333 140.333 -291.333 211 -330c33.333 -18.667 90 -28 170 -28h540c-1.33301 22 -4 46 -8 72c-6.66699 40 -16.667 77 -30 111c-16 41.333 -39 83 -69 125
l-21 30l200 281c38.667 -58 64 -101 76 -129c21.333 -46.667 41.333 -111.334 60 -194.001c24.667 -108 55 -183.667 91 -227c33.333 -42 84 -66.667 152 -74l-95 -273c-86.667 19.333 -143.334 46.666 -170.001 81.999zM445.001 -570.998l178 189l178 -176l-178 -188z
M624.001 -366.998l-123 -126l-196 192l185 193l151 -149l122 127l198 -198l-189 -191z" />
    <glyph glyph-name="uniFB58" unicode="&#x67e;" horiz-adv-x="1384" arabic-form="initial" 
d="M1046 -20l-689.999 0.00195312c-96.667 0 -168 11.333 -214 34c-65.333 28.667 -121 84 -167 166v446c70 -181.333 140.333 -291.333 211 -330c33.333 -18.667 90 -28 170 -28h540c-1.33301 22 -4 46 -8 72c-6.66699 40 -16.667 77 -30 111c-16 41.333 -39 83 -69 125
l-21 30l200 281c38.667 -58 64 -101 76 -129c21.333 -46.667 41.333 -111.334 60 -194.001c24.667 -108 55 -183.667 91 -227c33.333 -42 84 -66.667 152 -74l-95 -273c-86.667 19.333 -143.334 46.666 -170.001 81.999zM367.001 -570.998l179 189l178 -176l-178 -188z
M547.001 -366.998l-123 -126l-196 192l185 193l151 -149l122 127l198 -199l-190 -190z" />
    <glyph glyph-name="uniFB59" unicode="&#x67e;" horiz-adv-x="1032" arabic-form="medial" 
d="M1046 -20l-689.999 0.00195312c-96.667 0 -168 11.333 -214 34c-65.333 28.667 -121 84 -167 166v446c70 -181.333 140.333 -291.333 211 -330c33.333 -18.667 90 -28 170 -28h540c-1.33301 22 -4 46 -8 72c-6.66699 40 -16.667 77 -30 111c-16 41.333 -39 83 -69 125
l-21 30l200 281c38.667 -58 64 -101 76 -129c21.333 -46.667 41.333 -111.334 60 -194.001c24.667 -108 55 -183.667 91 -227c33.333 -42 84 -66.667 152 -74l-95 -273c-86.667 19.333 -143.334 46.666 -170.001 81.999zM367.001 -570.998l179 189l178 -176l-178 -188z
M547.001 -366.998l-123 -126l-196 192l185 193l151 -149l122 127l198 -199l-190 -190z" />
    <glyph glyph-name="uniFB7B" unicode="&#x686;" horiz-adv-x="1095" arabic-form="final" 
d="M1315 -10c-86.667 19.333 -143.333 46.666 -170 81.999l-36 -92h-686c-96.667 0 -168 11.333 -214 34c-65.333 28.667 -121 84 -167 166v446c70 -181.333 140.333 -291.333 211 -330c33.333 -18.667 90 -28 170 -28h568c-26.667 40.667 -52 92.334 -76 155.001l-26 69
c-46 121.333 -116 182 -210 182c-34.667 0 -64.667 -6.33301 -90 -19c-20 -11.333 -45.667 -36 -77 -74c-30.667 -34.667 -55.334 -52 -74.001 -52c-32 0 -48 16.333 -48 49c0 4 0.333008 9 1 15l3 16c18.667 72.667 51.334 138 98.001 196c76 99.333 163.667 149 263 149
c176 0 306.333 -119.667 391 -359l39 -111c48 -135.333 123.667 -209.333 227 -222zM451.001 -571l178 189l179 -176l-179 -188zM630.001 -367l-123 -126l-196 192l185 192l152 -148l120 127l199 -198l-189 -191z" />
    <glyph glyph-name="uniFB7C" unicode="&#x686;" horiz-adv-x="1380" arabic-form="initial" 
d="M1248 -10c-86.667 19.333 -143.333 46.666 -170 81.999l-36 -92h-686c-96.667 0 -168 11.333 -214 34c-65.333 28.667 -121 84 -167 166v446c70 -181.333 140.333 -291.333 211 -330c33.333 -18.667 90 -28 170 -28h568c-26.667 40.667 -52 92.334 -76 155.001l-26 69
c-46 121.333 -116 182 -210 182c-34.667 0 -64.667 -6.33301 -90 -19c-20 -11.333 -45.667 -36 -77 -74c-30.667 -34.667 -55.334 -52 -74.001 -52c-32 0 -48 16.333 -48 49c0 4 0.333008 9 1 15l3 16c18.667 72.667 51.334 138 98.001 196c76 99.333 163.667 149 263 149
c176 0 306.333 -119.667 391 -359l39 -111c48 -135.333 123.667 -209.333 227 -222zM396.001 -571l178 189l179 -176l-179 -188zM575.001 -367l-121 -127l-197 193l184 193l152 -149l122 127l198 -199l-190 -190z" />
    <glyph glyph-name="uniFB7D" unicode="&#x686;" horiz-adv-x="1028" arabic-form="medial" 
d="M1248 -10c-86.667 19.333 -143.333 46.666 -170 81.999l-36 -92h-686c-96.667 0 -168 11.333 -214 34c-65.333 28.667 -121 84 -167 166v446c70 -181.333 140.333 -291.333 211 -330c33.333 -18.667 90 -28 170 -28h568c-26.667 40.667 -52 92.334 -76 155.001l-26 69
c-46 121.333 -116 182 -210 182c-34.667 0 -64.667 -6.33301 -90 -19c-20 -11.333 -45.667 -36 -77 -74c-30.667 -34.667 -55.334 -52 -74.001 -52c-32 0 -48 16.333 -48 49c0 4 0.333008 9 1 15l3 16c18.667 72.667 51.334 138 98.001 196c76 99.333 163.667 149 263 149
c176 0 306.333 -119.667 391 -359l39 -111c48 -135.333 123.667 -209.333 227 -222zM396.001 -571l178 189l179 -176l-179 -188zM575.001 -367l-121 -127l-197 193l184 193l152 -149l122 127l198 -199l-190 -190z" />
    <glyph glyph-name="uniFB8B" unicode="&#x698;" horiz-adv-x="339" arabic-form="final" 
d="M466 32c-33.333 -166 -69.999 -283.666 -109.999 -352.999c-62.667 -110 -155 -165 -277 -165c-90.667 0 -194.667 46.333 -312 139c-83.333 67.333 -125 110.666 -125 129.999c0 24.667 14.667 37 44 37c8.66699 0 16.667 -1 24 -3l43 -15
c66.667 -22 130.334 -33 191.001 -33c178.667 0 307.667 128.333 387 385l-9 14c-22.667 40 -45 85 -67 135c-24.667 59.333 -51.334 107 -80.001 143l112 314c46 -55.333 76.667 -101.333 92 -138l47 -112c64 -153.333 144 -236 240 -248l-95 -272
c-46.667 10 -89.334 26.667 -128.001 50l21 -17zM400.001 1321l-178 -188l-178 176l178 187zM221.001 1117l123 127l195 -193l-184 -192l-152 149l-120 -127l-198 198l189 190z" />
    <glyph glyph-name="uniFB8F" unicode="&#x6a9;" horiz-adv-x="1095" arabic-form="final" 
d="M1315 -10c-86.667 19.333 -143.001 46.668 -169.001 82.001l-34 -92h-689c-96.667 0 -168 11.333 -214 34c-65.333 28.667 -121 84 -167 166v446c70 -181.333 140.333 -291.333 211 -330c33.333 -18.667 90 -28 170 -28h573l-32 54c-18 29.333 -35 47.333 -51 54
c-17.333 8 -55 12 -113 12h-335l-77 4c-44.667 1.33301 -86 12.666 -124 33.999l7 68c11.333 94 38.666 167 81.999 219c40.667 46.667 111.334 98 212.001 154c72 36.667 132.667 66 182 88l596 268l-217 -377l-365 -166c-33.333 -14 -45.333 -16.333 -36 -7h194
c60.667 0 110.667 -11.333 150 -34c24.667 -16.667 42.334 -32.334 53.001 -47.001c10 -12.667 19 -25.667 27 -39l38 -81c30.667 -68.667 54 -114 70 -136c31.333 -41.333 83 -65.666 155 -72.999z" />
    <glyph glyph-name="uniFB90" unicode="&#x6a9;" horiz-adv-x="1380" arabic-form="initial" 
d="M1248 -10c-86.667 19.333 -143.001 46.668 -169.001 82.001l-34 -92h-689c-96.667 0 -168 11.333 -214 34c-65.333 28.667 -121 84 -167 166v446c70 -181.333 140.333 -291.333 211 -330c33.333 -18.667 90 -28 170 -28h573l-32 54c-18 29.333 -35 47.333 -51 54
c-17.333 8 -55 12 -113 12h-335l-77 4c-44.667 1.33301 -86 12.666 -124 33.999l7 68c11.333 94 38.666 167 81.999 219c40.667 46.667 111.334 98 212.001 154c72 36.667 132.667 66 182 88l596 268l-217 -377l-365 -166c-33.333 -14 -45.333 -16.333 -36 -7h194
c60.667 0 110.667 -11.333 150 -34c24.667 -16.667 42.334 -32.334 53.001 -47.001c10 -12.667 19 -25.667 27 -39l38 -81c30.667 -68.667 54 -114 70 -136c31.333 -41.333 83 -65.666 155 -72.999z" />
    <glyph glyph-name="uniFB91" unicode="&#x6a9;" horiz-adv-x="1028" arabic-form="medial" 
d="M1248 -10c-86.667 19.333 -143.001 46.668 -169.001 82.001l-34 -92h-689c-96.667 0 -168 11.333 -214 34c-65.333 28.667 -121 84 -167 166v446c70 -181.333 140.333 -291.333 211 -330c33.333 -18.667 90 -28 170 -28h573l-32 54c-18 29.333 -35 47.333 -51 54
c-17.333 8 -55 12 -113 12h-335l-77 4c-44.667 1.33301 -86 12.666 -124 33.999l7 68c11.333 94 38.666 167 81.999 219c40.667 46.667 111.334 98 212.001 154c72 36.667 132.667 66 182 88l596 268l-217 -377l-365 -166c-33.333 -14 -45.333 -16.333 -36 -7h194
c60.667 0 110.667 -11.333 150 -34c24.667 -16.667 42.334 -32.334 53.001 -47.001c10 -12.667 19 -25.667 27 -39l38 -81c30.667 -68.667 54 -114 70 -136c31.333 -41.333 83 -65.666 155 -72.999z" />
    <glyph glyph-name="uniFB93" unicode="&#x6af;" horiz-adv-x="1095" arabic-form="final" 
d="M418 1011c40.667 46.667 111.333 98 212 154l93 46l563 251l-132 -235l-814 -405c23.333 92 49.333 155 78 189zM743.999 673l174.999 0.00195312c60.667 0 110.667 -11.333 150 -34c24.667 -16.667 42.334 -32.334 53.001 -47.001c10 -12.667 19 -25.667 27 -39l38 -81
c30.667 -68.667 54 -114 70 -136c31.333 -41.333 83 -65.666 155 -72.999l-97 -273c-86.667 19.333 -143 46.666 -169 81.999l-34 -92h-689c-96.667 0 -168 11.333 -214 34c-65.333 28.667 -121 84 -167 166v446c70 -181.333 140.333 -291.333 211 -330
c33.333 -18.667 90 -28 170 -28h573l-32 54c-18 29.333 -35 47.333 -51 54c-17.333 8 -55 12 -113 12h-335l-77 4c-44.667 1.33301 -86 12.666 -124 33.999l7 68c11.333 94 38.666 167 81.999 219c40.667 46.667 111.334 98 212.001 154c72 36.667 132.667 66 182 88
l596 268l-217 -377l-365 -166z" />
    <glyph glyph-name="uniFB94" unicode="&#x6af;" horiz-adv-x="1380" arabic-form="initial" 
d="M363 1021c40.667 46.667 111.333 98 212 154l93 46l563 251l-132 -235l-814 -405c23.333 92 49.333 155 78 189zM676.999 673l174.999 0.00195312c60.667 0 110.667 -11.333 150 -34c24.667 -16.667 42.334 -32.334 53.001 -47.001c10 -12.667 19 -25.667 27 -39l38 -81
c30.667 -68.667 54 -114 70 -136c31.333 -41.333 83 -65.666 155 -72.999l-97 -273c-86.667 19.333 -143 46.666 -169 81.999l-34 -92h-689c-96.667 0 -168 11.333 -214 34c-65.333 28.667 -121 84 -167 166v446c70 -181.333 140.333 -291.333 211 -330
c33.333 -18.667 90 -28 170 -28h573l-32 54c-18 29.333 -35 47.333 -51 54c-17.333 8 -55 12 -113 12h-335l-77 4c-44.667 1.33301 -86 12.666 -124 33.999l7 68c11.333 94 38.666 167 81.999 219c40.667 46.667 111.334 98 212.001 154c72 36.667 132.667 66 182 88
l596 268l-217 -377l-365 -166z" />
    <glyph glyph-name="uniFB95" unicode="&#x6af;" horiz-adv-x="1028" arabic-form="medial" 
d="M363 1021c40.667 46.667 111.333 98 212 154l93 46l563 251l-132 -235l-814 -405c23.333 92 49.333 155 78 189zM676.999 673l174.999 0.00195312c60.667 0 110.667 -11.333 150 -34c24.667 -16.667 42.334 -32.334 53.001 -47.001c10 -12.667 19 -25.667 27 -39l38 -81
c30.667 -68.667 54 -114 70 -136c31.333 -41.333 83 -65.666 155 -72.999l-97 -273c-86.667 19.333 -143 46.666 -169 81.999l-34 -92h-689c-96.667 0 -168 11.333 -214 34c-65.333 28.667 -121 84 -167 166v446c70 -181.333 140.333 -291.333 211 -330
c33.333 -18.667 90 -28 170 -28h573l-32 54c-18 29.333 -35 47.333 -51 54c-17.333 8 -55 12 -113 12h-335l-77 4c-44.667 1.33301 -86 12.666 -124 33.999l7 68c11.333 94 38.666 167 81.999 219c40.667 46.667 111.334 98 212.001 154c72 36.667 132.667 66 182 88
l596 268l-217 -377l-365 -166z" />
    <glyph glyph-name="uniFBA5" unicode="&#x6c0;" horiz-adv-x="808" arabic-form="final" 
d="M1028 -10c-62 13.333 -113.331 37.3359 -153.998 72.0029c-38.667 33.333 -66 63.666 -82 90.999l-36 -60c-8 -13.333 -14 -23 -18 -29c-18.667 -28.667 -46.667 -48.667 -84 -60c-62.667 -20 -134 -30 -214 -30c-265.333 0 -398 65.333 -398 196
c0 35.333 12 95.333 36 180c27.333 100 50.666 170.667 69.999 212c18.667 39.333 45 70.666 79 93.999c17.333 12.667 43.333 29 78 49l35 17c3.33301 1.33301 6 3 8 5l50 24l28 11l65 29c54.667 25.333 94 46.666 118 63.999l-32 64l124 199l51 -91l24 -47
c45.333 -92 83.666 -217.667 114.999 -377c15.333 -83.333 26.333 -138 33 -164c7.33301 -24 18.666 -50.333 33.999 -79c30.667 -56 86.334 -88.333 167.001 -97zM730.002 393.003c-11.333 78 -22 140.334 -32 187.001c-7.33301 36 -11 54.667 -11 56
c6 14 4.66699 14.667 -4 2c-12 -18.667 -25.333 -33.334 -40 -44.001c-17.333 -14.667 -36.666 -27.667 -57.999 -39c-20.667 -11.333 -64.667 -33.333 -132 -66c-96.667 -48.667 -158.334 -84 -185.001 -106c-19.333 -14.667 -29 -29.667 -29 -45
c0 -18.667 22.333 -36.667 67 -54c50 -20.667 107 -31 171 -31c112.667 0 202 16.667 268 50zM582.002 1298c-82 26.667 -133.333 39.999 -154 39.999c-62.667 0 -94 -22.667 -94 -68c0 -48.667 42.667 -73 128 -73h128l-36 -126l-322 -5h-6l-12 -1
c-68.667 0 -115 30.333 -139 91v230c46.667 -105.333 76.334 -163.666 89.001 -174.999c10 -8 27 -12 51 -12h-11c-6.66699 4.66699 -10 29.667 -10 75c0 118 66.333 177 199 177c29.333 0 62.666 -6 99.999 -18z" />
    <glyph glyph-name="uniFBFD" unicode="&#x6cc;" horiz-adv-x="1073" arabic-form="final" 
d="M1258 -9c-89.333 32.667 -152.332 74.667 -188.999 126c-22 29.333 -38.333 59 -49 89c-12 30 -22 91.333 -30 184c-7.33301 64.667 -15.333 106.667 -24 126s-25 29 -49 29c-54.667 0 -113.334 -23.667 -176.001 -71c-78 -58 -117 -108.667 -117 -152
c0 -16.667 35 -35.667 105 -57l68 -21c76 -24 114 -71.333 114 -142c0 -155.333 -45 -292 -135 -410c-91.333 -122 -200 -183 -326 -183s-232 60.667 -318 182c-82 116 -123 258 -123 426c0 111.333 16.667 212.666 50 303.999c34.667 93.333 71.334 140 110.001 140
c28 0 42 -15 42 -45c0 -9.33301 -7.33301 -38 -22 -86c-24 -81.333 -36 -157 -36 -227c0 -117.333 31.667 -214.333 95 -291c60 -75.333 134.667 -113 224 -113c70.667 0 131.667 21 183 63c36 28.667 54 58.334 54 89.001c0 16 -14.333 27.333 -43 34l-101 27
c-76.667 19.333 -128 39.333 -154 60c-32 26.667 -48 61.334 -48 104.001c0 137.333 64.667 279.666 194 426.999c135.333 156 275.666 234 420.999 234c71.333 0 130 -32 176 -96c29.333 -41.333 47.333 -108.333 54 -201c12 -147.333 61 -242.333 147 -285z" />
    <glyph glyph-name="uniFBFE" unicode="&#x6cc;" horiz-adv-x="1384" arabic-form="initial" 
d="M706 -215l121 138l204 -192l-181 -198l-154 139l-114 -128l-211 185l180 193zM1046 -20l-689.999 0.00195312c-96.667 0 -168 11.333 -214 34c-65.333 28.667 -121 84 -167 166v446c70 -181.333 140.333 -291.333 211 -330c33.333 -18.667 90 -28 170 -28h540
c-1.33301 22 -4 46 -8 72c-6.66699 40 -16.667 77 -30 111c-16 41.333 -39 83 -69 125l-21 30l200 281c38.667 -58 64 -101 76 -129c21.333 -46.667 41.333 -111.334 60 -194.001c24.667 -108 55 -183.667 91 -227c33.333 -42 84 -66.667 152 -74l-95 -273
c-86.667 19.333 -143.334 46.666 -170.001 81.999z" />
    <glyph glyph-name="uniFBFF" unicode="&#x6cc;" horiz-adv-x="1099" arabic-form="medial" 
d="M775 -215l122 138l204 -192l-181 -198l-154 140l-117 -129l-208 185l178 193zM1046 -20l-689.999 0.00195312c-96.667 0 -168 11.333 -214 34c-65.333 28.667 -121 84 -167 166v446c70 -181.333 140.333 -291.333 211 -330c33.333 -18.667 90 -28 170 -28h540
c-1.33301 22 -4 46 -8 72c-6.66699 40 -16.667 77 -30 111c-16 41.333 -39 83 -69 125l-21 30l200 281c38.667 -58 64 -101 76 -129c21.333 -46.667 41.333 -111.334 60 -194.001c24.667 -108 55 -183.667 91 -227c33.333 -42 84 -66.667 152 -74l-95 -273
c-86.667 19.333 -143.334 46.666 -170.001 81.999z" />
    <glyph glyph-name="uniFE82" unicode="&#x622;" horiz-adv-x="315" arabic-form="final" 
d="M516 -8c-104 31.333 -174.332 79.668 -210.999 145.001c-17.333 30 -30.333 63.667 -39 101c-12.667 44.667 -19.667 138.667 -21 282c0 115.333 -3 189.333 -9 222c-6 36 -24.667 83.667 -56 143l193 234c33.333 -52.667 56 -94.667 68 -126
c14.667 -38 24.667 -69.667 30 -95c7.33301 -34.667 11.666 -68 12.999 -100c2 -32 3 -92.667 3 -182v-75c0 -78.667 6.33301 -141 19 -187c12.667 -52.667 50 -82.334 112 -89.001zM529.001 1211c-62 -31.333 -121 -47 -177 -47c-39.333 0 -74 7 -104 21l-35 17
c-2 0.666992 -4.33301 1 -7 1c-31.333 0 -91.333 -61.333 -180 -184l43 255c50.667 48.667 100 73 148 73c22.667 0 46.667 -5.66699 72 -17l28 -14c14 -5.33301 31 -8 51 -8c45.333 0 94.333 9 147 27l152 50z" />
    <glyph glyph-name="uniFE84" unicode="&#x623;" horiz-adv-x="266" arabic-form="final" 
d="M468 -8c-102.667 31.333 -172.669 79.335 -210.002 144.002c-18.667 28.667 -32.667 62.667 -42 102c-8 34 -13.333 67.333 -16 100c-2.66699 38.667 -4 96.667 -4 174l-2 123c-2 57.333 -7 101 -15 131l207 250c32.667 -103.333 50 -227 52 -371
c0.666992 -36 1.33398 -69 2.00098 -99v-40c2 -64.667 7.66699 -115.334 17 -152.001c12.667 -52.667 50.334 -82.334 113.001 -89.001zM519.998 1218c-84 34.667 -136.668 51.999 -158.001 51.999c-56 0 -84 -20.667 -84 -62s32 -62 96 -62h148l-45 -124h-255l-50 2
c-63.333 2.66699 -106.666 28.334 -129.999 77.001v210c52 -110 90.333 -165 115 -165h10c-10.667 10 -16 35 -16 75c0 106 60 159 180 159c22 0 50.333 -4.33301 85 -13z" />
    <glyph glyph-name="uniFE86" unicode="&#x624;" horiz-adv-x="739" arabic-form="final" 
d="M780 1212c-86 28 -140 42.001 -162 42.001c-73.333 0 -110 -26 -110 -78c0 -19.333 8.66699 -36 26 -50c24.667 -22 65 -33 121 -33h137l-39 -136l-273 -3l-106 -3c-72 0 -122 33 -150 99v235c50 -106 82.333 -164.333 97 -175c12 -10 31 -15 57 -15h-7
c-8 5.33301 -12 33.666 -12 84.999c0 130.667 73.333 196 220 196c32 0 67.333 -6.33301 106 -19zM793 -252.999c-64.667 -156.667 -165.331 -235 -301.998 -235c-85.333 0 -182 39.333 -290 118c-48 32.667 -90 65.667 -126 99c-22 20 -33 37.333 -33 52
c0 23.333 14.667 35 44 35l13 -1c8 -0.666992 14.333 -2 19 -4l44 -15c61.333 -19.333 123.333 -29 186 -29c127.333 0 230 71 308 213h1c-143.333 0 -263 44.333 -359 133c-94 87.333 -141 196.333 -141 327c0 108 33.667 200.333 101 277
c69.333 80 153.666 120 252.999 120c79.333 0 148.666 -35 207.999 -105c42.667 -50.667 76.667 -132 102 -244c31.333 -137.333 109.333 -212.333 234 -225l-97 -273c-58 12.667 -90.333 21.667 -97 27c-14 -107.333 -36.667 -197.333 -68 -270zM572.003 410.001
l-14.001 56c-3.33301 18 -8.66602 34.333 -15.999 49c-10 21.333 -23 32 -39 32c-51.333 0 -77 -37.667 -77 -113c0 -106.667 59.333 -160 178 -160c29.333 0 38 -0.666992 26 -2c-20.667 14.667 -40 60.667 -58 138z" />
    <glyph glyph-name="uniFE88" unicode="&#x625;" horiz-adv-x="479" arabic-form="final" 
d="M519 -239c-82.667 36 -136.332 54 -160.999 54c-54.667 0 -82 -20 -82 -60c0 -41.333 32 -62 96 -62h145l-47 -120h-297c-62 0 -105.667 25.333 -131 76v212c51.333 -112 89.666 -168 114.999 -168h9c-12 11.333 -18 36 -18 74c0 104.667 59.667 157 179 157
c22 0 50.333 -4.33301 85 -13zM524.002 1386c83.333 -138.667 125 -330.999 125 -576.999l-2 -166c0 -86 1.33301 -147.667 4 -185c2.66699 -34 8 -69 16 -105c12 -52 49.333 -81.333 112 -88l-102 -273c-102.667 31.333 -173 79.666 -211 144.999
c-23.333 41.333 -39.666 91.666 -48.999 150.999c-8.66699 58.667 -13.667 149.667 -15 273l-6 342c-2.66699 50.667 -5.33398 86.334 -8.00098 107.001c-7.33301 48 -26.333 97 -57 147z" />
    <glyph glyph-name="uniFE8A" unicode="&#x626;" horiz-adv-x="1073" arabic-form="final" 
d="M474 917c-80 34.667 -132.335 52 -157.002 52c-54.667 0 -82 -20 -82 -60s31.333 -60 94 -60h147l-47 -121h-297c-63.333 0 -106.333 26 -129 78v209c50.667 -110.667 88.334 -166 113.001 -166h7c-9.33301 8 -14 33 -14 75c0 103.333 59.667 155 179 155
c22.667 0 50.334 -4.66699 83.001 -14zM1256 -9c-89.333 32.667 -152.329 74.667 -188.996 126c-22 29.333 -38.333 59 -49 89c-12 30 -22 91.333 -30 184c-6.66699 64.667 -14.334 106.334 -23.001 125.001c-8.66699 20 -25.334 30 -50.001 30
c-54.667 0 -113.334 -23.667 -176.001 -71c-78 -58 -117 -108.667 -117 -152c0 -16.667 35 -35.667 105 -57l68 -21c76 -24 114 -71.333 114 -142c0 -155.333 -44.667 -292 -134 -410c-92 -122 -201 -183 -327 -183s-232 60.667 -318 182c-82 116 -123 258 -123 426
c0 111.333 16.667 212.666 50 303.999c36 93.333 72.667 140 110 140c28 0 42 -15 42 -45c0 -9.33301 -7.33301 -38 -22 -86c-24 -81.333 -36 -157 -36 -227c0 -117.333 31.667 -214.333 95 -291c60 -75.333 134.667 -113 224 -113c71.333 0 132.333 21 183 63
c36.667 29.333 55 59 55 89c0 16 -14.667 27.333 -44 34l-101 27c-76.667 19.333 -128 39.333 -154 60c-32 26.667 -48 61.334 -48 104.001c0 137.333 64.667 279.666 194 426.999c135.333 156 275.666 234 420.999 234c71.333 0 130 -32 176 -96
c29.333 -41.333 47.333 -108.333 54 -201c12 -147.333 61 -242.333 147 -285z" />
    <glyph glyph-name="uniFE8B" unicode="&#x626;" horiz-adv-x="1384" arabic-form="initial" 
d="M728 995c-78 25.333 -126 38 -144 38c-56 0 -84 -20 -84 -60c0 -41.333 38 -62 114 -62h120l-36 -120l-292 -3c-1.33301 0 -4.33301 -0.333008 -9 -1h-8c-62 0 -104.333 28 -127 84v216c52.667 -117.333 95 -176 127 -176h-15c-2.66699 2 -4 24 -4 66
c0 108.667 61 163 183 163c26.667 0 56.667 -5.33301 90 -16zM1046 -20l-689.999 0.00195312c-96.667 0 -168 11.333 -214 34c-65.333 28.667 -121 84 -167 166v446c70 -181.333 140.333 -291.333 211 -330c33.333 -18.667 90 -28 170 -28h540c-1.33301 22 -4 46 -8 72
c-6.66699 40 -16.667 77 -30 111c-16 41.333 -39 83 -69 125l-21 30l200 281c38.667 -58 64 -101 76 -129c21.333 -46.667 41.333 -111.334 60 -194.001c24.667 -108 55 -183.667 91 -227c33.333 -42 84 -66.667 152 -74l-95 -273
c-86.667 19.333 -143.334 46.666 -170.001 81.999z" />
    <glyph glyph-name="uniFE8C" unicode="&#x626;" horiz-adv-x="1032" arabic-form="medial" 
d="M728 995c-78 25.333 -126 38 -144 38c-56 0 -84 -20 -84 -60c0 -41.333 38 -62 114 -62h120l-36 -120l-292 -3c-1.33301 0 -4.33301 -0.333008 -9 -1h-8c-62 0 -104.333 28 -127 84v216c52.667 -117.333 95 -176 127 -176h-15c-2.66699 2 -4 24 -4 66
c0 108.667 61 163 183 163c26.667 0 56.667 -5.33301 90 -16zM1046 -20l-689.999 0.00195312c-96.667 0 -168 11.333 -214 34c-65.333 28.667 -121 84 -167 166v446c70 -181.333 140.333 -291.333 211 -330c33.333 -18.667 90 -28 170 -28h540c-1.33301 22 -4 46 -8 72
c-6.66699 40 -16.667 77 -30 111c-16 41.333 -39 83 -69 125l-21 30l200 281c38.667 -58 64 -101 76 -129c21.333 -46.667 41.333 -111.334 60 -194.001c24.667 -108 55 -183.667 91 -227c33.333 -42 84 -66.667 152 -74l-95 -273
c-86.667 19.333 -143.334 46.666 -170.001 81.999z" />
    <glyph glyph-name="uniFE8E" unicode="&#x627;" horiz-adv-x="184" arabic-form="final" 
d="M230 1386c84 -138.667 126 -330.998 126 -576.998l-2 -166c0 -86 1.33301 -147.667 4 -185c2.66699 -34 8 -69 16 -105c12 -52 49.333 -81.333 112 -88l-102 -273c-103.333 31.333 -173.666 79.666 -210.999 144.999c-24 41.333 -40.333 91.666 -49 150.999
c-8.66699 58.667 -13.334 149.667 -14.001 273l-7 343c-2 50 -4.66699 85.333 -8 106c-8 48 -27 97 -57 147z" />
    <glyph glyph-name="uniFE90" unicode="&#x628;" horiz-adv-x="1099" arabic-form="final" 
d="M812 -315l-182 -182l-177 174l183 189zM1113 -20l-689.999 0.00195312c-96.667 0 -168 11.333 -214 34c-65.333 28.667 -121 84 -167 166v446c70 -181.333 140.333 -291.333 211 -330c33.333 -18.667 90 -28 170 -28h540c-1.33301 22 -4 46 -8 72
c-6.66699 40 -16.667 77 -30 111c-16 41.333 -39 83 -69 125l-21 30l200 281c38.667 -58 64 -101 76 -129c21.333 -46.667 41.333 -111.334 60 -194.001c24.667 -108 55 -183.667 91 -227c33.333 -42 84 -66.667 152 -74l-95 -273
c-86.667 19.333 -143.334 46.666 -170.001 81.999z" />
    <glyph glyph-name="uniFE91" unicode="&#x628;" horiz-adv-x="1384" arabic-form="initial" 
d="M745 -315l-182 -182l-177 174l183 189zM1046 -20l-689.999 0.00195312c-96.667 0 -168 11.333 -214 34c-65.333 28.667 -121 84 -167 166v446c70 -181.333 140.333 -291.333 211 -330c33.333 -18.667 90 -28 170 -28h540c-1.33301 22 -4 46 -8 72
c-6.66699 40 -16.667 77 -30 111c-16 41.333 -39 83 -69 125l-21 30l200 281c38.667 -58 64 -101 76 -129c21.333 -46.667 41.333 -111.334 60 -194.001c24.667 -108 55 -183.667 91 -227c33.333 -42 84 -66.667 152 -74l-95 -273
c-86.667 19.333 -143.334 46.666 -170.001 81.999z" />
    <glyph glyph-name="uniFE92" unicode="&#x628;" horiz-adv-x="1032" arabic-form="medial" 
d="M745 -315l-182 -182l-177 174l183 189zM1046 -20l-689.999 0.00195312c-96.667 0 -168 11.333 -214 34c-65.333 28.667 -121 84 -167 166v446c70 -181.333 140.333 -291.333 211 -330c33.333 -18.667 90 -28 170 -28h540c-1.33301 22 -4 46 -8 72
c-6.66699 40 -16.667 77 -30 111c-16 41.333 -39 83 -69 125l-21 30l200 281c38.667 -58 64 -101 76 -129c21.333 -46.667 41.333 -111.334 60 -194.001c24.667 -108 55 -183.667 91 -227c33.333 -42 84 -66.667 152 -74l-95 -273
c-86.667 19.333 -143.334 46.666 -170.001 81.999z" />
    <glyph glyph-name="uniFE96" unicode="&#x62a;" horiz-adv-x="1099" arabic-form="final" 
d="M616 999l123 127l196 -194l-185 -192l-152 150l-120 -127l-199 198l189 189zM1113 -20l-689.999 0.00195312c-96.667 0 -168 11.333 -214 34c-65.333 28.667 -121 84 -167 166v446c70 -181.333 140.333 -291.333 211 -330c33.333 -18.667 90 -28 170 -28h540
c-1.33301 22 -4 46 -8 72c-6.66699 40 -16.667 77 -30 111c-16 41.333 -39 83 -69 125l-21 30l200 281c38.667 -58 64 -101 76 -129c21.333 -46.667 41.333 -111.334 60 -194.001c24.667 -108 55 -183.667 91 -227c33.333 -42 84 -66.667 152 -74l-95 -273
c-86.667 19.333 -143.334 46.666 -170.001 81.999z" />
    <glyph glyph-name="uniFE97" unicode="&#x62a;" horiz-adv-x="1384" arabic-form="initial" 
d="M549 999l123 127l196 -194l-185 -192l-152 150l-120 -127l-199 198l189 189zM1046 -20l-689.999 0.00195312c-96.667 0 -168 11.333 -214 34c-65.333 28.667 -121 84 -167 166v446c70 -181.333 140.333 -291.333 211 -330c33.333 -18.667 90 -28 170 -28h540
c-1.33301 22 -4 46 -8 72c-6.66699 40 -16.667 77 -30 111c-16 41.333 -39 83 -69 125l-21 30l200 281c38.667 -58 64 -101 76 -129c21.333 -46.667 41.333 -111.334 60 -194.001c24.667 -108 55 -183.667 91 -227c33.333 -42 84 -66.667 152 -74l-95 -273
c-86.667 19.333 -143.334 46.666 -170.001 81.999z" />
    <glyph glyph-name="uniFE98" unicode="&#x62a;" horiz-adv-x="1032" arabic-form="medial" 
d="M549 999l123 127l196 -194l-185 -192l-152 150l-120 -127l-199 198l189 189zM1046 -20l-689.999 0.00195312c-96.667 0 -168 11.333 -214 34c-65.333 28.667 -121 84 -167 166v446c70 -181.333 140.333 -291.333 211 -330c33.333 -18.667 90 -28 170 -28h540
c-1.33301 22 -4 46 -8 72c-6.66699 40 -16.667 77 -30 111c-16 41.333 -39 83 -69 125l-21 30l200 281c38.667 -58 64 -101 76 -129c21.333 -46.667 41.333 -111.334 60 -194.001c24.667 -108 55 -183.667 91 -227c33.333 -42 84 -66.667 152 -74l-95 -273
c-86.667 19.333 -143.334 46.666 -170.001 81.999z" />
    <glyph glyph-name="uniFE9A" unicode="&#x62b;" horiz-adv-x="1099" arabic-form="final" 
d="M795 1202l-178 -187l-179 175l179 188zM616 999l123 127l196 -194l-185 -192l-152 150l-120 -127l-199 198l189 189zM1113 -20l-689.999 0.00195312c-96.667 0 -168 11.333 -214 34c-65.333 28.667 -121 84 -167 166v446c70 -181.333 140.333 -291.333 211 -330
c33.333 -18.667 90 -28 170 -28h540c-1.33301 22 -4 46 -8 72c-6.66699 40 -16.667 77 -30 111c-16 41.333 -39 83 -69 125l-21 30l200 281c38.667 -58 64 -101 76 -129c21.333 -46.667 41.333 -111.334 60 -194.001c24.667 -108 55 -183.667 91 -227
c33.333 -42 84 -66.667 152 -74l-95 -273c-86.667 19.333 -143.334 46.666 -170.001 81.999z" />
    <glyph glyph-name="uniFE9B" unicode="&#x62b;" horiz-adv-x="1384" arabic-form="initial" 
d="M728 1202l-178 -187l-179 175l179 188zM549 999l123 127l196 -194l-185 -192l-152 150l-120 -127l-199 198l189 189zM1046 -20l-689.999 0.00195312c-96.667 0 -168 11.333 -214 34c-65.333 28.667 -121 84 -167 166v446c70 -181.333 140.333 -291.333 211 -330
c33.333 -18.667 90 -28 170 -28h540c-1.33301 22 -4 46 -8 72c-6.66699 40 -16.667 77 -30 111c-16 41.333 -39 83 -69 125l-21 30l200 281c38.667 -58 64 -101 76 -129c21.333 -46.667 41.333 -111.334 60 -194.001c24.667 -108 55 -183.667 91 -227
c33.333 -42 84 -66.667 152 -74l-95 -273c-86.667 19.333 -143.334 46.666 -170.001 81.999z" />
    <glyph glyph-name="uniFE9C" unicode="&#x62b;" horiz-adv-x="1032" arabic-form="medial" 
d="M728 1202l-178 -187l-179 175l179 188zM549 999l123 127l196 -194l-185 -192l-152 150l-120 -127l-199 198l189 189zM1046 -20l-689.999 0.00195312c-96.667 0 -168 11.333 -214 34c-65.333 28.667 -121 84 -167 166v446c70 -181.333 140.333 -291.333 211 -330
c33.333 -18.667 90 -28 170 -28h540c-1.33301 22 -4 46 -8 72c-6.66699 40 -16.667 77 -30 111c-16 41.333 -39 83 -69 125l-21 30l200 281c38.667 -58 64 -101 76 -129c21.333 -46.667 41.333 -111.334 60 -194.001c24.667 -108 55 -183.667 91 -227
c33.333 -42 84 -66.667 152 -74l-95 -273c-86.667 19.333 -143.334 46.666 -170.001 81.999z" />
    <glyph glyph-name="uniFE9E" unicode="&#x62c;" horiz-adv-x="1095" arabic-form="final" 
d="M840 -298l-192 -195l-203 192l192 194zM1315 -10c-86.667 19.333 -143.333 46.666 -170 81.999l-36 -92h-686c-96.667 0 -168 11.333 -214 34c-65.333 28.667 -121 84 -167 166v446c70 -181.333 140.333 -291.333 211 -330c33.333 -18.667 90 -28 170 -28h568
c-26.667 40.667 -52 92.334 -76 155.001l-26 69c-46 121.333 -116 182 -210 182c-34.667 0 -64.667 -6.33301 -90 -19c-20 -11.333 -45.667 -36 -77 -74c-30.667 -34.667 -55.334 -52 -74.001 -52c-32 0 -48 16.333 -48 49c0 4 0.333008 9 1 15l3 16
c18.667 72.667 51.334 138 98.001 196c76 99.333 163.667 149 263 149c176 0 306.333 -119.667 391 -359l39 -111c48 -135.333 123.667 -209.333 227 -222z" />
    <glyph glyph-name="uniFE9F" unicode="&#x62c;" horiz-adv-x="1380" arabic-form="initial" 
d="M773 -298l-192 -195l-203 192l192 194zM1248 -10c-86.667 19.333 -143.333 46.666 -170 81.999l-36 -92h-686c-96.667 0 -168 11.333 -214 34c-65.333 28.667 -121 84 -167 166v446c70 -181.333 140.333 -291.333 211 -330c33.333 -18.667 90 -28 170 -28h568
c-26.667 40.667 -52 92.334 -76 155.001l-26 69c-46 121.333 -116 182 -210 182c-34.667 0 -64.667 -6.33301 -90 -19c-20 -11.333 -45.667 -36 -77 -74c-30.667 -34.667 -55.334 -52 -74.001 -52c-32 0 -48 16.333 -48 49c0 4 0.333008 9 1 15l3 16
c18.667 72.667 51.334 138 98.001 196c76 99.333 163.667 149 263 149c176 0 306.333 -119.667 391 -359l39 -111c48 -135.333 123.667 -209.333 227 -222z" />
    <glyph glyph-name="uniFEA0" unicode="&#x62c;" horiz-adv-x="1028" arabic-form="medial" 
d="M773 -298l-192 -195l-203 192l192 194zM1248 -10c-86.667 19.333 -143.333 46.666 -170 81.999l-36 -92h-686c-96.667 0 -168 11.333 -214 34c-65.333 28.667 -121 84 -167 166v446c70 -181.333 140.333 -291.333 211 -330c33.333 -18.667 90 -28 170 -28h568
c-26.667 40.667 -52 92.334 -76 155.001l-26 69c-46 121.333 -116 182 -210 182c-34.667 0 -64.667 -6.33301 -90 -19c-20 -11.333 -45.667 -36 -77 -74c-30.667 -34.667 -55.334 -52 -74.001 -52c-32 0 -48 16.333 -48 49c0 4 0.333008 9 1 15l3 16
c18.667 72.667 51.334 138 98.001 196c76 99.333 163.667 149 263 149c176 0 306.333 -119.667 391 -359l39 -111c48 -135.333 123.667 -209.333 227 -222z" />
    <glyph glyph-name="uniFEA2" unicode="&#x62d;" horiz-adv-x="1095" arabic-form="final" 
d="M1315 -10c-86.667 19.333 -143.333 46.666 -170 81.999l-36 -92h-686c-96.667 0 -168 11.333 -214 34c-65.333 28.667 -121 84 -167 166v446c70 -181.333 140.333 -291.333 211 -330c33.333 -18.667 90 -28 170 -28h568c-26.667 40.667 -52 92.334 -76 155.001l-26 69
c-46 121.333 -116 182 -210 182c-34.667 0 -64.667 -6.33301 -90 -19c-20 -11.333 -45.667 -36 -77 -74c-30.667 -34.667 -55.334 -52 -74.001 -52c-32 0 -48 16.333 -48 49c0 4 0.333008 9 1 15l3 16c18.667 72.667 51.334 138 98.001 196c76 99.333 163.667 149 263 149
c176 0 306.333 -119.667 391 -359l39 -111c48 -135.333 123.667 -209.333 227 -222z" />
    <glyph glyph-name="uniFEA3" unicode="&#x62d;" horiz-adv-x="1380" arabic-form="initial" 
d="M1248 -10c-86.667 19.333 -143.333 46.666 -170 81.999l-36 -92h-686c-96.667 0 -168 11.333 -214 34c-65.333 28.667 -121 84 -167 166v446c70 -181.333 140.333 -291.333 211 -330c33.333 -18.667 90 -28 170 -28h568c-26.667 40.667 -52 92.334 -76 155.001l-26 69
c-46 121.333 -116 182 -210 182c-34.667 0 -64.667 -6.33301 -90 -19c-20 -11.333 -45.667 -36 -77 -74c-30.667 -34.667 -55.334 -52 -74.001 -52c-32 0 -48 16.333 -48 49c0 4 0.333008 9 1 15l3 16c18.667 72.667 51.334 138 98.001 196c76 99.333 163.667 149 263 149
c176 0 306.333 -119.667 391 -359l39 -111c48 -135.333 123.667 -209.333 227 -222z" />
    <glyph glyph-name="uniFEA4" unicode="&#x62d;" horiz-adv-x="1028" arabic-form="medial" 
d="M1248 -10c-86.667 19.333 -143.333 46.666 -170 81.999l-36 -92h-686c-96.667 0 -168 11.333 -214 34c-65.333 28.667 -121 84 -167 166v446c70 -181.333 140.333 -291.333 211 -330c33.333 -18.667 90 -28 170 -28h568c-26.667 40.667 -52 92.334 -76 155.001l-26 69
c-46 121.333 -116 182 -210 182c-34.667 0 -64.667 -6.33301 -90 -19c-20 -11.333 -45.667 -36 -77 -74c-30.667 -34.667 -55.334 -52 -74.001 -52c-32 0 -48 16.333 -48 49c0 4 0.333008 9 1 15l3 16c18.667 72.667 51.334 138 98.001 196c76 99.333 163.667 149 263 149
c176 0 306.333 -119.667 391 -359l39 -111c48 -135.333 123.667 -209.333 227 -222z" />
    <glyph glyph-name="uniFEA6" unicode="&#x62e;" horiz-adv-x="1095" arabic-form="final" 
d="M928 1202l-193 -194l-198 194l192 196zM1315 -10c-86.667 19.333 -143.333 46.666 -170 81.999l-36 -92h-686c-96.667 0 -168 11.333 -214 34c-65.333 28.667 -121 84 -167 166v446c70 -181.333 140.333 -291.333 211 -330c33.333 -18.667 90 -28 170 -28h568
c-26.667 40.667 -52 92.334 -76 155.001l-26 69c-46 121.333 -116 182 -210 182c-34.667 0 -64.667 -6.33301 -90 -19c-20 -11.333 -45.667 -36 -77 -74c-30.667 -34.667 -55.334 -52 -74.001 -52c-32 0 -48 16.333 -48 49c0 4 0.333008 9 1 15l3 16
c18.667 72.667 51.334 138 98.001 196c76 99.333 163.667 149 263 149c176 0 306.333 -119.667 391 -359l39 -111c48 -135.333 123.667 -209.333 227 -222z" />
    <glyph glyph-name="uniFEA7" unicode="&#x62e;" horiz-adv-x="1380" arabic-form="initial" 
d="M861 1202l-193 -194l-198 194l192 196zM1248 -10c-86.667 19.333 -143.333 46.666 -170 81.999l-36 -92h-686c-96.667 0 -168 11.333 -214 34c-65.333 28.667 -121 84 -167 166v446c70 -181.333 140.333 -291.333 211 -330c33.333 -18.667 90 -28 170 -28h568
c-26.667 40.667 -52 92.334 -76 155.001l-26 69c-46 121.333 -116 182 -210 182c-34.667 0 -64.667 -6.33301 -90 -19c-20 -11.333 -45.667 -36 -77 -74c-30.667 -34.667 -55.334 -52 -74.001 -52c-32 0 -48 16.333 -48 49c0 4 0.333008 9 1 15l3 16
c18.667 72.667 51.334 138 98.001 196c76 99.333 163.667 149 263 149c176 0 306.333 -119.667 391 -359l39 -111c48 -135.333 123.667 -209.333 227 -222z" />
    <glyph glyph-name="uniFEA8" unicode="&#x62e;" horiz-adv-x="1028" arabic-form="medial" 
d="M861 1202l-193 -194l-198 194l192 196zM1248 -10c-86.667 19.333 -143.333 46.666 -170 81.999l-36 -92h-686c-96.667 0 -168 11.333 -214 34c-65.333 28.667 -121 84 -167 166v446c70 -181.333 140.333 -291.333 211 -330c33.333 -18.667 90 -28 170 -28h568
c-26.667 40.667 -52 92.334 -76 155.001l-26 69c-46 121.333 -116 182 -210 182c-34.667 0 -64.667 -6.33301 -90 -19c-20 -11.333 -45.667 -36 -77 -74c-30.667 -34.667 -55.334 -52 -74.001 -52c-32 0 -48 16.333 -48 49c0 4 0.333008 9 1 15l3 16
c18.667 72.667 51.334 138 98.001 196c76 99.333 163.667 149 263 149c176 0 306.333 -119.667 391 -359l39 -111c48 -135.333 123.667 -209.333 227 -222z" />
    <glyph glyph-name="uniFEAA" unicode="&#x62f;" horiz-adv-x="706" arabic-form="final" 
d="M761 100c-37.333 -80 -72.001 -119.999 -104.001 -119.999h-354c-56 0 -102.667 5.33301 -140 16c-80.667 22.667 -121 76 -121 160c0 66.667 22.333 152 67 256c24 55.333 49 83 75 83c27.333 0 41 -15 41 -45l-4 -42c-2.66699 -11.333 -4 -23 -4 -35
c0 -44.667 15 -74.667 45 -90c18 -10 68.333 -15 151 -15h236c-4 12 -9 31 -15 57l-14 71c-10.667 40.667 -24 80 -40 118c-22 55.333 -55.333 114.333 -100 177l106 301c106.667 -83.333 182.334 -231.333 227.001 -444l27 -116c13.333 -54.667 34.333 -95.334 63 -122.001
c26.667 -26 66.667 -41.667 120 -47l-97 -274c-92.667 23.333 -150.667 53.333 -174 90z" />
    <glyph glyph-name="uniFEAC" unicode="&#x630;" horiz-adv-x="706" arabic-form="final" 
d="M681 1199l-193 -205l-203 202l196 198zM761 100c-37.333 -80 -72.001 -119.999 -104.001 -119.999h-354c-56 0 -102.667 5.33301 -140 16c-80.667 22.667 -121 76 -121 160c0 66.667 22.333 152 67 256c24 55.333 49 83 75 83c27.333 0 41 -15 41 -45l-4 -42
c-2.66699 -11.333 -4 -23 -4 -35c0 -44.667 15 -74.667 45 -90c18 -10 68.333 -15 151 -15h236c-4 12 -9 31 -15 57l-14 71c-10.667 40.667 -24 80 -40 118c-22 55.333 -55.333 114.333 -100 177l106 301c106.667 -83.333 182.334 -231.333 227.001 -444l27 -116
c13.333 -54.667 34.333 -95.334 63 -122.001c26.667 -26 66.667 -41.667 120 -47l-97 -274c-92.667 23.333 -150.667 53.333 -174 90z" />
    <glyph glyph-name="uniFEAE" unicode="&#x631;" horiz-adv-x="335" arabic-form="final" 
d="M466 32c-33.333 -166 -69.999 -283.666 -109.999 -352.999c-62.667 -110 -155 -165 -277 -165c-90.667 0 -194.667 46.333 -312 139c-83.333 67.333 -125 110.666 -125 129.999c0 24.667 14.667 37 44 37c8.66699 0 16.667 -1 24 -3l43 -15
c66.667 -22 130.334 -33 191.001 -33c178.667 0 307.667 128.333 387 385l-9 14c-22.667 40 -45 85 -67 135c-24.667 59.333 -51.334 107 -80.001 143l112 314c46 -55.333 76.667 -101.333 92 -138l47 -112c64 -153.333 144 -236 240 -248l-95 -272
c-46.667 10 -89.334 26.667 -128.001 50l21 -17z" />
    <glyph glyph-name="uniFEB0" unicode="&#x632;" horiz-adv-x="339" arabic-form="final" 
d="M406 1064l-195 -205l-205 196l195 199zM466 32c-33.333 -166 -69.999 -283.666 -109.999 -352.999c-62.667 -110 -155 -165 -277 -165c-90.667 0 -194.667 46.333 -312 139c-83.333 67.333 -125 110.666 -125 129.999c0 24.667 14.667 37 44 37
c8.66699 0 16.667 -1 24 -3l43 -15c66.667 -22 130.334 -33 191.001 -33c178.667 0 307.667 128.333 387 385l-9 14c-22.667 40 -45 85 -67 135c-24.667 59.333 -51.334 107 -80.001 143l112 314c46 -55.333 76.667 -101.333 92 -138l47 -112c64 -153.333 144 -236 240 -248
l-95 -272c-46.667 10 -89.334 26.667 -128.001 50l21 -17z" />
    <glyph glyph-name="uniFEB2" unicode="&#x633;" horiz-adv-x="1202" arabic-form="final" 
d="M1231 1011c46 -74.667 75.6729 -134.331 89.0059 -178.998c24.667 -68.667 41.667 -166.667 51 -294c5.33301 -82.667 12.666 -144 21.999 -184c13.333 -52.667 51.666 -82.334 114.999 -89.001l-109 -274c-101.333 35.333 -159 69.666 -173 102.999l-30 -81
c-29.333 -6.66699 -57.333 -10 -84 -10c-129.333 0 -213.666 45.333 -252.999 136l-57 -126c-28 -11.333 -53.667 -17 -77 -17c-90.667 0 -158.334 27 -203.001 81c-58.667 -59.333 -140 -89 -244 -89c-38.667 0 -84.334 7.66699 -137.001 23l103 260l64 -3
c48.667 0 85 8 109 24c-1.33301 22 -4.66602 45.333 -9.99902 70c-16 82 -36.333 143 -61 183l134 352c48 -69.333 80.333 -124.666 97 -165.999c20.667 -52.667 34 -106.667 40 -162l14 -146c5.33301 -67.333 17.666 -110.333 36.999 -129
c19.333 -17.333 43.666 -26 72.999 -26s50.666 6.66699 63.999 20l-41 190l149 371c64 -156.667 98.333 -282.334 103 -377.001c4.66699 -81.333 13 -133 25 -155c17.333 -31.333 44.333 -47 81 -47c19.333 0 32.666 2 39.999 6l-5 79c-6 110.667 -27 205.667 -63 285z" />
    <glyph glyph-name="uniFEB3" unicode="&#x633;" horiz-adv-x="1476" arabic-form="initial" 
d="M1165 1011c46 -74.667 75.6729 -134.331 89.0059 -178.998c24.667 -68.667 41.667 -166.667 51 -294c5.33301 -82.667 12.666 -144 21.999 -184c13.333 -52.667 51.666 -82.334 114.999 -89.001l-109 -274c-101.333 35.333 -159 69.666 -173 102.999l-30 -81
c-29.333 -6.66699 -57.333 -10 -84 -10c-129.333 0 -213.666 45.333 -252.999 136l-57 -126c-28 -11.333 -53.667 -17 -77 -17c-90.667 0 -158.334 27 -203.001 81c-58.667 -59.333 -140 -89 -244 -89c-38.667 0 -84.334 7.66699 -137.001 23l103 260l64 -3
c48.667 0 85 8 109 24c-1.33301 22 -4.66602 45.333 -9.99902 70c-16 82 -36.333 143 -61 183l134 352c48 -69.333 80.333 -124.666 97 -165.999c20.667 -52.667 34 -106.667 40 -162l14 -146c5.33301 -67.333 17.666 -110.333 36.999 -129
c19.333 -17.333 43.666 -26 72.999 -26s50.666 6.66699 63.999 20l-41 190l149 371c64 -156.667 98.333 -282.334 103 -377.001c4.66699 -81.333 13 -133 25 -155c17.333 -31.333 44.333 -47 81 -47c19.333 0 32.666 2 39.999 6l-5 79c-6 110.667 -27 205.667 -63 285z" />
    <glyph glyph-name="uniFEB4" unicode="&#x633;" horiz-adv-x="1202" arabic-form="medial" 
d="M1231 1011c46 -74.667 75.6729 -134.331 89.0059 -178.998c24.667 -68.667 41.667 -166.667 51 -294c5.33301 -82.667 12.666 -144 21.999 -184c13.333 -52.667 51.666 -82.334 114.999 -89.001l-109 -274c-101.333 35.333 -159 69.666 -173 102.999l-30 -81
c-29.333 -6.66699 -57.333 -10 -84 -10c-129.333 0 -213.666 45.333 -252.999 136l-57 -126c-28 -11.333 -53.667 -17 -77 -17c-90.667 0 -158.334 27 -203.001 81c-58.667 -59.333 -140 -89 -244 -89c-38.667 0 -84.334 7.66699 -137.001 23l103 260l64 -3
c48.667 0 85 8 109 24c-1.33301 22 -4.66602 45.333 -9.99902 70c-16 82 -36.333 143 -61 183l134 352c48 -69.333 80.333 -124.666 97 -165.999c20.667 -52.667 34 -106.667 40 -162l14 -146c5.33301 -67.333 17.666 -110.333 36.999 -129
c19.333 -17.333 43.666 -26 72.999 -26s50.666 6.66699 63.999 20l-41 190l149 371c64 -156.667 98.333 -282.334 103 -377.001c4.66699 -81.333 13 -133 25 -155c17.333 -31.333 44.333 -47 81 -47c19.333 0 32.666 2 39.999 6l-5 79c-6 110.667 -27 205.667 -63 285z" />
    <glyph glyph-name="uniFEB6" unicode="&#x634;" horiz-adv-x="1202" arabic-form="final" 
d="M1016 1232l-167 -185l-176 169l168 189zM1125 996l-145 -170l-133 121l-104 -122l-166 159l146 169l130 -124l111 124zM1231 1011c46 -74.667 75.6729 -134.331 89.0059 -178.998c24.667 -68.667 41.667 -166.667 51 -294c5.33301 -82.667 12.666 -144 21.999 -184
c13.333 -52.667 51.666 -82.334 114.999 -89.001l-109 -274c-101.333 35.333 -159 69.666 -173 102.999l-30 -81c-29.333 -6.66699 -57.333 -10 -84 -10c-129.333 0 -213.666 45.333 -252.999 136l-57 -126c-28 -11.333 -53.667 -17 -77 -17
c-90.667 0 -158.334 27 -203.001 81c-58.667 -59.333 -140 -89 -244 -89c-38.667 0 -84.334 7.66699 -137.001 23l103 260l64 -3c48.667 0 85 8 109 24c-1.33301 22 -4.66602 45.333 -9.99902 70c-16 82 -36.333 143 -61 183l134 352
c48 -69.333 80.333 -124.666 97 -165.999c20.667 -52.667 34 -106.667 40 -162l14 -146c5.33301 -67.333 17.666 -110.333 36.999 -129c19.333 -17.333 43.666 -26 72.999 -26s50.666 6.66699 63.999 20l-41 190l149 371c64 -156.667 98.333 -282.334 103 -377.001
c4.66699 -81.333 13 -133 25 -155c17.333 -31.333 44.333 -47 81 -47c19.333 0 32.666 2 39.999 6l-5 79c-6 110.667 -27 205.667 -63 285z" />
    <glyph glyph-name="uniFEB7" unicode="&#x634;" horiz-adv-x="1542" arabic-form="initial" 
d="M1016 1232l-167 -185l-176 169l168 189zM1125 996l-145 -170l-133 121l-104 -122l-166 159l146 169l130 -124l111 124zM1231 1011c46 -74.667 75.6729 -134.331 89.0059 -178.998c24.667 -68.667 41.667 -166.667 51 -294c5.33301 -82.667 12.666 -144 21.999 -184
c13.333 -52.667 51.666 -82.334 114.999 -89.001l-109 -274c-101.333 35.333 -159 69.666 -173 102.999l-30 -81c-29.333 -6.66699 -57.333 -10 -84 -10c-129.333 0 -213.666 45.333 -252.999 136l-57 -126c-28 -11.333 -53.667 -17 -77 -17
c-90.667 0 -158.334 27 -203.001 81c-58.667 -59.333 -140 -89 -244 -89c-38.667 0 -84.334 7.66699 -137.001 23l103 260l64 -3c48.667 0 85 8 109 24c-1.33301 22 -4.66602 45.333 -9.99902 70c-16 82 -36.333 143 -61 183l134 352
c48 -69.333 80.333 -124.666 97 -165.999c20.667 -52.667 34 -106.667 40 -162l14 -146c5.33301 -67.333 17.666 -110.333 36.999 -129c19.333 -17.333 43.666 -26 72.999 -26s50.666 6.66699 63.999 20l-41 190l149 371c64 -156.667 98.333 -282.334 103 -377.001
c4.66699 -81.333 13 -133 25 -155c17.333 -31.333 44.333 -47 81 -47c19.333 0 32.666 2 39.999 6l-5 79c-6 110.667 -27 205.667 -63 285z" />
    <glyph glyph-name="uniFEB8" unicode="&#x634;" horiz-adv-x="1202" arabic-form="medial" 
d="M1016 1232l-167 -185l-176 169l168 189zM1125 996l-145 -170l-133 121l-104 -122l-166 159l146 169l130 -124l111 124zM1231 1011c46 -74.667 75.6729 -134.331 89.0059 -178.998c24.667 -68.667 41.667 -166.667 51 -294c5.33301 -82.667 12.666 -144 21.999 -184
c13.333 -52.667 51.666 -82.334 114.999 -89.001l-109 -274c-101.333 35.333 -159 69.666 -173 102.999l-30 -81c-29.333 -6.66699 -57.333 -10 -84 -10c-129.333 0 -213.666 45.333 -252.999 136l-57 -126c-28 -11.333 -53.667 -17 -77 -17
c-90.667 0 -158.334 27 -203.001 81c-58.667 -59.333 -140 -89 -244 -89c-38.667 0 -84.334 7.66699 -137.001 23l103 260l64 -3c48.667 0 85 8 109 24c-1.33301 22 -4.66602 45.333 -9.99902 70c-16 82 -36.333 143 -61 183l134 352
c48 -69.333 80.333 -124.666 97 -165.999c20.667 -52.667 34 -106.667 40 -162l14 -146c5.33301 -67.333 17.666 -110.333 36.999 -129c19.333 -17.333 43.666 -26 72.999 -26s50.666 6.66699 63.999 20l-41 190l149 371c64 -156.667 98.333 -282.334 103 -377.001
c4.66699 -81.333 13 -133 25 -155c17.333 -31.333 44.333 -47 81 -47c19.333 0 32.666 2 39.999 6l-5 79c-6 110.667 -27 205.667 -63 285z" />
    <glyph glyph-name="uniFEBA" unicode="&#x635;" horiz-adv-x="1101" arabic-form="final" 
d="M1304 -8c-102 30.667 -161.667 62.999 -179 96.999l-5 -10c-30.667 -66 -71.667 -99 -123 -99h-574c-96.667 0 -168 11.333 -214 34c-65.333 28.667 -121 84 -167 166v448c53.333 -139.333 94.333 -226.333 123 -261c29.333 -30.667 58.666 -54.667 87.999 -72
c33.333 -18 80 -27 140 -27h1l-6 65c-8.66699 81.333 -24.667 160.333 -48 237l102 247l46 -133l19 -62c12 -39.333 19 -66.666 21 -81.999c15.333 28 44.333 67.333 87 118c106.667 127.333 222.334 191 347.001 191c112.667 0 196 -50.333 250 -151
c17.333 -32.667 30.333 -69 39 -109c8 -36 19.667 -97.667 35 -185c14 -86.667 54 -133 120 -139zM1052 267.999c-6.66699 14 -11.667 50 -15 108c-7.33301 103.333 -54.333 155 -141 155c-128 0 -232.667 -87.667 -314 -263h470z" />
    <glyph glyph-name="uniFEBB" unicode="&#x635;" horiz-adv-x="1374" arabic-form="initial" 
d="M1237 -8c-102 30.667 -161.667 62.999 -179 96.999l-5 -10c-30.667 -66 -71.667 -99 -123 -99h-574c-96.667 0 -168 11.333 -214 34c-65.333 28.667 -121 84 -167 166v448c53.333 -139.333 94.333 -226.333 123 -261c29.333 -30.667 58.666 -54.667 87.999 -72
c33.333 -18 80 -27 140 -27h1l-6 65c-8.66699 81.333 -24.667 160.333 -48 237l102 247l46 -133l19 -62c12 -39.333 19 -66.666 21 -81.999c15.333 28 44.333 67.333 87 118c106.667 127.333 222.334 191 347.001 191c112.667 0 196 -50.333 250 -151
c17.333 -32.667 30.333 -69 39 -109c8 -36 19.667 -97.667 35 -185c14 -86.667 54 -133 120 -139zM985 267.999c-6.66699 14 -11.667 50 -15 108c-7.33301 103.333 -54.333 155 -141 155c-128 0 -232.667 -87.667 -314 -263h470z" />
    <glyph glyph-name="uniFEBC" unicode="&#x635;" horiz-adv-x="1034" arabic-form="medial" 
d="M1237 -8c-102 30.667 -161.667 62.999 -179 96.999l-5 -10c-30.667 -66 -71.667 -99 -123 -99h-574c-96.667 0 -168 11.333 -214 34c-65.333 28.667 -121 84 -167 166v448c53.333 -139.333 94.333 -226.333 123 -261c29.333 -30.667 58.666 -54.667 87.999 -72
c33.333 -18 80 -27 140 -27h1l-6 65c-8.66699 81.333 -24.667 160.333 -48 237l102 247l46 -133l19 -62c12 -39.333 19 -66.666 21 -81.999c15.333 28 44.333 67.333 87 118c106.667 127.333 222.334 191 347.001 191c112.667 0 196 -50.333 250 -151
c17.333 -32.667 30.333 -69 39 -109c8 -36 19.667 -97.667 35 -185c14 -86.667 54 -133 120 -139zM985 267.999c-6.66699 14 -11.667 50 -15 108c-7.33301 103.333 -54.333 155 -141 155c-128 0 -232.667 -87.667 -314 -263h470z" />
    <glyph glyph-name="uniFEBE" unicode="&#x636;" horiz-adv-x="1101" arabic-form="final" 
d="M967 1203l-188 -203l-207 193l190 205zM1304 -8c-102 30.667 -161.667 62.999 -179 96.999l-5 -10c-30.667 -66 -71.667 -99 -123 -99h-574c-96.667 0 -168 11.333 -214 34c-65.333 28.667 -121 84 -167 166v448c53.333 -139.333 94.333 -226.333 123 -261
c29.333 -30.667 58.666 -54.667 87.999 -72c33.333 -18 80 -27 140 -27h1l-6 65c-8.66699 81.333 -24.667 160.333 -48 237l102 247l46 -133l19 -62c12 -39.333 19 -66.666 21 -81.999c15.333 28 44.333 67.333 87 118c106.667 127.333 222.334 191 347.001 191
c112.667 0 196 -50.333 250 -151c17.333 -32.667 30.333 -69 39 -109c8 -36 19.667 -97.667 35 -185c14 -86.667 54 -133 120 -139zM1052 267.999c-6.66699 14 -11.667 50 -15 108c-7.33301 103.333 -54.333 155 -141 155c-128 0 -232.667 -87.667 -314 -263h470z" />
    <glyph glyph-name="uniFEBF" unicode="&#x636;" horiz-adv-x="1374" arabic-form="initial" 
d="M900 1203l-188 -203l-207 193l190 205zM1237 -8c-102 30.667 -161.667 62.999 -179 96.999l-5 -10c-30.667 -66 -71.667 -99 -123 -99h-574c-96.667 0 -168 11.333 -214 34c-65.333 28.667 -121 84 -167 166v448c53.333 -139.333 94.333 -226.333 123 -261
c29.333 -30.667 58.666 -54.667 87.999 -72c33.333 -18 80 -27 140 -27h1l-6 65c-8.66699 81.333 -24.667 160.333 -48 237l102 247l46 -133l19 -62c12 -39.333 19 -66.666 21 -81.999c15.333 28 44.333 67.333 87 118c106.667 127.333 222.334 191 347.001 191
c112.667 0 196 -50.333 250 -151c17.333 -32.667 30.333 -69 39 -109c8 -36 19.667 -97.667 35 -185c14 -86.667 54 -133 120 -139zM985 267.999c-6.66699 14 -11.667 50 -15 108c-7.33301 103.333 -54.333 155 -141 155c-128 0 -232.667 -87.667 -314 -263h470z" />
    <glyph glyph-name="uniFEC0" unicode="&#x636;" horiz-adv-x="1034" arabic-form="medial" 
d="M900 1203l-188 -203l-207 193l190 205zM1237 -8c-102 30.667 -161.667 62.999 -179 96.999l-5 -10c-30.667 -66 -71.667 -99 -123 -99h-574c-96.667 0 -168 11.333 -214 34c-65.333 28.667 -121 84 -167 166v448c53.333 -139.333 94.333 -226.333 123 -261
c29.333 -30.667 58.666 -54.667 87.999 -72c33.333 -18 80 -27 140 -27h1l-6 65c-8.66699 81.333 -24.667 160.333 -48 237l102 247l46 -133l19 -62c12 -39.333 19 -66.666 21 -81.999c15.333 28 44.333 67.333 87 118c106.667 127.333 222.334 191 347.001 191
c112.667 0 196 -50.333 250 -151c17.333 -32.667 30.333 -69 39 -109c8 -36 19.667 -97.667 35 -185c14 -86.667 54 -133 120 -139zM985 267.999c-6.66699 14 -11.667 50 -15 108c-7.33301 103.333 -54.333 155 -141 155c-128 0 -232.667 -87.667 -314 -263h470z" />
    <glyph glyph-name="uniFEC2" unicode="&#x637;" horiz-adv-x="1101" arabic-form="final" 
d="M1304 -8c-102.667 30.667 -164 62.999 -184 96.999l-3 -9c-26 -66.667 -66 -100 -120 -100h-574c-96.667 0 -168 11.333 -214 34c-65.333 28.667 -121 84 -167 166v446c70 -181.333 140.333 -291.333 211 -330c32.667 -17.333 73.334 -26.666 122.001 -27.999l-16 582
c-2.66699 136 -23.334 237 -62.001 303l188 229c58 -104.667 93.667 -191.667 107 -261c12 -68.667 18 -185.667 18 -351v-116l-34 -46c122 160.667 250.667 241 386 241c64 0 122.333 -20.333 175 -61c61.333 -50 105 -144.333 131 -283l18 -101
c15.333 -86.667 55.333 -133 120 -139zM1052 267.999c-6.66699 14 -11.667 50 -15 108c-7.33301 103.333 -54.333 155 -141 155c-128 0 -232.667 -87.667 -314 -263h470z" />
    <glyph glyph-name="uniFEC3" unicode="&#x637;" horiz-adv-x="1374" arabic-form="initial" 
d="M1237 -8c-102.667 30.667 -164 62.999 -184 96.999l-3 -9c-26 -66.667 -66 -100 -120 -100h-574c-96.667 0 -168 11.333 -214 34c-65.333 28.667 -121 84 -167 166v446c70 -181.333 140.333 -291.333 211 -330c32.667 -17.333 73.334 -26.666 122.001 -27.999l-16 582
c-2.66699 136 -23.334 237 -62.001 303l188 229c58 -104.667 93.667 -191.667 107 -261c12 -68.667 18 -185.667 18 -351v-116l-34 -46c122 160.667 250.667 241 386 241c64 0 122.333 -20.333 175 -61c61.333 -50 105 -144.333 131 -283l18 -101
c15.333 -86.667 55.333 -133 120 -139zM985 267.999c-6.66699 14 -11.667 50 -15 108c-7.33301 103.333 -54.333 155 -141 155c-128 0 -232.667 -87.667 -314 -263h470z" />
    <glyph glyph-name="uniFEC4" unicode="&#x637;" horiz-adv-x="1034" arabic-form="medial" 
d="M1237 -8c-102.667 30.667 -164 62.999 -184 96.999l-3 -9c-26 -66.667 -66 -100 -120 -100h-574c-96.667 0 -168 11.333 -214 34c-65.333 28.667 -121 84 -167 166v446c70 -181.333 140.333 -291.333 211 -330c32.667 -17.333 73.334 -26.666 122.001 -27.999l-16 582
c-2.66699 136 -23.334 237 -62.001 303l188 229c58 -104.667 93.667 -191.667 107 -261c12 -68.667 18 -185.667 18 -351v-116l-34 -46c122 160.667 250.667 241 386 241c64 0 122.333 -20.333 175 -61c61.333 -50 105 -144.333 131 -283l18 -101
c15.333 -86.667 55.333 -133 120 -139zM985 267.999c-6.66699 14 -11.667 50 -15 108c-7.33301 103.333 -54.333 155 -141 155c-128 0 -232.667 -87.667 -314 -263h470z" />
    </font>
</defs>
</svg>
