<?xml version="1.0" standalone="no"?>
<!DOCTYPE svg PUBLIC "-//W3C//DTD SVG 1.1//EN" "http://www.w3.org/Graphics/SVG/1.1/DTD/svg11.dtd" >
<svg>
<metadata>
Created by FontForge 20090914 at Wed Oct 19 01:12:30 2011
 By www-data
(c) by Abolfazl Seilsepour - +98 912 591 3420  -  seilsepor@yahoo.com
</metadata>
<defs>
<font id="Far.Farnaz" horiz-adv-x="0" >
  <font-face 
    font-family="Far.Farnaz"
    font-weight="400"
    font-stretch="normal"
    units-per-em="2048"
    panose-1="0 0 4 0 0 0 0 0 0 0"
    ascent="1638"
    descent="-410"
    bbox="-201 -1002 2492 2032"
    underline-thickness="20"
    underline-position="-123"
    unicode-range="U+0020-U+FEFC"
  />
<missing-glyph horiz-adv-x="1024" 
d="M128 0v1385h768v-1385h-768zM256 128h512v1129h-512v-1129z" />
    <glyph glyph-name="uE818" unicode="&#x651;&#x64b;" 
d="M730 2002l-14 -71h-293l14 71h293zM704 1874l-14 -70h-293l14 70h293zM712 1656c0 -27.333 -10.5 -52.834 -31.5 -76.501s-45.167 -35.5 -72.5 -35.5c-37.333 0 -64.333 10.333 -81 31c-24.667 -19.333 -48 -29 -70 -29c-28.667 0 -51.667 10.333 -69 31
c-16.667 18.667 -25 42.667 -25 72c0 24 16.333 59.333 49 106l52 -23c-23.333 -42.667 -35 -75.667 -35 -99c0 -20.667 9.66699 -31 29 -31c24 0 40 12.333 48 37c6 30.667 11.667 61.667 17 93l61 -6c-10 -54 -15 -83.333 -15 -88c0 -26.667 13 -40 39 -40
c31.333 0 47 26.333 47 79c0 19.333 -2.66699 36.333 -8 51l56 13c6 -31.333 9 -59.666 9 -84.999z" />
    <glyph glyph-name="uFC5E" unicode="&#x651;&#x64c;" arabic-form="isolated" 
d="M709 1698c0 -27.333 -10.5 -52.834 -31.5 -76.501s-45.167 -35.5 -72.5 -35.5c-37.333 0 -64.333 10.333 -81 31c-24.667 -19.333 -48 -29 -70 -29c-28.667 0 -51.5 10 -68.5 30s-25.5 44.333 -25.5 73c0 24 16.333 59.333 49 106l52 -23
c-23.333 -42.667 -35 -75.667 -35 -99c0 -20.667 9.66699 -31 29 -31c24 0 40 12.333 48 37c6 30.667 11.667 61.667 17 93l61 -6c-10 -54 -15 -83.333 -15 -88c0 -26.667 13 -40 39 -40c31.333 0 47 26.333 47 79c0 19.333 -2.66699 36.333 -8 51l56 13
c6 -31.333 9 -59.666 9 -84.999zM742 2004l-31.999 -138c-4 -19.333 -17.333 -29 -40 -29h-274l18 61h35l-33 108l44 11l37 -119h4l29 99c7.33301 23.333 20.666 35 39.999 35h140c26 0 36.667 -9.33301 32 -28zM668.001 1965c-51.333 0 -79.333 -7 -84 -21l-14 -42h83z" />
    <glyph glyph-name="uFC5F" unicode="&#x651;&#x64d;" arabic-form="isolated" 
d="M718 1878c0 -27.333 -10.5 -52.834 -31.5 -76.501s-45.167 -35.5 -72.5 -35.5c-37.333 0 -64.333 10.333 -81 31c-24.667 -19.333 -48 -29 -70 -29c-28.667 0 -51.5 10 -68.5 30s-25.5 44.333 -25.5 73c0 24 16.333 59.333 49 106l52 -23
c-23.333 -42.667 -35 -75.667 -35 -99c0 -20.667 9.66699 -31 29 -31c24 0 40 12.333 48 37c6 30.667 11.667 61.667 17 93l61 -6c-10 -54 -15 -83.333 -15 -88c0 -26.667 13 -40 39 -40c31.333 0 47 26.333 47 79c0 19.333 -2.66699 36.333 -8 51l56 13
c6 -31.333 9 -59.666 9 -84.999zM706 1734l-14 -71h-293l14 71h293zM680 1606l-14 -70h-293l14 70h293z" />
    <glyph glyph-name="uFC60" unicode="&#x651;&#x64e;" arabic-form="isolated" 
d="M725 1659c0 -27.333 -10.5 -52.834 -31.5 -76.501s-45.167 -35.5 -72.5 -35.5c-37.333 0 -64.333 10.333 -81 31c-24.667 -19.333 -48 -29 -70 -29c-28.667 0 -51.5 9.83301 -68.5 29.5s-25.5 44.167 -25.5 73.5c0 24 16.333 59.333 49 106l52 -23
c-23.333 -42.667 -35 -75.667 -35 -99c0 -20.667 9.66699 -31 29 -31c24 0 40 12.333 48 37c6 30.667 11.667 61.667 17 93l61 -6c-10 -54 -15 -83.333 -15 -88c0 -26.667 13 -40 39 -40c31.333 0 47 26.333 47 79c0 19.333 -2.66699 36.333 -8 51l56 13
c6 -31.333 9 -59.666 9 -84.999zM716 1891l-14 -70h-293l14 70h293z" />
    <glyph glyph-name="uFC61" unicode="&#x651;&#x64f;" arabic-form="isolated" 
d="M750 1960l-32.001 -138c-4.66699 -18.667 -18 -28 -40 -28h-274l18 61h87l29 99c6.66699 22.667 20.334 34 41.001 34h139c25.333 0 36 -9.33301 32 -28zM711.999 1655c0 -27.333 -10.5 -52.834 -31.5 -76.501s-45.167 -35.5 -72.5 -35.5
c-37.333 0 -64.333 10.333 -81 31c-24.667 -19.333 -48 -29 -70 -29c-28.667 0 -51.5 9.83301 -68.5 29.5s-25.5 44.167 -25.5 73.5c0 24 16.333 59.333 49 106l52 -23c-23.333 -42.667 -35 -75.667 -35 -99c0 -20.667 9.66699 -31 29 -31c24 0 40 12.333 48 37
c6 30.667 11.667 61.667 17 93l61 -6c-10 -54 -15 -83.333 -15 -88c0 -26.667 13 -40 39 -40c31.333 0 47 26.333 47 79c0 19.333 -2.66699 36.333 -8 51l56 13c6 -31.333 9 -59.666 9 -84.999zM675.999 1921c-52 0 -80 -6.66699 -84 -20l-13 -43h82z" />
    <glyph glyph-name="uFC62" unicode="&#x651;&#x650;" arabic-form="isolated" 
d="M712 1760c0 -27.333 -10.5 -52.834 -31.5 -76.501s-45.167 -35.5 -72.5 -35.5c-37.333 0 -64.333 10.333 -81 31c-24.667 -19.333 -48 -29 -70 -29c-28.667 0 -51.5 10 -68.5 30s-25.5 44.333 -25.5 73c0 24 16.333 59.333 49 106l52 -23
c-23.333 -42.667 -35 -75.667 -35 -99c0 -20.667 9.66699 -31 29 -31c24 0 40 12.333 48 37c6 30.667 11.667 61.667 17 93l61 -6c-10 -54 -15 -83.333 -15 -88c0 -26.667 13 -40 39 -40c31.333 0 47 26.333 47 79c0 19.333 -2.66699 36.333 -8 51l56 13
c6 -31.333 9 -59.666 9 -84.999zM704 1578l-14 -70h-293l14 70h293z" />
    <glyph glyph-name="uFDF2" unicode="&#xfedf;&#xfee0;&#xfeea;" horiz-adv-x="1944" arabic-form="isolated" 
d="M1561 1399c-21.333 -64 -30.999 -118.667 -28.999 -164h-40c-2.66699 44.667 5.66602 101.667 24.999 171zM1654 1098c0 -27.333 -10.5 -52.834 -31.5 -76.501s-45.167 -35.5 -72.5 -35.5c-37.333 0 -64.333 10.333 -81 31c-24.667 -19.333 -48 -29 -70 -29
c-28.667 0 -51.5 9.83301 -68.5 29.5s-25.5 44.167 -25.5 73.5c0 24 16.333 59.333 49 106l52 -23c-23.333 -42.667 -35 -75.667 -35 -99c0 -20.667 9.66699 -31 29 -31c24 0 40 12.333 48 37c6 30.667 11.667 61.667 17 93c8 -2.66699 28.333 -4.66699 61 -6
c-10 -54 -15 -83.333 -15 -88c0 -26.667 13 -40 39 -40c31.333 0 47 26.333 47 79c0 19.333 -2.66699 36.333 -8 51l56 13c6 -31.333 9 -59.666 9 -84.999zM2167 1172l-165.001 -923.999c-13.333 -74 -32.666 -128 -57.999 -162c-42.667 -57.333 -112.334 -86 -209.001 -86
h-252c-40.667 -0 -77.667 20.333 -111 61c-20.667 -40.667 -50.667 -61 -90 -61h-371c-172 -0 -258 73.333 -258 220c0 26.667 2.66699 54.667 8 84l68 373h-27c-48 0 -81 -7 -99 -21c-21.333 -16.667 -37.333 -54.334 -48 -113.001l-52 -293h122l-55 -250h-166
c-62 0 -106.667 8.66699 -134 26c-35.333 22 -53 62.333 -53 121c0 28.667 4 63.667 12 105l72 369c30.667 157.333 100.334 236 209.001 236h246c79.333 0 136.333 -7.66699 171 -23c52.667 -23.333 79 -69 79 -137c0 -29.333 -4 -64.666 -12 -105.999l-44 -229
c-2.66699 -14 -4 -26 -4 -36c0 -50.667 27.667 -76 83 -76h49c40 0 65.667 6.66699 77 20c6 7.33301 14 33.666 24 78.999l119 551h291l-115 -565c-2 -10 -3 -19.333 -3 -28c0 -38 19.667 -57 59 -57h86c40 0 65.333 6 76 18c8 9.33301 16.333 36.333 25 81l159 823h291z
" />
    <glyph glyph-name="uFEF5" unicode="&#xfedf;&#xfe82;" horiz-adv-x="865" arabic-form="isolated" 
d="M749 1177l-171 -828h-293l171 828h293zM1134 1177l-186.998 -925.001c-16 -80.667 -33 -134.667 -51 -162c-38.667 -60 -105.667 -90 -201 -90h-475l50 252h306c39.333 0 64.666 6.33301 75.999 19c7.33301 8.66699 15.666 35.334 24.999 80.001l169 826h288z
M959.002 1369c-64 -41.333 -128.669 -62.999 -194.002 -64.999c-65.333 8.66699 -117 14.667 -155 18c-62 5.33301 -119 -7.33398 -171 -38.001l-60 96c70 43.333 133.667 62.333 191 57c28.667 -3.33301 83.334 -9.33301 164.001 -18c58.667 -6 114.334 7.33301 167.001 40
z" />
    <glyph glyph-name="uFEF6" unicode="&#xfee0;&#xfe82;" horiz-adv-x="1165" arabic-form="final" 
d="M1195 0h-208.001c-41.333 -0 -78.666 20.333 -111.999 61c-20 -40.667 -50 -61 -90 -61h-560l50 250h306c53.333 0 87 33.667 101 101l170 826h291l-165 -840c-4 -20.667 -6 -35 -6 -43c0 -29.333 20.333 -44 61 -44h162v-250zM753.999 1177l-171 -828h-293l171 828h293z
M958.999 1369c-64 -41.333 -128.669 -62.999 -194.002 -64.999c-65.333 8.66699 -117 14.667 -155 18c-62 5.33301 -119 -7.33398 -171 -38.001l-60 96c70 43.333 133.667 62.333 191 57c28.667 -3.33301 83.334 -9.33301 164.001 -18c58.667 -6 114.334 7.33301 167.001 40
z" />
    <glyph glyph-name="uFEF7" unicode="&#xfedf;&#xfe84;" horiz-adv-x="865" arabic-form="isolated" 
d="M749 1177l-171 -828h-293l171 828h293zM1134 1177l-186.998 -925.001c-16 -80.667 -33 -134.667 -51 -162c-38.667 -60 -105.667 -90 -201 -90h-475l50 252h306c39.333 0 64.666 6.33301 75.999 19c7.33301 8.66699 15.666 35.334 24.999 80.001l169 826h288z
M775.002 1459l-9 -36h-63c-20.667 0 -33 -8.66699 -37 -26l-12 -50h103l-15 -42c-2.66699 -14.667 -15.667 -22 -39 -22h-257l18 61h88l28 108c6 23.333 19.667 35 41 35h121c22.667 0 34 -6.66699 34 -20c0 -3.33301 -0.333008 -6 -1 -8z" />
    <glyph glyph-name="uFEF8" unicode="&#xfee0;&#xfe84;" horiz-adv-x="1165" arabic-form="final" 
d="M1195 0h-208.001c-41.333 -0 -78.666 20.333 -111.999 61c-20 -40.667 -50 -61 -90 -61h-560l50 250h306c53.333 0 87 33.667 101 101l170 826h291l-165 -840c-4 -20.667 -6 -35 -6 -43c0 -29.333 20.333 -44 61 -44h162v-250zM753.999 1177l-171 -828h-293l171 828h293z
M774.999 1459l-9 -36h-63c-20.667 0 -33 -8.66699 -37 -26l-12 -50h103l-15 -42c-2.66699 -14.667 -15.667 -22 -39 -22h-257l18 61h88l28 108c6 23.333 19.667 35 41 35h121c22.667 0 34 -6.66699 34 -20c0 -3.33301 -0.333008 -6 -1 -8z" />
    <glyph glyph-name="uFEF9" unicode="&#xfedf;&#xfe88;" horiz-adv-x="865" arabic-form="isolated" 
d="M749 1177l-171 -828h-293l171 828h293zM1134 1177l-186.998 -925.001c-16 -80.667 -33 -134.667 -51 -162c-38.667 -60 -105.667 -90 -201 -90h-475l50 252h306c39.333 0 64.666 6.33301 75.999 19c7.33301 8.66699 15.666 35.334 24.999 80.001l169 826h288z
M556.002 -150.001l-9 -36h-63c-20.667 0 -33 -8.66699 -37 -26l-12 -50h103l-15 -42c-2.66699 -14.667 -15.667 -22 -39 -22h-257l18 61h88l28 108c6 23.333 19.667 35 41 35h121c22.667 0 34 -6.66699 34 -20c0 -3.33301 -0.333008 -6 -1 -8z" />
    <glyph glyph-name="uFEFA" unicode="&#xfee0;&#xfe88;" horiz-adv-x="1165" arabic-form="final" 
d="M1195 0h-208.001c-41.333 -0 -78.666 20.333 -111.999 61c-20 -40.667 -50 -61 -90 -61h-560l50 250h306c53.333 0 87 33.667 101 101l170 826h291l-165 -840c-4 -20.667 -6 -35 -6 -43c0 -29.333 20.333 -44 61 -44h162v-250zM753.999 1177l-171 -828h-293l171 828h293z
M555.999 -150l-9 -36h-63c-20.667 0 -33 -8.66699 -37 -26l-12 -50h103l-15 -42c-2.66699 -14.667 -15.667 -22 -39 -22h-257l18 61h88l28 108c6 23.333 19.667 35 41 35h121c22.667 0 34 -6.66699 34 -20c0 -3.33301 -0.333008 -6 -1 -8z" />
    <glyph glyph-name="uFEFB" unicode="&#xfedf;&#xfe8e;" horiz-adv-x="865" arabic-form="isolated" 
d="M749 1177l-171 -828h-293l171 828h293zM1134 1177l-186.998 -925.001c-16 -80.667 -33 -134.667 -51 -162c-38.667 -60 -105.667 -90 -201 -90h-475l50 252h306c39.333 0 64.666 6.33301 75.999 19c7.33301 8.66699 15.666 35.334 24.999 80.001l169 826h288z" />
    <glyph glyph-name="uFEFC" unicode="&#xfee0;&#xfe8e;" horiz-adv-x="1165" arabic-form="final" 
d="M1195 0h-208.001c-41.333 -0 -78.666 20.333 -111.999 61c-20 -40.667 -50 -61 -90 -61h-560l50 250h306c53.333 0 87 33.667 101 101l170 826h291l-165 -840c-4 -20.667 -6 -35 -6 -43c0 -29.333 20.333 -44 61 -44h162v-250zM753.999 1177l-171 -828h-293l171 828h293z
" />
    <glyph glyph-name="u0652_u064E.liga" unicode="&#x652;&#x64e;" horiz-adv-x="1" 
d="M264 1389l67 -25l-51 -289l-67 26z" />
    <glyph glyph-name="u0652_u064B.liga" unicode="&#x652;&#x64b;" horiz-adv-x="1" 
d="M1031 1204l-43 -227h-256l45 227h254zM703 1204l-41 -227h-257l45 227h253z" />
    <glyph glyph-name="u0652_u064D.liga" unicode="&#x652;&#x64d;" horiz-adv-x="1" 
d="M952 -436l-43 -227h-256l45 227h254zM624 -436l-41 -227h-257l45 227h253z" />
    <glyph glyph-name="u0622" unicode="&#x622;" horiz-adv-x="623" arabic-form="isolated" 
d="M802 1177l-237 -1177h-294l238 1177h293zM959 1369c-64 -41.333 -128.669 -62.999 -194.002 -64.999c-65.333 8.66699 -117 14.667 -155 18c-62 5.33301 -119 -7.33398 -171 -38.001l-60 96c70 43.333 133.667 62.333 191 57
c28.667 -3.33301 83.334 -9.33301 164.001 -18c58.667 -6 114.334 7.33301 167.001 40z" />
    <glyph glyph-name="u0623" unicode="&#x623;" horiz-adv-x="532" arabic-form="isolated" 
d="M762 1177l-237 -1177h-294l238 1177h293zM775 1459l-9 -36h-63c-20.667 0 -33 -8.66699 -37 -26l-12 -50h103l-15 -42c-2.66699 -14.667 -15.667 -22 -39 -22h-257l18 61h88l28 108c6 23.333 19.667 35 41 35h121c22.667 0 34 -6.66699 34 -20
c0 -3.33301 -0.333008 -6 -1 -8z" />
    <glyph glyph-name="u0624" unicode="&#x624;" horiz-adv-x="906" arabic-form="isolated" 
d="M816 -4c-85.333 -118 -185.001 -221 -299.001 -309l-236 169c94.667 71.333 173.334 150.666 236.001 237.999c-74 20 -136.333 53.333 -187 100c-58.667 54.667 -88 116.667 -88 186c0 80 51 179.333 153 298c104 121.333 195 182 273 182
c226.667 0 340 -106.667 340 -320c0 -185.333 -64 -366.666 -192 -543.999zM741.999 431c18 38 27 71.333 27 100c0 44 -19.333 66 -58 66c-30 0 -64.667 -19 -104 -57c-55.333 -53.333 -83 -100 -83 -140c0 -56 42.667 -89.667 128 -101c28 21.333 58 65.333 90 132z
M924.999 1124l-9 -36h-63c-20.667 0 -33 -8.66699 -37 -26l-12 -50h103l-15 -42c-2.66699 -14.667 -15.667 -22 -39 -22h-257l18 61h88l28 108c6 23.333 19.667 35 41 35h121c22.667 0 34 -6.66699 34 -20c0 -3.33301 -0.333008 -6 -1 -8z" />
    <glyph glyph-name="u0625" unicode="&#x625;" horiz-adv-x="532" arabic-form="isolated" 
d="M762 1177l-237 -1177h-294l238 1177h293zM510 -127l-9 -36h-63c-20.667 0 -33 -8.66699 -37 -26l-12 -50h103l-15 -42c-2.66699 -14.667 -15.667 -22 -39 -22h-257l18 61h88l28 108c6 23.333 19.667 35 41 35h121c22.667 0 34 -6.66699 34 -20
c0 -3.33301 -0.333008 -6 -1 -8z" />
    <glyph glyph-name="u0626" unicode="&#x626;" horiz-adv-x="1364" arabic-form="isolated" 
d="M1580 853l-60.999 -248.001c-133.333 0 -225 -4 -275 -12c-58 -9.33301 -98.667 -29.333 -122 -60c-17.333 -22.667 -37 -72 -59 -148c-12.667 -43.333 -19 -74.333 -19 -93c0 -28 21.667 -42 65 -42h313l-58 -272c-29.333 -137.333 -61.333 -223 -96 -257
c-41.333 -40.667 -128 -61 -260 -61h-585c-126 0 -189 59 -189 177c0 34.667 5.33301 69.334 16 104.001l173 869l288 -49l-149 -763c-4.66699 -24 -7 -39 -7 -45c0 -27.333 19.667 -41 59 -41h320c93.333 0 137.666 29.333 132.999 88h-163
c-111.333 0 -167 48.667 -167 146c0 22 2.66699 44.667 8 68c61.333 266 124.333 435.333 189 508c77.333 87.333 222 131 434 131h212zM673.001 1124l-9 -36h-63c-20.667 0 -33 -8.66699 -37 -26l-12 -50h103l-15 -42c-2.66699 -14.667 -15.667 -22 -39 -22h-257l18 61h88
l28 108c6 23.333 19.667 35 41 35h121c22.667 0 34 -6.66699 34 -20c0 -3.33301 -0.333008 -6 -1 -8z" />
    <glyph glyph-name="u0627" unicode="&#x627;" horiz-adv-x="525" arabic-form="isolated" 
d="M762 1177l-237 -1177h-294l238 1177h293z" />
    <glyph glyph-name="u0628" unicode="&#x628;" horiz-adv-x="1824" arabic-form="isolated" 
d="M1990 767l-104.001 -522.001c-13.333 -67.333 -41.666 -123.666 -84.999 -168.999c-48 -50.667 -104.333 -76 -169 -76h-1179c-124.667 0 -187 55 -187 165c0 33.333 4.66699 72 14 116l103 486l309 90l-99 -522c-2.66699 -14 -4 -25 -4 -33c0 -34.667 20.667 -52 62 -52
h858c36 0 60.333 7 73 21c10.667 11.333 20 37.333 28 78l103 508zM1082 -133.001l-45 -227h-258l45 227h258z" />
    <glyph glyph-name="u0629" unicode="&#x629;" horiz-adv-x="870" arabic-form="isolated" 
d="M1005 590l-69.001 -345c-15.333 -78 -32.666 -131 -51.999 -159c-38.667 -57.333 -105.667 -86 -201 -86h-279c-123.333 0 -185 56.667 -185 170c0 27.333 3.66699 59.333 11 96l52 261l286 63l-65 -338h65c40.667 0 66.667 6 78 18c10 10 19.333 37 28 81l51 257h-425
l50 249h480c124 0 186 -56.667 186 -170c0 -28 -3.66699 -60.333 -11 -97zM840.999 1125l-9 -36h-63c-20.667 0 -33 -8.66699 -37 -26l-12 -50h103l-15 -42c-2.66699 -14.667 -15.667 -22 -39 -22h-257l18 61h88l28 108c6 23.333 19.667 35 41 35h121
c22.667 0 34 -6.66699 34 -20c0 -3.33301 -0.333008 -6 -1 -8z" />
    <glyph glyph-name="u062A" unicode="&#x62a;" horiz-adv-x="1824" arabic-form="isolated" 
d="M1990 767l-104.001 -522.001c-13.333 -67.333 -41.666 -123.666 -84.999 -168.999c-48 -50.667 -104.333 -76 -169 -76h-1179c-124.667 0 -187 55 -187 165c0 33.333 4.66699 72 14 116l103 486l309 90l-99 -522c-2.66699 -14 -4 -25 -4 -33c0 -34.667 20.667 -52 62 -52
h858c36 0 60.333 7 73 21c10.667 11.333 20 37.333 28 78l103 508zM1536 1174l-43 -227h-256l45 227h254zM1208 1174l-41 -227h-257l45 227h253z" />
    <glyph glyph-name="u062B" unicode="&#x62b;" horiz-adv-x="1824" arabic-form="isolated" 
d="M1990 767l-104.001 -522.001c-13.333 -67.333 -41.666 -123.666 -84.999 -168.999c-48 -50.667 -104.333 -76 -169 -76h-1179c-124.667 0 -187 55 -187 165c0 33.333 4.66699 72 14 116l103 486l309 90l-99 -522c-2.66699 -14 -4 -25 -4 -33c0 -34.667 20.667 -52 62 -52
h858c36 0 60.333 7 73 21c10.667 11.333 20 37.333 28 78l103 508zM1442 1465l-45 -227h-257l45 227h257zM1571 1170l-43 -223h-256l45 223h254zM1234 1170l-42 -223h-257l45 223h254z" />
    <glyph glyph-name="u062C" unicode="&#x62c;" horiz-adv-x="952" arabic-form="isolated" 
d="M1067 641c-25.333 -141.333 -87.667 -272.668 -187 -394.001l-313 -382c-38.667 -46.667 -95.667 -124.667 -171 -234c-6 -8.66699 -9 -18.667 -9 -30c0 -46 33.667 -69 101 -69h426l-46 -232h-526c-146 0 -229.333 66 -250 198c-1.33301 8.66699 -2 18.334 -2 29.001
c0 116 48 229.333 144 340l508 596c18.667 22 28 50 28 84c0 38.667 -22 58 -66 58h-53c-45.333 0 -79.333 -9 -102 -27c-18 -14 -38 -44 -60 -90h-276c50 118 85.333 193.333 106 226c60 95.333 129.333 143 208 143h382c110 0 165 -49 165 -147c0 -20 -2.33301 -43 -7 -69
zM935.999 -133.002l-45 -227h-258l45 227h258z" />
    <glyph glyph-name="u062D" unicode="&#x62d;" horiz-adv-x="952" arabic-form="isolated" 
d="M1067 641c-25.333 -141.333 -87.667 -272.668 -187 -394.001l-313 -382c-38.667 -46.667 -95.667 -124.667 -171 -234c-6 -8.66699 -9 -18.667 -9 -30c0 -46 33.667 -69 101 -69h426l-46 -232h-526c-146 0 -229.333 66 -250 198c-1.33301 8.66699 -2 18.334 -2 29.001
c0 116 48 229.333 144 340l508 596c18.667 22 28 50 28 84c0 38.667 -22 58 -66 58h-53c-45.333 0 -79.333 -9 -102 -27c-18 -14 -38 -44 -60 -90h-276c50 118 85.333 193.333 106 226c60 95.333 129.333 143 208 143h382c110 0 165 -49 165 -147c0 -20 -2.33301 -43 -7 -69
z" />
    <glyph glyph-name="u062E" unicode="&#x62e;" horiz-adv-x="952" arabic-form="isolated" 
d="M1067 641c-25.333 -141.333 -87.667 -272.668 -187 -394.001l-313 -382c-38.667 -46.667 -95.667 -124.667 -171 -234c-6 -8.66699 -9 -18.667 -9 -30c0 -46 33.667 -69 101 -69h426l-46 -232h-526c-146 0 -229.333 66 -250 198c-1.33301 8.66699 -2 18.334 -2 29.001
c0 116 48 229.333 144 340l508 596c18.667 22 28 50 28 84c0 38.667 -22 58 -66 58h-53c-45.333 0 -79.333 -9 -102 -27c-18 -14 -38 -44 -60 -90h-276c50 118 85.333 193.333 106 226c60 95.333 129.333 143 208 143h382c110 0 165 -49 165 -147c0 -20 -2.33301 -43 -7 -69
zM934.999 1172l-45 -227h-257l45 227h257z" />
    <glyph glyph-name="u062F" unicode="&#x62f;" horiz-adv-x="940" arabic-form="isolated" 
d="M1063 641l-74.9961 -361.001c-22.667 -109.333 -71.334 -184.666 -146.001 -225.999c-64.667 -36 -165.334 -54 -302.001 -54h-312l54 250h305c81.333 0 129.666 37.333 144.999 112l24 117c4.66699 22.667 7 40.667 7 54c0 49.333 -33.667 74 -101 74h-310l33 140
c12 50.667 37.333 82.667 76 96c27.333 9.33301 87.666 14 180.999 14h263c46.667 0 85.667 -19 117 -57c30 -35.333 45 -76.666 45 -123.999c0 -10.667 -1.33301 -22.334 -4 -35.001z" />
    <glyph glyph-name="u0630" unicode="&#x630;" horiz-adv-x="944" arabic-form="isolated" 
d="M1063 641l-74.9961 -361.001c-22.667 -109.333 -71.334 -184.666 -146.001 -225.999c-64.667 -36 -165.334 -54 -302.001 -54h-312l54 250h305c81.333 0 129.666 37.333 144.999 112l24 117c4.66699 22.667 7 40.667 7 54c0 49.333 -33.667 74 -101 74h-310l33 140
c12 50.667 37.333 82.667 76 96c27.333 9.33301 87.666 14 180.999 14h263c46.667 0 85.667 -19 117 -57c30 -35.333 45 -76.666 45 -123.999c0 -10.667 -1.33301 -22.334 -4 -35.001zM845.004 1172l-45 -227h-257l45 227h257z" />
    <glyph glyph-name="u0631" unicode="&#x631;" horiz-adv-x="817" arabic-form="isolated" 
d="M875 778c-14.667 -86.667 -30.001 -168.667 -46.001 -246c-37.333 -176.667 -75 -298.667 -113 -366c-106.667 -187.333 -233.667 -334 -381 -440c-156 104 -234 160.667 -234 170c48.667 34 95.334 73 140.001 117c104 102.667 183.333 217 238 343
c40.667 94 79 261 115 501z" />
    <glyph glyph-name="u0632" unicode="&#x632;" horiz-adv-x="815" arabic-form="isolated" 
d="M875 778c-14.667 -86.667 -30.001 -168.667 -46.001 -246c-37.333 -176.667 -75 -298.667 -113 -366c-106.667 -187.333 -233.667 -334 -381 -440c-156 104 -234 160.667 -234 170c48.667 34 95.334 73 140.001 117c104 102.667 183.333 217 238 343
c40.667 94 79 261 115 501zM885.999 1174l-45 -227h-257l45 227h257z" />
    <glyph glyph-name="u0633" unicode="&#x633;" horiz-adv-x="2202" arabic-form="isolated" 
d="M2373 767l-113 -522c-18 -83.333 -34 -136 -48 -158c-36.667 -58 -102.334 -87 -197.001 -87h-169c-41.333 -0 -78.666 20.333 -111.999 61c-20 -40.667 -50 -61 -90 -61h-217c-48 -0 -89 20.333 -123 61c-38.667 -145.333 -74.667 -233.333 -108 -264
c-36.667 -34 -119.334 -51 -248.001 -51h-529c-124.667 0 -187 56.667 -187 170c0 29.333 4.66699 67 14 113l169 828l275 -90l-133 -681c-4.66699 -24 -7 -38.667 -7 -44c0 -28 19.667 -42 59 -42h243c66.667 0 110 14 130 42c26.667 38 57.334 141 92.001 309l104 506
l277 -90l-93 -416c-2.66699 -12 -4 -22 -4 -30c0 -48 27.667 -72 83 -72c53.333 0 87 34 101 102l102 506l278 -88l-92 -418c-3.33301 -15.333 -5 -28 -5 -38c0 -42 22.667 -63 68 -63c54 0 87.667 33.667 101 101l102 506z" />
    <glyph glyph-name="u0634" unicode="&#x634;" horiz-adv-x="2205" arabic-form="isolated" 
d="M2373 767l-113 -522c-18 -83.333 -34 -136 -48 -158c-36.667 -58 -102.334 -87 -197.001 -87h-169c-41.333 -0 -78.666 20.333 -111.999 61c-20 -40.667 -50 -61 -90 -61h-217c-48 -0 -89 20.333 -123 61c-38.667 -145.333 -74.667 -233.333 -108 -264
c-36.667 -34 -119.334 -51 -248.001 -51h-529c-124.667 0 -187 56.667 -187 170c0 29.333 4.66699 67 14 113l169 828l275 -90l-133 -681c-4.66699 -24 -7 -38.667 -7 -44c0 -28 19.667 -42 59 -42h243c66.667 0 110 14 130 42c26.667 38 57.334 141 92.001 309l104 506
l277 -90l-93 -416c-2.66699 -12 -4 -22 -4 -30c0 -48 27.667 -72 83 -72c53.333 0 87 34 101 102l102 506l278 -88l-92 -418c-3.33301 -15.333 -5 -28 -5 -38c0 -42 22.667 -63 68 -63c54 0 87.667 33.667 101 101l102 506zM1989 1465l-45 -227h-257l45 227h257zM2118 1170
l-43 -223h-256l45 223h254zM1781 1170l-42 -223h-257l45 223h254z" />
    <glyph glyph-name="u0635" unicode="&#x635;" horiz-adv-x="2313" arabic-form="isolated" 
d="M2408 738l-95 -493c-14.667 -78 -32.334 -132 -53.001 -162c-37.333 -55.333 -101.333 -83 -192 -83h-709c-58.667 -0 -88 20.333 -88 61c-39.333 -146.667 -74.666 -235 -105.999 -265c-36.667 -35.333 -119 -52.666 -247 -51.999l-509 2
c-130.667 0.666992 -196 49.667 -196 147c0 14 7.66699 58.667 23 134l169 830l272 -90l-130 -682c-4 -20.667 -6 -34.667 -6 -42c0 -28.667 18.667 -43 56 -43h222c66 0 109 14 129 42c26.667 37.333 57.334 140.333 92.001 309l105 506l273 -90l-86 -430
c-1.33301 -6.66699 -2 -13.334 -2 -20.001c0 -40 16 -60 48 -60c13.333 0 26.666 5.33301 39.999 16l639 508c62.667 50 131 75 205 75c37.333 0 69.666 -7.33301 97 -22c34 -18 51 -44 51 -78c0 -5.33301 -0.666992 -11.333 -2 -18zM2122 545l-389.999 -295h187
c93.333 0 149.666 45.667 168.999 137z" />
    <glyph glyph-name="u0636" unicode="&#x636;" horiz-adv-x="2254" arabic-form="isolated" 
d="M2408 738l-95 -493c-14.667 -78 -32.334 -132 -53.001 -162c-37.333 -55.333 -101.333 -83 -192 -83h-709c-58.667 -0 -88 20.333 -88 61c-39.333 -146.667 -74.666 -235 -105.999 -265c-36.667 -35.333 -119 -52.666 -247 -51.999l-509 2
c-130.667 0.666992 -196 49.667 -196 147c0 14 7.66699 58.667 23 134l169 830l272 -90l-130 -682c-4 -20.667 -6 -34.667 -6 -42c0 -28.667 18.667 -43 56 -43h222c66 0 109 14 129 42c26.667 37.333 57.334 140.333 92.001 309l105 506l273 -90l-86 -430
c-1.33301 -6.66699 -2 -13.334 -2 -20.001c0 -40 16 -60 48 -60c13.333 0 26.666 5.33301 39.999 16l639 508c62.667 50 131 75 205 75c37.333 0 69.666 -7.33301 97 -22c34 -18 51 -44 51 -78c0 -5.33301 -0.666992 -11.333 -2 -18zM2122 545l-389.999 -295h187
c93.333 0 149.666 45.667 168.999 137zM2103 1172l-45 -227h-257l45 227h257z" />
    <glyph glyph-name="u0637" unicode="&#x637;" horiz-adv-x="1415" arabic-form="isolated" 
d="M1578 738l-95.001 -493c-15.333 -78.667 -35.666 -135 -60.999 -169c-38 -50.667 -99.333 -76 -184 -76h-1006l50 250h25c53.333 0 87 33.667 101 101l168 826h294l-176 -875l533 479c62 56 131.667 84 209 84c37.333 0 69.333 -8 96 -24c32 -18.667 48 -45.667 48 -81
c0 -8 -0.666992 -15.333 -2 -22zM1330 578l-393.999 -327.999h190c49.333 0 86.666 11.333 111.999 34c22 19.333 41.333 53.666 58 102.999z" />
    <glyph glyph-name="u0638" unicode="&#x638;" horiz-adv-x="1414" arabic-form="isolated" 
d="M1578 738l-95.001 -493c-15.333 -78.667 -35.666 -135 -60.999 -169c-38 -50.667 -99.333 -76 -184 -76h-1006l50 250h25c53.333 0 87 33.667 101 101l168 826h294l-176 -875l533 479c62 56 131.667 84 209 84c37.333 0 69.333 -8 96 -24c32 -18.667 48 -45.667 48 -81
c0 -8 -0.666992 -15.333 -2 -22zM1330 578l-393.999 -327.999h190c49.333 0 86.666 11.333 111.999 34c22 19.333 41.333 53.666 58 102.999zM1355 1174l-45 -227h-257l45 227h257z" />
    <glyph glyph-name="u0639" unicode="&#x639;" horiz-adv-x="1019" arabic-form="isolated" 
d="M1150 857l-60.998 -248.998c-138 0 -225.333 -2.66699 -262 -8c-54 -8 -93 -27.333 -117 -58c-16.667 -21.333 -39.334 -73 -68.001 -155c-17.333 -50 -26 -80 -26 -90c0 -31.333 20.667 -47 62 -47h321l-61 -250h-141l-142 -169
c-29.333 -34.667 -74.333 -101.334 -135 -200.001c-5.33301 -8.66699 -8 -18.667 -8 -30c0 -46 33.333 -69 100 -69h426l-46 -232h-526c-146 0 -229.333 66 -250 198c-1.33301 8.66699 -2 18.334 -2 29.001c0 109.333 48 222.666 144 339.999
c39.333 48 77.666 92.333 114.999 133c-111.333 0 -167 48.667 -167 146c0 21.333 3 44.666 9 69.999c62.667 267.333 125.667 437 189 509c77.333 88 222 132 434 132h212z" />
    <glyph glyph-name="u063A" unicode="&#x63a;" horiz-adv-x="1016" arabic-form="isolated" 
d="M1150 857l-60.998 -248.998c-138 0 -225.333 -2.66699 -262 -8c-54 -8 -93 -27.333 -117 -58c-16.667 -21.333 -39.334 -73 -68.001 -155c-17.333 -50 -26 -80 -26 -90c0 -31.333 20.667 -47 62 -47h321l-61 -250h-141l-142 -169
c-29.333 -34.667 -74.333 -101.334 -135 -200.001c-5.33301 -8.66699 -8 -18.667 -8 -30c0 -46 33.333 -69 100 -69h426l-46 -232h-526c-146 0 -229.333 66 -250 198c-1.33301 8.66699 -2 18.334 -2 29.001c0 109.333 48 222.666 144 339.999
c39.333 48 77.666 92.333 114.999 133c-111.333 0 -167 48.667 -167 146c0 21.333 3 44.666 9 69.999c62.667 267.333 125.667 437 189 509c77.333 88 222 132 434 132h212zM1125 1174l-45 -227h-257l45 227h257z" />
    <glyph glyph-name="u0641" unicode="&#x641;" horiz-adv-x="1792" arabic-form="isolated" 
d="M1817 1174l-45 -227h-257l45 227h257zM1917 590l-68.001 -345c-15.333 -78 -32.666 -131 -51.999 -159c-39.333 -57.333 -106.666 -86 -201.999 -86h-1179c-121.333 0 -182 57.667 -182 173c0 46 17.333 150.333 52 313l60 281l309 90l-99 -520
c-3.33301 -17.333 -5 -31 -5 -41c0 -30.667 21 -46 63 -46h585c-26 0 -39 18 -39 54c0 12 2 27.667 6 47l33 158c31.333 150.667 56.666 241.334 75.999 272.001c32 51.333 95.667 77 191 77h160c100 0 165.333 -4 196 -12c73.333 -19.333 110 -64 110 -134
c0 -30.667 -5 -71.334 -15 -122.001zM1649 677h-42c-58.667 0 -97.667 -22.333 -117 -67c-5.33301 -12.667 -15.333 -63.334 -30 -152.001l-34 -208h34c50 0 83 7.33301 99 22s28.333 47.334 37 98.001z" />
    <glyph glyph-name="u0642" unicode="&#x642;" horiz-adv-x="1442" arabic-form="isolated" 
d="M1573 1174l-43 -227h-256l45 227h254zM1245 1174l-41 -227h-257l45 227h253zM1542 590l-132.002 -666.999c-35.333 -180 -165 -270 -389 -270h-594c-125.333 0 -188 59.667 -188 179c0 20 5 54.333 15 103l189 922l272 -103l-150 -761
c-2.66699 -13.333 -4 -23.333 -4 -30c0 -38 18.667 -57 56 -57h312c70.667 0 117.667 3 141 9c48.667 12.667 78.334 41 89.001 85c-151.333 -3.33301 -252.666 5 -303.999 25c-58 22.667 -87 69 -87 139c0 28.667 3.66699 62.667 11 102l45 243
c27.333 147.333 52 238.333 74 273c32 50.667 96.333 76 193 76h160c100 0 165.333 -4 196 -12c73.333 -19.333 110 -64 110 -134c0 -30.667 -5 -71.334 -15 -122.001zM1274 677.001l-42.001 -0.000976562c-57.333 0 -96 -23.333 -116 -70
c-7.33301 -16 -17.666 -65.667 -30.999 -149l-34 -208h34c50 0 83 7.33301 99 22s28.333 47.334 37 98.001z" />
    <glyph glyph-name="u0643" unicode="&#x643;" horiz-adv-x="1728" arabic-form="isolated" 
d="M1957 1177l-57.001 -230.003h-297c58.667 -88.667 112.334 -203.667 161.001 -345c51.333 -149.333 77 -272.666 77 -369.999c0 -46 -12.333 -94 -37 -144c-28.667 -58.667 -63.667 -88 -105 -88h-1283c-124.667 0 -187 59.667 -187 179c0 24 4.66699 58 14 102l103 486
l309 90l-99 -520c-2.66699 -14 -4 -25 -4 -33c0 -36 20.667 -54 62 -54h828c61.333 0 92 18.333 92 55c0 8.66699 -1.33301 19.334 -4 32.001c-22.667 106 -50.667 196 -84 270c-28 62 -89.333 174.667 -184 338c20.667 108.667 42 176.334 64 203.001
c16 19.333 47.333 29 94 29h537z" />
    <glyph glyph-name="u0644" unicode="&#x644;" horiz-adv-x="1298" arabic-form="isolated" 
d="M1543 1175l-236 -1071c-14 -62 -24 -104.667 -30 -128c-14 -52 -28.333 -92.333 -43 -121c-25.333 -49.333 -63 -80.666 -113 -93.999c-37.333 -10 -112.666 -15 -225.999 -15h-482c-120.667 0 -181 63.333 -181 190c0 28 3.33301 58.333 10 91l171 834l277 -95
l-136 -682c-2.66699 -13.333 -4 -25.333 -4 -36c0 -32 18 -48 54 -48h241c51.333 -0 86.666 3.33301 105.999 10c32.667 11.333 53 36 61 74l237 1091h294z" />
    <glyph glyph-name="u0645" unicode="&#x645;" horiz-adv-x="1215" arabic-form="isolated" 
d="M1340 589l-69 -346c-15.333 -77.333 -32.666 -130 -51.999 -158c-39.333 -56.667 -106.333 -85 -201 -85h-409c-50 -0 -86 -33.667 -108 -101l-122 -603h-292l151 709c17.333 81.333 33.666 134 48.999 158c37.333 58 103.333 87 198 87c55.333 0 90 33 104 99l33 159
c30.667 148 56.667 238.333 78 271c33.333 50.667 98.333 76 195 76h270c62 0 107.333 -10 136 -30c34.667 -24 52 -65.667 52 -125c0 -30.667 -4.33301 -67.667 -13 -111zM1069 677h-42.001c-61.333 0 -101.666 -21.667 -120.999 -65c-4.66699 -10 -14.667 -62 -30 -156
l-34 -206h41c49.333 0 82 7.66699 98 23c14 13.333 25.333 45.333 34 96z" />
    <glyph glyph-name="u0646" unicode="&#x646;" horiz-adv-x="1281" arabic-form="isolated" 
d="M1092 1174l-45 -227h-257l45 227h257zM1444 767l-140.999 -705.999c-27.333 -136.667 -59 -222.334 -95 -257.001c-42 -40 -129 -60 -261 -60h-529c-126 0 -189 59.333 -189 178c0 35.333 5.33301 70.333 16 105l173 830l273 -90l-135 -681
c-2.66699 -13.333 -4 -23 -4 -29c0 -38 18.667 -57 56 -57h258c46 0 76 4 90 12c21.333 12 39.666 42 54.999 90c12 38 31.333 121 58 249l105 506z" />
    <glyph glyph-name="u0647" unicode="&#x647;" horiz-adv-x="861" arabic-form="isolated" 
d="M1007 590l-69.001 -345c-15.333 -78 -32.666 -131 -51.999 -159c-38.667 -57.333 -105.667 -86 -201 -86h-279c-123.333 0 -185 56.667 -185 170c0 27.333 3.66699 59.333 11 96l52 261l286 63l-65 -338h65c40.667 0 66.667 6 78 18c10 10 19.333 37 28 81l51 257h-425
l50 249h480c124 0 186 -56.667 186 -170c0 -28 -3.66699 -60.333 -11 -97z" />
    <glyph glyph-name="u0648" unicode="&#x648;" horiz-adv-x="905" arabic-form="isolated" 
d="M816 -4c-85.333 -118 -185.001 -221 -299.001 -309l-236 169c94.667 71.333 173.334 150.666 236.001 237.999c-74 20 -136.333 53.333 -187 100c-58.667 54.667 -88 116.667 -88 186c0 80 51 179.333 153 298c104 121.333 195 182 273 182
c226.667 0 340 -106.667 340 -320c0 -185.333 -64 -366.666 -192 -543.999zM741.999 431c18 38 27 71.333 27 100c0 44 -19.333 66 -58 66c-30 0 -64.667 -19 -104 -57c-55.333 -53.333 -83 -100 -83 -140c0 -56 42.667 -89.667 128 -101c28 21.333 58 65.333 90 132z" />
    <glyph glyph-name="u0649" unicode="&#x649;" horiz-adv-x="1364" arabic-form="isolated" 
d="M1580 853l-60.999 -248.001c-133.333 0 -225 -4 -275 -12c-58 -9.33301 -98.667 -29.333 -122 -60c-17.333 -22.667 -37 -72 -59 -148c-12.667 -43.333 -19 -74.333 -19 -93c0 -28 21.667 -42 65 -42h313l-58 -272c-29.333 -137.333 -61.333 -223 -96 -257
c-41.333 -40.667 -128 -61 -260 -61h-585c-126 0 -189 59 -189 177c0 34.667 5.33301 69.334 16 104.001l173 869l288 -49l-149 -763c-4.66699 -24 -7 -39 -7 -45c0 -27.333 19.667 -41 59 -41h320c93.333 0 137.666 29.333 132.999 88h-163
c-111.333 0 -167 48.667 -167 146c0 22 2.66699 44.667 8 68c61.333 266 124.333 435.333 189 508c77.333 87.333 222 131 434 131h212z" />
    <glyph glyph-name="u064A" unicode="&#x64a;" horiz-adv-x="1364" arabic-form="isolated" 
d="M1580 853l-60.999 -248.001c-133.333 0 -225 -4 -275 -12c-58 -9.33301 -98.667 -29.333 -122 -60c-17.333 -22.667 -37 -72 -59 -148c-12.667 -43.333 -19 -74.333 -19 -93c0 -28 21.667 -42 65 -42h313l-58 -272c-29.333 -137.333 -61.333 -223 -96 -257
c-41.333 -40.667 -128 -61 -260 -61h-585c-126 0 -189 59 -189 177c0 34.667 5.33301 69.334 16 104.001l173 869l288 -49l-149 -763c-4.66699 -24 -7 -39 -7 -45c0 -27.333 19.667 -41 59 -41h320c93.333 0 137.666 29.333 132.999 88h-163
c-111.333 0 -167 48.667 -167 146c0 22 2.66699 44.667 8 68c61.333 266 124.333 435.333 189 508c77.333 87.333 222 131 434 131h212z" />
    <glyph glyph-name="u067E" unicode="&#x67e;" horiz-adv-x="1824" arabic-form="isolated" 
d="M1990 767l-104.001 -522.001c-13.333 -67.333 -41.666 -123.666 -84.999 -168.999c-48 -50.667 -104.333 -76 -169 -76h-1179c-124.667 0 -187 55 -187 165c0 33.333 4.66699 72 14 116l103 486l309 90l-99 -522c-2.66699 -14 -4 -25 -4 -33c0 -34.667 20.667 -52 62 -52
h858c36 0 60.333 7 73 21c10.667 11.333 20 37.333 28 78l103 508zM1273 -133.001l-45 -227h-257l45 227h257zM952.999 -133.001l-45 -227h-257l45 227h257zM1059 -416.001l-45 -226h-257l47 226h255z" />
    <glyph glyph-name="u0686" unicode="&#x686;" horiz-adv-x="952" arabic-form="isolated" 
d="M1082 -52l-31 -160h-181l32 160h180zM857 -52l-31 -160h-181l31 160h181zM932 -251l-32 -159h-181l33 159h180zM1067 634c-25.333 -141.333 -87.667 -272.668 -187 -394.001l-313 -382c-38.667 -46.667 -95.667 -124.667 -171 -234c-6 -8.66699 -9 -18.667 -9 -30
c0 -46 33.667 -69 101 -69h426l-46 -232h-526c-146 0 -229.333 66 -250 198c-1.33301 8.66699 -2 18.334 -2 29.001c0 116 48 229.333 144 340l508 596c18.667 22 28 50 28 84c0 38.667 -22 58 -66 58h-53c-45.333 0 -79.333 -9 -102 -27c-18 -14 -38 -44 -60 -90h-276
c50 118 85.333 193.333 106 226c60 95.333 129.333 143 208 143h382c110 0 165 -49 165 -147c0 -20 -2.33301 -43 -7 -69z" />
    <glyph glyph-name="u0698" unicode="&#x698;" horiz-adv-x="815" arabic-form="isolated" 
d="M875 778c-14.667 -86.667 -30.001 -168.667 -46.001 -246c-37.333 -176.667 -75 -298.667 -113 -366c-106.667 -187.333 -233.667 -334 -381 -440c-156 104 -234 160.667 -234 170c48.667 34 95.334 73 140.001 117c104 102.667 183.333 217 238 343
c40.667 94 79 261 115 501zM859.999 1463l-45 -227h-257l45 227h257zM988.999 1168l-43 -223h-256l45 223h254zM651.999 1168l-42 -223h-257l45 223h254z" />
    <glyph glyph-name="u06AF" unicode="&#x6af;" horiz-adv-x="1743" arabic-form="isolated" 
d="M1973 1309l-31 -70h-597l29 70h599zM1957 1177l-57.001 -230.003h-297c58.667 -88.667 112.334 -203.667 161.001 -345c51.333 -149.333 77 -272.666 77 -369.999c0 -46 -12.333 -94 -37 -144c-28.667 -58.667 -63.667 -88 -105 -88h-1283
c-124.667 0 -187 59.667 -187 179c0 24 4.66699 58 14 102l103 486l309 90l-99 -520c-2.66699 -14 -4 -25 -4 -33c0 -36 20.667 -54 62 -54h828c61.333 0 92 18.333 92 55c0 8.66699 -1.33301 19.334 -4 32.001c-22.667 106 -50.667 196 -84 270
c-28 62 -89.333 174.667 -184 338c20.667 108.667 42 176.334 64 203.001c16 19.333 47.333 29 94 29h537z" />
    <glyph glyph-name="uFB57" unicode="&#x67e;" horiz-adv-x="2040" arabic-form="final" 
d="M2068 0h-151c-40.667 -0 -62.667 20.333 -66 61c-22 -40.667 -52 -61 -90 -61h-1305c-124.667 0 -187 55 -187 165c0 33.333 4.66699 72 14 116l103 486l309 90l-99 -522c-2.66699 -14 -4 -25 -4 -33c0 -34.667 20.667 -52 62 -52h858c36 0 60.333 7 73 21
c10.667 11.333 20 37.333 28 78l103 508l277 -90l-85 -429c-2.66699 -13.333 -4 -25 -4 -35c0 -35.333 20 -53 60 -53h104v-250zM1273 -133l-45 -227h-257l45 227h257zM953 -133l-45 -227h-257l45 227h257zM1059 -416l-45 -226h-257l47 226h255z" />
    <glyph glyph-name="uFB58" unicode="&#x67e;" horiz-adv-x="445" arabic-form="initial" 
d="M634 767l-114 -522c-18 -83.333 -34 -136 -48 -158c-36.667 -58 -102 -87 -196 -87h-310v250h187c40.667 0 66.667 7.33301 78 22c6 8 13.667 34.333 23 79l103 506zM499 -132l-45 -227h-257l45 227h257zM179 -132l-45 -227h-257l45 227h257zM285 -415l-45 -226h-257
l47 226h255z" />
    <glyph glyph-name="uFB59" unicode="&#x67e;" horiz-adv-x="664" arabic-form="medial" 
d="M696 0l-167 0.000976562c-40.667 0 -77.667 20.333 -111 61c-20 -40.667 -50 -61 -90 -61h-358v250h154c40.667 0 66.667 7.33301 78 22c6 8 13.667 34.333 23 79l103 506l277 -90l-85 -431c-3.33301 -16.667 -5 -29.334 -5 -38.001c0 -32 20.333 -48 61 -48h120v-250z
M499 -132.999l-45 -227h-257l45 227h257zM179 -132.999l-45 -227h-257l45 227h257zM285 -415.999l-45 -226h-257l47 226h255z" />
    <glyph glyph-name="uFB7B" unicode="&#x686;" horiz-adv-x="1136" arabic-form="final" 
d="M1162 0l-293.999 0.000976562c-46.667 0 -89.667 20.333 -129 61l-196 -221c-113.333 -128 -170 -205.333 -170 -232c0 -52 30 -78 90 -78h455l-58 -232h-523c-146 0 -229.667 66 -251 198c-1.33301 8 -2 17.333 -2 28c0 111.333 48.333 225 145 341l511 603
c19.333 29.333 29 57.333 29 84c0 35.333 -21.667 53 -65 53h-53c-52 0 -88.333 -10.333 -109 -31c-5.33301 -5.33301 -23 -34 -53 -86h-276c41.333 114 77.666 194.667 108.999 242c56 84.667 124.333 127 205 127h382c110 0 165 -49 165 -147c0 -20 -2.33301 -43 -7 -69
c-19.333 -108.667 -65 -216.334 -137 -323.001c-9.33301 -14 -14 -26.667 -14 -38c0 -20 12 -30 36 -30h210v-250zM1082 -51.999l-31 -160h-181l32 160h180zM857.001 -51.999l-31 -160h-181l31 160h181zM932.001 -250.999l-32 -159h-181l33 159h180z" />
    <glyph glyph-name="uFB7C" unicode="&#x686;" horiz-adv-x="848" arabic-form="initial" 
d="M1003 641l-89.998 -361c-27.333 -108.667 -77.333 -183.667 -150 -225c-64.667 -36.667 -164 -55 -298 -55h-497v250h544c81.333 0 129.666 37.333 144.999 112l39 117c7.33301 22 11 41.333 11 58c0 46.667 -25 70 -75 70h-104c-20 0 -37.667 -11.333 -53 -34
c-8.66699 -12.667 -23.334 -41.667 -44.001 -87h-276l79 228c44.667 95.333 105 143 181 143h430c46 0 84.667 -18 116 -54s47 -77.333 47 -124c0 -12 -1.66699 -24.667 -5 -38zM624.002 -135l-45 -227h-257l45 227h257zM304.002 -135l-45 -227h-257l45 227h257z
M410.002 -418l-45 -226h-257l47 226h255z" />
    <glyph glyph-name="uFB7D" unicode="&#x686;" horiz-adv-x="1032" arabic-form="medial" 
d="M1064 0h-213.998c-44 -0 -81.333 20.333 -112 61c-64.667 -40.667 -169 -61 -313 -61h-457v250h504c81.333 0 129.666 37.333 144.999 112l39 117c7.33301 22 11 41.333 11 58c0 46.667 -25 70 -75 70h-104c-20 0 -37.667 -11.333 -53 -34
c-8.66699 -12.667 -23.334 -41.667 -44.001 -87h-276l79 228c44.667 95.333 105 143 181 143h430c44.667 0 83.167 -17.833 115.5 -53.5s48.5 -76.167 48.5 -121.5c0 -13.333 -2 -27 -6 -41l-97 -333c-2 -6.66699 -3 -13 -3 -19c0 -26 12.333 -39 37 -39h164v-250z
M624.002 -135l-45 -227h-257l45 227h257zM304.002 -135l-45 -227h-257l45 227h257zM410.002 -418l-45 -226h-257l47 226h255z" />
    <glyph glyph-name="uFB8B" unicode="&#x698;" horiz-adv-x="915" arabic-form="final" 
d="M947 0h-119.002c-73.333 0 -123.666 18.667 -150.999 56c-96 -139.333 -210 -249.333 -342 -330c-156 104 -234 160.667 -234 170c48.667 34 95.334 73 140.001 117c104 102.667 183.333 217 238 343c40.667 94 79 261 115 501l281 -79
c-14.667 -86.667 -41 -212.667 -79 -378c-7.33301 -32 -11 -55 -11 -69c0 -54 34.667 -81 104 -81h58v-250zM859.998 1463l-45 -227h-257l45 227h257zM988.998 1168l-43 -223h-256l45 223h254zM651.998 1168l-42 -223h-257l45 223h254z" />
    <glyph glyph-name="uFEDA" unicode="&#x6a9;" horiz-adv-x="2046" arabic-form="final" 
d="M2076 0l-225 -0.00195312c-38.667 0 -60.667 20.333 -66 61c-24 -40.667 -52.667 -61 -86 -61h-1283c-124.667 0 -187 59.667 -187 179c0 24 4.66699 58 14 102l103 486l309 90l-99 -520c-2.66699 -14 -4 -25 -4 -33c0 -36 20.667 -54 62 -54h828
c61.333 0 92 18.333 92 55c0 8.66699 -1.33301 19.334 -4 32.001c-22.667 106 -50.667 196 -84 270c-28 62 -89.333 174.667 -184 338c20.667 108.667 42 176.334 64 203.001c16 19.333 47.333 29 94 29h537l-57 -230h-297c50.667 -76.667 99.167 -178 145.5 -304
s75.833 -235.333 88.5 -328c0.666992 -8 2 -22.667 4 -44c5.33301 -12.667 24.333 -19 57 -19h178v-252z" />
    <glyph glyph-name="uFEDB" unicode="&#x6a9;" horiz-adv-x="585" arabic-form="initial" 
d="M810 1177l-48.999 -229.998h-315c166 -262.667 249 -507.334 249 -734.001c0 -44.667 -12.333 -89.334 -37 -134.001c-29.333 -52.667 -64.333 -79 -105 -79h-607v250h349c62 0 93 14.333 93 43c0 5.33301 -1 12.666 -3 21.999c-23.333 106.667 -52 200 -86 280
c-36.667 85.333 -98 202 -184 350c18 80.667 31.667 131.334 41 152.001c25.333 53.333 64.666 80 117.999 80h536z" />
    <glyph glyph-name="uFEDC" unicode="&#x6a9;" horiz-adv-x="864" arabic-form="medial" 
d="M918 0h-225.001c-41.333 -0 -63.666 20.333 -66.999 61c-21.333 -40.667 -51.333 -61 -90 -61h-590v250h347c62 0 93 13 93 39c0 8 -1 16.667 -3 26c-24 114 -59.667 222.667 -107 326c-32 70.667 -86.333 172 -163 304c20.667 107.333 42.334 175 65.001 203
c16 19.333 47.333 29 94 29h536l-47 -230h-316c116 -184 194 -394.667 234 -632c7.33301 -43.333 27.666 -65 60.999 -65h178v-250z" />
    <glyph glyph-name="uFB93" unicode="&#x6af;" horiz-adv-x="2042" arabic-form="final" 
d="M1973 1309l-31 -70h-597l29 70h599zM2076 0l-225 -0.00195312c-38.667 0 -60.667 20.333 -66 61c-24 -40.667 -52.667 -61 -86 -61h-1283c-124.667 0 -187 59.667 -187 179c0 24 4.66699 58 14 102l103 486l309 90l-99 -520c-2.66699 -14 -4 -25 -4 -33
c0 -36 20.667 -54 62 -54h828c61.333 0 92 18.333 92 55c0 8.66699 -1.33301 19.334 -4 32.001c-22.667 106 -50.667 196 -84 270c-28 62 -89.333 174.667 -184 338c20.667 108.667 42 176.334 64 203.001c16 19.333 47.333 29 94 29h537l-57 -230h-297
c50.667 -76.667 99.167 -178 145.5 -304s75.833 -235.333 88.5 -328c0.666992 -8 2 -22.667 4 -44c5.33301 -12.667 24.333 -19 57 -19h178v-252z" />
    <glyph glyph-name="uFB94" unicode="&#x6af;" horiz-adv-x="588" arabic-form="initial" 
d="M823 1309l-31 -70h-597l29 70h599zM810 1177l-48.999 -229.998h-315c166 -262.667 249 -507.334 249 -734.001c0 -44.667 -12.333 -89.334 -37 -134.001c-29.333 -52.667 -64.333 -79 -105 -79h-607v250h349c62 0 93 14.333 93 43c0 5.33301 -1 12.666 -3 21.999
c-23.333 106.667 -52 200 -86 280c-36.667 85.333 -98 202 -184 350c18 80.667 31.667 131.334 41 152.001c25.333 53.333 64.666 80 117.999 80h536z" />
    <glyph glyph-name="uFB95" unicode="&#x6af;" horiz-adv-x="880" arabic-form="medial" 
d="M823 1309l-31 -70h-597l29 70h599zM918 0h-225.001c-41.333 -0 -63.666 20.333 -66.999 61c-21.333 -40.667 -51.333 -61 -90 -61h-590v250h347c62 0 93 13 93 39c0 8 -1 16.667 -3 26c-24 114 -59.667 222.667 -107 326c-32 70.667 -86.333 172 -163 304
c20.667 107.333 42.334 175 65.001 203c16 19.333 47.333 29 94 29h536l-47 -230h-316c116 -184 194 -394.667 234 -632c7.33301 -43.333 27.666 -65 60.999 -65h178v-250z" />
    <glyph glyph-name="uFE94" unicode="&#x6c0;" horiz-adv-x="1100" arabic-form="final" 
d="M1127 0h-216.001c-172 -0 -258 73.333 -258 220c0 26.667 2.66699 54.667 8 84l68 373h-27c-48 0 -81 -7 -99 -21c-21.333 -16.667 -37.333 -54.334 -48 -113.001l-52 -293h122l-55 -250h-166c-62 0 -106.667 8.66699 -134 26c-35.333 22 -53 62.333 -53 121
c0 28.667 4 63.667 12 105l72 369c30.667 157.333 100.334 236 209.001 236h246c79.333 0 136.333 -7.66699 171 -23c52.667 -23.333 79 -69 79 -137c0 -29.333 -4 -64.666 -12 -105.999l-44 -229c-2.66699 -14 -4 -26 -4 -36c0 -50.667 27.667 -76 83 -76h98v-250z
M840.999 1125l-9 -36h-63c-20.667 0 -33 -8.66699 -37 -26l-12 -50h103l-15 -42c-2.66699 -14.667 -15.667 -22 -39 -22h-257l18 61h88l28 108c6 23.333 19.667 35 41 35h121c22.667 0 34 -6.66699 34 -20c0 -3.33301 -0.333008 -6 -1 -8z" />
    <glyph glyph-name="uFEF2" unicode="&#x6cc;" horiz-adv-x="1464" arabic-form="final" 
d="M1493 0h-136.001l-39 -144c-21.333 -80 -50.666 -132 -87.999 -156c-43.333 -28 -124 -42 -242 -42h-581c-123.333 0 -185 58.667 -185 176c0 31.333 4 66 12 104l194 919l272 -92l-158 -766c-2.66699 -12.667 -4 -24.667 -4 -36c0 -33.333 19 -50 57 -50h319
c94 0 138.667 29 134 87h-164c-112.667 0 -169 45 -169 135c0 22.667 3.33301 49 10 79l8 36h760v-250z" />
    <glyph glyph-name="uFEF3" unicode="&#x6cc;" horiz-adv-x="420" arabic-form="initial" 
d="M634 767l-114 -522c-18 -83.333 -34 -136 -48 -158c-36.667 -58 -102 -87 -196 -87h-310v250h187c40.667 0 66.667 7.33301 78 22c6 8 13.667 34.333 23 79l103 506zM501 -137l-43 -227h-256l45 227h254zM173 -137l-41 -227h-257l45 227h253z" />
    <glyph glyph-name="uFEF4" unicode="&#x6cc;" horiz-adv-x="666" arabic-form="medial" 
d="M696 0l-167 0.000976562c-40.667 0 -77.667 20.333 -111 61c-20 -40.667 -50 -61 -90 -61h-358v250h154c40.667 0 66.667 7.33301 78 22c6 8 13.667 34.333 23 79l103 506l277 -90l-85 -431c-3.33301 -16.667 -5 -29.334 -5 -38.001c0 -32 20.333 -48 61 -48h120v-250z
M501 -136.999l-43 -227h-256l45 227h254zM173 -136.999l-41 -227h-257l45 227h253z" />
    <glyph glyph-name="Hcircumflex" unicode="&#x622;" horiz-adv-x="822" arabic-form="final" 
d="M959 1369c-64 -41.333 -128.669 -62.999 -194.002 -64.999c-65.333 8.66699 -117 14.667 -155 18c-62 5.33301 -119 -7.33398 -171 -38.001l-60 96c70 43.333 133.667 62.333 191 57c28.667 -3.33301 83.334 -9.33301 164.001 -18c58.667 -6 114.334 7.33301 167.001 40z
M850.998 0.000976562l-354 -0.000976562c-126 0 -189 59 -189 177c0 34.667 5.33301 69.334 16 104.001l184 894h293l-166 -837c-2.66699 -13.333 -4 -23 -4 -29c0 -38 19 -57 57 -57h163v-252z" />
    <glyph glyph-name="uFE84" unicode="&#x623;" horiz-adv-x="782" arabic-form="final" 
d="M811 0l-354 -0.000976562c-126 0 -189 59 -189 177c0 34.667 5.33301 69.334 16 104.001l184 894h293l-166 -837c-2.66699 -13.333 -4 -23 -4 -29c0 -38 19 -57 57 -57h163v-252zM775 1459l-9 -36h-63c-20.667 0 -33 -8.66699 -37 -26l-12 -50h103l-15 -42
c-2.66699 -14.667 -15.667 -22 -39 -22h-257l18 61h88l28 108c6 23.333 19.667 35 41 35h121c22.667 0 34 -6.66699 34 -20c0 -3.33301 -0.333008 -6 -1 -8z" />
    <glyph glyph-name="uFE86" unicode="&#x624;" horiz-adv-x="1044" arabic-form="final" 
d="M1071 0l-255.001 0.00195312c-82 -118.667 -181.667 -223 -299 -313l-236 169c94.667 71.333 173.334 150.666 236.001 237.999c-74 20 -136.333 53.333 -187 100c-58.667 54.667 -88 116.667 -88 186c0 80 51 179.333 153 298c104 121.333 195 182 273 182
c226.667 0 340 -106.667 340 -320c0 -72.667 -13.333 -156.334 -40 -251.001c-3.33301 -12 -9 -25 -17 -39h120v-250zM741.999 431.002c18 38 27 71.333 27 100c0 44 -19.333 66 -58 66c-30 0 -64.667 -19 -104 -57c-55.333 -53.333 -83 -100 -83 -140
c0 -56 42.667 -89.667 128 -101c28 21.333 58 65.333 90 132zM922.999 1124l-9 -36h-63c-20.667 0 -33 -8.66699 -37 -26l-12 -50h103l-15 -42c-2.66699 -14.667 -15.667 -22 -39 -22h-257l18 61h88l28 108c6 23.333 19.667 35 41 35h121c22.667 0 34 -6.66699 34 -20
c0 -3.33301 -0.333008 -6 -1 -8z" />
    <glyph glyph-name="uFE88" unicode="&#x625;" horiz-adv-x="782" arabic-form="final" 
d="M811 0l-354 -0.000976562c-126 0 -189 59 -189 177c0 34.667 5.33301 69.334 16 104.001l184 894h293l-166 -837c-2.66699 -13.333 -4 -23 -4 -29c0 -38 19 -57 57 -57h163v-252zM660 -127.001l-9 -36h-63c-20.667 0 -33 -8.66699 -37 -26l-12 -50h103l-15 -42
c-2.66699 -14.667 -15.667 -22 -39 -22h-257l18 61h88l28 108c6 23.333 19.667 35 41 35h121c22.667 0 34 -6.66699 34 -20c0 -3.33301 -0.333008 -6 -1 -8z" />
    <glyph glyph-name="uFE8A" unicode="&#x626;" horiz-adv-x="1464" arabic-form="final" 
d="M1493 0h-136.001l-39 -144c-21.333 -80 -50.666 -132 -87.999 -156c-43.333 -28 -124 -42 -242 -42h-581c-123.333 0 -185 58.667 -185 176c0 31.333 4 66 12 104l194 919l272 -92l-158 -766c-2.66699 -12.667 -4 -24.667 -4 -36c0 -33.333 19 -50 57 -50h319
c94 0 138.667 29 134 87h-164c-112.667 0 -169 45 -169 135c0 22.667 3.33301 49 10 79l8 36h760v-250zM672.999 1124l-9 -36h-63c-20.667 0 -33 -8.66699 -37 -26l-12 -50h103l-15 -42c-2.66699 -14.667 -15.667 -22 -39 -22h-257l18 61h88l28 108
c6 23.333 19.667 35 41 35h121c22.667 0 34 -6.66699 34 -20c0 -3.33301 -0.333008 -6 -1 -8z" />
    <glyph glyph-name="uFE8B" unicode="&#x626;" horiz-adv-x="450" arabic-form="initial" 
d="M634 767l-114 -522c-18 -83.333 -34 -136 -48 -158c-36.667 -58 -102 -87 -196 -87h-310v250h187c40.667 0 66.667 7.33301 78 22c6 8 13.667 34.333 23 79l103 506zM673 1124l-9 -36h-63c-20.667 0 -33 -8.66699 -37 -26l-12 -50h103l-15 -42
c-2.66699 -14.667 -15.667 -22 -39 -22h-257l18 61h88l28 108c6 23.333 19.667 35 41 35h121c22.667 0 34 -6.66699 34 -20c0 -3.33301 -0.333008 -6 -1 -8z" />
    <glyph glyph-name="uFE8C" unicode="&#x626;" horiz-adv-x="666" arabic-form="medial" 
d="M696 0l-167 0.000976562c-40.667 0 -77.667 20.333 -111 61c-20 -40.667 -50 -61 -90 -61h-358v250h154c40.667 0 66.667 7.33301 78 22c6 8 13.667 34.333 23 79l103 506l277 -90l-85 -431c-3.33301 -16.667 -5 -29.334 -5 -38.001c0 -32 20.333 -48 61 -48h120v-250z
M673 1124l-9 -36h-63c-20.667 0 -33 -8.66699 -37 -26l-12 -50h103l-15 -42c-2.66699 -14.667 -15.667 -22 -39 -22h-257l18 61h88l28 108c6 23.333 19.667 35 41 35h121c22.667 0 34 -6.66699 34 -20c0 -3.33301 -0.333008 -6 -1 -8z" />
    <glyph glyph-name="uFE8E" unicode="&#x627;" horiz-adv-x="781" arabic-form="final" 
d="M811 0l-354 -0.000976562c-126 0 -189 59 -189 177c0 34.667 5.33301 69.334 16 104.001l184 894h293l-166 -837c-2.66699 -13.333 -4 -23 -4 -29c0 -38 19 -57 57 -57h163v-252z" />
    <glyph glyph-name="uFE90" unicode="&#x628;" horiz-adv-x="2038" arabic-form="final" 
d="M2068 0h-151c-40.667 -0 -62.667 20.333 -66 61c-22 -40.667 -52 -61 -90 -61h-1305c-124.667 0 -187 55 -187 165c0 33.333 4.66699 72 14 116l103 486l309 90l-99 -522c-2.66699 -14 -4 -25 -4 -33c0 -34.667 20.667 -52 62 -52h858c36 0 60.333 7 73 21
c10.667 11.333 20 37.333 28 78l103 508l277 -90l-85 -429c-2.66699 -13.333 -4 -25 -4 -35c0 -35.333 20 -53 60 -53h104v-250zM1082 -133l-45 -227h-258l45 227h258z" />
    <glyph glyph-name="uFE91" unicode="&#x628;" horiz-adv-x="445" arabic-form="initial" 
d="M634 767l-114 -522c-18 -83.333 -34 -136 -48 -158c-36.667 -58 -102 -87 -196 -87h-310v250h187c40.667 0 66.667 7.33301 78 22c6 8 13.667 34.333 23 79l103 506zM352 -133l-45 -227h-258l45 227h258z" />
    <glyph glyph-name="uFE92" unicode="&#x628;" horiz-adv-x="665" arabic-form="medial" 
d="M352 -133l-45 -227h-258l45 227h258zM696 0l-167 0.000976562c-40.667 0 -77.667 20.333 -111 61c-20 -40.667 -50 -61 -90 -61h-358v250h154c40.667 0 66.667 7.33301 78 22c6 8 13.667 34.333 23 79l103 506l277 -90l-85 -431c-3.33301 -16.667 -5 -29.334 -5 -38.001
c0 -32 20.333 -48 61 -48h120v-250z" />
    <glyph glyph-name="uFE96" unicode="&#x62a;" horiz-adv-x="2040" arabic-form="final" 
d="M2068 0h-151c-40.667 -0 -62.667 20.333 -66 61c-22 -40.667 -52 -61 -90 -61h-1305c-124.667 0 -187 55 -187 165c0 33.333 4.66699 72 14 116l103 486l309 90l-99 -522c-2.66699 -14 -4 -25 -4 -33c0 -34.667 20.667 -52 62 -52h858c36 0 60.333 7 73 21
c10.667 11.333 20 37.333 28 78l103 508l277 -90l-85 -429c-2.66699 -13.333 -4 -25 -4 -35c0 -35.333 20 -53 60 -53h104v-250zM1536 1174l-43 -227h-256l45 227h254zM1208 1174l-41 -227h-257l45 227h253z" />
    <glyph glyph-name="uFE97" unicode="&#x62a;" horiz-adv-x="520" arabic-form="initial" 
d="M634 767l-114 -522c-18 -83.333 -34 -136 -48 -158c-36.667 -58 -102 -87 -196 -87h-310v250h187c40.667 0 66.667 7.33301 78 22c6 8 13.667 34.333 23 79l103 506zM766 1174l-43 -227h-256l45 227h254zM438 1174l-41 -227h-257l45 227h253z" />
    <glyph glyph-name="uFE98" unicode="&#x62a;" horiz-adv-x="665" arabic-form="medial" 
d="M696 0l-167 0.000976562c-40.667 0 -77.667 20.333 -111 61c-20 -40.667 -50 -61 -90 -61h-358v250h154c40.667 0 66.667 7.33301 78 22c6 8 13.667 34.333 23 79l103 506l277 -90l-85 -431c-3.33301 -16.667 -5 -29.334 -5 -38.001c0 -32 20.333 -48 61 -48h120v-250z
M766 1174l-43 -227h-256l45 227h254zM438 1174l-41 -227h-257l45 227h253z" />
    <glyph glyph-name="uFE9A" unicode="&#x62b;" horiz-adv-x="2040" arabic-form="final" 
d="M2068 0h-151c-40.667 -0 -62.667 20.333 -66 61c-22 -40.667 -52 -61 -90 -61h-1305c-124.667 0 -187 55 -187 165c0 33.333 4.66699 72 14 116l103 486l309 90l-99 -522c-2.66699 -14 -4 -25 -4 -33c0 -34.667 20.667 -52 62 -52h858c36 0 60.333 7 73 21
c10.667 11.333 20 37.333 28 78l103 508l277 -90l-85 -429c-2.66699 -13.333 -4 -25 -4 -35c0 -35.333 20 -53 60 -53h104v-250zM1442 1465l-45 -227h-257l45 227h257zM1571 1170l-43 -223h-256l45 223h254zM1234 1170l-42 -223h-257l45 223h254z" />
    <glyph glyph-name="uFE9B" unicode="&#x62b;" horiz-adv-x="520" arabic-form="initial" 
d="M634 767l-114 -522c-18 -83.333 -34 -136 -48 -158c-36.667 -58 -102 -87 -196 -87h-310v250h187c40.667 0 66.667 7.33301 78 22c6 8 13.667 34.333 23 79l103 506zM635 1465l-45 -227h-257l45 227h257zM764 1170l-43 -223h-256l45 223h254zM427 1170l-42 -223h-257
l45 223h254z" />
    <glyph glyph-name="uFE9C" unicode="&#x62b;" horiz-adv-x="665" arabic-form="medial" 
d="M696 0l-167 0.000976562c-40.667 0 -77.667 20.333 -111 61c-20 -40.667 -50 -61 -90 -61h-358v250h154c40.667 0 66.667 7.33301 78 22c6 8 13.667 34.333 23 79l103 506l277 -90l-85 -431c-3.33301 -16.667 -5 -29.334 -5 -38.001c0 -32 20.333 -48 61 -48h120v-250z
M635 1465l-45 -227h-257l45 227h257zM764 1170l-43 -223h-256l45 223h254zM427 1170l-42 -223h-257l45 223h254z" />
    <glyph glyph-name="uFE9E" unicode="&#x62c;" horiz-adv-x="1135" arabic-form="final" 
d="M1162 0l-293.999 0.000976562c-46.667 0 -89.667 20.333 -129 61l-196 -221c-113.333 -128 -170 -205.333 -170 -232c0 -52 30 -78 90 -78h455l-58 -232h-523c-146 0 -229.667 66 -251 198c-1.33301 8 -2 17.333 -2 28c0 111.333 48.333 225 145 341l511 603
c19.333 29.333 29 57.333 29 84c0 35.333 -21.667 53 -65 53h-53c-52 0 -88.333 -10.333 -109 -31c-5.33301 -5.33301 -23 -34 -53 -86h-276c41.333 114 77.666 194.667 108.999 242c56 84.667 124.333 127 205 127h382c110 0 165 -49 165 -147c0 -20 -2.33301 -43 -7 -69
c-19.333 -108.667 -65 -216.334 -137 -323.001c-9.33301 -14 -14 -26.667 -14 -38c0 -20 12 -30 36 -30h210v-250zM974.001 -132.999l-45 -227h-258l45 227h258z" />
    <glyph glyph-name="uFE9F" unicode="&#x62c;" horiz-adv-x="848" arabic-form="initial" 
d="M1003 641l-89.998 -361c-27.333 -108.667 -77.333 -183.667 -150 -225c-64.667 -36.667 -164 -55 -298 -55h-497v250h544c81.333 0 129.666 37.333 144.999 112l39 117c7.33301 22 11 41.333 11 58c0 46.667 -25 70 -75 70h-104c-20 0 -37.667 -11.333 -53 -34
c-8.66699 -12.667 -23.334 -41.667 -44.001 -87h-276l79 228c44.667 95.333 105 143 181 143h430c46 0 84.667 -18 116 -54s47 -77.333 47 -124c0 -12 -1.66699 -24.667 -5 -38zM604.002 -136l-45 -227h-258l45 227h258z" />
    <glyph glyph-name="uFEA0" unicode="&#x62c;" horiz-adv-x="1030" arabic-form="medial" 
d="M1064 0h-213.998c-44 -0 -81.333 20.333 -112 61c-64.667 -40.667 -169 -61 -313 -61h-457v250h504c81.333 0 129.666 37.333 144.999 112l39 117c7.33301 22 11 41.333 11 58c0 46.667 -25 70 -75 70h-104c-20 0 -37.667 -11.333 -53 -34
c-8.66699 -12.667 -23.334 -41.667 -44.001 -87h-276l79 228c44.667 95.333 105 143 181 143h430c44.667 0 83.167 -17.833 115.5 -53.5s48.5 -76.167 48.5 -121.5c0 -13.333 -2 -27 -6 -41l-97 -333c-2 -6.66699 -3 -13 -3 -19c0 -26 12.333 -39 37 -39h164v-250z
M604.002 -136l-45 -227h-258l45 227h258z" />
    <glyph glyph-name="uFEA2" unicode="&#x62d;" horiz-adv-x="1132" arabic-form="final" 
d="M1162 0l-293.999 0.000976562c-46.667 0 -89.667 20.333 -129 61l-196 -221c-113.333 -128 -170 -205.333 -170 -232c0 -52 30 -78 90 -78h455l-58 -232h-523c-146 0 -229.667 66 -251 198c-1.33301 8 -2 17.333 -2 28c0 111.333 48.333 225 145 341l511 603
c19.333 29.333 29 57.333 29 84c0 35.333 -21.667 53 -65 53h-53c-52 0 -88.333 -10.333 -109 -31c-5.33301 -5.33301 -23 -34 -53 -86h-276c41.333 114 77.666 194.667 108.999 242c56 84.667 124.333 127 205 127h382c110 0 165 -49 165 -147c0 -20 -2.33301 -43 -7 -69
c-19.333 -108.667 -65 -216.334 -137 -323.001c-9.33301 -14 -14 -26.667 -14 -38c0 -20 12 -30 36 -30h210v-250z" />
    <glyph glyph-name="uFEA3" unicode="&#x62d;" horiz-adv-x="845" arabic-form="initial" 
d="M1003 641l-89.998 -361c-27.333 -108.667 -77.333 -183.667 -150 -225c-64.667 -36.667 -164 -55 -298 -55h-497v250h544c81.333 0 129.666 37.333 144.999 112l39 117c7.33301 22 11 41.333 11 58c0 46.667 -25 70 -75 70h-104c-20 0 -37.667 -11.333 -53 -34
c-8.66699 -12.667 -23.334 -41.667 -44.001 -87h-276l79 228c44.667 95.333 105 143 181 143h430c46 0 84.667 -18 116 -54s47 -77.333 47 -124c0 -12 -1.66699 -24.667 -5 -38z" />
    <glyph glyph-name="uFEA4" unicode="&#x62d;" horiz-adv-x="1035" arabic-form="medial" 
d="M1064 0h-213.998c-44 -0 -81.333 20.333 -112 61c-64.667 -40.667 -169 -61 -313 -61h-457v250h504c81.333 0 129.666 37.333 144.999 112l39 117c7.33301 22 11 41.333 11 58c0 46.667 -25 70 -75 70h-104c-20 0 -37.667 -11.333 -53 -34
c-8.66699 -12.667 -23.334 -41.667 -44.001 -87h-276l79 228c44.667 95.333 105 143 181 143h430c44.667 0 83.167 -17.833 115.5 -53.5s48.5 -76.167 48.5 -121.5c0 -13.333 -2 -27 -6 -41l-97 -333c-2 -6.66699 -3 -13 -3 -19c0 -26 12.333 -39 37 -39h164v-250z" />
    <glyph glyph-name="uFEA6" unicode="&#x62e;" horiz-adv-x="1136" arabic-form="final" 
d="M1162 0l-293.999 0.000976562c-46.667 0 -89.667 20.333 -129 61l-196 -221c-113.333 -128 -170 -205.333 -170 -232c0 -52 30 -78 90 -78h455l-58 -232h-523c-146 0 -229.667 66 -251 198c-1.33301 8 -2 17.333 -2 28c0 111.333 48.333 225 145 341l511 603
c19.333 29.333 29 57.333 29 84c0 35.333 -21.667 53 -65 53h-53c-52 0 -88.333 -10.333 -109 -31c-5.33301 -5.33301 -23 -34 -53 -86h-276c41.333 114 77.666 194.667 108.999 242c56 84.667 124.333 127 205 127h382c110 0 165 -49 165 -147c0 -20 -2.33301 -43 -7 -69
c-19.333 -108.667 -65 -216.334 -137 -323.001c-9.33301 -14 -14 -26.667 -14 -38c0 -20 12 -30 36 -30h210v-250zM935.001 1172l-45 -227h-257l45 227h257z" />
    <glyph glyph-name="uFEA7" unicode="&#x62e;" horiz-adv-x="848" arabic-form="initial" 
d="M1003 641l-89.998 -361c-27.333 -108.667 -77.333 -183.667 -150 -225c-64.667 -36.667 -164 -55 -298 -55h-497v250h544c81.333 0 129.666 37.333 144.999 112l39 117c7.33301 22 11 41.333 11 58c0 46.667 -25 70 -75 70h-104c-20 0 -37.667 -11.333 -53 -34
c-8.66699 -12.667 -23.334 -41.667 -44.001 -87h-276l79 228c44.667 95.333 105 143 181 143h430c46 0 84.667 -18 116 -54s47 -77.333 47 -124c0 -12 -1.66699 -24.667 -5 -38zM845.002 1172l-45 -227h-257l45 227h257z" />
    <glyph glyph-name="uFEA8" unicode="&#x62e;" horiz-adv-x="1032" arabic-form="medial" 
d="M1064 0h-213.998c-44 -0 -81.333 20.333 -112 61c-64.667 -40.667 -169 -61 -313 -61h-457v250h504c81.333 0 129.666 37.333 144.999 112l39 117c7.33301 22 11 41.333 11 58c0 46.667 -25 70 -75 70h-104c-20 0 -37.667 -11.333 -53 -34
c-8.66699 -12.667 -23.334 -41.667 -44.001 -87h-276l79 228c44.667 95.333 105 143 181 143h430c44.667 0 83.167 -17.833 115.5 -53.5s48.5 -76.167 48.5 -121.5c0 -13.333 -2 -27 -6 -41l-97 -333c-2 -6.66699 -3 -13 -3 -19c0 -26 12.333 -39 37 -39h164v-250z
M845.002 1172l-45 -227h-257l45 227h257z" />
    <glyph glyph-name="uFEAA" unicode="&#x62f;" horiz-adv-x="1144" arabic-form="final" 
d="M1174 0h-213.997c-56 -0 -93.333 20.333 -112 61c-64.667 -40.667 -167.334 -61 -308.001 -61h-312l54 250h305c81.333 0 129.666 37.333 144.999 112l24 117c4.66699 22.667 7 40.667 7 54c0 49.333 -33.667 74 -101 74h-310l33 140c12 50.667 37.333 82.667 76 96
c27.333 9.33301 87.666 14 180.999 14h263c46 0 85 -18.667 117 -56c30 -35.333 45 -76.333 45 -123c0 -12.667 -1.33301 -25 -4 -37l-73 -321c-1.33301 -6 -2 -12.333 -2 -19c0 -34 14 -51 42 -51h144v-250z" />
    <glyph glyph-name="uFEAC" unicode="&#x630;" horiz-adv-x="1144" arabic-form="final" 
d="M1174 0h-213.997c-56 -0 -93.333 20.333 -112 61c-64.667 -40.667 -167.334 -61 -308.001 -61h-312l54 250h305c81.333 0 129.666 37.333 144.999 112l24 117c4.66699 22.667 7 40.667 7 54c0 49.333 -33.667 74 -101 74h-310l33 140c12 50.667 37.333 82.667 76 96
c27.333 9.33301 87.666 14 180.999 14h263c46 0 85 -18.667 117 -56c30 -35.333 45 -76.333 45 -123c0 -12.667 -1.33301 -25 -4 -37l-73 -321c-1.33301 -6 -2 -12.333 -2 -19c0 -34 14 -51 42 -51h144v-250zM845.003 1172l-45 -227h-257l45 227h257z" />
    <glyph glyph-name="uFEAE" unicode="&#x631;" horiz-adv-x="917" arabic-form="final" 
d="M947 0h-119.002c-73.333 0 -123.666 18.667 -150.999 56c-96 -139.333 -210 -249.333 -342 -330c-156 104 -234 160.667 -234 170c48.667 34 95.334 73 140.001 117c104 102.667 183.333 217 238 343c40.667 94 79 261 115 501l281 -79
c-14.667 -86.667 -41 -212.667 -79 -378c-7.33301 -32 -11 -55 -11 -69c0 -54 34.667 -81 104 -81h58v-250z" />
    <glyph glyph-name="uFEB0" unicode="&#x632;" horiz-adv-x="915" arabic-form="final" 
d="M947 0h-119.002c-73.333 0 -123.666 18.667 -150.999 56c-96 -139.333 -210 -249.333 -342 -330c-156 104 -234 160.667 -234 170c48.667 34 95.334 73 140.001 117c104 102.667 183.333 217 238 343c40.667 94 79 261 115 501l281 -79
c-14.667 -86.667 -41 -212.667 -79 -378c-7.33301 -32 -11 -55 -11 -69c0 -54 34.667 -81 104 -81h58v-250zM885.998 1174l-45 -227h-257l45 227h257z" />
    <glyph glyph-name="uFEB2" unicode="&#x633;" horiz-adv-x="2432" arabic-form="final" 
d="M2462 0l-151.001 0.000976562c-33.333 0 -72.333 20.333 -117 61c-37.333 -40.667 -97 -61 -179 -61h-169c-41.333 0 -78.666 20.333 -111.999 61c-20 -40.667 -50 -61 -90 -61h-217c-48 0 -89 20.333 -123 61c-38.667 -145.333 -74.667 -233.333 -108 -264
c-36.667 -34 -119.334 -51 -248.001 -51h-529c-124.667 0 -187 56.667 -187 170c0 29.333 4.66699 67 14 113l169 828l275 -90l-133 -681c-4.66699 -24 -7 -38.667 -7 -44c0 -28 19.667 -42 59 -42h243c66.667 0 110 14 130 42c26.667 38 57.334 141 92.001 309l104 506
l277 -90l-93 -416c-2.66699 -12 -4 -22 -4 -30c0 -48 27.667 -72 83 -72c53.333 0 87 34 101 102l102 506l278 -88l-92 -418c-3.33301 -15.333 -5 -28 -5 -38c0 -42 22.667 -63 68 -63c54 0 87.667 33.667 101 101l102 506l277 -90l-91 -430
c-4 -18.667 -6 -32.334 -6 -41.001c0 -30.667 20.667 -46 62 -46h124v-250z" />
    <glyph glyph-name="uFEB3" unicode="&#x633;" horiz-adv-x="1302" arabic-form="initial" 
d="M1445 767l-114 -521.999c-18.667 -84.667 -34.667 -137.334 -48 -158.001c-37.333 -58 -103 -87 -197 -87h-169c-40.667 -0 -77.667 20.333 -111 61c-20.667 -40.667 -50.667 -61 -90 -61h-251c-44.667 -0 -81.667 20.333 -111 61c-23.333 -40.667 -53.333 -61 -90 -61
h-308v250h104c53.333 0 87 33.667 101 101l103 506l277 -88l-92 -418c-3.33301 -15.333 -5 -28.333 -5 -39c0 -41.333 22.667 -62 68 -62c53.333 0 87 33.667 101 101l103 506l277 -88l-92 -418c-2.66699 -12 -4 -24 -4 -36c0 -43.333 22.333 -65 67 -65
c54 0 87.667 33.667 101 101l102 506z" />
    <glyph glyph-name="uFEB4" unicode="&#x633;" horiz-adv-x="1520" arabic-form="medial" 
d="M1550 0h-171.003c-41.333 -0 -78.666 20.333 -111.999 61c-20 -40.667 -50 -61 -90 -61h-250c-40.667 -0 -77.667 20.333 -111 61c-20.667 -40.667 -50.667 -61 -90 -61h-251c-40.667 -0 -77.667 20.333 -111 61c-20 -40.667 -50 -61 -90 -61h-308v250h104
c40 0 65.667 7 77 21c6.66699 8.66699 14.667 35.334 24 80.001l103 506l277 -88l-92 -418c-3.33301 -15.333 -5 -28.333 -5 -39c0 -42 22.667 -62 68 -60c54.667 2.66699 88.334 35.667 101.001 99l103 506l277 -88l-92 -418c-2.66699 -12 -4 -24 -4 -36
c0 -44 22.333 -65 67 -63c54.667 2.66699 88.334 35.667 101.001 99l102 506l278 -90l-85 -430c-3.33301 -16.667 -5 -29.334 -5 -38.001c0 -32.667 20.333 -49 61 -49h124v-250z" />
    <glyph glyph-name="uFEB6" unicode="&#x634;" horiz-adv-x="2429" arabic-form="final" 
d="M2462 0l-151.001 0.000976562c-33.333 0 -72.333 20.333 -117 61c-37.333 -40.667 -97 -61 -179 -61h-169c-41.333 0 -78.666 20.333 -111.999 61c-20 -40.667 -50 -61 -90 -61h-217c-48 0 -89 20.333 -123 61c-38.667 -145.333 -74.667 -233.333 -108 -264
c-36.667 -34 -119.334 -51 -248.001 -51h-529c-124.667 0 -187 56.667 -187 170c0 29.333 4.66699 67 14 113l169 828l275 -90l-133 -681c-4.66699 -24 -7 -38.667 -7 -44c0 -28 19.667 -42 59 -42h243c66.667 0 110 14 130 42c26.667 38 57.334 141 92.001 309l104 506
l277 -90l-93 -416c-2.66699 -12 -4 -22 -4 -30c0 -48 27.667 -72 83 -72c53.333 0 87 34 101 102l102 506l278 -88l-92 -418c-3.33301 -15.333 -5 -28 -5 -38c0 -42 22.667 -63 68 -63c54 0 87.667 33.667 101 101l102 506l277 -90l-91 -430
c-4 -18.667 -6 -32.334 -6 -41.001c0 -30.667 20.667 -46 62 -46h124v-250zM1989 1465l-45 -227h-257l45 227h257zM2118 1170l-43 -223h-256l45 223h254zM1781 1170l-42 -223h-257l45 223h254z" />
    <glyph glyph-name="uFEB7" unicode="&#x634;" horiz-adv-x="1302" arabic-form="initial" 
d="M1445 767l-114 -521.999c-18.667 -84.667 -34.667 -137.334 -48 -158.001c-37.333 -58 -103 -87 -197 -87h-169c-40.667 -0 -77.667 20.333 -111 61c-20.667 -40.667 -50.667 -61 -90 -61h-251c-44.667 -0 -81.667 20.333 -111 61c-23.333 -40.667 -53.333 -61 -90 -61
h-308v250h104c53.333 0 87 33.667 101 101l103 506l277 -88l-92 -418c-3.33301 -15.333 -5 -28.333 -5 -39c0 -41.333 22.667 -62 68 -62c53.333 0 87 33.667 101 101l103 506l277 -88l-92 -418c-2.66699 -12 -4 -24 -4 -36c0 -43.333 22.333 -65 67 -65
c54 0 87.667 33.667 101 101l102 506zM1119 1465l-45 -227h-257l45 227h257zM1248 1170l-43 -223h-256l45 223h254zM911 1170l-42 -223h-257l45 223h254z" />
    <glyph glyph-name="uFEB8" unicode="&#x634;" horiz-adv-x="1519" arabic-form="medial" 
d="M1550 0h-171.003c-41.333 -0 -78.666 20.333 -111.999 61c-20 -40.667 -50 -61 -90 -61h-250c-40.667 -0 -77.667 20.333 -111 61c-20.667 -40.667 -50.667 -61 -90 -61h-251c-40.667 -0 -77.667 20.333 -111 61c-20 -40.667 -50 -61 -90 -61h-308v250h104
c40 0 65.667 7 77 21c6.66699 8.66699 14.667 35.334 24 80.001l103 506l277 -88l-92 -418c-3.33301 -15.333 -5 -28.333 -5 -39c0 -42 22.667 -62 68 -60c54.667 2.66699 88.334 35.667 101.001 99l103 506l277 -88l-92 -418c-2.66699 -12 -4 -24 -4 -36
c0 -44 22.333 -65 67 -63c54.667 2.66699 88.334 35.667 101.001 99l102 506l278 -90l-85 -430c-3.33301 -16.667 -5 -29.334 -5 -38.001c0 -32.667 20.333 -49 61 -49h124v-250zM1119 1465l-45 -227h-257l45 227h257zM1248 1170l-43 -223h-256l45 223h254zM910.997 1170
l-42 -223h-257l45 223h254z" />
    <glyph glyph-name="uFEBA" unicode="&#x635;" horiz-adv-x="2462" arabic-form="final" 
d="M2492 0h-141.002c-40.667 -0 -77.667 20.333 -111 61c-37.333 -40.667 -94.666 -61 -171.999 -61h-709c-58.667 -0 -88 20.333 -88 61c-39.333 -146.667 -74.666 -235 -105.999 -265c-36.667 -35.333 -119 -52.666 -247 -51.999l-509 2
c-130.667 0.666992 -196 49.667 -196 147c0 14 7.66699 58.667 23 134l169 830l272 -90l-130 -682c-4 -20.667 -6 -34.667 -6 -42c0 -28.667 18.667 -43 56 -43h222c66 0 109 14 129 42c26.667 37.333 57.334 140.333 92.001 309l105 506l273 -90l-86 -430
c-1.33301 -6.66699 -2 -13.334 -2 -20.001c0 -40 16 -60 48 -60c13.333 0 26.666 5.33301 39.999 16l639 508c62.667 50 130.667 75 204 75c37.333 0 70 -7.33301 98 -22c34 -18.667 51 -45 51 -79c0 -4 -0.666992 -9.66699 -2 -17l-73 -401c-4 -22 -6 -36 -6 -42
c0 -30 20.667 -45 62 -45h101v-250zM2122 545l-389.999 -295h187c93.333 0 149.666 45.667 168.999 137z" />
    <glyph glyph-name="uFEBB" unicode="&#x635;" horiz-adv-x="1351" arabic-form="initial" 
d="M1492 738l-94.9971 -493c-14.667 -78 -32.334 -132 -53.001 -162c-37.333 -55.333 -101.333 -83 -192 -83h-722c-60 -0 -92.333 20.333 -97 61c-30 -40.667 -64.667 -61 -104 -61h-283v250h79c54 0 87.667 33.667 101 101l58 292l275 -90l-53 -236
c-2 -8.66699 -3 -15.667 -3 -21c0 -32 14 -48 42 -48c12.667 0 25 4.66699 37 14l659 519c63.333 50 131.666 75 204.999 75c37.333 0 69.666 -7.33301 96.999 -22c34 -18 51 -44 51 -78c0 -5.33301 -0.666992 -11.333 -2 -18zM1206 545l-390.999 -295h188
c93.333 0 149.666 45.667 168.999 137z" />
    <glyph glyph-name="uFEBC" unicode="&#x635;" horiz-adv-x="1540" arabic-form="medial" 
d="M1570 0h-140.998c-40.667 -0 -77.667 20.333 -111 61c-20.667 -40.667 -50.667 -61 -90 -61h-798c-60 -0 -92.333 20.333 -97 61c-30 -40.667 -64.667 -61 -104 -61h-283v250h79c54 0 87.667 33.667 101 101l58 292l275 -90l-53 -236c-2 -8.66699 -3 -15.667 -3 -21
c0 -32 14 -48 42 -48c12.667 0 25 4.66699 37 14l659 519c63.333 50 131.666 75 204.999 75c37.333 0 69.666 -7.33301 96.999 -22c34 -18 51 -44 51 -78c0 -5.33301 -0.666992 -11.333 -2 -18l-79 -401c-2 -10 -3 -18.667 -3 -26c0 -40.667 19.667 -61 59 -61h101v-250z
M1206 545l-390.999 -295h188c93.333 0 149.666 45.667 168.999 137z" />
    <glyph glyph-name="uFEBE" unicode="&#x636;" horiz-adv-x="2462" arabic-form="final" 
d="M2492 0h-141.002c-40.667 -0 -77.667 20.333 -111 61c-37.333 -40.667 -94.666 -61 -171.999 -61h-709c-58.667 -0 -88 20.333 -88 61c-39.333 -146.667 -74.666 -235 -105.999 -265c-36.667 -35.333 -119 -52.666 -247 -51.999l-509 2
c-130.667 0.666992 -196 49.667 -196 147c0 14 7.66699 58.667 23 134l169 830l272 -90l-130 -682c-4 -20.667 -6 -34.667 -6 -42c0 -28.667 18.667 -43 56 -43h222c66 0 109 14 129 42c26.667 37.333 57.334 140.333 92.001 309l105 506l273 -90l-86 -430
c-1.33301 -6.66699 -2 -13.334 -2 -20.001c0 -40 16 -60 48 -60c13.333 0 26.666 5.33301 39.999 16l639 508c62.667 50 130.667 75 204 75c37.333 0 70 -7.33301 98 -22c34 -18.667 51 -45 51 -79c0 -4 -0.666992 -9.66699 -2 -17l-73 -401c-4 -22 -6 -36 -6 -42
c0 -30 20.667 -45 62 -45h101v-250zM2122 545l-389.999 -295h187c93.333 0 149.666 45.667 168.999 137zM2103 1172l-45 -227h-257l45 227h257z" />
    <glyph glyph-name="uFEBF" unicode="&#x636;" horiz-adv-x="1351" arabic-form="initial" 
d="M1215 1170l-45 -227h-257l45 227h257zM1492 738l-94.9971 -493c-14.667 -78 -32.334 -132 -53.001 -162c-37.333 -55.333 -101.333 -83 -192 -83h-722c-60 -0 -92.333 20.333 -97 61c-30 -40.667 -64.667 -61 -104 -61h-283v250h79c54 0 87.667 33.667 101 101l58 292
l275 -90l-53 -236c-2 -8.66699 -3 -15.667 -3 -21c0 -32 14 -48 42 -48c12.667 0 25 4.66699 37 14l659 519c63.333 50 131.666 75 204.999 75c37.333 0 69.666 -7.33301 96.999 -22c34 -18 51 -44 51 -78c0 -5.33301 -0.666992 -11.333 -2 -18zM1206 545l-390.999 -295h188
c93.333 0 149.666 45.667 168.999 137z" />
    <glyph glyph-name="uFEC0" unicode="&#x636;" horiz-adv-x="1538" arabic-form="medial" 
d="M1570 0h-140.998c-40.667 -0 -77.667 20.333 -111 61c-20.667 -40.667 -50.667 -61 -90 -61h-798c-60 -0 -92.333 20.333 -97 61c-30 -40.667 -64.667 -61 -104 -61h-283v250h79c54 0 87.667 33.667 101 101l58 292l275 -90l-53 -236c-2 -8.66699 -3 -15.667 -3 -21
c0 -32 14 -48 42 -48c12.667 0 25 4.66699 37 14l659 519c63.333 50 131.666 75 204.999 75c37.333 0 69.666 -7.33301 96.999 -22c34 -18 51 -44 51 -78c0 -5.33301 -0.666992 -11.333 -2 -18l-79 -401c-2 -10 -3 -18.667 -3 -26c0 -40.667 19.667 -61 59 -61h101v-250z
M1206 545l-390.999 -295h188c93.333 0 149.666 45.667 168.999 137zM1215 1170l-45 -227h-257l45 227h257z" />
    <glyph glyph-name="uFEC2" unicode="&#x637;" horiz-adv-x="1659" arabic-form="final" 
d="M1689 0l-171 0.000976562c-44.667 0 -82 20.333 -112 61c-42 -40.667 -98 -61 -168 -61h-1006l50 250h25c53.333 0 87 33.667 101 101l168 826h294l-176 -875l533 479c62 56 131.667 84 209 84c37.333 0 69.333 -8 96 -24c32 -18.667 48 -45.667 48 -81
c0 -8 -0.666992 -15.333 -2 -22l-78 -401c-4 -20.667 -6 -34.334 -6 -41.001c0 -30.667 21.333 -46 64 -46h131v-250zM1330 578.001l-394.001 -328h190c92.667 0 148.334 46.667 167.001 140z" />
    <glyph glyph-name="uFEC3" unicode="&#x637;" horiz-adv-x="1175" arabic-form="initial" 
d="M1346 738l-95.001 -493c-15.333 -78.667 -35.666 -135 -60.999 -169c-38 -50.667 -99.333 -76 -184 -76h-1036v250h105c53.333 0 87 33.667 101 101l168 826h294l-176 -875l533 479c62 56 131.667 84 209 84c37.333 0 69.333 -8 96 -24c32 -18.667 48 -45.667 48 -81
c0 -8 -0.666992 -15.333 -2 -22zM1098 578l-394.001 -328h190c92.667 0 148.334 46.667 167.001 140z" />
    <glyph glyph-name="uFEC4" unicode="&#x637;" horiz-adv-x="1427" arabic-form="medial" 
d="M1457 0l-171 0.000976562c-44.667 0 -82 20.333 -112 61c-42 -40.667 -98 -61 -168 -61h-1036v250h105c53.333 0 87 33.667 101 101l168 826h294l-176 -875l533 479c62 56 131.667 84 209 84c37.333 0 69.333 -8 96 -24c32 -18.667 48 -45.667 48 -81
c0 -8 -0.666992 -15.333 -2 -22l-78 -401c-4 -20.667 -6 -34.334 -6 -41.001c0 -30.667 21.333 -46 64 -46h131v-250zM1098 578.001l-394.001 -328h190c92.667 0 148.334 46.667 167.001 140z" />
    <glyph glyph-name="uFEC6" unicode="&#x638;" horiz-adv-x="1659" arabic-form="final" 
d="M1689 0l-171 0.000976562c-44.667 0 -82 20.333 -112 61c-42 -40.667 -98 -61 -168 -61h-1006l50 250h25c53.333 0 87 33.667 101 101l168 826h294l-176 -875l533 479c62 56 131.667 84 209 84c37.333 0 69.333 -8 96 -24c32 -18.667 48 -45.667 48 -81
c0 -8 -0.666992 -15.333 -2 -22l-78 -401c-4 -20.667 -6 -34.334 -6 -41.001c0 -30.667 21.333 -46 64 -46h131v-250zM1330 578.001l-394.001 -328h190c92.667 0 148.334 46.667 167.001 140zM1355 1174l-45 -227h-257l45 227h257z" />
    <glyph glyph-name="uFEC7" unicode="&#x638;" horiz-adv-x="1176" arabic-form="initial" 
d="M1346 738l-95.001 -493c-15.333 -78.667 -35.666 -135 -60.999 -169c-38 -50.667 -99.333 -76 -184 -76h-1036v250h105c53.333 0 87 33.667 101 101l168 826h294l-176 -875l533 479c62 56 131.667 84 209 84c37.333 0 69.333 -8 96 -24c32 -18.667 48 -45.667 48 -81
c0 -8 -0.666992 -15.333 -2 -22zM1098 578l-394.001 -328h190c92.667 0 148.334 46.667 167.001 140zM1135 1174l-45 -227h-257l45 227h257z" />
    <glyph glyph-name="uFEC8" unicode="&#x638;" horiz-adv-x="1428" arabic-form="medial" 
d="M1457 0l-171 0.000976562c-44.667 0 -82 20.333 -112 61c-42 -40.667 -98 -61 -168 -61h-1036v250h105c53.333 0 87 33.667 101 101l168 826h294l-176 -875l533 479c62 56 131.667 84 209 84c37.333 0 69.333 -8 96 -24c32 -18.667 48 -45.667 48 -81
c0 -8 -0.666992 -15.333 -2 -22l-78 -401c-4 -20.667 -6 -34.334 -6 -41.001c0 -30.667 21.333 -46 64 -46h131v-250zM1098 578.001l-394.001 -328h190c92.667 0 148.334 46.667 167.001 140zM1135 1174l-45 -227h-257l45 227h257z" />
    <glyph glyph-name="uFECA" unicode="&#x639;" horiz-adv-x="1265" arabic-form="final" 
d="M1319 0l-189.999 0.000976562c-120 0 -213.667 10.667 -281 32c-27.333 -19.333 -88 -87 -182 -203c-99.333 -122.667 -149 -196.334 -149 -221.001c0 -52 30 -78 90 -78h455l-58 -232h-523c-146 0 -229.667 66 -251 198c-1.33301 8 -2 17.333 -2 28
c0 103.333 48.333 217 145 341l221 290c-72 62 -127.667 124 -167 186c-46.667 73.333 -84.334 166.666 -113.001 279.999c-4.66699 18.667 -7 39.334 -7 62.001c0 116 58.333 174 175 174h571c111.333 0 167 -48.333 167 -145c0 -65.333 -33 -163.333 -99 -294
c-38 -75.333 -70.333 -131.333 -97 -168h295v-250zM884.001 468.001c19.333 27.333 29 55.667 29 85c0 34.667 -21.667 52 -65 52h-155c-55.333 0 -83 -21.333 -83 -64c0 -24 7.66699 -48.333 23 -73c36 -57.333 85.667 -98.666 149 -123.999
c9.33301 -0.666992 43.333 40.666 102 123.999z" />
    <glyph glyph-name="uFECB" unicode="&#x639;" horiz-adv-x="752" arabic-form="initial" 
d="M965 857l-60.999 -249c-138 0 -225.333 -2.66699 -262 -8c-54 -8 -93 -27.333 -117 -58c-17.333 -22 -40 -73.667 -68 -155c-14 -40.667 -21 -69 -21 -85c0 -34.667 19 -52 57 -52h320l-61 -250h-806v250h192c59.333 250 121.666 410.333 186.999 481
c78 84 220.667 126 428 126h212z" />
    <glyph glyph-name="uFECC" unicode="&#x639;" horiz-adv-x="1151" arabic-form="medial" 
d="M1181 0l-153.999 -0.00195312c-126.667 0 -249.334 16.667 -368.001 50c-117.333 -33.333 -250.333 -50 -399 -50h-314v250h416c-24 28 -47 60.667 -69 98c-50 84.667 -88.667 182.334 -116 293.001c-6.66699 26.667 -10 51 -10 73c0 95.333 54.333 143 163 143h621
c110 0 165 -49 165 -147c0 -20 -2.33301 -43 -7 -69c-29.333 -165.333 -91 -295.666 -185 -390.999h257v-250zM782.001 467.998c18.667 34.667 28 63.334 28 86.001c0 34 -21.333 51 -64 51h-205c-48 0 -72 -19 -72 -57c0 -31.333 12 -63.333 36 -96
c54.667 -74.667 106 -123.334 154 -146.001c28 6.66699 69 60.667 123 162z" />
    <glyph glyph-name="uFECE" unicode="&#x63a;" horiz-adv-x="1286" arabic-form="final" 
d="M965 1172l-45 -227h-257l45 227h257zM1319 0l-189.999 0.000976562c-120 0 -213.667 10.667 -281 32c-27.333 -19.333 -88 -87 -182 -203c-99.333 -122.667 -149 -196.334 -149 -221.001c0 -52 30 -78 90 -78h455l-58 -232h-523c-146 0 -229.667 66 -251 198
c-1.33301 8 -2 17.333 -2 28c0 103.333 48.333 217 145 341l221 290c-72 62 -127.667 124 -167 186c-46.667 73.333 -84.334 166.666 -113.001 279.999c-4.66699 18.667 -7 39.334 -7 62.001c0 116 58.333 174 175 174h571c111.333 0 167 -48.333 167 -145
c0 -65.333 -33 -163.333 -99 -294c-38 -75.333 -70.333 -131.333 -97 -168h295v-250zM884.001 468.001c19.333 27.333 29 55.667 29 85c0 34.667 -21.667 52 -65 52h-155c-55.333 0 -83 -21.333 -83 -64c0 -24 7.66699 -48.333 23 -73
c36 -57.333 85.667 -98.666 149 -123.999c9.33301 -0.666992 43.333 40.666 102 123.999z" />
    <glyph glyph-name="uFECF" unicode="&#x63a;" horiz-adv-x="742" arabic-form="initial" 
d="M945 1174l-45 -227h-257l45 227h257zM965 857l-60.999 -249c-138 0 -225.333 -2.66699 -262 -8c-54 -8 -93 -27.333 -117 -58c-17.333 -22 -40 -73.667 -68 -155c-14 -40.667 -21 -69 -21 -85c0 -34.667 19 -52 57 -52h320l-61 -250h-806v250h192
c59.333 250 121.666 410.333 186.999 481c78 84 220.667 126 428 126h212z" />
    <glyph glyph-name="uFED0" unicode="&#x63a;" horiz-adv-x="1153" arabic-form="medial" 
d="M815 1174l-45 -227h-257l45 227h257zM1181 0l-153.999 -0.00195312c-126.667 0 -249.334 16.667 -368.001 50c-117.333 -33.333 -250.333 -50 -399 -50h-314v250h416c-24 28 -47 60.667 -69 98c-50 84.667 -88.667 182.334 -116 293.001c-6.66699 26.667 -10 51 -10 73
c0 95.333 54.333 143 163 143h621c110 0 165 -49 165 -147c0 -20 -2.33301 -43 -7 -69c-29.333 -165.333 -91 -295.666 -185 -390.999h257v-250zM782.001 467.998c18.667 34.667 28 63.334 28 86.001c0 34 -21.333 51 -64 51h-205c-48 0 -72 -19 -72 -57
c0 -31.333 12 -63.333 36 -96c54.667 -74.667 106 -123.334 154 -146.001c28 6.66699 69 60.667 123 162z" />
    <glyph glyph-name="uFED2" unicode="&#x641;" horiz-adv-x="1988" arabic-form="final" 
d="M1817 1174l-45 -227h-257l45 227h257zM2018 0l-134 -0.00195312c-57.333 0 -94 23.333 -110 70c-40 -46.667 -99.667 -70 -179 -70h-1179c-121.333 0 -182 57.667 -182 173c0 46 17.333 150.333 52 313l60 281l309 90l-99 -520c-3.33301 -17.333 -5 -31 -5 -41
c0 -30.667 21 -46 63 -46h585c-26 0 -39 18 -39 54c0 12 2 27.667 6 47l33 158c31.333 150.667 56.666 241.334 75.999 272.001c32 51.333 95.667 77 191 77h160c100.667 0 166.334 -4 197.001 -12c72.667 -19.333 109 -64.333 109 -135c0 -29.333 -5 -69.666 -15 -120.999
l-49 -253c-4 -20.667 -6 -34.667 -6 -42c0 -30 20.667 -45 62 -45h94v-250zM1649 676.998h-42c-58.667 0 -97.667 -22.333 -117 -67c-5.33301 -12.667 -15.333 -63.334 -30 -152.001l-34 -208h34c50 0 83 7.33301 99 22s28.333 47.334 37 98.001z" />
    <glyph glyph-name="uFED3" unicode="&#x641;" horiz-adv-x="780" arabic-form="initial" 
d="M793 1174l-45 -227h-257l45 227h257zM912 590l-60.999 -340.001c-16.667 -92.667 -41 -156 -73 -190c-37.333 -40 -100 -60 -188 -60h-644v250h248c-24 16 -36 40.333 -36 73c0 9.33301 1 18.666 3 27.999l33 158c31.333 150.667 56.666 241.334 75.999 272.001
c32 51.333 95.667 77 191 77h160c101.333 0 167 -4 197 -12c72 -19.333 108 -64.666 108 -135.999c0 -28 -4.66699 -68 -14 -120zM644.001 676.999l-42.001 -0.000976562c-57.333 0 -96 -23.333 -116 -70c-7.33301 -16 -17.666 -65.667 -30.999 -149l-34 -208h34
c50 0 83 7.33301 99 22s28.333 47.334 37 98.001z" />
    <glyph glyph-name="uFED4" unicode="&#x641;" horiz-adv-x="983" arabic-form="medial" 
d="M793 1174l-45 -227h-257l45 227h257zM1013 0l-134 -0.000976562c-57.333 0 -94 23.333 -110 70c-40 -46.667 -99.667 -70 -179 -70h-644v250h248c-24 16 -36 40.333 -36 73c0 9.33301 1 18.666 3 27.999l33 158c31.333 150.667 56.666 241.334 75.999 272.001
c32 51.333 95.667 77 191 77h160c100.667 0 166.334 -4 197.001 -12c72.667 -19.333 109 -64.333 109 -135c0 -29.333 -5 -69.666 -15 -120.999l-49 -253c-4 -20.667 -6 -34.667 -6 -42c0 -30 20.667 -45 62 -45h94v-250zM644 676.999l-42.001 -0.000976562
c-57.333 0 -96 -23.333 -116 -70c-7.33301 -16 -17.666 -65.667 -30.999 -149l-34 -208h34c50 0 83 7.33301 99 22s28.333 47.334 37 98.001z" />
    <glyph glyph-name="uFED6" unicode="&#x642;" horiz-adv-x="1587" arabic-form="final" 
d="M1573 1174l-43 -227h-256l45 227h254zM1245 1174l-41 -227h-257l45 227h253zM1617 0h-192.002l-15 -77c-35.333 -180 -165 -270 -389 -270l-594 1c-126 0 -189 59 -189 177c0 34.667 5.33301 69.334 16 104.001l189 922l272 -103l-150 -761
c-2.66699 -13.333 -4 -23.333 -4 -30c0 -38 18.667 -57 56 -57h312c70.667 0 117.667 3 141 9c48.667 12.667 78.334 41 89.001 85c-151.333 -3.33301 -252.666 5 -303.999 25c-58 22.667 -87 69 -87 139c0 28.667 3.66699 62.667 11 102l45 243
c27.333 147.333 52 238.333 74 273c32 50.667 96.333 76 193 76h160c100 0 165.333 -4 196 -12c73.333 -19.333 110 -64 110 -134c0 -30.667 -5 -71.334 -15 -122.001l-67 -340h142v-250zM1274 677h-42.001c-57.333 0 -96 -23.333 -116 -70
c-7.33301 -16 -17.666 -65.667 -30.999 -149l-34 -208h150z" />
    <glyph glyph-name="uFED7" unicode="&#x642;" horiz-adv-x="785" arabic-form="initial" 
d="M935 1174l-43 -227h-256l45 227h254zM607 1174l-41 -227h-257l45 227h253zM912 590l-60.999 -340.001c-16.667 -92.667 -41 -156 -73 -190c-37.333 -40 -100 -60 -188 -60h-644v250h248c-24 16 -36 40.333 -36 73c0 9.33301 1 18.666 3 27.999l33 158
c31.333 150.667 56.666 241.334 75.999 272.001c32 51.333 95.667 77 191 77h160c101.333 0 167 -4 197 -12c72 -19.333 108 -64.666 108 -135.999c0 -28 -4.66699 -68 -14 -120zM644.001 676.999l-42.001 -0.000976562c-57.333 0 -96 -23.333 -116 -70
c-7.33301 -16 -17.666 -65.667 -30.999 -149l-34 -208h34c50 0 83 7.33301 99 22s28.333 47.334 37 98.001z" />
    <glyph glyph-name="uFED8" unicode="&#x642;" horiz-adv-x="983" arabic-form="medial" 
d="M935 1174l-43 -227h-256l45 227h254zM607 1174l-41 -227h-257l45 227h253zM1013 0l-134 -0.000976562c-57.333 0 -94 23.333 -110 70c-40 -46.667 -99.667 -70 -179 -70h-644v250h248c-24 16 -36 40.333 -36 73c0 9.33301 1 18.666 3 27.999l33 158
c31.333 150.667 56.666 241.334 75.999 272.001c32 51.333 95.667 77 191 77h160c100.667 0 166.334 -4 197.001 -12c72.667 -19.333 109 -64.333 109 -135c0 -29.333 -5 -69.666 -15 -120.999l-49 -253c-4 -20.667 -6 -34.667 -6 -42c0 -30 20.667 -45 62 -45h94v-250z
M644 676.999l-42.001 -0.000976562c-57.333 0 -96 -23.333 -116 -70c-7.33301 -16 -17.666 -65.667 -30.999 -149l-34 -208h34c50 0 83 7.33301 99 22s28.333 47.334 37 98.001z" />
    <glyph glyph-name="uFEDE" unicode="&#x644;" horiz-adv-x="1479" arabic-form="final" 
d="M1543 1175l-183.999 -838c-1.33301 -6 -2 -13.333 -2 -22c0 -43.333 19.333 -65 58 -65h94v-250h-104c-36.667 0 -71 22 -103 66c-32 -150 -69.667 -241.333 -113 -274c-40.667 -30.667 -138.667 -46 -294 -46h-482c-120.667 0 -181 63.333 -181 190
c0 28 3.33301 58.333 10 91l171 834l277 -95l-136 -682c-2.66699 -13.333 -4 -25.333 -4 -36c0 -32 18 -48 54 -48h241c51.333 -0 86.666 3.33301 105.999 10c32.667 11.333 53 36 61 74l237 1091h294z" />
    <glyph glyph-name="uFEDF" unicode="&#x644;" horiz-adv-x="430" arabic-form="initial" 
d="M664 1174l-196 -929c-17.333 -83.333 -33 -136 -47 -158c-36.667 -58 -102.667 -87 -198 -87h-277v250h158c35.333 0 60 8.66699 74 26c10.667 12.667 19.667 37.667 27 75l168 823h291z" />
    <glyph glyph-name="uFEE0" unicode="&#x644;" horiz-adv-x="658" arabic-form="medial" 
d="M688 0h-178.999c-40.667 -0 -77.667 20.333 -111 61c-20 -40.667 -50 -61 -90 -61h-342v250h138c34 0 58.333 8.66699 73 26c11.333 14 20.666 39 27.999 75l168 823h291l-164 -839c-2 -10 -3 -19.333 -3 -28c0 -38 19.667 -57 59 -57h132v-250z" />
    <glyph glyph-name="uFEE2" unicode="&#x645;" horiz-adv-x="1439" arabic-form="final" 
d="M1469 0l-164 0.000976562c-54 0 -91.333 20.333 -112 61c-39.333 -40.667 -97.666 -61 -174.999 -61h-418c-52.667 0 -85.667 -33.667 -99 -101l-122 -603h-292l151 709c17.333 81.333 33.666 134 48.999 158c37.333 58 103.333 87 198 87c55.333 0 90 33 104 99l33 159
c30.667 148 56.667 238.333 78 271c33.333 50.667 98.333 76 195 76h270c62 0 107.333 -9.66699 136 -29c34.667 -24 52 -65.667 52 -125c0 -32 -4.33301 -69.333 -13 -112l-51 -252c-3.33301 -16.667 -5 -30.334 -5 -41.001c0 -30.667 20.333 -46 61 -46h124v-250z
M1069 677.001h-42.001c-61.333 0 -101.666 -21.667 -120.999 -65c-4.66699 -10 -14.667 -62 -30 -156l-34 -206h41c49.333 0 82 7.66699 98 23c14 13.333 25.333 45.333 34 96z" />
    <glyph glyph-name="uFEE3" unicode="&#x645;" horiz-adv-x="820" arabic-form="initial" 
d="M947 590l-69.0029 -345.001c-15.333 -78 -32.666 -131 -51.999 -159c-38.667 -57.333 -105.667 -86 -201 -86h-312c-62 0 -99 18 -111 54c-30.667 -36 -60.667 -54 -90 -54h-166v250h146c55.333 0 90 33.667 104 101l33 158c32 152 57.333 242.667 76 272
c32.667 50.667 98.334 76 197.001 76h252c66.667 0 115.334 -9.33301 146.001 -28c40 -24 60 -67.333 60 -130c0 -29.333 -4.33301 -65.666 -13 -108.999zM678.997 678.999h-42c-60 0 -99 -20.333 -117 -61c-3.33301 -7.33301 -13.333 -58 -30 -152l-38 -214h35
c48.667 0 81 8 97 24c13.333 13.333 25 45 35 95z" />
    <glyph glyph-name="uFEE4" unicode="&#x645;" horiz-adv-x="993" arabic-form="medial" 
d="M1023 0h-90c-68.667 -0 -112.667 20.333 -132 61c-43.333 -40.667 -102 -61 -176 -61h-312c-62 0 -99 18 -111 54c-30.667 -36 -60.667 -54 -90 -54h-166v250h146c55.333 0 90 33.667 104 101l33 158c30 144.667 55 233 75 265c34 55.333 100 83 198 83h252
c67.333 0 116 -9.33301 146 -28c39.333 -24 59 -67.667 59 -131c0 -31.333 -4 -67.333 -12 -108l-50 -254c-2 -10 -3 -19.667 -3 -29c0 -38 19.667 -57 59 -57h70v-250zM679 679h-42c-60 0 -99 -20.333 -117 -61c-3.33301 -7.33301 -13.333 -58 -30 -152l-38 -214h35
c48.667 0 81 8 97 24c13.333 13.333 25 45 35 95z" />
    <glyph glyph-name="uFEE6" unicode="&#x646;" horiz-adv-x="1479" arabic-form="final" 
d="M1092 1174l-45 -227h-257l45 227h257zM1509 0h-133.998c-36.667 -0 -62.334 14.333 -77.001 43c-26.667 -130 -58.667 -211.667 -96 -245c-40.667 -36 -125.667 -54 -255 -54h-529c-126 0 -189 59.333 -189 178c0 35.333 5.33301 70.333 16 105l173 830l273 -90
l-135 -681c-2.66699 -13.333 -4 -23 -4 -29c0 -38 18.667 -57 56 -57h258c46 0 76 4 90 12c21.333 12 39.666 42 54.999 90c12 38 31.333 121 58 249l105 506l270 -90l-85 -416c-2 -10 -3 -18.333 -3 -25c0 -50.667 19.667 -76 59 -76h94v-250z" />
    <glyph glyph-name="uFEE7" unicode="&#x646;" horiz-adv-x="434" arabic-form="initial" 
d="M634 767l-114 -522c-18 -83.333 -34 -136 -48 -158c-36.667 -58 -102 -87 -196 -87h-310v250h187c40.667 0 66.667 7.33301 78 22c6 8 13.667 34.333 23 79l103 506zM668 1173l-45 -227h-257l45 227h257z" />
    <glyph glyph-name="uFEE8" unicode="&#x646;" horiz-adv-x="663" arabic-form="medial" 
d="M696 0l-167 0.000976562c-40.667 0 -77.667 20.333 -111 61c-20 -40.667 -50 -61 -90 -61h-358v250h154c40.667 0 66.667 7.33301 78 22c6 8 13.667 34.333 23 79l103 506l277 -90l-85 -431c-3.33301 -16.667 -5 -29.334 -5 -38.001c0 -32 20.333 -48 61 -48h120v-250z
M658 1173l-45 -227h-257l45 227h257z" />
    <glyph glyph-name="uFEEA" unicode="&#x647;" horiz-adv-x="1097" arabic-form="final" 
d="M1127 0h-216.001c-172 -0 -258 73.333 -258 220c0 26.667 2.66699 54.667 8 84l68 373h-27c-48 0 -81 -7 -99 -21c-21.333 -16.667 -37.333 -54.334 -48 -113.001l-52 -293h122l-55 -250h-166c-62 0 -106.667 8.66699 -134 26c-35.333 22 -53 62.333 -53 121
c0 28.667 4 63.667 12 105l72 369c30.667 157.333 100.334 236 209.001 236h246c79.333 0 136.333 -7.66699 171 -23c52.667 -23.333 79 -69 79 -137c0 -29.333 -4 -64.666 -12 -105.999l-44 -229c-2.66699 -14 -4 -26 -4 -36c0 -50.667 27.667 -76 83 -76h98v-250z" />
    <glyph glyph-name="uFEEB" unicode="&#x647;" horiz-adv-x="1185" arabic-form="initial" 
d="M1275 213c0 -44 -14 -88.999 -42 -134.999c-31.333 -52 -67.666 -78 -108.999 -78h-1178v250h179l55 261c30.667 144 58 234.333 82 271c33.333 50 96.666 75 189.999 75h294l-51 90h331c166 -262.667 249 -507.334 249 -734.001zM970 320.001c0 76 -47.333 206 -142 390
l-72 -460h119c39.333 0 63.333 2.33301 72 7c15.333 8 23 29 23 63zM629 679.001h-56.999c-42.667 0 -72.667 -13.333 -90 -40c-10.667 -16.667 -20.334 -50 -29.001 -100l-51 -289c68 0 111.333 8 130 24c12 10.667 23.333 41.667 34 93z" />
    <glyph glyph-name="uFEEC" unicode="&#x647;" horiz-adv-x="1025" arabic-form="medial" 
d="M1037 -3l-47 -0.00195312c-40.667 0 -73.334 -15 -98.001 -45c-22.667 -27.333 -34 -62 -34 -104l-249 -188c-71.333 0 -165.666 40.333 -282.999 121c-120.667 83.333 -181 155.333 -181 216h-164v250h165l48 272c26 146.667 50.333 237.334 73 272.001
c33.333 50.667 100 76 200 76h142c68.667 0 117.667 -8.66699 147 -26c39.333 -23.333 59 -66.333 59 -129c0 -31.333 -4.33301 -68.666 -13 -111.999l-69 -345c-10 -50 -40.333 -101.667 -91 -155c-64.667 -68.667 -138.667 -103 -222 -103c0 -10 21.667 -31.667 65 -65
c47.333 -36.667 85.333 -55 114 -55c10 71.333 29.333 133 58 185c68 123.333 174.333 185 319 185h61v-250zM600 688.998h-77.999c-48 0 -83 -36 -105 -108c-12.667 -40.667 -26.334 -125 -41.001 -253l-9 -78h55c68 0 108 34.667 120 104z" />
    <glyph glyph-name="uFEEE" unicode="&#x648;" horiz-adv-x="1036" arabic-form="final" 
d="M1071 0l-255.001 0.00195312c-82 -118.667 -181.667 -223 -299 -313l-236 169c94.667 71.333 173.334 150.666 236.001 237.999c-74 20 -136.333 53.333 -187 100c-58.667 54.667 -88 116.667 -88 186c0 80 51 179.333 153 298c104 121.333 195 182 273 182
c226.667 0 340 -106.667 340 -320c0 -72.667 -13.333 -156.334 -40 -251.001c-3.33301 -12 -9 -25 -17 -39h120v-250zM741.999 431.002c18 38 27 71.333 27 100c0 44 -19.333 66 -58 66c-30 0 -64.667 -19 -104 -57c-55.333 -53.333 -83 -100 -83 -140
c0 -56 42.667 -89.667 128 -101c28 21.333 58 65.333 90 132z" />
    <glyph glyph-name="uFEF0" unicode="&#x649;" horiz-adv-x="1464" arabic-form="final" 
d="M1493 0h-136.001l-39 -144c-21.333 -80 -50.666 -132 -87.999 -156c-43.333 -28 -124 -42 -242 -42h-581c-123.333 0 -185 58.667 -185 176c0 31.333 4 66 12 104l194 919l272 -92l-158 -766c-2.66699 -12.667 -4 -24.667 -4 -36c0 -33.333 19 -50 57 -50h319
c94 0 138.667 29 134 87h-164c-112.667 0 -169 45 -169 135c0 22.667 3.33301 49 10 79l8 36h760v-250z" />
    <glyph glyph-name=".notdef" horiz-adv-x="1024" 
d="M128 0v1385h768v-1385h-768zM256 128h512v1129h-512v-1129z" />
    <glyph glyph-name="space" unicode=" " horiz-adv-x="400" 
 />
    <glyph glyph-name="exclam" unicode="!" horiz-adv-x="430" 
d="M582 1039c2.66699 -41.333 4 -82.998 4 -124.998c0 -208.667 -32.667 -435.334 -98 -680.001l-178 -11c58.667 217.333 88 420.666 88 609.999c0 54.667 -2.33301 109 -7 163zM473 180.002c-9.33301 -36.667 -28.333 -97 -57 -181l-180 1l56 170z" />
    <glyph glyph-name="percent" unicode="%" horiz-adv-x="977" 
d="M676 945c0 -38 -13.833 -71.168 -41.5 -99.501s-60.5 -42.5 -98.5 -42.5c-39.333 0 -73 13.833 -101 41.5s-42 61.167 -42 100.5c0 40.667 13.667 74.834 41 102.501s61.333 41.5 102 41.5c40 0 73.333 -14 100 -42s40 -62 40 -102zM1064 1085
c-66 -168 -167.667 -364.333 -305 -589c-132 -216 -250 -382.667 -354 -500l-153 96c319.333 402 541.333 762.667 666 1082zM967 149.999c0 -40 -13.333 -74 -40 -102s-60 -42 -100 -42s-73.667 14 -101 42s-41 62 -41 102c0 38.667 13.833 71.5 41.5 98.5
s61.167 40.5 100.5 40.5c38.667 0 71.667 -13.5 99 -40.5s41 -59.833 41 -98.5z" />
    <glyph glyph-name="parenleft" unicode="(" horiz-adv-x="518" 
d="M801 1153c-82 -72.667 -158 -168.666 -228 -287.999c-64 -109.333 -108.667 -211.333 -134 -306c-17.333 -65.333 -26 -139 -26 -221c0 -154.667 27.333 -281.667 82 -381l-158 -96c-62 126 -93 266 -93 420c0 93.333 12.333 186 37 278
c68 253.333 209.667 484.666 425 693.999z" />
    <glyph glyph-name="parenright" unicode=")" horiz-adv-x="568" 
d="M173 -39c82 72.667 158 168.666 228 287.999c64 109.333 108.667 211.333 134 306c17.333 65.333 26 139 26 221c0 154.667 -27.333 281.667 -82 381l158 96c62 -126 93 -266 93 -420c0 -93.333 -12.333 -186 -37 -278c-68 -253.333 -209.667 -484.666 -425 -693.999z
" />
    <glyph glyph-name="asterisk" unicode="*" horiz-adv-x="1125" 
d="M1242 671c-116 -92.667 -244.667 -172.667 -386 -240l-46 99c140 68 261 146 363 234zM874 907c1.33301 -27.333 2 -53 2 -77c0 -94 -14.333 -195 -43 -303l-131 -9c25.333 93.333 38 177.333 38 252c0 33.333 -2 68 -6 104zM1182 327l-68 -121
c-130.667 28 -246 74.667 -346 140l84 106c106.667 -63.333 216.667 -105 330 -125zM721 536l-84.001 -106.999c-105.333 63.333 -215.333 104.666 -330 123.999l70 123c120.667 -26 235.334 -72.667 344.001 -140zM786.999 362.001
c-24.667 -91.333 -37 -174.999 -37 -250.999c0 -34 2 -69 6 -105l-140 -34c-1.33301 27.333 -2 53 -2 77c0 91.333 15 193.666 45 306.999zM680.999 351.002c-144.667 -73.333 -264.999 -150.666 -360.999 -231.999l-73 90c117.333 91.333 246.666 171.666 387.999 240.999z
" />
    <glyph glyph-name="plus" unicode="+" horiz-adv-x="970" 
d="M1021 380l-52.002 -139.999c-90.667 16 -189.667 24.667 -297 26c-24.667 -100 -39.667 -196 -45 -288l-157 -14c8.66699 93.333 26 194 52 302c-57.333 0 -159.666 -5.66699 -306.999 -17l27 145c114 9.33301 219.667 15.666 317 18.999c24 84 56 178.333 96 283
l152 -10c-34.667 -84.667 -66 -176 -94 -274c90.667 -3.33301 193.334 -14 308.001 -32z" />
    <glyph glyph-name="comma" unicode="," horiz-adv-x="525" 
d="M231 -55c50.667 12 89 30.999 115 56.999c-65.333 24 -98 67.667 -98 131c0 16.667 2.66699 32.334 8 47.001c24 66 68.667 99 134 99c20 0 39 -3.33301 57 -10c52.667 -19.333 79 -62.333 79 -129c0 -28.667 -5.33301 -57.667 -16 -87
c-42 -114.667 -128.333 -182 -259 -202c-4 8 -10.667 39.333 -20 94z" />
    <glyph glyph-name="hyphen" unicode="-" horiz-adv-x="970" 
d="M1021 380l-52.002 -140c-96.667 17.333 -217.667 26 -363 26c-117.333 0 -247.666 -5.66699 -390.999 -17l27 145c150.667 12 274.334 18 371.001 18c134 0 270 -10.667 408 -32z" />
    <glyph glyph-name="period" unicode="." horiz-adv-x="511" 
d="M511 142c0 -38.667 -14 -72 -42 -100s-61.333 -42 -100 -42c-38 0 -70.833 14.167 -98.5 42.5s-41.5 61.5 -41.5 99.5c0 40 13.333 74 40 102s60 42 100 42s73.667 -14 101 -42s41 -62 41 -102z" />
    <glyph glyph-name="slash" unicode="/" horiz-adv-x="812" 
d="M965 1057c-52 -178 -136.001 -383.333 -252.001 -616c-111.333 -222.667 -214.666 -398 -309.999 -526l-160 81c281.333 425.333 471 803.333 569 1134z" />
    <glyph glyph-name="zero" unicode="0" horiz-adv-x="560" 
d="M650 494l-54 -273h-331l54 273h331z" />
    <glyph glyph-name="zero" unicode="&#x6f0;" horiz-adv-x="560" 
d="M650 494l-54 -273h-331l54 273h331z" />
    <glyph glyph-name="zero" unicode="&#x660;" horiz-adv-x="560" 
d="M650 494l-54 -273h-331l54 273h331z" />
    <glyph glyph-name="one" unicode="1" horiz-adv-x="529" 
d="M737 1091l-222 -1091h-293l243 1172z" />
    <glyph glyph-name="one" unicode="&#x6f1;" horiz-adv-x="529" 
d="M737 1091l-222 -1091h-293l243 1172z" />
    <glyph glyph-name="one" unicode="&#x661;" horiz-adv-x="529" 
d="M737 1091l-222 -1091h-293l243 1172z" />
    <glyph glyph-name="two" unicode="2" horiz-adv-x="932" 
d="M1190 1084l-114.001 -522c-18 -83.333 -34 -136 -48 -158c-36.667 -58 -102 -87 -196 -87h-170c-32.667 0 -57.667 9.66699 -75 29l-69 -346h-295l238 1174l277 -89l-92 -417c-2.66699 -12 -4 -24 -4 -36c0 -44 22.333 -65 67 -63
c54.667 2.66699 88.334 35.667 101.001 99l103 506z" />
    <glyph glyph-name="two" unicode="&#x6f2;" horiz-adv-x="932" 
d="M1190 1084l-114.001 -522c-18 -83.333 -34 -136 -48 -158c-36.667 -58 -102 -87 -196 -87h-170c-32.667 0 -57.667 9.66699 -75 29l-69 -346h-295l238 1174l277 -89l-92 -417c-2.66699 -12 -4 -24 -4 -36c0 -44 22.333 -65 67 -63
c54.667 2.66699 88.334 35.667 101.001 99l103 506z" />
    <glyph glyph-name="two" unicode="&#x662;" horiz-adv-x="932" 
d="M1190 1084l-114.001 -522c-18 -83.333 -34 -136 -48 -158c-36.667 -58 -102 -87 -196 -87h-170c-32.667 0 -57.667 9.66699 -75 29l-69 -346h-295l238 1174l277 -89l-92 -417c-2.66699 -12 -4 -24 -4 -36c0 -44 22.333 -65 67 -63
c54.667 2.66699 88.334 35.667 101.001 99l103 506z" />
    <glyph glyph-name="three" unicode="3" horiz-adv-x="1379" 
d="M1642 1082l-114.002 -521.999c-18.667 -84.667 -34.667 -137.334 -48 -158.001c-37.333 -58 -103 -87 -197 -87h-169c-40.667 0 -77.667 20.333 -111 61c-20.667 -40.667 -50.667 -61 -90 -61h-218c-48 0 -83 10.667 -105 32l-72 -347h-295l238 1172l277 -88l-92 -418
c-3.33301 -15.333 -5 -28.333 -5 -39c0 -42 22.667 -62 68 -60c54.667 2.66699 88.334 35.667 101.001 99l103 506l277 -88l-92 -418c-2.66699 -12 -4 -24 -4 -36c0 -44 22.333 -65 67 -63c54.667 2.66699 88.334 35.667 101.001 99l102 506z" />
    <glyph glyph-name="three" unicode="&#x6f3;" horiz-adv-x="1379" 
d="M1642 1082l-114.002 -521.999c-18.667 -84.667 -34.667 -137.334 -48 -158.001c-37.333 -58 -103 -87 -197 -87h-169c-40.667 0 -77.667 20.333 -111 61c-20.667 -40.667 -50.667 -61 -90 -61h-218c-48 0 -83 10.667 -105 32l-72 -347h-295l238 1172l277 -88l-92 -418
c-3.33301 -15.333 -5 -28.333 -5 -39c0 -42 22.667 -62 68 -60c54.667 2.66699 88.334 35.667 101.001 99l103 506l277 -88l-92 -418c-2.66699 -12 -4 -24 -4 -36c0 -44 22.333 -65 67 -63c54.667 2.66699 88.334 35.667 101.001 99l102 506z" />
    <glyph glyph-name="three" unicode="&#x663;" horiz-adv-x="1379" 
d="M1642 1082l-114.002 -521.999c-18.667 -84.667 -34.667 -137.334 -48 -158.001c-37.333 -58 -103 -87 -197 -87h-169c-40.667 0 -77.667 20.333 -111 61c-20.667 -40.667 -50.667 -61 -90 -61h-218c-48 0 -83 10.667 -105 32l-72 -347h-295l238 1172l277 -88l-92 -418
c-3.33301 -15.333 -5 -28.333 -5 -39c0 -42 22.667 -62 68 -60c54.667 2.66699 88.334 35.667 101.001 99l103 506l277 -88l-92 -418c-2.66699 -12 -4 -24 -4 -36c0 -44 22.333 -65 67 -63c54.667 2.66699 88.334 35.667 101.001 99l102 506z" />
    <glyph glyph-name="four" unicode="4" horiz-adv-x="1458" 
d="M1609 1175l-61.001 -247.999c-107.333 0 -172.666 -1.33301 -195.999 -4c-85.333 -10 -143.333 -34.667 -174 -74c-12 -16 -37.333 -63.667 -76 -143c-18.667 -38.667 -28 -68 -28 -88c0 -32.667 21.333 -49 64 -49h320l-61 -252h-735c-32.667 0 -57.667 9.66699 -75 29
l-69 -346h-295l238 1174l277 -89l-92 -417c-2.66699 -12 -4 -24 -4 -36c0 -44 22.333 -65 67 -63c52 2 85.667 35 101 99c45.333 185.333 97.333 309.666 156 372.999c83.333 89.333 227 134 431 134h212z" />
    <glyph glyph-name="four" unicode="&#x6f4;" horiz-adv-x="1458" 
d="M1609 1175l-61.001 -247.999c-107.333 0 -172.666 -1.33301 -195.999 -4c-85.333 -10 -143.333 -34.667 -174 -74c-12 -16 -37.333 -63.667 -76 -143c-18.667 -38.667 -28 -68 -28 -88c0 -32.667 21.333 -49 64 -49h320l-61 -252h-735c-32.667 0 -57.667 9.66699 -75 29
l-69 -346h-295l238 1174l277 -89l-92 -417c-2.66699 -12 -4 -24 -4 -36c0 -44 22.333 -65 67 -63c52 2 85.667 35 101 99c45.333 185.333 97.333 309.666 156 372.999c83.333 89.333 227 134 431 134h212z" />
    <glyph glyph-name="four" unicode="&#x664;" horiz-adv-x="1458" 
d="M1609 1175l-61.001 -247.999c-107.333 0 -172.666 -1.33301 -195.999 -4c-85.333 -10 -143.333 -34.667 -174 -74c-12 -16 -37.333 -63.667 -76 -143c-18.667 -38.667 -28 -68 -28 -88c0 -32.667 21.333 -49 64 -49h320l-61 -252h-735c-32.667 0 -57.667 9.66699 -75 29
l-69 -346h-295l238 1174l277 -89l-92 -417c-2.66699 -12 -4 -24 -4 -36c0 -44 22.333 -65 67 -63c52 2 85.667 35 101 99c45.333 185.333 97.333 309.666 156 372.999c83.333 89.333 227 134 431 134h212z" />
    <glyph glyph-name="five" unicode="5" horiz-adv-x="1301" 
d="M1350 911l-126.001 -666.001c-14.667 -78 -31.667 -131 -51 -159c-39.333 -57.333 -107 -86 -203 -86h-70c-50 0 -81.333 1.66699 -94 5c-25.333 6.66699 -49.666 25.334 -72.999 56.001c-25.333 -40.667 -58 -61 -98 -61h-234c-62 -0 -107 9.33301 -135 28
c-35.333 23.333 -53 64.333 -53 123c0 31.333 4.66699 69.333 14 114l124 590h284l-120 -605l120 2l42 200l196 63l-54 -263h29c40 0 66.333 6.66699 79 20c10 10.667 19 37 27 79l108 578h-698l50 248h761c62.667 0 108 -9.66699 136 -29c34 -24 51 -66 51 -126
c0 -32 -4 -69 -12 -111z" />
    <glyph glyph-name="five" unicode="&#x6f5;" horiz-adv-x="1301" 
d="M1350 911l-126.001 -666.001c-14.667 -78 -31.667 -131 -51 -159c-39.333 -57.333 -107 -86 -203 -86h-70c-50 0 -81.333 1.66699 -94 5c-25.333 6.66699 -49.666 25.334 -72.999 56.001c-25.333 -40.667 -58 -61 -98 -61h-234c-62 -0 -107 9.33301 -135 28
c-35.333 23.333 -53 64.333 -53 123c0 31.333 4.66699 69.333 14 114l124 590h284l-120 -605l120 2l42 200l196 63l-54 -263h29c40 0 66.333 6.66699 79 20c10 10.667 19 37 27 79l108 578h-698l50 248h761c62.667 0 108 -9.66699 136 -29c34 -24 51 -66 51 -126
c0 -32 -4 -69 -12 -111z" />
    <glyph glyph-name="five" unicode="&#x665;" horiz-adv-x="1301" 
d="M1350 911l-126.001 -666.001c-14.667 -78 -31.667 -131 -51 -159c-39.333 -57.333 -107 -86 -203 -86h-70c-50 0 -81.333 1.66699 -94 5c-25.333 6.66699 -49.666 25.334 -72.999 56.001c-25.333 -40.667 -58 -61 -98 -61h-234c-62 -0 -107 9.33301 -135 28
c-35.333 23.333 -53 64.333 -53 123c0 31.333 4.66699 69.333 14 114l124 590h284l-120 -605l120 2l42 200l196 63l-54 -263h29c40 0 66.333 6.66699 79 20c10 10.667 19 37 27 79l108 578h-698l50 248h761c62.667 0 108 -9.66699 136 -29c34 -24 51 -66 51 -126
c0 -32 -4 -69 -12 -111z" />
    <glyph glyph-name="six" unicode="6" horiz-adv-x="1055" 
d="M1163 1085l-519 -1085h-300l153 292c-184 59.333 -276 159 -276 299c0 45.333 11 93.666 33 144.999l187 439l252 -90l-151 -349c-9.33301 -21.333 -14 -41 -14 -59c0 -52 32.333 -88 97 -108l282 603z" />
    <glyph glyph-name="six" unicode="&#x6f6;" horiz-adv-x="1055" 
d="M1163 1085l-519 -1085h-300l153 292c-184 59.333 -276 159 -276 299c0 45.333 11 93.666 33 144.999l187 439l252 -90l-151 -349c-9.33301 -21.333 -14 -41 -14 -59c0 -52 32.333 -88 97 -108l282 603z" />
    <glyph glyph-name="six" unicode="&#x666;" horiz-adv-x="1055" 
d="M1163 1085l-519 -1085h-300l153 292c-184 59.333 -276 159 -276 299c0 45.333 11 93.666 33 144.999l187 439l252 -90l-151 -349c-9.33301 -21.333 -14 -41 -14 -59c0 -52 32.333 -88 97 -108l282 603z" />
    <glyph glyph-name="seven" unicode="7" horiz-adv-x="1232" 
d="M1394 1067l-241 -589.998c-71.333 -174.667 -123 -290.334 -155 -347.001c-38.667 -68.667 -81 -112 -127 -130c-34 -13.333 -99.667 -20 -197 -20c-92 0 -151.333 6.33301 -178 19c-36.667 17.333 -60 60.333 -70 129c-8 57.333 -12.333 173.666 -13 348.999l-2 592
l290 83v-569c0 -231.333 -0.666992 -299 -2 -203c1.33301 -100.667 10.333 -151 27 -151c21.333 0 55.333 55 102 165l76 189l240 574z" />
    <glyph glyph-name="seven" unicode="&#x6f7;" horiz-adv-x="1232" 
d="M1394 1067l-241 -589.998c-71.333 -174.667 -123 -290.334 -155 -347.001c-38.667 -68.667 -81 -112 -127 -130c-34 -13.333 -99.667 -20 -197 -20c-92 0 -151.333 6.33301 -178 19c-36.667 17.333 -60 60.333 -70 129c-8 57.333 -12.333 173.666 -13 348.999l-2 592
l290 83v-569c0 -231.333 -0.666992 -299 -2 -203c1.33301 -100.667 10.333 -151 27 -151c21.333 0 55.333 55 102 165l76 189l240 574z" />
    <glyph glyph-name="seven" unicode="&#x667;" horiz-adv-x="1232" 
d="M1394 1067l-241 -589.998c-71.333 -174.667 -123 -290.334 -155 -347.001c-38.667 -68.667 -81 -112 -127 -130c-34 -13.333 -99.667 -20 -197 -20c-92 0 -151.333 6.33301 -178 19c-36.667 17.333 -60 60.333 -70 129c-8 57.333 -12.333 173.666 -13 348.999l-2 592
l290 83v-569c0 -231.333 -0.666992 -299 -2 -203c1.33301 -100.667 10.333 -151 27 -151c21.333 0 55.333 55 102 165l76 189l240 574z" />
    </font>
</defs>
</svg>
