<?xml version="1.0" standalone="no"?>
<!DOCTYPE svg PUBLIC "-//W3C//DTD SVG 1.1//EN" "http://www.w3.org/Graphics/SVG/1.1/DTD/svg11.dtd" >
<svg>
<metadata>
Created by FontForge 20090914 at Wed Oct 19 01:53:19 2011
 By www-data
(c) by Abolfazl Seilsepour - +98 912 591 3420  -  seilsepor@yahoo.com
</metadata>
<defs>
<font id="FarHoma" horiz-adv-x="0" >
  <font-face 
    font-family="Far.Homa"
    font-weight="400"
    font-stretch="normal"
    units-per-em="2048"
    panose-1="0 0 4 0 0 0 0 0 0 0"
    ascent="1638"
    descent="-410"
    bbox="-203 -1179 2285 2500"
    underline-thickness="80"
    underline-position="-660"
    unicode-range="U+0020-U+FEFC"
  />
<missing-glyph horiz-adv-x="1024" 
d="M128 0v1398h768v-1398h-768zM256 128h512v1142h-512v-1142z" />
    <glyph glyph-name="uE818" unicode="&#x651;&#x64b;" 
d="M362 2364c-148 -54.667 -309 -154.334 -483 -299l-52 74c165.333 138.667 331.333 242 498 310zM402 2184c-148 -54.667 -309 -154.333 -483 -299l-52 74c165.333 138.667 331.333 242 498 310zM373 1727c-0.666992 -122.667 -42 -184 -124 -184
c-46 0 -81.333 17 -106 51c-25.333 -69.333 -65.333 -104 -120 -104c-46 0 -82.333 16 -109 48c-24.667 29.333 -37 67.666 -37 114.999c0 44 4.66699 85.667 14 125l83 -19c-6.66699 -31.333 -10 -59.666 -10 -84.999c0 -60.667 19.667 -91 59 -91c42 0 63 29 63 87
c0 31.333 -7.66699 80.333 -23 147c22 4 50.667 10 86 18c11.333 -76 22 -125.333 32 -148c14 -32 35.667 -48 65 -48c30.667 0 46 18.667 46 56c0 42.667 -18.333 102.667 -55 180l77 40c39.333 -83.333 59 -146 59 -188z" />
    <glyph glyph-name="uFC5E" unicode="&#x651;&#x64c;" arabic-form="isolated" 
d="M390 1714c0 -46 -11.332 -85.665 -33.999 -118.998c-25.333 -38 -60 -57 -104 -57c-34.667 0 -70 17 -106 51c-25.333 -36.667 -65.333 -54.667 -120 -54c-44.667 0 -82.334 21.667 -113.001 65c-28.667 39.333 -43 82 -43 128c0 44 4.66699 92.333 14 145l83 -19
c-8 -26.667 -12 -56.667 -12 -90c0 -90.667 23.667 -136 71 -136c38.667 0 58 22.667 58 68c0 13.333 -8 64.666 -24 153.999c24 1.33301 54.667 4.66602 92 9.99902l25 -163c12 -42 36 -63 72 -63c28.667 0 43 17.667 43 53c0 41.333 -17.333 99 -52 173l77 40
c48.667 -80.667 73 -142.667 73 -186zM287.001 2301c0 -94 -35 -175.833 -105 -245.5s-152 -104.5 -246 -104.5c0 4 -2 31.333 -6 82l29 4c4.66699 24 7 43 7 57c0 24.667 -8 37 -24 37c-14.667 0 -38.667 -11 -72 -33l-23 64c33.333 31.333 68.666 47 105.999 47
c50 0 75 -30 75 -90c0 -20.667 -3 -45 -9 -73c46 12 84.667 35.667 116 71c-77.333 21.333 -116 56.333 -116 105c0 64.667 23 129 69 193c40.667 56.667 73.334 85 98.001 85c67.333 0 101 -66.333 101 -199zM219.001 2312c0 70 -12.667 105 -38 105
c-16 0 -34.667 -24 -56 -72c-20 -44.667 -30 -76.667 -30 -96c0 -32 30.333 -53 91 -63c22 28 33 70 33 126z" />
    <glyph glyph-name="uFC5F" unicode="&#x651;&#x64d;" arabic-form="isolated" 
d="M305 2236c-0.666992 -122.667 -42 -184 -124 -184c-46 0 -81.333 17 -106 51c-25.333 -69.333 -65.333 -104 -120 -104c-46 0 -82.333 16 -109 48c-24.667 29.333 -37 67.666 -37 115c0 44 4.66699 85.667 14 125l83 -19c-6.66699 -31.333 -10 -59.666 -10 -85
c0 -60.667 19.667 -91 59 -91c42 0 63 29 63 87c0 31.333 -7.66699 80.333 -23 147c22 4 50.667 10 86 18c11.333 -76 22 -125.333 32 -148c14 -32 35.667 -48 65 -48c30.667 0 46 18.667 46 56c0 42.667 -18.333 102.667 -55 180l77 40c39.333 -83.333 59 -146 59 -188z
M364 1943c-148 -54.667 -309 -154.333 -483 -299l-52 74c165.333 138.667 331.333 242 498 310zM422 1780c-148 -54.667 -309 -154.333 -483 -299l-52 74c165.333 138.667 331.333 242 498 310z" />
    <glyph glyph-name="uFC60" unicode="&#x651;&#x64e;" arabic-form="isolated" 
d="M443 1669c0 -46 -11.332 -85.665 -33.999 -118.998c-25.333 -38 -60 -57 -104 -57c-34.667 0 -70 17 -106 51c-25.333 -36.667 -65.333 -54.667 -120 -54c-44.667 0 -82.334 21.667 -113.001 65c-28.667 39.333 -43 82 -43 128c0 44 4.66699 92.333 14 145l83 -19
c-8 -26.667 -12 -56.667 -12 -90c0 -90.667 23.667 -136 71 -136c38.667 0 58 22.667 58 68c0 13.333 -8 64.666 -24 153.999c24 1.33301 54.667 4.66602 92 9.99902l25 -163c12 -42 36 -63 72 -63c28.667 0 43 17.667 43 53c0 41.333 -17.333 99 -52 173l77 40
c48.667 -80.667 73 -142.667 73 -186zM395.001 2152c-148 -54.667 -309 -154.333 -483 -299l-52 74c165.333 138.667 331.333 242 498 310z" />
    <glyph glyph-name="uFC61" unicode="&#x651;&#x64f;" arabic-form="isolated" 
d="M298 2249c0 -94 -35.001 -175.832 -105.001 -245.499s-152 -104.5 -246 -104.5c0 4 -2 31 -6 81c90 5.33301 158.333 33.666 205 84.999c-77.333 21.333 -116 56.333 -116 105c0 64.667 23 129 69 193c40.667 56.667 73.334 85 98.001 85c67.333 0 101 -66.333 101 -199z
M372.999 1736c-0.666992 -122.667 -42 -184 -124 -184c-46 0 -81.333 17 -106 51c-25.333 -69.333 -65.333 -104 -120 -104c-46 0 -82.333 16 -109 48c-24.667 29.333 -37 67.666 -37 114.999c0 44 4.66699 85.667 14 125l83 -19c-6.66699 -31.333 -10 -59.666 -10 -84.999
c0 -60.667 19.667 -91 59 -91c42 0 63 29 63 87c0 31.333 -7.66699 80.333 -23 147c22 4 50.667 10 86 18c11.333 -76 22 -125.333 32 -148c14 -32 35.667 -48 65 -48c30.667 0 46 18.667 46 56c0 42.667 -18.333 102.667 -55 180l77 40c39.333 -83.333 59 -146 59 -188z
M229.999 2260c0 70 -12.667 105 -38 105c-16 0 -34.667 -24 -56 -72c-20 -44.667 -30 -76.667 -30 -96c0 -32 30.333 -53 91 -63c22 28 33 70 33 126z" />
    <glyph glyph-name="uFC62" unicode="&#x651;&#x650;" arabic-form="isolated" 
d="M345 2082c-0.666992 -122.667 -42 -183.999 -124 -183.999c-46 0 -81.333 17 -106 51c-25.333 -69.333 -65.333 -104 -120 -104c-46 0 -82.333 16 -109 48c-24.667 29.333 -37 67.666 -37 114.999c0 44 4.66699 85.667 14 125l83 -19
c-6.66699 -31.333 -10 -59.666 -10 -85c0 -60.667 19.667 -91 59 -91c42 0 63 29 63 87c0 31.333 -7.66699 80.333 -23 147c22 4 50.667 10 86 18c11.333 -76 22 -125.333 32 -148c14 -32 35.667 -48 65 -48c30.667 0 46 18.667 46 56c0 42.667 -18.333 102.667 -55 180
l77 40c39.333 -83.333 59 -146 59 -188zM404 1789c-148 -54.667 -309 -154.333 -483 -299l-52 74c165.333 138.667 331.333 242 498 310z" />
    <glyph glyph-name="uFDF2" unicode="&#xfedf;&#xfee0;&#xfeea;" horiz-adv-x="1736" arabic-form="isolated" 
d="M1034 1301h-44c3.33301 49.333 -7 110 -31 182l47 8c22.667 -80 32 -143.333 28 -190zM1242 1141c-0.666992 -32 -10.001 -58.332 -28.001 -78.999c-18.667 -22.667 -43.667 -34 -75 -34c-25.333 0 -51.666 10.667 -78.999 32c-19.333 -22.667 -49 -34 -89 -34
c-31.333 0 -58.5 12.667 -81.5 38s-34.5 54 -34.5 86c0 28 3.33301 59 10 93l62 -13c-6 -16.667 -9 -35.667 -9 -57c0 -58.667 17.667 -88 53 -88c28.667 0 43 14.667 43 44c0 8.66699 -6 41.667 -18 99c18 0.666992 41 2.66699 69 6l18 -104
c9.33301 -27.333 27.333 -41 54 -41c21.333 0 32 11.333 32 34c0 26.667 -13 63.667 -39 111l58 26c36 -52.667 54 -92.334 54 -119.001zM1736 376.001c0 -102 -19.334 -184.668 -58.001 -248.001c-46.667 -77.333 -118 -116 -214 -116c-38 0 -84 12 -138 36
c-58.667 26 -93.667 55 -105 87c-53.333 -80.667 -154.666 -121 -303.999 -121c-100.667 0 -171.667 32 -213 96c-34 51.333 -51 130 -51 236c0 28.667 2.83301 71.5 8.5 128.5s8.5 99.833 8.5 128.5c0 52 -22.333 78 -67 78c-66.667 0 -130.334 -26.333 -191.001 -79
c-56 -48.667 -84 -93.667 -84 -135c0 -80.667 56.333 -199.667 169 -357l-137 -98c-46.667 50.667 -91.667 120.667 -135 210c-50 103.333 -75 190.333 -75 261c0 94.667 59.333 182.334 178 263.001c110 74.667 218.667 112 326 112c112.667 0 169 -54 169 -162
c0 -12 -2 -83.333 -6 -214c-2 -68.667 0 -126.667 6 -174c8.66699 -66 51 -99 127 -99c46 0 79.667 7.66699 101 23c32.667 23.333 49 68 49 134c0 84.667 -38 255.334 -114 512.001l173 38c18.667 -55.333 44 -160 76 -314c27.333 -130.667 52.333 -222.334 75 -275.001
c34 -78.667 79.333 -118 136 -118c75.333 0 113 54.667 113 164s-65.333 322 -196 638l145 76c50.667 -104 98.334 -221 143.001 -351c56.667 -164 85 -284 85 -360z" />
    <glyph glyph-name="uFEF5" unicode="&#xfedf;&#xfe82;" horiz-adv-x="1055" arabic-form="isolated" 
d="M1055 379c0 -102 -23.332 -187.668 -69.999 -257.001c-54.667 -81.333 -131.334 -122 -230.001 -122h-329v182h50c0 337.333 -35 638 -105 902l186 55c62.667 -231.333 94 -503.333 94 -816c0 -58 -2.33301 -105 -7 -141h59c116.667 0 175 61.667 175 185
c0 284.667 -43 575.667 -129 873l168 64c92 -285.333 138 -593.666 138 -924.999zM948.001 1469c-87.333 -82 -179.667 -131.666 -277 -148.999c-44.667 -2.66699 -125 -8 -241 -16c-92 -6.66699 -175.333 -40.667 -250 -102l-115 130c82 76 173.667 122.333 275 139
c82 4 166.333 9.33301 253 16c92 7.33301 173 41.666 243 102.999z" />
    <glyph glyph-name="uFEF6" unicode="&#xfee0;&#xfe82;" horiz-adv-x="1220" arabic-form="final" 
d="M1252 0l-75 -0.000976562c-108 0 -178.333 31 -211 93c-52 -62 -122.333 -93 -211 -93h-329v182h50c0 337.333 -35 638 -105 902l186 55c62.667 -231.333 94 -503.333 94 -816c0 -58 -2.33301 -105 -7 -141h59c116.667 0 175 61.667 175 185
c0 284.667 -43 575.667 -129 873l168 64c92 -285.333 138 -593.666 138 -924.999c0 -131.333 44 -197 132 -197h65v-182zM940 1434c-87.333 -82 -179.667 -131.666 -277 -148.999c-44.667 -2.66699 -125 -8 -241 -16c-92 -6.66699 -175.333 -40.667 -250 -102l-115 130
c82 76 173.667 122.333 275 139c82 4 166.333 9.33301 253 16c92 7.33301 173 41.666 243 102.999z" />
    <glyph glyph-name="uFEF7" unicode="&#xfedf;&#xfe84;" horiz-adv-x="905" arabic-form="isolated" 
d="M905 379c0 -102 -23.332 -187.668 -69.999 -257.001c-54.667 -81.333 -131.334 -122 -230.001 -122h-329v182h50c0 337.333 -35 638 -105 902l186 55c62.667 -231.333 94 -503.333 94 -816c0 -58 -2.33301 -105 -7 -141h59c116.667 0 175 61.667 175 185
c0 284.667 -43 575.667 -129 873l168 64c92 -285.333 138 -593.666 138 -924.999zM472.001 1367c-120 -33.333 -223.667 -75.665 -311 -126.998l-59 75l80 41c-62.667 39.333 -94 86.666 -94 141.999c0 121.333 96.667 184 290 188l5 -88c-136 -10 -204 -41.667 -204 -95
c0 -28.667 12.667 -51.334 38 -68.001c21.333 -14.667 47 -22 77 -22c16.667 0 68 14 154 42z" />
    <glyph glyph-name="uFEF8" unicode="&#xfee0;&#xfe84;" horiz-adv-x="1072" arabic-form="final" 
d="M1102 0l-75 -0.000976562c-108 0 -178.333 31 -211 93c-52 -62 -122.333 -93 -211 -93h-329v182h50c0 337.333 -35 638 -105 902l186 55c62.667 -231.333 94 -503.333 94 -816c0 -58 -2.33301 -105 -7 -141h59c116.667 0 175 61.667 175 185
c0 284.667 -43 575.667 -129 873l168 64c92 -285.333 138 -593.666 138 -924.999c0 -131.333 44 -197 132 -197h65v-182zM472 1367c-120 -33.333 -223.667 -75.665 -311 -126.998l-59 75l80 41c-62.667 39.333 -94 86.666 -94 141.999c0 121.333 96.667 184 290 188l5 -88
c-136 -10 -204 -41.667 -204 -95c0 -28.667 12.667 -51.334 38 -68.001c21.333 -14.667 47 -22 77 -22c16.667 0 68 14 154 42z" />
    <glyph glyph-name="uFEF9" unicode="&#xfedf;&#xfe88;" horiz-adv-x="835" arabic-form="isolated" 
d="M835 379c0 -102 -23.332 -187.668 -69.999 -257.001c-54.667 -81.333 -131.334 -122 -230.001 -122h-329v182h50c0 337.333 -35 638 -105 902l186 55c62.667 -231.333 94 -503.333 94 -816c0 -58 -2.33301 -105 -7 -141h59c116.667 0 175 61.667 175 185
c0 284.667 -43 575.667 -129 873l168 64c92 -285.333 138 -593.666 138 -924.999zM552.001 -465.001c-120 -33.333 -223.667 -75.665 -311 -126.998l-59 75l80 41c-62.667 39.333 -94 86.666 -94 141.999c0 121.333 96.667 184 290 188l5 -88
c-136 -10 -204 -41.667 -204 -95c0 -28.667 12.667 -51.334 38 -68.001c21.333 -14.667 47 -22 77 -22c16.667 0 68 14 154 42z" />
    <glyph glyph-name="uFEFA" unicode="&#xfee0;&#xfe88;" horiz-adv-x="1002" arabic-form="final" 
d="M1032 0l-75 -0.000976562c-108 0 -178.333 31 -211 93c-52 -62 -122.333 -93 -211 -93h-329v182h50c0 337.333 -35 638 -105 902l186 55c62.667 -231.333 94 -503.333 94 -816c0 -58 -2.33301 -105 -7 -141h59c116.667 0 175 61.667 175 185
c0 284.667 -43 575.667 -129 873l168 64c92 -285.333 138 -593.666 138 -924.999c0 -131.333 44 -197 132 -197h65v-182zM552 -465.001c-120 -33.333 -223.667 -75.665 -311 -126.998l-59 75l80 41c-62.667 39.333 -94 86.666 -94 141.999c0 121.333 96.667 184 290 188
l5 -88c-136 -10 -204 -41.667 -204 -95c0 -28.667 12.667 -51.334 38 -68.001c21.333 -14.667 47 -22 77 -22c16.667 0 68 14 154 42z" />
    <glyph glyph-name="uFEFB" unicode="&#xfedf;&#xfe8e;" horiz-adv-x="835" arabic-form="isolated" 
d="M835 379c0 -102 -23.332 -187.668 -69.999 -257.001c-54.667 -81.333 -131.334 -122 -230.001 -122h-329v182h50c0 337.333 -35 638 -105 902l186 55c62.667 -231.333 94 -503.333 94 -816c0 -58 -2.33301 -105 -7 -141h59c116.667 0 175 61.667 175 185
c0 284.667 -43 575.667 -129 873l168 64c92 -285.333 138 -593.666 138 -924.999z" />
    <glyph glyph-name="uFEFC" unicode="&#xfee0;&#xfe8e;" horiz-adv-x="1002" arabic-form="final" 
d="M1032 0l-75 -0.000976562c-108 0 -178.333 31 -211 93c-52 -62 -122.333 -93 -211 -93h-329v182h50c0 337.333 -35 638 -105 902l186 55c62.667 -231.333 94 -503.333 94 -816c0 -58 -2.33301 -105 -7 -141h59c116.667 0 175 61.667 175 185
c0 284.667 -43 575.667 -129 873l168 64c92 -285.333 138 -593.666 138 -924.999c0 -131.333 44 -197 132 -197h65v-182z" />
    <glyph glyph-name="u0652_u064E.liga" unicode="&#x652;&#x64e;" horiz-adv-x="1" 
d="M164 1409c16.667 -63.333 25 -134 25 -212c0 -74 -7.33301 -154.667 -22 -242l90 -4c14.667 84 22 165 22 243c0 78.667 -7.66699 154 -23 226z" />
    <glyph glyph-name="u0652_u064B.liga" unicode="&#x652;&#x64b;" horiz-adv-x="1" 
d="M783 1225c-4.66699 0 -10.333 -69.333 -17 -208c-49.333 11.333 -135 18 -257 20s-210.333 -2 -265 -12l-8 205c53.333 11.333 144 17 272 17c139.333 0 231 -7.33301 275 -22z" />
    <glyph glyph-name="u0652_u064D.liga" unicode="&#x652;&#x64d;" horiz-adv-x="1" 
d="M903 -510c-4.66699 0 -10.333 -69.333 -17 -208c-49.333 11.333 -135 18 -257 20s-210.333 -2 -265 -12l-8 205c53.333 11.333 144 17 272 17c139.333 0 231 -7.33301 275 -22z" />
    <glyph glyph-name="u0622" unicode="&#x622;" horiz-adv-x="842" arabic-form="isolated" 
d="M864 1623c-87.333 -82 -179.668 -131.999 -277.001 -149.999c-75.333 -4 -155.666 -9 -240.999 -15c-92 -6.66699 -175.333 -40.667 -250 -102l-115 130c82 76 173.667 122.333 275 139c82 4 166.333 9.33301 253 16c92 7.33301 173 41.666 243 102.999z
M662.998 0.000976562l-175.999 -0.00292969c2.66699 30.667 4 67.334 4 110.001c0 166.667 -14.333 360.334 -43 581.001c-30 232 -67.333 422.333 -112 571l189 36c31.333 -129.333 61.666 -298.666 90.999 -507.999c35.333 -254 53 -466.333 53 -637
c0 -56 -2 -107 -6 -153z" />
    <glyph glyph-name="u0623" unicode="&#x623;" horiz-adv-x="560" arabic-form="isolated" 
d="M484 1485c-120 -33.333 -223.667 -75.665 -311 -126.998l-59 75l80 41c-62.667 39.333 -94 86.666 -94 141.999c0 121.333 96.667 184 290 188l5 -88c-136 -10 -204 -41.667 -204 -95c0 -28.667 12.667 -51.334 38 -68.001c21.333 -14.667 47 -22 77 -22
c16.667 0 68 14 154 42zM553 0.000976562l-175.999 -0.00292969c2.66699 30.667 4 67.334 4 110.001c0 166.667 -14.333 360.334 -43 581.001c-30 232 -67.333 422.333 -112 571l189 36c31.333 -129.333 61.666 -298.666 90.999 -507.999c35.333 -254 53 -466.333 53 -637
c0 -56 -2 -107 -6 -153z" />
    <glyph glyph-name="u0624" unicode="&#x624;" horiz-adv-x="801" arabic-form="isolated" 
d="M495 1082c-120 -33.333 -223.667 -75.665 -311 -126.998l-59 75l80 41c-62.667 39.333 -94 86.666 -94 141.999c0 121.333 96.667 184 290 188l5 -88c-136 -10 -204 -41.667 -204 -95c0 -28.667 12.667 -51.334 38 -68.001c21.333 -14.667 47 -22 77 -22
c16.667 0 68 14 154 42zM801 193.001c0 -214.667 -80.333 -404 -241 -568l-139 128c78 66 129.333 148.333 154 247h-186c-57.333 0 -108 30.667 -152 92c-58 81.333 -87 202.333 -87 363c0 95.333 15.667 184.333 47 267c42.667 112 103.667 168 183 168
c95.333 0 190 -80.333 284 -241c91.333 -156 137 -308 137 -456zM613 182.001c2 16 3.00098 32.667 3.00098 50c0 97.333 -29.333 200 -88 308c-53.333 98 -94.333 147 -123 147c-48.667 0 -73 -83 -73 -249c0 -60 9.66699 -115 29 -165
c23.333 -60.667 54.666 -91 93.999 -91h158z" />
    <glyph glyph-name="u0625" unicode="&#x625;" horiz-adv-x="604" arabic-form="isolated" 
d="M483 0l-175.999 -0.00292969c2.66699 30.667 4 67.334 4 110.001c0 166.667 -14.333 360.334 -43 581.001c-30 232 -67.333 422.333 -112 571l189 36c31.333 -129.333 61.666 -298.666 90.999 -507.999c35.333 -254 53 -466.333 53 -637c0 -56 -2 -107 -6 -153z
M618.001 -462.003c-120 -33.333 -223.667 -75.665 -311 -126.998l-59 75l80 41c-62.667 39.333 -94 86.666 -94 141.999c0 121.333 96.667 184 290 188l5 -88c-136 -10 -204 -41.667 -204 -95c0 -28.667 12.667 -51.334 38 -68.001c21.333 -14.667 47 -22 77 -22
c16.667 0 68 14 154 42z" />
    <glyph glyph-name="u0626" unicode="&#x626;" horiz-adv-x="1242" arabic-form="isolated" 
d="M1242 719l-211 0.000976562c-30 0 -56.167 -10.833 -78.5 -32.5s-33.5 -47.5 -33.5 -77.5c0 -42 26.333 -89 79 -141l147 -145c52.667 -65.333 79 -135.333 79 -210c0 -135.333 -70.333 -240.333 -211 -315c-119.333 -63.333 -263 -95 -431 -95
c-288 0 -432 111.333 -432 334c0 92 29 205.333 87 340c45.333 105.333 94.333 197 147 275l158 -95c-136.667 -209.333 -205 -373 -205 -491c0 -78 27.667 -131 83 -159c37.333 -18.667 97.333 -28 180 -28c285.333 0 428 79 428 237c0 46 -25.667 95 -77 147l-142 144
c-51.333 63.333 -77 129.666 -77 198.999c0 83.333 31 154.333 93 213s135 88 219 88h198v-188zM600 935.001c-120 -33.333 -223.667 -75.665 -311 -126.998l-59 75l80 41c-62.667 39.333 -94 86.666 -94 141.999c0 121.333 96.667 184 290 188l5 -88
c-136 -10 -204 -41.667 -204 -95c0 -28.667 12.667 -51.334 38 -68.001c21.333 -14.667 47 -22 77 -22c16.667 0 68 14 154 42z" />
    <glyph glyph-name="u0627" unicode="&#x627;" horiz-adv-x="483" arabic-form="isolated" 
d="M483 0l-175.999 -0.00292969c2.66699 30.667 4 67.334 4 110.001c0 166.667 -14.333 360.334 -43 581.001c-30 232 -67.333 422.333 -112 571l189 36c31.333 -129.333 61.666 -298.666 90.999 -507.999c35.333 -254 53 -466.333 53 -637c0 -56 -2 -107 -6 -153z" />
    <glyph glyph-name="u0628" unicode="&#x628;" horiz-adv-x="1700" arabic-form="isolated" 
d="M1683 419c10.667 -32.667 16.001 -65.9951 16.001 -99.9951c0 -80.667 -24 -152.667 -72 -216c-52 -68.667 -117.333 -103 -196 -103h-940c-104 0 -188.333 43.667 -253 131c-58.667 79.333 -88 172.666 -88 279.999c0 74.667 22.667 161.334 68 260.001
c39.333 85.333 82.666 154.666 129.999 207.999l142 -117c-40.667 -44.667 -75.667 -101.334 -105 -170.001c-31.333 -72.667 -47 -137.334 -47 -194.001c0 -62 14.667 -112.333 44 -151c32.667 -43.333 79 -65 139 -65h849c38.667 0 70.667 15.667 96 47
c24.667 29.333 37 63.666 37 102.999c0 17.333 -2.33301 32.666 -7 45.999l-151 442l170 78c41.333 -103.333 97.333 -263 168 -479zM1023 -353.995c-39.333 5.33301 -77 7.99902 -113 7.99902c-38 0 -73.667 -3 -107 -9v197c16 6.66699 51.667 10.334 107 11.001
c48 0 85.667 -2 113 -6v-201z" />
    <glyph glyph-name="u0629" unicode="&#x629;" horiz-adv-x="831" arabic-form="isolated" 
d="M831 283c0 -74 -19.332 -138 -57.999 -192c-42.667 -60.667 -99.667 -91 -171 -91h-228c-150 -0 -225 80.333 -225 241c0 54 12.667 124 38 210c23.333 82 49.333 149 78 201l158 -68c-57.333 -131.333 -86 -230.666 -86 -297.999c0 -69.333 22.333 -104 67 -104h155
c27.333 0 49.666 12 66.999 36c16 22 24 47 24 75c0 45.333 -32.333 110.333 -97 195c-80 105.333 -180 188.333 -300 249l97 143c102.667 -36.667 207 -118 313 -244c112 -132.667 168 -250.334 168 -353.001zM605.001 1082c-120 -33.333 -223.667 -75.665 -311 -126.998
l-59 75l80 41c-62.667 39.333 -94 86.666 -94 141.999c0 121.333 96.667 184 290 188l5 -88c-136 -10 -204 -41.667 -204 -95c0 -28.667 12.667 -51.334 38 -68.001c21.333 -14.667 47 -22 77 -22c16.667 0 68 14 154 42z" />
    <glyph glyph-name="u062A" unicode="&#x62a;" horiz-adv-x="1695" arabic-form="isolated" 
d="M1202 1001c-4.66699 0 -10.333 -69.333 -17 -208c-49.333 11.333 -135 18 -257 20s-210.333 -2 -265 -12l-8 205c53.333 11.333 144 17 272 17c139.333 0 231 -7.33301 275 -22zM1683 419c10.667 -32.667 16.001 -65.9951 16.001 -99.9951
c0 -80.667 -24 -152.667 -72 -216c-52 -68.667 -117.333 -103 -196 -103h-940c-104 0 -188.333 43.667 -253 131c-58.667 79.333 -88 172.666 -88 279.999c0 74.667 22.667 161.334 68 260.001c39.333 85.333 82.666 154.666 129.999 207.999l142 -117
c-40.667 -44.667 -75.667 -101.334 -105 -170.001c-31.333 -72.667 -47 -137.334 -47 -194.001c0 -62 14.667 -112.333 44 -151c32.667 -43.333 79 -65 139 -65h849c38.667 0 70.667 15.667 96 47c24.667 29.333 37 63.666 37 102.999c0 17.333 -2.33301 32.666 -7 45.999
l-151 442l170 78c41.333 -103.333 97.333 -263 168 -479z" />
    <glyph glyph-name="u062B" unicode="&#x62b;" horiz-adv-x="1705" arabic-form="isolated" 
d="M1019 1074c-39.333 5.33301 -77 7.99902 -113 7.99902c-38 0 -73.667 -3 -107 -9v197c16 6.66699 51.667 10.334 107 11.001c48 0 85.667 -2 113 -6v-201zM1192 995.999c-4.66699 0 -10.333 -69.333 -17 -208c-49.333 11.333 -135 18 -257 20s-210.333 -2 -265 -12
l-8 205c53.333 11.333 144 17 272 17c139.333 0 231 -7.33301 275 -22zM1683 418.999c10.667 -32.667 16.001 -65.9951 16.001 -99.9951c0 -80.667 -24 -152.667 -72 -216c-52 -68.667 -117.333 -103 -196 -103h-940c-104 0 -188.333 43.667 -253 131
c-58.667 79.333 -88 172.666 -88 279.999c0 74.667 22.667 161.334 68 260.001c39.333 85.333 82.666 154.666 129.999 207.999l142 -117c-40.667 -44.667 -75.667 -101.334 -105 -170.001c-31.333 -72.667 -47 -137.334 -47 -194.001c0 -62 14.667 -112.333 44 -151
c32.667 -43.333 79 -65 139 -65h849c38.667 0 70.667 15.667 96 47c24.667 29.333 37 63.666 37 102.999c0 17.333 -2.33301 32.666 -7 45.999l-151 442l170 78c41.333 -103.333 97.333 -263 168 -479z" />
    <glyph glyph-name="u062C" unicode="&#x62c;" horiz-adv-x="1053" arabic-form="isolated" 
d="M1032 294c14 -26 21.001 -54.6689 21.001 -86.002c0 -55.333 -16.667 -103 -50 -143c-35.333 -43.333 -80 -65 -134 -65h-349c-112 0 -168 -50.667 -168 -152c0 -34 10.667 -64 32 -90s48.666 -41.667 81.999 -47l557 -89l-27 -191l-603 95
c-72.667 11.333 -132 50 -178 116c-43.333 61.333 -65 130 -65 206c0 104.667 36.333 187.334 109 248.001c68 57.333 155.333 86 262 86h318c14 0 22.667 7.33301 26 22c2.66699 12.667 0 26.334 -8 41.001l-219 400c-10.667 19.333 -22.334 29 -35.001 29
c-13.333 0 -23.666 -9.66699 -30.999 -29l-160 -420l-182 61l202 491c26 63.333 80.667 95 164 95s142 -31.667 176 -95zM843.001 -274.002c-39.333 5.33301 -77 7.99902 -113 7.99902c-38 0 -73.667 -3 -107 -9v197c16 6.66699 51.667 10.334 107 11.001
c48 0 85.667 -2 113 -6v-201z" />
    <glyph glyph-name="u062D" unicode="&#x62d;" horiz-adv-x="1053" arabic-form="isolated" 
d="M1032 294c14 -26 21.001 -54.6689 21.001 -86.002c0 -55.333 -16.667 -103 -50 -143c-35.333 -43.333 -80 -65 -134 -65h-349c-112 0 -168 -50.667 -168 -152c0 -34 10.667 -64 32 -90s48.666 -41.667 81.999 -47l557 -89l-27 -191l-603 95
c-72.667 11.333 -132 50 -178 116c-43.333 61.333 -65 130 -65 206c0 104.667 36.333 187.334 109 248.001c68 57.333 155.333 86 262 86h318c14 0 22.667 7.33301 26 22c2.66699 12.667 0 26.334 -8 41.001l-219 400c-10.667 19.333 -22.334 29 -35.001 29
c-13.333 0 -23.666 -9.66699 -30.999 -29l-160 -420l-182 61l202 491c26 63.333 80.667 95 164 95s142 -31.667 176 -95z" />
    <glyph glyph-name="u062E" unicode="&#x62e;" horiz-adv-x="1053" arabic-form="isolated" 
d="M688 1000c-39.333 5.33301 -77 7.99902 -113 7.99902c-38 0 -73.667 -3 -107 -9v197c16 6.66699 51.667 10.334 107 11.001c48 0 85.667 -2 113 -6v-201zM1032 293.999c14 -26 21.001 -54.6689 21.001 -86.002c0 -55.333 -16.667 -103 -50 -143
c-35.333 -43.333 -80 -65 -134 -65h-349c-112 0 -168 -50.667 -168 -152c0 -34 10.667 -64 32 -90s48.666 -41.667 81.999 -47l557 -89l-27 -191l-603 95c-72.667 11.333 -132 50 -178 116c-43.333 61.333 -65 130 -65 206c0 104.667 36.333 187.334 109 248.001
c68 57.333 155.333 86 262 86h318c14 0 22.667 7.33301 26 22c2.66699 12.667 0 26.334 -8 41.001l-219 400c-10.667 19.333 -22.334 29 -35.001 29c-13.333 0 -23.666 -9.66699 -30.999 -29l-160 -420l-182 61l202 491c26 63.333 80.667 95 164 95s142 -31.667 176 -95z
" />
    <glyph glyph-name="u062F" unicode="&#x62f;" horiz-adv-x="744" arabic-form="isolated" 
d="M690 418c36 -48.667 54 -106 54 -172c0 -70 -19 -127.667 -57 -173c-40 -48.667 -94.333 -73 -163 -73h-374v182h326c44 0 66 26.667 66 80c0 22 -4.33301 39 -13 51l-320 452l138 118z" />
    <glyph glyph-name="u0630" unicode="&#x630;" horiz-adv-x="744" arabic-form="isolated" 
d="M358 1006c-39.333 5.33301 -77 7.99902 -113 7.99902c-38 0 -73.667 -3 -107 -9v197c16 6.66699 51.667 10.334 107 11.001c48 0 85.667 -2 113 -6v-201zM690 417.999c36 -48.667 54 -106 54 -172c0 -70 -19 -127.667 -57 -173c-40 -48.667 -94.333 -73 -163 -73h-374
v182h326c44 0 66 26.667 66 80c0 22 -4.33301 39 -13 51l-320 452l138 118z" />
    <glyph glyph-name="u0631" unicode="&#x631;" horiz-adv-x="524" arabic-form="isolated" 
d="M524 196c0 -218.667 -76.667 -410.334 -230 -575.001l-141 114c124.667 162 187 327.333 187 496c0 77.333 -24.667 183 -74 317l-101 275l163 82l112 -315c56 -157.333 84 -288.666 84 -393.999z" />
    <glyph glyph-name="u0632" unicode="&#x632;" horiz-adv-x="524" arabic-form="isolated" 
d="M328 1005c-39.333 5.33301 -77 7.99902 -113 7.99902c-38 0 -73.667 -3 -107 -9v197c16 6.66699 51.667 10.334 107 11.001c48 0 85.667 -2 113 -6v-201zM524 195.999c0 -218.667 -76.667 -410.334 -230 -575.001l-141 114c124.667 162 187 327.333 187 496
c0 77.333 -24.667 183 -74 317l-101 275l163 82l112 -315c56 -157.333 84 -288.666 84 -393.999z" />
    <glyph glyph-name="u0633" unicode="&#x633;" horiz-adv-x="2076" arabic-form="isolated" 
d="M2059 441c14 -35.333 20.998 -74.3301 20.998 -116.997c0 -89.333 -27 -165 -81 -227c-57.333 -64.667 -130 -97 -218 -97c-43.333 0 -87.666 9.66699 -132.999 29c-50 21.333 -85 48.666 -105 81.999c-35.333 -74 -98.333 -111 -189 -111c-66 0 -117 9 -153 27
c-12 -106 -89.333 -188 -232 -246c-121.333 -49.333 -265 -74 -431 -74c-256.667 0 -385 103.333 -385 310c0 85.333 25.333 191.333 76 318c47.333 118 100 214 158 288l141 -90c-44 -70.667 -84.667 -154 -122 -250c-42.667 -110.667 -64 -199.334 -64 -266.001
c0 -90 71 -135 213 -135c316 0 474 80.333 474 241c0 19.333 -2 38.666 -6 57.999l-129 621l174 56l88 -425c17.333 -83.333 30 -134.666 38 -153.999c27.333 -65.333 69 -98 125 -98c36 0 63.667 15.667 83 47c16.667 26 25 58 25 96c0 15.333 -1.66699 30.666 -5 45.999
l-95 432l175 63l95 -432c16 -73.333 31.333 -125.333 46 -156c30 -64 70.333 -96 121 -96c36.667 0 65.334 17 86.001 51c18 29.333 27 63.333 27 102c0 19.333 -2.66699 36.333 -8 51l-147 412l169 68z" />
    <glyph glyph-name="u0634" unicode="&#x634;" horiz-adv-x="2076" arabic-form="isolated" 
d="M1478 1279c-39.333 5.33301 -77 7.99902 -113 7.99902c-38 0 -73.667 -3 -107 -9v197c16 6.66699 51.667 10.334 107 11.001c48 0 85.667 -2 113 -6v-201zM1651 1201c-4.66699 0 -10.333 -69.333 -17 -208c-49.333 11.333 -135 18 -257 20s-210.333 -2 -265 -12l-8 205
c53.333 11.333 144 17 272 17c139.333 0 231 -7.33301 275 -22zM2059 440.999c14 -35.333 20.998 -74.3301 20.998 -116.997c0 -89.333 -27 -165 -81 -227c-57.333 -64.667 -130 -97 -218 -97c-43.333 0 -87.666 9.66699 -132.999 29c-50 21.333 -85 48.666 -105 81.999
c-35.333 -74 -98.333 -111 -189 -111c-66 0 -117 9 -153 27c-12 -106 -89.333 -188 -232 -246c-121.333 -49.333 -265 -74 -431 -74c-256.667 0 -385 103.333 -385 310c0 85.333 25.333 191.333 76 318c47.333 118 100 214 158 288l141 -90
c-44 -70.667 -84.667 -154 -122 -250c-42.667 -110.667 -64 -199.334 -64 -266.001c0 -90 71 -135 213 -135c316 0 474 80.333 474 241c0 19.333 -2 38.666 -6 57.999l-129 621l174 56l88 -425c17.333 -83.333 30 -134.666 38 -153.999c27.333 -65.333 69 -98 125 -98
c36 0 63.667 15.667 83 47c16.667 26 25 58 25 96c0 15.333 -1.66699 30.666 -5 45.999l-95 432l175 63l95 -432c16 -73.333 31.333 -125.333 46 -156c30 -64 70.333 -96 121 -96c36.667 0 65.334 17 86.001 51c18 29.333 27 63.333 27 102c0 19.333 -2.66699 36.333 -8 51
l-147 412l169 68z" />
    <glyph glyph-name="u0635" unicode="&#x635;" horiz-adv-x="2015" arabic-form="isolated" 
d="M1989 533c17.333 -68.667 25.998 -130.998 25.998 -186.998c0 -76 -16.667 -138.667 -50 -188c-74 -108.667 -233.667 -163 -479 -163c-107.333 0 -202.333 10.667 -285 32c-12 -106 -89.333 -188 -232 -246c-121.333 -49.333 -265 -74 -431 -74
c-256.667 0 -385 103.333 -385 310c0 85.333 25.333 191.333 76 318c47.333 118 100 214 158 288l141 -90c-44 -70.667 -84.667 -154 -122 -250c-42.667 -110.667 -64 -199.334 -64 -266.001c0 -90 71 -135 213 -135c144.667 0 250.334 15 317.001 45
c100.667 45.333 151 130 151 254c0 200.667 -43 407.667 -129 621c48.667 16 102.667 41.333 162 76c42.667 -80 77.667 -177.333 105 -292c26.667 -110.667 40.334 -213.334 41.001 -308.001c24 119.333 79.667 243.333 167 372c103.333 152 207 228 311 228
c76.667 0 145 -40 205 -120c47.333 -63.333 82 -138.333 104 -225zM1832 330.002c0 71.333 -15.334 147 -46.001 227c-35.333 92.667 -77.666 139 -126.999 139c-58 0 -117.667 -61.667 -179 -185c-54.667 -110 -88.667 -216.333 -102 -319c66 -7.33301 117.667 -11 155 -11
c199.333 0 299 49.667 299 149z" />
    <glyph glyph-name="u0636" unicode="&#x636;" horiz-adv-x="2015" arabic-form="isolated" 
d="M1753 1005c-39.333 5.33301 -77 7.99902 -113 7.99902c-38 0 -73.667 -3 -107 -9v197c16 6.66699 51.667 10.334 107 11.001c48 0 85.667 -2 113 -6v-201zM1989 532.999c17.333 -68.667 25.998 -130.998 25.998 -186.998c0 -76 -16.667 -138.667 -50 -188
c-74 -108.667 -233.667 -163 -479 -163c-107.333 0 -202.333 10.667 -285 32c-12 -106 -89.333 -188 -232 -246c-121.333 -49.333 -265 -74 -431 -74c-256.667 0 -385 103.333 -385 310c0 85.333 25.333 191.333 76 318c47.333 118 100 214 158 288l141 -90
c-44 -70.667 -84.667 -154 -122 -250c-42.667 -110.667 -64 -199.334 -64 -266.001c0 -90 71 -135 213 -135c144.667 0 250.334 15 317.001 45c100.667 45.333 151 130 151 254c0 200.667 -43 407.667 -129 621c48.667 16 102.667 41.333 162 76
c42.667 -80 77.667 -177.333 105 -292c26.667 -110.667 40.334 -213.334 41.001 -308.001c24 119.333 79.667 243.333 167 372c103.333 152 207 228 311 228c76.667 0 145 -40 205 -120c47.333 -63.333 82 -138.333 104 -225zM1832 330.001
c0 71.333 -15.334 147 -46.001 227c-35.333 92.667 -77.666 139 -126.999 139c-58 0 -117.667 -61.667 -179 -185c-54.667 -110 -88.667 -216.333 -102 -319c66 -7.33301 117.667 -11 155 -11c199.333 0 299 49.667 299 149z" />
    <glyph glyph-name="u0637" unicode="&#x637;" horiz-adv-x="1089" arabic-form="isolated" 
d="M1089 364c0 -115.333 -43.334 -206.332 -130.001 -272.999c-79.333 -60.667 -178.333 -91 -297 -91h-423v181c0 130.667 -17.333 305.667 -52 525c-32.667 208 -70 386 -112 534l172 53c31.333 -92.667 61 -215 89 -367c27.333 -146 44.333 -271 51 -375
c31.333 72.667 79.333 144 144 214c72.667 78.667 135.334 118 188.001 118c99.333 0 188 -63.333 266 -190c69.333 -112.667 104 -222.334 104 -329.001zM907.999 356.001c0 54.667 -16.667 121 -50 199c-39.333 91.333 -82 137 -128 137c-56.667 0 -116 -72 -178 -216
c-50.667 -117.333 -81 -215.333 -91 -294h218c152.667 0 229 58 229 174z" />
    <glyph glyph-name="u0638" unicode="&#x638;" horiz-adv-x="1092" arabic-form="isolated" 
d="M723 1007c-39.333 5.33301 -77 7.99902 -113 7.99902c-38 0 -73.667 -3 -107 -9v197c16 6.66699 51.667 10.334 107 11.001c48 0 85.667 -2 113 -6v-201zM1089 363.999c0 -115.333 -43.334 -206.332 -130.001 -272.999c-79.333 -60.667 -178.333 -91 -297 -91h-423v181
c0 130.667 -17.333 305.667 -52 525c-32.667 208 -70 386 -112 534l172 53c31.333 -92.667 61 -215 89 -367c27.333 -146 44.333 -271 51 -375c31.333 72.667 79.333 144 144 214c72.667 78.667 135.334 118 188.001 118c99.333 0 188 -63.333 266 -190
c69.333 -112.667 104 -222.334 104 -329.001zM907.999 356c0 54.667 -16.667 121 -50 199c-39.333 91.333 -82 137 -128 137c-56.667 0 -116 -72 -178 -216c-50.667 -117.333 -81 -215.333 -91 -294h218c152.667 0 229 58 229 174z" />
    <glyph glyph-name="u0639" unicode="&#x639;" horiz-adv-x="1037" arabic-form="isolated" 
d="M1037 -377l-33 -189l-531 90c-78 13.333 -149.333 50 -214 110c-70 65.333 -105 135.666 -105 210.999c0 122.667 67.333 221.667 202 297c-34 26 -68.667 67.667 -104 125c-47.333 77.333 -71 153 -71 227c0 102.667 46.333 195.334 139 278.001c88 78 179 117 273 117
c16 0 31 -1.33301 45 -4l339 -65l-37 -173l-241 48c-20 4 -42.333 6 -67 6c-68.667 0 -129.667 -17.333 -183 -52c-62 -40 -93 -92.667 -93 -158c0 -84.667 39 -158.334 117 -221.001c73.333 -58.667 153.333 -88 240 -88h244v-182h-265c-224 0 -336 -51.333 -336 -154
c0 -41.333 22.333 -76.666 67 -105.999c36 -24 77.333 -39.333 124 -46z" />
    <glyph glyph-name="u063A" unicode="&#x63a;" horiz-adv-x="1050" arabic-form="isolated" 
d="M637 1004c-39.333 5.33301 -77 7.99902 -113 7.99902c-38 0 -73.667 -3 -107 -9v197c16 6.66699 51.667 10.334 107 11.001c48 0 85.667 -2 113 -6v-201zM1037 -377.001l-33 -189l-531 90c-78 13.333 -149.333 50 -214 110c-70 65.333 -105 135.666 -105 210.999
c0 122.667 67.333 221.667 202 297c-34 26 -68.667 67.667 -104 125c-47.333 77.333 -71 153 -71 227c0 102.667 46.333 195.334 139 278.001c88 78 179 117 273 117c16 0 31 -1.33301 45 -4l339 -65l-37 -173l-241 48c-20 4 -42.333 6 -67 6
c-68.667 0 -129.667 -17.333 -183 -52c-62 -40 -93 -92.667 -93 -158c0 -84.667 39 -158.334 117 -221.001c73.333 -58.667 153.333 -88 240 -88h244v-182h-265c-224 0 -336 -51.333 -336 -154c0 -41.333 22.333 -76.666 67 -105.999c36 -24 77.333 -39.333 124 -46z" />
    <glyph glyph-name="u0641" unicode="&#x641;" horiz-adv-x="1702" arabic-form="isolated" 
d="M1289 1004c-39.333 5.33301 -77 7.99902 -113 7.99902c-38 0 -73.667 -3 -107 -9v197c16 6.66699 51.667 10.334 107 11.001c48 0 85.667 -2 113 -6v-201zM1702 290.999c0 -88 -33.998 -159.332 -101.998 -213.999c-62.667 -51.333 -139 -77 -229 -77h-880
c-104 0 -188.333 43.667 -253 131c-58.667 79.333 -88 172.666 -88 279.999c0 75.333 21 160 63 254c36.667 82 78.334 149.333 125.001 202l141 -105c-36.667 -40.667 -69.334 -98 -98.001 -172s-43 -138 -43 -192c0 -62 14.667 -112.333 44 -151
c32.667 -43.333 79 -65 139 -65h849c98 0 147 22.667 147 68c-46.667 -14.667 -102.334 -22 -167.001 -22c-274.667 0 -412 99 -412 297c0 79.333 21.333 157.333 64 234c50 90 112.333 135 187 135c109.333 0 223.666 -75 342.999 -225
c113.333 -142.667 170 -268.667 170 -378zM1456 448c-16.667 48 -48.332 100.334 -94.999 157.001c-54.667 66 -102.334 99 -143.001 99c-30.667 0 -55.667 -21.667 -75 -65c-15.333 -34 -23 -67.333 -23 -100c0 -50.667 15.667 -85.334 47 -104.001
c24 -14.667 63 -22 117 -22c74.667 0 132 11.667 172 35z" />
    <glyph glyph-name="u0642" unicode="&#x642;" horiz-adv-x="1341" arabic-form="isolated" 
d="M1214 1209c-4.66699 0 -10.333 -69.333 -17 -208c-49.333 11.333 -135 18 -257 20s-210.333 -2 -265 -12l-8 205c53.333 11.333 144 17 272 17c139.333 0 231 -7.33301 275 -22zM1320 -92c-33.333 -111.333 -122.333 -208 -267 -290
c-132 -74.667 -260.667 -112 -386 -112c-160 0 -285.667 42.333 -377 127c-93.333 87.333 -140 210.666 -140 369.999c0 148.667 46.667 300.334 140 455.001l158 -74c-31.333 -47.333 -59.666 -108 -84.999 -182c-26.667 -78 -40 -143.333 -40 -196
c0 -80.667 22.333 -150.667 67 -210c55.333 -74 135.666 -111 240.999 -111c100.667 0 206.334 27.667 317.001 83c130.667 65.333 198 142.666 202 231.999h-275c-104.667 0 -180 24.333 -226 73c-44.667 46.667 -67 123 -67 229c0 110.667 33.333 231.334 100 362.001
c77.333 151.333 165.666 227 264.999 227c87.333 0 166 -59.333 236 -178c102 -173.333 153 -387 153 -641c0 -73.333 -5.33301 -128 -16 -164zM1153 182c-2 106.667 -21.334 214.666 -58.001 323.999c-43.333 128.667 -93.666 193 -150.999 193
c-43.333 0 -88.333 -48.333 -135 -145c-43.333 -89.333 -65 -162.666 -65 -219.999c0 -101.333 45.333 -152 136 -152h273z" />
    <glyph glyph-name="u0643" unicode="&#x643;" horiz-adv-x="1637" arabic-form="isolated" 
d="M1629 300c1.33301 -11.333 1.99902 -23.333 1.99902 -36c0 -68 -18 -127.333 -54 -178c-40 -57.333 -92.667 -86 -158 -86h-820c-125.333 -0 -230.666 38.333 -315.999 115c-88.667 80 -133 182 -133 306c0 152 70 310.667 210 476l130 -124
c-104 -119.333 -156 -226 -156 -320c0 -70 21.667 -131.667 65 -185c46 -57.333 103.333 -86 172 -86h782c69.333 0 104 36.333 104 109c0 6.66699 -0.666992 15 -2 25l-34 260c-9.33301 70.667 -63.666 121.334 -162.999 152.001c-22.667 6.66699 -68.667 11 -138 13
c-63.333 1.33301 -104.333 0.333008 -123 -3c-14 -2.66699 -26 -4 -36 -4c-65.333 0 -98 38.333 -98 115c0 17.333 2 36.666 6 57.999l16 86c18 96 84.333 161.667 199 197c48 14.667 128 22 240 22c112.667 0 199 -7 259 -21v-177c-95.333 18.667 -172 28 -230 28
c-200.667 0 -301 -45 -301 -135c140 0 234 -6 282 -18c155.333 -38.667 240.666 -124 255.999 -256z" />
    <glyph glyph-name="u0644" unicode="&#x644;" horiz-adv-x="1208" arabic-form="isolated" 
d="M1201 66c-18.667 -127.333 -98.334 -221.998 -239.001 -283.998c-114 -50 -256.333 -75 -427 -75c-256.667 0 -385 103.333 -385 310c0 85.333 25.333 191.333 76 318c47.333 118 100 214 158 288l141 -90c-44 -70.667 -84.667 -154 -122 -250
c-42.667 -110.667 -64 -199.334 -64 -266.001c0 -90 71 -135 213 -135c144 0 250 15 318 45c102 45.333 153 130 153 254c0 157.333 -12 340.333 -36 549c-25.333 219.333 -56.666 399 -93.999 539l174 56c34 -142.667 65.667 -328.334 95 -557.001
c30.667 -239.333 46 -431 46 -575c0 -52.667 -2.33301 -95 -7 -127z" />
    <glyph glyph-name="u0645" unicode="&#x645;" horiz-adv-x="1122" arabic-form="isolated" 
d="M1071 468c32.667 -53.333 49.002 -108.334 49.002 -165.001c-0.666992 -98 -43.334 -175 -128.001 -231c-72.667 -48 -161 -72 -265 -72c-184 0 -276 74.667 -276 224c0 32.667 16.667 88.667 50 168s50 130.666 50 153.999c0 6.66699 -2 10 -6 10
c-28.667 0 -71.334 -41.333 -128.001 -124c-62 -90.667 -93 -173 -93 -247c0 -78.667 38 -157.334 114 -236.001c68.667 -71.333 144 -120.333 226 -147l-84 -151c-109.333 36 -207.333 106.667 -294 212c-90 110.667 -135 221.334 -135 332.001c0 144 53 277.333 159 400
c96.667 111.333 186.667 167 270 167c39.333 0 74.833 -13.833 106.5 -41.5s47.5 -61.167 47.5 -100.5c0 -55.333 -16.167 -126.166 -48.5 -212.499s-48.5 -141.166 -48.5 -164.499c0 -40.667 36 -61 108 -61c47.333 0 88 11 122 33c40 25.333 60 60.333 60 105
c0 22 -6.66699 44 -20 66l-249 408l157 90z" />
    <glyph glyph-name="u0646" unicode="&#x646;" horiz-adv-x="1208" arabic-form="isolated" 
d="M763 675c-39.333 5.33301 -77 7.99902 -113 7.99902c-38 0 -73.667 -3 -107 -9v197c16 6.66699 51.667 10.334 107 11.001c48 0 85.667 -2 113 -6v-201zM1201 65.999c-18.667 -127.333 -98.333 -222 -239 -284c-114 -50 -256.333 -75 -427 -75
c-256.667 0 -385 103.333 -385 310c0 85.333 25.333 191.333 76 318c47.333 118 100 214 158 288l141 -90c-44 -70.667 -84.667 -154 -122 -250c-42.667 -110.667 -64 -199.334 -64 -266.001c0 -90 71 -135 213 -135c144 0 250 15 318 45c102 45.333 153 130 153 254
c0 78.667 -16.667 184.667 -50 318c-30 120 -62 219.333 -96 298l158 71c50 -88.667 91.333 -203 124 -343c32 -133.333 48 -254 48 -362c0 -37.333 -2 -69.666 -6 -96.999z" />
    <glyph glyph-name="u0647" unicode="&#x647;" horiz-adv-x="831" arabic-form="isolated" 
d="M831 283c0 -74 -19.332 -138 -57.999 -192c-42.667 -60.667 -99.667 -91 -171 -91h-228c-150 -0 -225 80.333 -225 241c0 54 12.667 124 38 210c23.333 82 49.333 149 78 201l158 -68c-57.333 -131.333 -86 -230.666 -86 -297.999c0 -69.333 22.333 -104 67 -104h155
c27.333 0 49.666 12 66.999 36c16 22 24 47 24 75c0 45.333 -32.333 110.333 -97 195c-80 105.333 -180 188.333 -300 249l97 143c102.667 -36.667 207 -118 313 -244c112 -132.667 168 -250.334 168 -353.001z" />
    <glyph glyph-name="u0648" unicode="&#x648;" horiz-adv-x="801" arabic-form="isolated" 
d="M801 193c0 -214.667 -80.333 -404 -241 -568l-139 128c78 66 129.333 148.333 154 247h-186c-57.333 0 -108 30.667 -152 92c-58 81.333 -87 202.333 -87 363c0 95.333 15.667 184.333 47 267c42.667 112 103.667 168 183 168c95.333 0 190 -80.333 284 -241
c91.333 -156 137 -308 137 -456zM613 182c2 16 3.00098 32.667 3.00098 50c0 97.333 -29.333 200 -88 308c-53.333 98 -94.333 147 -123 147c-48.667 0 -73 -83 -73 -249c0 -60 9.66699 -115 29 -165c23.333 -60.667 54.666 -91 93.999 -91h158z" />
    <glyph glyph-name="u0649" unicode="&#x649;" horiz-adv-x="1242" arabic-form="isolated" 
d="M1242 719l-211 0.000976562c-30 0 -56.167 -10.833 -78.5 -32.5s-33.5 -47.5 -33.5 -77.5c0 -42 26.333 -89 79 -141l147 -145c52.667 -65.333 79 -135.333 79 -210c0 -135.333 -70.333 -240.333 -211 -315c-119.333 -63.333 -263 -95 -431 -95
c-288 0 -432 111.333 -432 334c0 92 29 205.333 87 340c45.333 105.333 94.333 197 147 275l158 -95c-136.667 -209.333 -205 -373 -205 -491c0 -78 27.667 -131 83 -159c37.333 -18.667 97.333 -28 180 -28c285.333 0 428 79 428 237c0 46 -25.667 95 -77 147l-142 144
c-51.333 63.333 -77 129.666 -77 198.999c0 83.333 31 154.333 93 213s135 88 219 88h198v-188z" />
    <glyph glyph-name="u064A" unicode="&#x64a;" horiz-adv-x="1242" arabic-form="isolated" 
d="M1242 719l-211 0.000976562c-30 0 -56.167 -10.833 -78.5 -32.5s-33.5 -47.5 -33.5 -77.5c0 -42 26.333 -89 79 -141l147 -145c52.667 -65.333 79 -135.333 79 -210c0 -135.333 -70.333 -240.333 -211 -315c-119.333 -63.333 -263 -95 -431 -95
c-288 0 -432 111.333 -432 334c0 92 29 205.333 87 340c45.333 105.333 94.333 197 147 275l158 -95c-136.667 -209.333 -205 -373 -205 -491c0 -78 27.667 -131 83 -159c37.333 -18.667 97.333 -28 180 -28c285.333 0 428 79 428 237c0 46 -25.667 95 -77 147l-142 144
c-51.333 63.333 -77 129.666 -77 198.999c0 83.333 31 154.333 93 213s135 88 219 88h198v-188z" />
    <glyph glyph-name="u067E" unicode="&#x67e;" horiz-adv-x="1695" arabic-form="isolated" 
d="M1683 419c10.667 -32.667 16.001 -65.9951 16.001 -99.9951c0 -80.667 -24 -152.667 -72 -216c-52 -68.667 -117.333 -103 -196 -103h-940c-104 0 -188.333 43.667 -253 131c-58.667 79.333 -88 172.666 -88 279.999c0 74.667 22.667 161.334 68 260.001
c39.333 85.333 82.666 154.666 129.999 207.999l142 -117c-40.667 -44.667 -75.667 -101.334 -105 -170.001c-31.333 -72.667 -47 -137.334 -47 -194.001c0 -62 14.667 -112.333 44 -151c32.667 -43.333 79 -65 139 -65h849c38.667 0 70.667 15.667 96 47
c24.667 29.333 37 63.666 37 102.999c0 17.333 -2.33301 32.666 -7 45.999l-151 442l170 78c41.333 -103.333 97.333 -263 168 -479zM1202 -168.995c-4.66699 0 -10.333 -69.333 -17 -208c-49.333 11.333 -135 18 -257 20s-210.333 -2 -265 -12l-8 205
c53.333 11.333 144 17 272 17c139.333 0 231 -7.33301 275 -22zM1009 -640.995c-39.333 5.33301 -77 7.99902 -113 7.99902c-38 0 -73.667 -3 -107 -9v197c16 6.66699 51.667 10.334 107 11.001c48 0 85.667 -2 113 -6v-201z" />
    <glyph glyph-name="u0686" unicode="&#x686;" horiz-adv-x="1053" arabic-form="isolated" 
d="M1032 294c14 -26 21.001 -54.6689 21.001 -86.002c0 -55.333 -16.667 -103 -50 -143c-35.333 -43.333 -80 -65 -134 -65h-349c-112 0 -168 -50.667 -168 -152c0 -34 10.667 -64 32 -90s48.666 -41.667 81.999 -47l557 -89l-27 -191l-603 95
c-72.667 11.333 -132 50 -178 116c-43.333 61.333 -65 130 -65 206c0 104.667 36.333 187.334 109 248.001c68 57.333 155.333 86 262 86h318c14 0 22.667 7.33301 26 22c2.66699 12.667 0 26.334 -8 41.001l-219 400c-10.667 19.333 -22.334 29 -35.001 29
c-13.333 0 -23.666 -9.66699 -30.999 -29l-160 -420l-182 61l202 491c26 63.333 80.667 95 164 95s142 -31.667 176 -95zM808.001 -49.002c-3.33301 -10.667 -6.33301 -49.001 -9 -115.001c-28.667 7.33301 -75.667 11.333 -141 12s-114 -1.66602 -146 -6.99902l-5 112
c30 6.66699 81 10 153 10c74.667 0 124 -4 148 -12zM714.001 -285.003c-25.333 2.66699 -47.668 4.00098 -67.001 4.00098c-21.333 0 -39.333 -1.66699 -54 -5v111c8 4 27.667 5.66699 59 5c28.667 -0.666992 49.334 -2.33398 62.001 -5.00098v-110z" />
    <glyph glyph-name="u0698" unicode="&#x698;" horiz-adv-x="620" arabic-form="isolated" 
d="M441 1286c-39.333 5.33301 -77 7.99902 -113 7.99902c-38 0 -73.667 -3 -107 -9v197c16 6.66699 51.667 10.334 107 11.001c48 0 85.667 -2 113 -6v-201zM614 1208c-4.66699 0 -10.333 -69.333 -17 -208c-49.333 11.333 -135 18 -257 20s-210.333 -2 -265 -12l-8 205
c53.333 11.333 144 17 272 17c139.333 0 231 -7.33301 275 -22zM594.001 195.999c0 -218.667 -76.667 -410.334 -230 -575.001l-141 114c124.667 162 187 327.333 187 496c0 77.333 -24.667 183 -74 317l-101 275l163 82l112 -315c56 -157.333 84 -288.666 84 -393.999z" />
    <glyph glyph-name="u06AF" unicode="&#x6af;" horiz-adv-x="1637" arabic-form="isolated" 
d="M1586 1316c-1.33301 -6.66699 -2 -16 -2 -28c0 -8.66699 0.333008 -19 1 -31c-96.667 16 -195.667 24 -297 24c-124 0 -223.667 -13 -299 -39l-15 58c95.333 22 212.333 33 351 33c92 0 179 -5.66699 261 -17zM1629 300c1.33301 -11.333 1.99902 -23.333 1.99902 -36
c0 -68 -18 -127.333 -54 -178c-40 -57.333 -92.667 -86 -158 -86h-820c-125.333 -0 -230.666 38.333 -315.999 115c-88.667 80 -133 182 -133 306c0 152 70 310.667 210 476l130 -124c-104 -119.333 -156 -226 -156 -320c0 -70 21.667 -131.667 65 -185
c46 -57.333 103.333 -86 172 -86h782c69.333 0 104 36.333 104 109c0 6.66699 -0.666992 15 -2 25l-34 260c-9.33301 70.667 -63.666 121.334 -162.999 152.001c-22.667 6.66699 -68.667 11 -138 13c-63.333 1.33301 -104.333 0.333008 -123 -3c-14 -2.66699 -26 -4 -36 -4
c-65.333 0 -98 38.333 -98 115c0 17.333 2 36.666 6 57.999l16 86c18 96 84.333 161.667 199 197c48 14.667 128 22 240 22c112.667 0 199 -7 259 -21v-177c-95.333 18.667 -172 28 -230 28c-200.667 0 -301 -45 -301 -135c140 0 234 -6 282 -18
c155.333 -38.667 240.666 -124 255.999 -256z" />
    <glyph glyph-name="uFB57" unicode="&#x67e;" horiz-adv-x="1846" arabic-form="final" 
d="M1876 0l-63.999 0.00488281c-80 0 -143 36.333 -189 109c-58 -72.667 -122 -109 -192 -109h-940c-104 0 -188.333 43.667 -253 131c-58.667 79.333 -88 172.666 -88 279.999c0 74.667 22.667 161.334 68 260.001c39.333 85.333 82.666 154.666 129.999 207.999l142 -117
c-40.667 -44.667 -75.667 -101.334 -105 -170.001c-31.333 -72.667 -47 -137.334 -47 -194.001c0 -62 14.667 -112.333 44 -151c32.667 -43.333 79 -65 139 -65h849c38.667 0 70.667 15.667 96 47c24.667 29.333 37 63.666 37 102.999c0 17.333 -2.33301 32.666 -7 45.999
l-151 442l170 78c39.333 -97.333 114.333 -313 225 -647c15.333 -46 39.333 -69 72 -69h64v-182zM1202 -168.995c-4.66699 0 -10.333 -69.333 -17 -208c-49.333 11.333 -135 18 -257 20s-210.333 -2 -265 -12l-8 205c53.333 11.333 144 17 272 17
c139.333 0 231 -7.33301 275 -22zM1009 -640.995c-39.333 5.33301 -77 7.99902 -113 7.99902c-38 0 -73.667 -3 -107 -9v197c16 6.66699 51.667 10.334 107 11.001c48 0 85.667 -2 113 -6v-201z" />
    <glyph glyph-name="uFB58" unicode="&#x67e;" horiz-adv-x="600" arabic-form="initial" 
d="M552 419c10.667 -32.667 16 -65.998 16 -99.998c0 -80.667 -24 -152.667 -72 -216c-52 -68.667 -117.333 -103 -196 -103h-330v182h269c38.667 0 70.667 15.667 96 47c24.667 29.333 37 63.666 37 102.999c0 17.333 -2.33301 32.666 -7 45.999l-151 442l170 78
c41.333 -103.333 97.333 -263 168 -479zM593 -168.998c-4.66699 0 -10.333 -69.333 -17 -208c-49.333 11.333 -135 18 -257 20s-210.333 -2 -265 -12l-8 205c53.333 11.333 144 17 272 17c139.333 0 231 -7.33301 275 -22zM400.001 -640.998
c-39.333 5.33301 -77 7.99902 -113 7.99902c-38 0 -73.667 -3 -107 -9v197c16 6.66699 51.667 10.334 107 11.001c48 0 85.667 -2 113 -6v-201z" />
    <glyph glyph-name="uFB59" unicode="&#x67e;" horiz-adv-x="669" arabic-form="medial" 
d="M699 0l-74 0.00195312c-80 0 -143 36.333 -189 109c-58 -72.667 -122 -109 -192 -109h-274v182h213c38.667 0 70.667 15.667 96 47c24.667 29.333 37 63.666 37 102.999c0 17.333 -2.33301 32.666 -7 45.999l-151 442l170 78c39.333 -97.333 114.333 -313 225 -647
c15.333 -46 39.333 -69 72 -69h74v-182zM608 -168.998c-4.66699 0 -10.333 -69.333 -17 -208c-49.333 11.333 -135 18 -257 20s-210.333 -2 -265 -12l-8 205c53.333 11.333 144 17 272 17c139.333 0 231 -7.33301 275 -22zM415.001 -640.998
c-39.333 5.33301 -77 7.99902 -113 7.99902c-38 0 -73.667 -3 -107 -9v197c16 6.66699 51.667 10.334 107 11.001c48 0 85.667 -2 113 -6v-201z" />
    <glyph glyph-name="uFB7B" unicode="&#x686;" horiz-adv-x="1167" arabic-form="final" 
d="M1197 0l-71.999 -0.00195312c-16.667 0 -37.5 9.33301 -62.5 28s-41.5 36 -49.5 52c-36.667 -53.333 -84.667 -80 -144 -80h-349c-112 0 -168 -50.667 -168 -152c0 -34 10.667 -64 32 -90s48.666 -41.667 81.999 -47l557 -89l-27 -191l-603 95
c-72.667 11.333 -132 50 -178 116c-43.333 61.333 -65 130 -65 206c0 104.667 36.333 187.334 109 248.001c68 57.333 155.333 86 262 86h318c14 0 22.667 7.33301 26 22c2.66699 12.667 0 26.334 -8 41.001l-219 400c-10.667 19.333 -22.334 29 -35.001 29
c-13.333 0 -23.666 -9.66699 -30.999 -29l-160 -420l-182 61l202 491c26 63.333 80.667 95 164 95s142 -31.667 176 -95l275 -516c28 -52.667 61.333 -79 100 -79h50v-182zM808.001 -49.002c-3.33301 -10.667 -6.33301 -49.001 -9 -115.001
c-28.667 7.33301 -75.667 11.333 -141 12s-114 -1.66602 -146 -6.99902l-5 112c30 6.66699 81 10 153 10c74.667 0 124 -4 148 -12zM714.001 -285.003c-25.333 2.66699 -47.668 4.00098 -67.001 4.00098c-21.333 0 -39.333 -1.66699 -54 -5v111c8 4 27.667 5.66699 59 5
c28.667 -0.666992 49.334 -2.33398 62.001 -5.00098v-110z" />
    <glyph glyph-name="uFB7C" unicode="&#x686;" horiz-adv-x="885" arabic-form="initial" 
d="M865 294c14 -26 21 -54.668 21 -86.001c0 -55.333 -16.667 -103 -50 -143c-35.333 -43.333 -80 -65 -134 -65h-732v182h702c14 0 22.667 7.33301 26 22c2.66699 12.667 0 26.334 -8 41.001l-219 400c-10.667 19.333 -22.334 29 -35.001 29
c-13.333 0 -23.666 -9.66699 -30.999 -29l-160 -420l-182 61l202 491c26 63.333 80.667 95 164 95s142 -31.667 176 -95zM742 -169.001c-4.66699 0 -10.333 -69.333 -17 -208c-49.333 11.333 -135 18 -257 20s-210.333 -2 -265 -12l-8 205c53.333 11.333 144 17 272 17
c139.333 0 231 -7.33301 275 -22zM549.001 -641.001c-39.333 5.33301 -77 7.99902 -113 7.99902c-38 0 -73.667 -3 -107 -9v197c16 6.66699 51.667 10.334 107 11.001c48 0 85.667 -2 113 -6v-201z" />
    <glyph glyph-name="uFB7D" unicode="&#x686;" horiz-adv-x="1014" arabic-form="medial" 
d="M1044 0l-72 -0.000976562c-16.667 0 -37.5 9.33301 -62.5 28s-41.5 36 -49.5 52c-36 -53.333 -84 -80 -144 -80h-746v182h716c14 0 22.667 7.33301 26 22c2.66699 12.667 0 26.334 -8 41.001l-219 400c-10.667 19.333 -22.334 29 -35.001 29
c-13.333 0 -23.666 -9.66699 -30.999 -29l-160 -420l-182 61l202 491c26 63.333 80.667 95 164 95s142 -31.667 176 -95l275 -516c28 -52.667 61.333 -79 100 -79h50v-182zM742 -169.001c-4.66699 0 -10.333 -69.333 -17 -208c-49.333 11.333 -135 18 -257 20
s-210.333 -2 -265 -12l-8 205c53.333 11.333 144 17 272 17c139.333 0 231 -7.33301 275 -22zM549.001 -641.001c-39.333 5.33301 -77 7.99902 -113 7.99902c-38 0 -73.667 -3 -107 -9v197c16 6.66699 51.667 10.334 107 11.001c48 0 85.667 -2 113 -6v-201z" />
    <glyph glyph-name="uFB8B" unicode="&#x698;" horiz-adv-x="726" arabic-form="final" 
d="M441 1285c-39.333 5.33301 -77 7.99902 -113 7.99902c-38 0 -73.667 -3 -107 -9v197c16 6.66699 51.667 10.334 107 11.001c48 0 85.667 -2 113 -6v-201zM614 1207c-4.66699 0 -10.333 -69.333 -17 -208c-49.333 11.333 -135 18 -257 20s-210.333 -2 -265 -12l-8 205
c53.333 11.333 144 17 272 17c139.333 0 231 -7.33301 275 -22zM754.001 -0.000976562h-82c-34.667 0 -68.667 15.333 -102 46c-29.333 -160 -101.333 -301.667 -216 -425l-141 114c124.667 162 187 327.333 187 496c0 77.333 -24.667 183 -74 317l-101 275l163 82l202 -578
c34 -96.667 74.333 -145 121 -145h43v-182z" />
    <glyph glyph-name="uFEDA" unicode="&#x6a9;" horiz-adv-x="1764" arabic-form="final" 
d="M1794 0h-102c-44.667 0 -86.667 23.667 -126 71c-40.667 -47.333 -89.667 -71 -147 -71h-820c-125.333 -0 -230.666 38.333 -315.999 115c-88.667 80 -133 182 -133 306c0 152 70 310.667 210 476l130 -124c-104 -119.333 -156 -226 -156 -320
c0 -70 21.667 -131.667 65 -185c46 -57.333 103.333 -86 172 -86h782c69.333 0 104 36.333 104 109c0 6.66699 -0.666992 15 -2 25l-34 260c-9.33301 70.667 -63.666 121.334 -162.999 152.001c-22.667 6.66699 -68.667 11 -138 13
c-63.333 1.33301 -104.333 0.333008 -123 -3c-14 -2.66699 -26 -4 -36 -4c-65.333 0 -98 38.333 -98 115c0 17.333 2 36.666 6 57.999l16 86c18 96 84.333 161.667 199 197c48 14.667 128 22 240 22c112.667 0 199 -7 259 -21v-177c-95.333 18.667 -172 28 -230 28
c-200.667 0 -301 -45 -301 -135c140 0 234 -6 282 -18c155.333 -38.667 240.666 -124 255.999 -256l35 -301c11.333 -100 45.666 -150 102.999 -150h66v-182z" />
    <glyph glyph-name="uFEDB" unicode="&#x6a9;" horiz-adv-x="855" arabic-form="initial" 
d="M855 300c1.33301 -11.333 2 -23.333 2 -36c0 -68 -18 -127.333 -54 -178c-40 -57.333 -92.667 -86 -158 -86h-675v182h609c69.333 0 104 36.333 104 109c0 6.66699 -0.666992 15 -2 25l-34 260c-9.33301 70.667 -63.666 121.334 -162.999 152.001
c-22.667 6.66699 -68.667 11 -138 13c-63.333 1.33301 -104.333 0.333008 -123 -3c-14 -2.66699 -26 -4 -36 -4c-65.333 0 -98 38.333 -98 115c0 17.333 2 36.666 6 57.999l16 86c18 96 84.333 161.667 199 197c48 14.667 128 22 240 22c112.667 0 199 -7 259 -21v-177
c-95.333 18.667 -172 28 -230 28c-200.667 0 -301 -45 -301 -135c140 0 234 -6 282 -18c155.333 -38.667 240.666 -124 255.999 -256z" />
    <glyph glyph-name="uFEDC" unicode="&#x6a9;" horiz-adv-x="1013" arabic-form="medial" 
d="M1043 0h-124.999c-44.667 0 -86.667 23.667 -126 71c-40.667 -47.333 -89.667 -71 -147 -71h-675v182h609c69.333 0 104 36.333 104 109c0 6.66699 -0.666992 15 -2 25l-34 260c-9.33301 70.667 -63.666 121.334 -162.999 152.001c-22.667 6.66699 -68.667 11 -138 13
c-63.333 1.33301 -104.333 0.333008 -123 -3c-14 -2.66699 -26 -4 -36 -4c-65.333 0 -98 38.333 -98 115c0 17.333 2 36.666 6 57.999l16 86c18 96 84.333 161.667 199 197c48 14.667 128 22 240 22c112.667 0 199 -7 259 -21v-177c-95.333 18.667 -172 28 -230 28
c-200.667 0 -301 -45 -301 -135c140 0 234 -6 282 -18c155.333 -38.667 240.666 -124 255.999 -256l35 -301c11.333 -100 45.666 -150 102.999 -150h89v-182z" />
    <glyph glyph-name="uFB93" unicode="&#x6af;" horiz-adv-x="1764" arabic-form="final" 
d="M1586 1316c-1.33301 -6.66699 -2 -16 -2 -28c0 -8.66699 0.333008 -19 1 -31c-96.667 16 -195.667 24 -297 24c-124 0 -223.667 -13 -299 -39l-15 58c95.333 22 212.333 33 351 33c92 0 179 -5.66699 261 -17zM1794 0h-102c-44.667 0 -86.667 23.667 -126 71
c-40.667 -47.333 -89.667 -71 -147 -71h-820c-125.333 -0 -230.666 38.333 -315.999 115c-88.667 80 -133 182 -133 306c0 152 70 310.667 210 476l130 -124c-104 -119.333 -156 -226 -156 -320c0 -70 21.667 -131.667 65 -185c46 -57.333 103.333 -86 172 -86h782
c69.333 0 104 36.333 104 109c0 6.66699 -0.666992 15 -2 25l-34 260c-9.33301 70.667 -63.666 121.334 -162.999 152.001c-22.667 6.66699 -68.667 11 -138 13c-63.333 1.33301 -104.333 0.333008 -123 -3c-14 -2.66699 -26 -4 -36 -4c-65.333 0 -98 38.333 -98 115
c0 17.333 2 36.666 6 57.999l16 86c18 96 84.333 161.667 199 197c48 14.667 128 22 240 22c112.667 0 199 -7 259 -21v-177c-95.333 18.667 -172 28 -230 28c-200.667 0 -301 -45 -301 -135c140 0 234 -6 282 -18c155.333 -38.667 240.666 -124 255.999 -256l35 -301
c11.333 -100 45.666 -150 102.999 -150h66v-182z" />
    <glyph glyph-name="uFB94" unicode="&#x6af;" horiz-adv-x="855" arabic-form="initial" 
d="M812 1316c-1.33301 -6.66699 -1.99902 -16 -1.99902 -28c0 -8.66699 0.333008 -19 1 -31c-80 12.667 -167 19 -261 19c-138.667 0 -250.334 -14.333 -335.001 -43l-15 58c114 26 243.333 39 388 39c79.333 0 154 -4.66699 224 -14zM855.001 300
c1.33301 -11.333 2 -23.333 2 -36c0 -68 -18 -127.333 -54 -178c-40 -57.333 -92.667 -86 -158 -86h-675v182h609c69.333 0 104 36.333 104 109c0 6.66699 -0.666992 15 -2 25l-34 260c-9.33301 70.667 -63.666 121.334 -162.999 152.001
c-22.667 6.66699 -68.667 11 -138 13c-63.333 1.33301 -104.333 0.333008 -123 -3c-14 -2.66699 -26 -4 -36 -4c-65.333 0 -98 38.333 -98 115c0 17.333 2 36.666 6 57.999l16 86c18 96 84.333 161.667 199 197c48 14.667 128 22 240 22c112.667 0 199 -7 259 -21v-177
c-95.333 18.667 -172 28 -230 28c-200.667 0 -301 -45 -301 -135c140 0 234 -6 282 -18c155.333 -38.667 240.666 -124 255.999 -256z" />
    <glyph glyph-name="uFB95" unicode="&#x6af;" horiz-adv-x="1013" arabic-form="medial" 
d="M812 1316c-1.33301 -6.66699 -2 -16 -2 -28c0 -8.66699 0.333008 -19 1 -31c-96.667 16 -195.667 24 -297 24c-124 0 -223.667 -13 -299 -39l-15 58c95.333 22 212.333 33 351 33c92 0 179 -5.66699 261 -17zM1043 0h-124.999c-44.667 0 -86.667 23.667 -126 71
c-40.667 -47.333 -89.667 -71 -147 -71h-675v182h609c69.333 0 104 36.333 104 109c0 6.66699 -0.666992 15 -2 25l-34 260c-9.33301 70.667 -63.666 121.334 -162.999 152.001c-22.667 6.66699 -68.667 11 -138 13c-63.333 1.33301 -104.333 0.333008 -123 -3
c-14 -2.66699 -26 -4 -36 -4c-65.333 0 -98 38.333 -98 115c0 17.333 2 36.666 6 57.999l16 86c18 96 84.333 161.667 199 197c48 14.667 128 22 240 22c112.667 0 199 -7 259 -21v-177c-95.333 18.667 -172 28 -230 28c-200.667 0 -301 -45 -301 -135c140 0 234 -6 282 -18
c155.333 -38.667 240.666 -124 255.999 -256l35 -301c11.333 -100 45.666 -150 102.999 -150h89v-182z" />
    <glyph glyph-name="uFE94" unicode="&#x6c0;" horiz-adv-x="979" arabic-form="final" 
d="M1008 0l-162.999 0.00488281c-135.333 0 -203 118.333 -203 355c0 33.333 5.66699 83.166 17 149.499s17 116.166 17 149.499c0 42 -26.333 63 -79 63c-66.667 0 -129.334 -30.333 -188.001 -91c-54 -56 -81 -109 -81 -159c0 -44 17.333 -104.667 52 -182
c30 -68 62 -125.333 96 -172l-125 -103c-50 55.333 -95 127.666 -135 216.999c-44 98 -66 183.333 -66 256c0 96.667 58 191.667 174 285c112 90 219.333 135 322 135c52.667 0 98.667 -12.667 138 -38c45.333 -28.667 68 -68 68 -118
c0 -48.667 -4.83301 -121.834 -14.5 -219.501s-14.5 -170.834 -14.5 -219.501c0 -84 26.667 -126 80 -126h105v-182zM605.001 1082c-120 -33.333 -223.667 -75.665 -311 -126.998l-59 75l80 41c-62.667 39.333 -94 86.666 -94 141.999c0 121.333 96.667 184 290 188l5 -88
c-136 -10 -204 -41.667 -204 -95c0 -28.667 12.667 -51.334 38 -68.001c21.333 -14.667 47 -22 77 -22c16.667 0 68 14 154 42z" />
    <glyph glyph-name="uFEF2" unicode="&#x6cc;" horiz-adv-x="1262" arabic-form="final" 
d="M1292 0h-186.998c24.667 -46 37 -78.333 37 -97c0 -99.333 -66.333 -175 -199 -227c-98.667 -38.667 -206.334 -58 -323.001 -58c-314 0 -471 118.333 -471 355c0 84.667 48.333 225 145 421c82 166.667 157.333 296 226 388l152 -98
c-65.333 -96.667 -131.333 -209.334 -198 -338.001c-82 -159.333 -123 -270 -123 -332c0 -89.333 30.333 -151 91 -185c45.333 -25.333 117.666 -38 216.999 -38c57.333 0 114.333 9 171 27c73.333 23.333 110 55 110 95c0 26.667 -14 48.334 -42 65.001
c-24 14.667 -50 22 -78 22v181h472v-181z" />
    <glyph glyph-name="uFEF3" unicode="&#x6cc;" horiz-adv-x="582" arabic-form="initial" 
d="M552 419c10.667 -32.667 16 -65.998 16 -99.998c0 -80.667 -24 -152.667 -72 -216c-52 -68.667 -117.333 -103 -196 -103h-330v182h269c38.667 0 70.667 15.667 96 47c24.667 29.333 37 63.666 37 102.999c0 17.333 -2.33301 32.666 -7 45.999l-151 442l170 78
c41.333 -103.333 97.333 -263 168 -479zM596 -161.998c-4.66699 0 -10.333 -69.333 -17 -208c-49.333 11.333 -135 18 -257 20s-210.333 -2 -265 -12l-8 205c53.333 11.333 144 17 272 17c139.333 0 231 -7.33301 275 -22z" />
    <glyph glyph-name="uFEF4" unicode="&#x6cc;" horiz-adv-x="669" arabic-form="medial" 
d="M699 0l-74 0.00195312c-80 0 -143 36.333 -189 109c-58 -72.667 -122 -109 -192 -109h-274v182h213c38.667 0 70.667 15.667 96 47c24.667 29.333 37 63.666 37 102.999c0 17.333 -2.33301 32.666 -7 45.999l-151 442l170 78c39.333 -97.333 114.333 -313 225 -647
c15.333 -46 39.333 -69 72 -69h74v-182zM616 -161.998c-4.66699 0 -10.333 -69.333 -17 -208c-49.333 11.333 -135 18 -257 20s-210.333 -2 -265 -12l-8 205c53.333 11.333 144 17 272 17c139.333 0 231 -7.33301 275 -22z" />
    <glyph glyph-name="Hcircumflex" unicode="&#x622;" horiz-adv-x="752" arabic-form="final" 
d="M954 1623c-87.333 -82 -179.668 -131.999 -277.001 -149.999c-75.333 -4 -155.666 -9 -240.999 -15c-92 -6.66699 -175.333 -40.667 -250 -102l-115 130c82 76 173.667 122.333 275 139c82 4 166.333 9.33301 253 16c92 7.33301 173 41.666 243 102.999z
M780.998 0.000976562h-205c-96 0 -170.333 40.667 -223 122c-45.333 70 -68 155.667 -68 257c0 312 54.333 616.667 163 914l179 -56c-44 -107.333 -80.667 -252 -110 -434c-26.667 -164 -40 -300.667 -40 -410c0 -70 10.333 -120.667 31 -152c26 -39.333 72 -59 138 -59
h135v-182z" />
    <glyph glyph-name="uFE84" unicode="&#x623;" horiz-adv-x="621" arabic-form="final" 
d="M544 1505c-120 -33.333 -223.667 -75.665 -311 -126.998l-59 75l80 41c-62.667 39.333 -94 86.666 -94 141.999c0 121.333 96.667 184 290 188l5 -88c-136 -10 -204 -41.667 -204 -95c0 -28.667 12.667 -51.334 38 -68.001c21.333 -14.667 47 -22 77 -22
c16.667 0 68 14 154 42zM651 0.000976562h-205c-96 0 -170.333 40.667 -223 122c-45.333 70 -68 155.667 -68 257c0 312 54.333 616.667 163 914l179 -56c-44 -107.333 -80.667 -252 -110 -434c-26.667 -164 -40 -300.667 -40 -410c0 -70 10.333 -120.667 31 -152
c26 -39.333 72 -59 138 -59h135v-182z" />
    <glyph glyph-name="uFE86" unicode="&#x624;" horiz-adv-x="901" arabic-form="final" 
d="M495 1082c-120 -33.333 -223.667 -75.665 -311 -126.998l-59 75l80 41c-62.667 39.333 -94 86.666 -94 141.999c0 121.333 96.667 184 290 188l5 -88c-136 -10 -204 -41.667 -204 -95c0 -28.667 12.667 -51.334 38 -68.001c21.333 -14.667 47 -22 77 -22
c16.667 0 68 14 154 42zM931 0.000976562h-152c-33.333 -134 -106.333 -259 -219 -375l-139 128c78 66 129.333 148.333 154 247h-186c-57.333 0 -108 30.667 -152 92c-58 81.333 -87 202.333 -87 363c0 95.333 15.667 184.333 47 267c42.667 112 103.667 168 183 168
c110 0 210.667 -93.333 302 -280c79.333 -162 119 -304.667 119 -428h130v-182zM613 182.001c2 16 3.00098 32.667 3.00098 50c0 97.333 -29.333 200 -88 308c-53.333 98 -94.333 147 -123 147c-48.667 0 -73 -83 -73 -249c0 -60 9.66699 -115 29 -165
c23.333 -60.667 54.666 -91 93.999 -91h158z" />
    <glyph glyph-name="uFE88" unicode="&#x625;" horiz-adv-x="621" arabic-form="final" 
d="M651 0h-205c-96 0 -170.333 40.667 -223 122c-45.333 70 -68 155.667 -68 257c0 312 54.333 616.667 163 914l179 -56c-44 -107.333 -80.667 -252 -110 -434c-26.667 -164 -40 -300.667 -40 -410c0 -70 10.333 -120.667 31 -152c26 -39.333 72 -59 138 -59h135v-182z
M618 -462c-120 -33.333 -223.667 -75.665 -311 -126.998l-59 75l80 41c-62.667 39.333 -94 86.666 -94 141.999c0 121.333 96.667 184 290 188l5 -88c-136 -10 -204 -41.667 -204 -95c0 -28.667 12.667 -51.334 38 -68.001c21.333 -14.667 47 -22 77 -22
c16.667 0 68 14 154 42z" />
    <glyph glyph-name="uFE8A" unicode="&#x626;" horiz-adv-x="1262" arabic-form="final" 
d="M1292 0h-186.998c24.667 -46 37 -78.333 37 -97c0 -99.333 -66.333 -175 -199 -227c-98.667 -38.667 -206.334 -58 -323.001 -58c-314 0 -471 118.333 -471 355c0 84.667 48.333 225 145 421c82 166.667 157.333 296 226 388l152 -98
c-65.333 -96.667 -131.333 -209.334 -198 -338.001c-82 -159.333 -123 -270 -123 -332c0 -89.333 30.333 -151 91 -185c45.333 -25.333 117.666 -38 216.999 -38c57.333 0 114.333 9 171 27c73.333 23.333 110 55 110 95c0 26.667 -14 48.334 -42 65.001
c-24 14.667 -50 22 -78 22v181h472v-181zM704.002 983c-120 -33.333 -223.667 -75.665 -311 -126.998l-59 75l80 41c-62.667 39.333 -94 86.666 -94 141.999c0 121.333 96.667 184 290 188l5 -88c-136 -10 -204 -41.667 -204 -95c0 -28.667 12.667 -51.334 38 -68.001
c21.333 -14.667 47 -22 77 -22c16.667 0 68 14 154 42z" />
    <glyph glyph-name="uFE8B" unicode="&#x626;" horiz-adv-x="502" arabic-form="initial" 
d="M425 1082c-120 -33.333 -223.667 -75.665 -311 -126.998l-59 75l80 41c-62.667 39.333 -94 86.666 -94 141.999c0 121.333 96.667 184 290 188l5 -88c-136 -10 -204 -41.667 -204 -95c0 -28.667 12.667 -51.334 38 -68.001c21.333 -14.667 47 -22 77 -22
c16.667 0 68 14 154 42zM482 419.001c10.667 -32.667 16 -65.998 16 -99.998c0 -80.667 -24 -152.667 -72 -216c-52 -68.667 -117.333 -103 -196 -103h-260v182h199c38.667 0 70.667 15.667 96 47c24.667 29.333 37 63.666 37 102.999c0 17.333 -2.33301 32.666 -7 45.999
l-151 442l170 78c41.333 -103.333 97.333 -263 168 -479z" />
    <glyph glyph-name="uFE8C" unicode="&#x626;" horiz-adv-x="579" arabic-form="medial" 
d="M385 1082c-120 -33.333 -223.667 -75.665 -311 -126.998l-59 75l80 41c-62.667 39.333 -94 86.666 -94 141.999c0 121.333 96.667 184 290 188l5 -88c-136 -10 -204 -41.667 -204 -95c0 -28.667 12.667 -51.334 38 -68.001c21.333 -14.667 47 -22 77 -22
c16.667 0 68 14 154 42zM609 0.000976562l-64 0.00195312c-80 0 -143 36.333 -189 109c-58 -72.667 -122 -109 -192 -109h-194v182h133c38.667 0 70.667 15.667 96 47c24.667 29.333 37 63.666 37 102.999c0 17.333 -2.33301 32.666 -7 45.999l-151 442l170 78
c39.333 -97.333 114.333 -313 225 -647c15.333 -46 39.333 -69 72 -69h64v-182z" />
    <glyph glyph-name="uFE8E" unicode="&#x627;" horiz-adv-x="621" arabic-form="final" 
d="M651 0h-205c-96 0 -170.333 40.667 -223 122c-45.333 70 -68 155.667 -68 257c0 312 54.333 616.667 163 914l179 -56c-44 -107.333 -80.667 -252 -110 -434c-26.667 -164 -40 -300.667 -40 -410c0 -70 10.333 -120.667 31 -152c26 -39.333 72 -59 138 -59h135v-182z" />
    <glyph glyph-name="uFE90" unicode="&#x628;" horiz-adv-x="1846" arabic-form="final" 
d="M1876 0l-63.999 0.00488281c-80 0 -143 36.333 -189 109c-58 -72.667 -122 -109 -192 -109h-940c-104 0 -188.333 43.667 -253 131c-58.667 79.333 -88 172.666 -88 279.999c0 74.667 22.667 161.334 68 260.001c39.333 85.333 82.666 154.666 129.999 207.999l142 -117
c-40.667 -44.667 -75.667 -101.334 -105 -170.001c-31.333 -72.667 -47 -137.334 -47 -194.001c0 -62 14.667 -112.333 44 -151c32.667 -43.333 79 -65 139 -65h849c38.667 0 70.667 15.667 96 47c24.667 29.333 37 63.666 37 102.999c0 17.333 -2.33301 32.666 -7 45.999
l-151 442l170 78c39.333 -97.333 114.333 -313 225 -647c15.333 -46 39.333 -69 72 -69h64v-182zM1023 -353.995c-39.333 5.33301 -77 7.99902 -113 7.99902c-38 0 -73.667 -3 -107 -9v197c16 6.66699 51.667 10.334 107 11.001c48 0 85.667 -2 113 -6v-201z" />
    <glyph glyph-name="uFE91" unicode="&#x628;" horiz-adv-x="496" arabic-form="initial" 
d="M482 419c10.667 -32.667 16 -65.998 16 -99.998c0 -80.667 -24 -152.667 -72 -216c-52 -68.667 -117.333 -103 -196 -103h-260v182h199c38.667 0 70.667 15.667 96 47c24.667 29.333 37 63.666 37 102.999c0 17.333 -2.33301 32.666 -7 45.999l-151 442l170 78
c41.333 -103.333 97.333 -263 168 -479zM363 -352.998c-39.333 5.33301 -77 7.99902 -113 7.99902c-38 0 -73.667 -3 -107 -9v197c16 6.66699 51.667 10.334 107 11.001c48 0 85.667 -2 113 -6v-201z" />
    <glyph glyph-name="uFE92" unicode="&#x628;" horiz-adv-x="579" arabic-form="medial" 
d="M609 0l-64 0.00195312c-80 0 -143 36.333 -189 109c-58 -72.667 -122 -109 -192 -109h-194v182h133c38.667 0 70.667 15.667 96 47c24.667 29.333 37 63.666 37 102.999c0 17.333 -2.33301 32.666 -7 45.999l-151 442l170 78c39.333 -97.333 114.333 -313 225 -647
c15.333 -46 39.333 -69 72 -69h64v-182zM413 -353.998c-39.333 5.33301 -77 7.99902 -113 7.99902c-38 0 -73.667 -3 -107 -9v197c16 6.66699 51.667 10.334 107 11.001c48 0 85.667 -2 113 -6v-201z" />
    <glyph glyph-name="uFE96" unicode="&#x62a;" horiz-adv-x="1846" arabic-form="final" 
d="M1202 1001c-4.66699 0 -10.333 -69.333 -17 -208c-49.333 11.333 -135 18 -257 20s-210.333 -2 -265 -12l-8 205c53.333 11.333 144 17 272 17c139.333 0 231 -7.33301 275 -22zM1876 0l-63.999 0.00488281c-80 0 -143 36.333 -189 109c-58 -72.667 -122 -109 -192 -109
h-940c-104 0 -188.333 43.667 -253 131c-58.667 79.333 -88 172.666 -88 279.999c0 74.667 22.667 161.334 68 260.001c39.333 85.333 82.666 154.666 129.999 207.999l142 -117c-40.667 -44.667 -75.667 -101.334 -105 -170.001c-31.333 -72.667 -47 -137.334 -47 -194.001
c0 -62 14.667 -112.333 44 -151c32.667 -43.333 79 -65 139 -65h849c38.667 0 70.667 15.667 96 47c24.667 29.333 37 63.666 37 102.999c0 17.333 -2.33301 32.666 -7 45.999l-151 442l170 78c39.333 -97.333 114.333 -313 225 -647c15.333 -46 39.333 -69 72 -69h64v-182z
" />
    <glyph glyph-name="uFE97" unicode="&#x62a;" horiz-adv-x="601" arabic-form="initial" 
d="M601 1205c-4.66699 0 -10.333 -69.333 -17 -208c-49.333 11.333 -135 18 -257 20s-210.333 -2 -265 -12l-8 205c53.333 11.333 144 17 272 17c139.333 0 231 -7.33301 275 -22zM552.001 419c10.667 -32.667 16 -65.998 16 -99.998c0 -80.667 -24 -152.667 -72 -216
c-52 -68.667 -117.333 -103 -196 -103h-330v182h269c38.667 0 70.667 15.667 96 47c24.667 29.333 37 63.666 37 102.999c0 17.333 -2.33301 32.666 -7 45.999l-151 442l170 78c41.333 -103.333 97.333 -263 168 -479z" />
    <glyph glyph-name="uFE98" unicode="&#x62a;" horiz-adv-x="669" arabic-form="medial" 
d="M608 1206c-4.66699 0 -10.333 -69.333 -17 -208c-49.333 11.333 -135 18 -257 20s-210.333 -2 -265 -12l-8 205c53.333 11.333 144 17 272 17c139.333 0 231 -7.33301 275 -22zM699.001 0l-74 0.00195312c-80 0 -143 36.333 -189 109c-58 -72.667 -122 -109 -192 -109
h-274v182h213c38.667 0 70.667 15.667 96 47c24.667 29.333 37 63.666 37 102.999c0 17.333 -2.33301 32.666 -7 45.999l-151 442l170 78c39.333 -97.333 114.333 -313 225 -647c15.333 -46 39.333 -69 72 -69h74v-182z" />
    <glyph glyph-name="uFE9A" unicode="&#x62b;" horiz-adv-x="1846" arabic-form="final" 
d="M1019 1074c-39.333 5.33301 -77 7.99902 -113 7.99902c-38 0 -73.667 -3 -107 -9v197c16 6.66699 51.667 10.334 107 11.001c48 0 85.667 -2 113 -6v-201zM1192 995.999c-4.66699 0 -10.333 -69.333 -17 -208c-49.333 11.333 -135 18 -257 20s-210.333 -2 -265 -12
l-8 205c53.333 11.333 144 17 272 17c139.333 0 231 -7.33301 275 -22zM1876 -0.000976562l-63.999 0.00488281c-80 0 -143 36.333 -189 109c-58 -72.667 -122 -109 -192 -109h-940c-104 0 -188.333 43.667 -253 131c-58.667 79.333 -88 172.666 -88 279.999
c0 74.667 22.667 161.334 68 260.001c39.333 85.333 82.666 154.666 129.999 207.999l142 -117c-40.667 -44.667 -75.667 -101.334 -105 -170.001c-31.333 -72.667 -47 -137.334 -47 -194.001c0 -62 14.667 -112.333 44 -151c32.667 -43.333 79 -65 139 -65h849
c38.667 0 70.667 15.667 96 47c24.667 29.333 37 63.666 37 102.999c0 17.333 -2.33301 32.666 -7 45.999l-151 442l170 78c39.333 -97.333 114.333 -313 225 -647c15.333 -46 39.333 -69 72 -69h64v-182z" />
    <glyph glyph-name="uFE9B" unicode="&#x62b;" horiz-adv-x="584" arabic-form="initial" 
d="M407 1280c-39.333 5.33301 -77 7.99902 -113 7.99902c-38 0 -73.667 -3 -107 -9v197c16 6.66699 51.667 10.334 107 11.001c48 0 85.667 -2 113 -6v-201zM580 1202c-4.66699 0 -10.333 -69.333 -17 -208c-49.333 11.333 -135 18 -257 20s-210.333 -2 -265 -12l-8 205
c53.333 11.333 144 17 272 17c139.333 0 231 -7.33301 275 -22zM552.001 418.999c10.667 -32.667 16 -65.998 16 -99.998c0 -80.667 -24 -152.667 -72 -216c-52 -68.667 -117.333 -103 -196 -103h-330v182h269c38.667 0 70.667 15.667 96 47
c24.667 29.333 37 63.666 37 102.999c0 17.333 -2.33301 32.666 -7 45.999l-151 442l170 78c41.333 -103.333 97.333 -263 168 -479z" />
    <glyph glyph-name="uFE9C" unicode="&#x62b;" horiz-adv-x="669" arabic-form="medial" 
d="M428 1288c-39.333 5.33301 -77 7.99902 -113 7.99902c-38 0 -73.667 -3 -107 -9v197c16 6.66699 51.667 10.334 107 11.001c48 0 85.667 -2 113 -6v-201zM601 1210c-4.66699 0 -10.333 -69.333 -17 -208c-49.333 11.333 -135 18 -257 20s-210.333 -2 -265 -12l-8 205
c53.333 11.333 144 17 272 17c139.333 0 231 -7.33301 275 -22zM699.001 -0.000976562l-74 0.00195312c-80 0 -143 36.333 -189 109c-58 -72.667 -122 -109 -192 -109h-274v182h213c38.667 0 70.667 15.667 96 47c24.667 29.333 37 63.666 37 102.999
c0 17.333 -2.33301 32.666 -7 45.999l-151 442l170 78c39.333 -97.333 114.333 -313 225 -647c15.333 -46 39.333 -69 72 -69h74v-182z" />
    <glyph glyph-name="uFE9E" unicode="&#x62c;" horiz-adv-x="1167" arabic-form="final" 
d="M1197 0l-71.999 -0.00195312c-16.667 0 -37.5 9.33301 -62.5 28s-41.5 36 -49.5 52c-36.667 -53.333 -84.667 -80 -144 -80h-349c-112 0 -168 -50.667 -168 -152c0 -34 10.667 -64 32 -90s48.666 -41.667 81.999 -47l557 -89l-27 -191l-603 95
c-72.667 11.333 -132 50 -178 116c-43.333 61.333 -65 130 -65 206c0 104.667 36.333 187.334 109 248.001c68 57.333 155.333 86 262 86h318c14 0 22.667 7.33301 26 22c2.66699 12.667 0 26.334 -8 41.001l-219 400c-10.667 19.333 -22.334 29 -35.001 29
c-13.333 0 -23.666 -9.66699 -30.999 -29l-160 -420l-182 61l202 491c26 63.333 80.667 95 164 95s142 -31.667 176 -95l275 -516c28 -52.667 61.333 -79 100 -79h50v-182zM843.001 -274.002c-39.333 5.33301 -77 7.99902 -113 7.99902c-38 0 -73.667 -3 -107 -9v197
c16 6.66699 51.667 10.334 107 11.001c48 0 85.667 -2 113 -6v-201z" />
    <glyph glyph-name="uFE9F" unicode="&#x62c;" horiz-adv-x="885" arabic-form="initial" 
d="M865 294c14 -26 21 -54.668 21 -86.001c0 -55.333 -16.667 -103 -50 -143c-35.333 -43.333 -80 -65 -134 -65h-732v182h702c14 0 22.667 7.33301 26 22c2.66699 12.667 0 26.334 -8 41.001l-219 400c-10.667 19.333 -22.334 29 -35.001 29
c-13.333 0 -23.666 -9.66699 -30.999 -29l-160 -420l-182 61l202 491c26 63.333 80.667 95 164 95s142 -31.667 176 -95zM523 -350.001c-39.333 5.33301 -77 7.99902 -113 7.99902c-38 0 -73.667 -3 -107 -9v197c16 6.66699 51.667 10.334 107 11.001c48 0 85.667 -2 113 -6
v-201z" />
    <glyph glyph-name="uFEA0" unicode="&#x62c;" horiz-adv-x="1014" arabic-form="medial" 
d="M1044 0l-72 -0.000976562c-16.667 0 -37.5 9.33301 -62.5 28s-41.5 36 -49.5 52c-36 -53.333 -84 -80 -144 -80h-746v182h716c14 0 22.667 7.33301 26 22c2.66699 12.667 0 26.334 -8 41.001l-219 400c-10.667 19.333 -22.334 29 -35.001 29
c-13.333 0 -23.666 -9.66699 -30.999 -29l-160 -420l-182 61l202 491c26 63.333 80.667 95 164 95s142 -31.667 176 -95l275 -516c28 -52.667 61.333 -79 100 -79h50v-182zM603 -350.001c-39.333 5.33301 -77 7.99902 -113 7.99902c-38 0 -73.667 -3 -107 -9v197
c16 6.66699 51.667 10.334 107 11.001c48 0 85.667 -2 113 -6v-201z" />
    <glyph glyph-name="uFEA2" unicode="&#x62d;" horiz-adv-x="1167" arabic-form="final" 
d="M1197 0l-71.999 -0.00195312c-16.667 0 -37.5 9.33301 -62.5 28s-41.5 36 -49.5 52c-36.667 -53.333 -84.667 -80 -144 -80h-349c-112 0 -168 -50.667 -168 -152c0 -34 10.667 -64 32 -90s48.666 -41.667 81.999 -47l557 -89l-27 -191l-603 95
c-72.667 11.333 -132 50 -178 116c-43.333 61.333 -65 130 -65 206c0 104.667 36.333 187.334 109 248.001c68 57.333 155.333 86 262 86h318c14 0 22.667 7.33301 26 22c2.66699 12.667 0 26.334 -8 41.001l-219 400c-10.667 19.333 -22.334 29 -35.001 29
c-13.333 0 -23.666 -9.66699 -30.999 -29l-160 -420l-182 61l202 491c26 63.333 80.667 95 164 95s142 -31.667 176 -95l275 -516c28 -52.667 61.333 -79 100 -79h50v-182z" />
    <glyph glyph-name="uFEA3" unicode="&#x62d;" horiz-adv-x="885" arabic-form="initial" 
d="M865 294c14 -26 21 -54.668 21 -86.001c0 -55.333 -16.667 -103 -50 -143c-35.333 -43.333 -80 -65 -134 -65h-732v182h702c14 0 22.667 7.33301 26 22c2.66699 12.667 0 26.334 -8 41.001l-219 400c-10.667 19.333 -22.334 29 -35.001 29
c-13.333 0 -23.666 -9.66699 -30.999 -29l-160 -420l-182 61l202 491c26 63.333 80.667 95 164 95s142 -31.667 176 -95z" />
    <glyph glyph-name="uFEA4" unicode="&#x62d;" horiz-adv-x="1014" arabic-form="medial" 
d="M1044 0l-72 -0.000976562c-16.667 0 -37.5 9.33301 -62.5 28s-41.5 36 -49.5 52c-36 -53.333 -84 -80 -144 -80h-746v182h716c14 0 22.667 7.33301 26 22c2.66699 12.667 0 26.334 -8 41.001l-219 400c-10.667 19.333 -22.334 29 -35.001 29
c-13.333 0 -23.666 -9.66699 -30.999 -29l-160 -420l-182 61l202 491c26 63.333 80.667 95 164 95s142 -31.667 176 -95l275 -516c28 -52.667 61.333 -79 100 -79h50v-182z" />
    <glyph glyph-name="uFEA6" unicode="&#x62e;" horiz-adv-x="1167" arabic-form="final" 
d="M688 1000c-39.333 5.33301 -77 7.99902 -113 7.99902c-38 0 -73.667 -3 -107 -9v197c16 6.66699 51.667 10.334 107 11.001c48 0 85.667 -2 113 -6v-201zM1197 -0.000976562l-71.999 -0.00195312c-16.667 0 -37.5 9.33301 -62.5 28s-41.5 36 -49.5 52
c-36.667 -53.333 -84.667 -80 -144 -80h-349c-112 0 -168 -50.667 -168 -152c0 -34 10.667 -64 32 -90s48.666 -41.667 81.999 -47l557 -89l-27 -191l-603 95c-72.667 11.333 -132 50 -178 116c-43.333 61.333 -65 130 -65 206c0 104.667 36.333 187.334 109 248.001
c68 57.333 155.333 86 262 86h318c14 0 22.667 7.33301 26 22c2.66699 12.667 0 26.334 -8 41.001l-219 400c-10.667 19.333 -22.334 29 -35.001 29c-13.333 0 -23.666 -9.66699 -30.999 -29l-160 -420l-182 61l202 491c26 63.333 80.667 95 164 95s142 -31.667 176 -95
l275 -516c28 -52.667 61.333 -79 100 -79h50v-182z" />
    <glyph glyph-name="uFEA7" unicode="&#x62e;" horiz-adv-x="885" arabic-form="initial" 
d="M538 1000c-39.333 5.33301 -77 7.99902 -113 7.99902c-38 0 -73.667 -3 -107 -9v197c16 6.66699 51.667 10.334 107 11.001c48 0 85.667 -2 113 -6v-201zM865 293.999c14 -26 21 -54.668 21 -86.001c0 -55.333 -16.667 -103 -50 -143c-35.333 -43.333 -80 -65 -134 -65
h-732v182h702c14 0 22.667 7.33301 26 22c2.66699 12.667 0 26.334 -8 41.001l-219 400c-10.667 19.333 -22.334 29 -35.001 29c-13.333 0 -23.666 -9.66699 -30.999 -29l-160 -420l-182 61l202 491c26 63.333 80.667 95 164 95s142 -31.667 176 -95z" />
    <glyph glyph-name="uFEA8" unicode="&#x62e;" horiz-adv-x="1014" arabic-form="medial" 
d="M538 1000c-39.333 5.33301 -77 7.99902 -113 7.99902c-38 0 -73.667 -3 -107 -9v197c16 6.66699 51.667 10.334 107 11.001c48 0 85.667 -2 113 -6v-201zM1044 -0.000976562l-72 -0.000976562c-16.667 0 -37.5 9.33301 -62.5 28s-41.5 36 -49.5 52
c-36 -53.333 -84 -80 -144 -80h-746v182h716c14 0 22.667 7.33301 26 22c2.66699 12.667 0 26.334 -8 41.001l-219 400c-10.667 19.333 -22.334 29 -35.001 29c-13.333 0 -23.666 -9.66699 -30.999 -29l-160 -420l-182 61l202 491c26 63.333 80.667 95 164 95
s142 -31.667 176 -95l275 -516c28 -52.667 61.333 -79 100 -79h50v-182z" />
    <glyph glyph-name="uFEAA" unicode="&#x62f;" horiz-adv-x="952" arabic-form="final" 
d="M982 0l-132 0.000976562c-21.333 0 -48 12 -80 36c-29.333 21.333 -50.333 42.666 -63 63.999c-45.333 -66.667 -103 -100 -173 -100h-384v182h326c44 0 66 26.667 66 80c0 22 -4.33301 39 -13 51l-320 452l138 118l448 -607c46 -62.667 85.667 -94 119 -94h68v-182z" />
    <glyph glyph-name="uFEAC" unicode="&#x630;" horiz-adv-x="952" arabic-form="final" 
d="M358 1005c-39.333 5.33301 -77 7.99902 -113 7.99902c-38 0 -73.667 -3 -107 -9v197c16 6.66699 51.667 10.334 107 11.001c48 0 85.667 -2 113 -6v-201zM982 -0.000976562l-132 0.000976562c-21.333 0 -48 12 -80 36c-29.333 21.333 -50.333 42.666 -63 63.999
c-45.333 -66.667 -103 -100 -173 -100h-384v182h326c44 0 66 26.667 66 80c0 22 -4.33301 39 -13 51l-320 452l138 118l448 -607c46 -62.667 85.667 -94 119 -94h68v-182z" />
    <glyph glyph-name="uFEAE" unicode="&#x631;" horiz-adv-x="664" arabic-form="final" 
d="M694 0h-82c-34.667 -0 -68.667 15.333 -102 46c-29.333 -160 -101.333 -301.667 -216 -425l-141 114c124.667 162 187 327.333 187 496c0 77.333 -24.667 183 -74 317l-101 275l163 82l202 -578c34 -96.667 74.333 -145 121 -145h43v-182z" />
    <glyph glyph-name="uFEB0" unicode="&#x632;" horiz-adv-x="664" arabic-form="final" 
d="M328 1001c-39.333 5.33301 -77 7.99902 -113 7.99902c-38 0 -73.667 -3 -107 -9v197c16 6.66699 51.667 10.334 107 11.001c48 0 85.667 -2 113 -6v-201zM694 -0.000976562h-82c-34.667 0 -68.667 15.333 -102 46c-29.333 -160 -101.333 -301.667 -216 -425l-141 114
c124.667 162 187 327.333 187 496c0 77.333 -24.667 183 -74 317l-101 275l163 82l202 -578c34 -96.667 74.333 -145 121 -145h43v-182z" />
    <glyph glyph-name="uFEB2" unicode="&#x633;" horiz-adv-x="2255" arabic-form="final" 
d="M2285 0l-102.002 0.00292969c-64 0 -124.333 31.333 -181 94c-55.333 -62.667 -129 -94 -221 -94c-43.333 0 -87.666 9.66699 -132.999 29c-50 21.333 -85 48.666 -105 81.999c-35.333 -74 -98.333 -111 -189 -111c-66 0 -117 9 -153 27c-12 -106 -89.333 -188 -232 -246
c-121.333 -49.333 -265 -74 -431 -74c-256.667 0 -385 103.333 -385 310c0 85.333 25.333 191.333 76 318c47.333 118 100 214 158 288l141 -90c-44 -70.667 -84.667 -154 -122 -250c-42.667 -110.667 -64 -199.334 -64 -266.001c0 -90 71 -135 213 -135
c316 0 474 80.333 474 241c0 19.333 -2 38.666 -6 57.999l-129 621l174 56l88 -425c17.333 -83.333 30 -134.666 38 -153.999c27.333 -65.333 69 -98 125 -98c36 0 63.667 15.667 83 47c16.667 26 25 58 25 96c0 15.333 -1.66699 30.666 -5 45.999l-95 432l175 63l95 -432
c16 -73.333 31.333 -125.333 46 -156c30 -64 70.333 -96 121 -96c36.667 0 65.334 17 86.001 51c18 29.333 27 63.333 27 102c0 19.333 -2.66699 36.333 -8 51l-147 412l169 68l205 -538c36.667 -96.667 78.667 -145 126 -145h63v-182z" />
    <glyph glyph-name="uFEB3" unicode="&#x633;" horiz-adv-x="1248" arabic-form="initial" 
d="M1226 442c14 -35.333 20.9971 -74.3311 20.9971 -116.998c0 -89.333 -27 -165 -81 -227c-57.333 -64.667 -130 -97 -218 -97c-43.333 0 -87.666 9.66699 -132.999 29c-50 21.333 -85 48.666 -105 81.999c-35.333 -74 -101.666 -111.333 -198.999 -112
c-122.667 -0.666992 -208.667 36.333 -258 111c-37.333 -74 -103.666 -111 -198.999 -111h-84v182h74c29.333 0 56.166 14 80.499 42s36.5 57 36.5 87c0 4 -0.666992 9.33301 -2 16l-98 475l174 56l88 -425c17.333 -82.667 30 -133.667 38 -153
c28 -65.333 69.667 -98 125 -98c36 0 63.667 15.667 83 47c16.667 26 25 58 25 96c0 15.333 -1.66699 30.666 -5 45.999l-95 432l175 63l95 -432c16 -73.333 31.333 -125.333 46 -156c30 -64 70.333 -96 121 -96c36.667 0 65.334 17 86.001 51c18 29.333 27 63.333 27 102
c0 19.333 -2.66699 36.333 -8 51l-147 412l169 68z" />
    <glyph glyph-name="uFEB4" unicode="&#x633;" horiz-adv-x="1442" arabic-form="medial" 
d="M1472 0l-122.003 0.000976562c-64 0 -124.333 31.333 -181 94c-55.333 -62.667 -129 -94 -221 -94c-43.333 0 -87.666 9.66699 -132.999 29c-50 21.333 -85 48.666 -105 81.999c-15.333 -31.333 -43.666 -58 -84.999 -80c-38.667 -20.667 -76.667 -31 -114 -31
c-122.667 0 -208.667 37 -258 111c-37.333 -74 -103.666 -111 -198.999 -111h-84v182h74c29.333 0 56.166 14 80.499 42s36.5 57 36.5 87c0 4 -0.666992 9.33301 -2 16l-98 475l174 56l88 -425c17.333 -83.333 30 -134.666 38 -153.999c27.333 -65.333 69 -98 125 -98
c36 0 63.667 15.667 83 47c16.667 26 25 58 25 96c0 15.333 -1.66699 30.666 -5 45.999l-95 432l175 63l95 -432c16 -73.333 31.333 -125.333 46 -156c30 -64 70.333 -96 121 -96c36.667 0 65.334 17 86.001 51c18 29.333 27 63.333 27 102c0 19.333 -2.66699 36.333 -8 51
l-147 412l169 68l205 -538c36.667 -96.667 78.667 -145 126 -145h83v-182z" />
    <glyph glyph-name="uFEB6" unicode="&#x634;" horiz-adv-x="2255" arabic-form="final" 
d="M1478 1289c-39.333 5.33301 -77 7.99902 -113 7.99902c-38 0 -73.667 -3 -107 -9v197c16 6.66699 51.667 10.334 107 11.001c48 0 85.667 -2 113 -6v-201zM1651 1211c-4.66699 0 -10.333 -69.333 -17 -208c-49.333 11.333 -135 18 -257 20s-210.333 -2 -265 -12l-8 205
c53.333 11.333 144 17 272 17c139.333 0 231 -7.33301 275 -22zM2285 -0.000976562l-102.002 0.00292969c-64 0 -124.333 31.333 -181 94c-55.333 -62.667 -129 -94 -221 -94c-43.333 0 -87.666 9.66699 -132.999 29c-50 21.333 -85 48.666 -105 81.999
c-35.333 -74 -98.333 -111 -189 -111c-66 0 -117 9 -153 27c-12 -106 -89.333 -188 -232 -246c-121.333 -49.333 -265 -74 -431 -74c-256.667 0 -385 103.333 -385 310c0 85.333 25.333 191.333 76 318c47.333 118 100 214 158 288l141 -90
c-44 -70.667 -84.667 -154 -122 -250c-42.667 -110.667 -64 -199.334 -64 -266.001c0 -90 71 -135 213 -135c316 0 474 80.333 474 241c0 19.333 -2 38.666 -6 57.999l-129 621l174 56l88 -425c17.333 -83.333 30 -134.666 38 -153.999c27.333 -65.333 69 -98 125 -98
c36 0 63.667 15.667 83 47c16.667 26 25 58 25 96c0 15.333 -1.66699 30.666 -5 45.999l-95 432l175 63l95 -432c16 -73.333 31.333 -125.333 46 -156c30 -64 70.333 -96 121 -96c36.667 0 65.334 17 86.001 51c18 29.333 27 63.333 27 102c0 19.333 -2.66699 36.333 -8 51
l-147 412l169 68l205 -538c36.667 -96.667 78.667 -145 126 -145h63v-182z" />
    <glyph glyph-name="uFEB7" unicode="&#x634;" horiz-adv-x="1248" arabic-form="initial" 
d="M648 1285c-39.333 5.33301 -77 7.99902 -113 7.99902c-38 0 -73.667 -3 -107 -9v197c16 6.66699 51.667 10.334 107 11.001c48 0 85.667 -2 113 -6v-201zM821 1207c-4.66699 0 -10.333 -69.333 -17 -208c-49.333 11.333 -135 18 -257 20s-210.333 -2 -265 -12l-8 205
c53.333 11.333 144 17 272 17c139.333 0 231 -7.33301 275 -22zM1226 441.999c14 -35.333 20.9971 -74.3311 20.9971 -116.998c0 -89.333 -27 -165 -81 -227c-57.333 -64.667 -130 -97 -218 -97c-43.333 0 -87.666 9.66699 -132.999 29c-50 21.333 -85 48.666 -105 81.999
c-35.333 -74 -101.666 -111.333 -198.999 -112c-122.667 -0.666992 -208.667 36.333 -258 111c-37.333 -74 -103.666 -111 -198.999 -111h-84v182h74c29.333 0 56.166 14 80.499 42s36.5 57 36.5 87c0 4 -0.666992 9.33301 -2 16l-98 475l174 56l88 -425
c17.333 -82.667 30 -133.667 38 -153c28 -65.333 69.667 -98 125 -98c36 0 63.667 15.667 83 47c16.667 26 25 58 25 96c0 15.333 -1.66699 30.666 -5 45.999l-95 432l175 63l95 -432c16 -73.333 31.333 -125.333 46 -156c30 -64 70.333 -96 121 -96
c36.667 0 65.334 17 86.001 51c18 29.333 27 63.333 27 102c0 19.333 -2.66699 36.333 -8 51l-147 412l169 68z" />
    <glyph glyph-name="uFEB8" unicode="&#x634;" horiz-adv-x="1442" arabic-form="medial" 
d="M648 1285c-39.333 5.33301 -77 7.99902 -113 7.99902c-38 0 -73.667 -3 -107 -9v197c16 6.66699 51.667 10.334 107 11.001c48 0 85.667 -2 113 -6v-201zM821 1207c-4.66699 0 -10.333 -69.333 -17 -208c-49.333 11.333 -135 18 -257 20s-210.333 -2 -265 -12l-8 205
c53.333 11.333 144 17 272 17c139.333 0 231 -7.33301 275 -22zM1472 -0.000976562l-122.003 0.000976562c-64 -0 -124.333 31.333 -181 94c-55.333 -62.667 -129 -94 -221 -94c-43.333 0 -87.666 9.66699 -132.999 29c-50 21.333 -85 48.666 -105 81.999
c-15.333 -31.333 -43.666 -58 -84.999 -80c-38.667 -20.667 -76.667 -31 -114 -31c-122.667 0 -208.667 37 -258 111c-37.333 -74 -103.666 -111 -198.999 -111h-84v182h74c29.333 0 56.166 14 80.499 42s36.5 57 36.5 87c0 4 -0.666992 9.33301 -2 16l-98 475l174 56
l88 -425c17.333 -83.333 30 -134.666 38 -153.999c27.333 -65.333 69 -98 125 -98c36 0 63.667 15.667 83 47c16.667 26 25 58 25 96c0 15.333 -1.66699 30.666 -5 45.999l-95 432l175 63l95 -432c16 -73.333 31.333 -125.333 46 -156c30 -64 70.333 -96 121 -96
c36.667 0 65.334 17 86.001 51c18 29.333 27 63.333 27 102c0 19.333 -2.66699 36.333 -8 51l-147 412l169 68l205 -538c36.667 -96.667 78.667 -145 126 -145h83v-182z" />
    <glyph glyph-name="uFEBA" unicode="&#x635;" horiz-adv-x="2180" arabic-form="final" 
d="M2211 0l-91.001 0.00195312c-38.667 0 -77.334 12.333 -116.001 37c-40.667 26 -67.667 56.333 -81 91c-41.333 -86.667 -189 -130 -443 -130c-110.667 0 -203.667 9.66699 -279 29c-12 -106 -89.333 -188 -232 -246c-121.333 -49.333 -265 -74 -431 -74
c-256.667 0 -385 103.333 -385 310c0 85.333 25.333 191.333 76 318c47.333 118 100 214 158 288l141 -90c-44 -70.667 -84.667 -154 -122 -250c-42.667 -110.667 -64 -199.334 -64 -266.001c0 -90 71 -135 213 -135c144.667 0 250.334 15 317.001 45
c100.667 45.333 151 130 151 254c0 200.667 -43 407.667 -129 621c48.667 16 102.667 41.333 162 76c42.667 -80 77.667 -177.333 105 -292c26.667 -110.667 40.334 -213.334 41.001 -308.001c24 119.333 79.667 243.333 167 372c103.333 152 207 228 311 228
c70.667 0 135.5 -36 194.5 -108s97.167 -151 114.5 -237c7.33301 -43.333 21.333 -121.333 42 -234c16 -78.667 52.333 -118 109 -118h71v-181zM1832 330.002c0 71.333 -15.334 147 -46.001 227c-35.333 92.667 -77.666 139 -126.999 139
c-57.333 0 -116.333 -61.333 -177 -184c-52 -105.333 -86.667 -212 -104 -320c66 -6.66699 117.667 -10 155 -10c199.333 0 299 49.333 299 148z" />
    <glyph glyph-name="uFEBB" unicode="&#x635;" horiz-adv-x="1210" arabic-form="initial" 
d="M1184 533c17.333 -68.667 26.001 -130.999 26.001 -186.999c0 -76.667 -16.667 -139.334 -50 -188.001c-74.667 -109.333 -230.334 -164 -467.001 -164c-147.333 0 -271.333 22 -372 66c-15.333 -18 -47 -33 -95 -45c-40 -10 -76.333 -15 -109 -15h-147v182h147
c41.333 0 68.666 11.333 81.999 34c10 16.667 15 48.334 15 95.001c0 120 -42 283.667 -126 491c48.667 16 102.667 41.333 162 76c42.667 -80 77.667 -177.333 105 -292c26.667 -110.667 40.334 -213.334 41.001 -308.001c24 119.333 79.667 243.333 167 372
c103.333 152 207 228 311 228c76.667 0 145 -39.667 205 -119c48 -64 83 -139.333 105 -226zM1026 330.001c0 71.333 -15.334 147 -46.001 227c-35.333 92.667 -77.666 139 -126.999 139c-57.333 0 -116.333 -61.333 -177 -184c-52 -105.333 -86.667 -212 -104 -320
c66 -6.66699 117.667 -10 155 -10c199.333 0 299 49.333 299 148z" />
    <glyph glyph-name="uFEBC" unicode="&#x635;" horiz-adv-x="1395" arabic-form="medial" 
d="M1425 0h-110.999c-38.667 -0 -77.334 12.333 -116.001 37c-40.667 26 -67.667 56.333 -81 91c-24 -50.667 -92.667 -87.667 -206 -111c-77.333 -16 -159.666 -24 -246.999 -24c-168.667 0 -283 22.333 -343 67c-15.333 -18 -47 -33 -95 -45c-40 -10 -76.333 -15 -109 -15
h-147v182h147c41.333 0 68.666 11.333 81.999 34c10 16.667 15 48.334 15 95.001c0 120 -42 283.667 -126 491c48.667 16 102.667 41.333 162 76c42.667 -80 77.667 -177.333 105 -292c26.667 -110.667 40.334 -213.334 41.001 -308.001c24 119.333 79.667 243.333 167 372
c103.333 152 207 228 311 228c70.667 0 135.5 -36 194.5 -108s97.167 -151 114.5 -237c7.33301 -43.333 21.666 -121.333 42.999 -234c16 -78.667 52 -118 108 -118h91v-181zM1026 330c0 71.333 -15.334 147 -46.001 227c-35.333 92.667 -77.666 139 -126.999 139
c-57.333 0 -116.333 -61.333 -177 -184c-52 -105.333 -86.667 -212 -104 -320c66 -6.66699 117.667 -10 155 -10c199.333 0 299 49.333 299 148z" />
    <glyph glyph-name="uFEBE" unicode="&#x636;" horiz-adv-x="2180" arabic-form="final" 
d="M1753 996c-39.333 5.33301 -77 7.99902 -113 7.99902c-38 0 -73.667 -3 -107 -9v197c16 6.66699 51.667 10.334 107 11.001c48 0 85.667 -2 113 -6v-201zM2211 -0.000976562l-91.001 0.00195312c-38.667 0 -77.334 12.333 -116.001 37c-40.667 26 -67.667 56.333 -81 91
c-41.333 -86.667 -189 -130 -443 -130c-110.667 0 -203.667 9.66699 -279 29c-12 -106 -89.333 -188 -232 -246c-121.333 -49.333 -265 -74 -431 -74c-256.667 0 -385 103.333 -385 310c0 85.333 25.333 191.333 76 318c47.333 118 100 214 158 288l141 -90
c-44 -70.667 -84.667 -154 -122 -250c-42.667 -110.667 -64 -199.334 -64 -266.001c0 -90 71 -135 213 -135c144.667 0 250.334 15 317.001 45c100.667 45.333 151 130 151 254c0 200.667 -43 407.667 -129 621c48.667 16 102.667 41.333 162 76
c42.667 -80 77.667 -177.333 105 -292c26.667 -110.667 40.334 -213.334 41.001 -308.001c24 119.333 79.667 243.333 167 372c103.333 152 207 228 311 228c70.667 0 135.5 -36 194.5 -108s97.167 -151 114.5 -237c7.33301 -43.333 21.333 -121.333 42 -234
c16 -78.667 52.333 -118 109 -118h71v-181zM1832 330.001c0 71.333 -15.334 147 -46.001 227c-35.333 92.667 -77.666 139 -126.999 139c-57.333 0 -116.333 -61.333 -177 -184c-52 -105.333 -86.667 -212 -104 -320c66 -6.66699 117.667 -10 155 -10
c199.333 0 299 49.333 299 148z" />
    <glyph glyph-name="uFEBF" unicode="&#x636;" horiz-adv-x="1210" arabic-form="initial" 
d="M933 1000c-39.333 5.33301 -77 7.99902 -113 7.99902c-38 0 -73.667 -3 -107 -9v197c16 6.66699 51.667 10.334 107 11.001c48 0 85.667 -2 113 -6v-201zM1184 532.999c17.333 -68.667 26.001 -130.999 26.001 -186.999c0 -76.667 -16.667 -139.334 -50 -188.001
c-74.667 -109.333 -230.334 -164 -467.001 -164c-147.333 0 -271.333 22 -372 66c-15.333 -18 -47 -33 -95 -45c-40 -10 -76.333 -15 -109 -15h-147v182h147c41.333 0 68.666 11.333 81.999 34c10 16.667 15 48.334 15 95.001c0 120 -42 283.667 -126 491
c48.667 16 102.667 41.333 162 76c42.667 -80 77.667 -177.333 105 -292c26.667 -110.667 40.334 -213.334 41.001 -308.001c24 119.333 79.667 243.333 167 372c103.333 152 207 228 311 228c76.667 0 145 -39.667 205 -119c48 -64 83 -139.333 105 -226zM1026 330
c0 71.333 -15.334 147 -46.001 227c-35.333 92.667 -77.666 139 -126.999 139c-57.333 0 -116.333 -61.333 -177 -184c-52 -105.333 -86.667 -212 -104 -320c66 -6.66699 117.667 -10 155 -10c199.333 0 299 49.333 299 148z" />
    <glyph glyph-name="uFEC0" unicode="&#x636;" horiz-adv-x="1395" arabic-form="medial" 
d="M933 1000c-39.333 5.33301 -77 7.99902 -113 7.99902c-38 0 -73.667 -3 -107 -9v197c16 6.66699 51.667 10.334 107 11.001c48 0 85.667 -2 113 -6v-201zM1425 -0.000976562h-110.999c-38.667 0 -77.334 12.333 -116.001 37c-40.667 26 -67.667 56.333 -81 91
c-24 -50.667 -92.667 -87.667 -206 -111c-77.333 -16 -159.666 -24 -246.999 -24c-168.667 0 -283 22.333 -343 67c-15.333 -18 -47 -33 -95 -45c-40 -10 -76.333 -15 -109 -15h-147v182h147c41.333 0 68.666 11.333 81.999 34c10 16.667 15 48.334 15 95.001
c0 120 -42 283.667 -126 491c48.667 16 102.667 41.333 162 76c42.667 -80 77.667 -177.333 105 -292c26.667 -110.667 40.334 -213.334 41.001 -308.001c24 119.333 79.667 243.333 167 372c103.333 152 207 228 311 228c70.667 0 135.5 -36 194.5 -108
s97.167 -151 114.5 -237c7.33301 -43.333 21.666 -121.333 42.999 -234c16 -78.667 52 -118 108 -118h91v-181zM1026 329.999c0 71.333 -15.334 147 -46.001 227c-35.333 92.667 -77.666 139 -126.999 139c-57.333 0 -116.333 -61.333 -177 -184
c-52 -105.333 -86.667 -212 -104 -320c66 -6.66699 117.667 -10 155 -10c199.333 0 299 49.333 299 148z" />
    <glyph glyph-name="uFEC2" unicode="&#x637;" horiz-adv-x="1256" arabic-form="final" 
d="M1286 0l-81 0.000976562c-35.333 0 -73.333 14.667 -114 44c-38 27.333 -66.333 57.666 -85 90.999c-80.667 -90 -195.334 -135 -344.001 -135h-423v181c0 130.667 -17.333 305.667 -52 525c-32.667 208 -70 386 -112 534l172 53c31.333 -92.667 61 -215 89 -367
c27.333 -146 44.333 -271 51 -375c31.333 72.667 79.333 144 144 214c72.667 78.667 135.334 118 188.001 118c100.667 0 188.667 -62 264 -186c64 -105.333 99.333 -213.333 106 -324c8 -128 53.333 -192 136 -192h61v-181zM908 356.001c0 54.667 -16.667 121 -50 199
c-39.333 91.333 -82 137 -128 137c-56.667 0 -116 -72 -178 -216c-50.667 -117.333 -81 -215.333 -91 -294h218c152.667 0 229 58 229 174z" />
    <glyph glyph-name="uFEC3" unicode="&#x637;" horiz-adv-x="1049" arabic-form="initial" 
d="M1049 373c7.33301 -114.667 -34.6689 -207.333 -126.002 -278c-82 -63.333 -182.333 -95 -301 -95h-651v181h148c38.667 0 62 15.667 70 47c2.66699 10 4.33398 47 5.00098 111c1.33301 102 -17.667 255 -57 459c-31.333 164.667 -65.333 312 -102 442l172 53
c31.333 -92.667 61 -215 89 -367c27.333 -146 44.333 -271 51 -375c31.333 72.667 79.333 144 144 214c72.667 78.667 135.334 118 188.001 118c100 0 187.667 -62 263 -186c64 -105.333 99.667 -213.333 107 -324zM867.998 356.001c0 54.667 -16.667 121 -50 199
c-39.333 91.333 -82 137 -128 137c-56.667 0 -116 -72 -178 -216c-50.667 -117.333 -81 -215.333 -91 -294h218c152.667 0 229 58 229 174z" />
    <glyph glyph-name="uFEC4" unicode="&#x637;" horiz-adv-x="1216" arabic-form="medial" 
d="M1246 0l-81.001 0.000976562c-35.333 0 -73.333 14.667 -114 44c-38 27.333 -66.333 57.666 -85 90.999c-80.667 -90 -195.334 -135 -344.001 -135h-651v181h148c38.667 0 62 15.667 70 47c2.66699 10 4.33398 47 5.00098 111c1.33301 102 -17.667 255 -57 459
c-31.333 164.667 -65.333 312 -102 442l172 53c31.333 -92.667 61 -215 89 -367c27.333 -146 44.333 -271 51 -375c31.333 72.667 79.333 144 144 214c72.667 78.667 135.334 118 188.001 118c100.667 0 188.667 -62 264 -186c64 -105.333 99.333 -213.333 106 -324
c8 -128 53.333 -192 136 -192h61v-181zM867.999 356.001c0 54.667 -16.667 121 -50 199c-39.333 91.333 -82 137 -128 137c-56.667 0 -116 -72 -178 -216c-50.667 -117.333 -81 -215.333 -91 -294h218c152.667 0 229 58 229 174z" />
    <glyph glyph-name="uFEC6" unicode="&#x638;" horiz-adv-x="1256" arabic-form="final" 
d="M763 1007c-39.333 5.33301 -77 7.99902 -113 7.99902c-38 0 -73.667 -3 -107 -9v197c16 6.66699 51.667 10.334 107 11.001c48 0 85.667 -2 113 -6v-201zM1286 -0.000976562l-81 0.000976562c-35.333 0 -73.333 14.667 -114 44c-38 27.333 -66.333 57.666 -85 90.999
c-80.667 -90 -195.334 -135 -344.001 -135h-423v181c0 130.667 -17.333 305.667 -52 525c-32.667 208 -70 386 -112 534l172 53c31.333 -92.667 61 -215 89 -367c27.333 -146 44.333 -271 51 -375c31.333 72.667 79.333 144 144 214c72.667 78.667 135.334 118 188.001 118
c100.667 0 188.667 -62 264 -186c64 -105.333 99.333 -213.333 106 -324c8 -128 53.333 -192 136 -192h61v-181zM908 356c0 54.667 -16.667 121 -50 199c-39.333 91.333 -82 137 -128 137c-56.667 0 -116 -72 -178 -216c-50.667 -117.333 -81 -215.333 -91 -294h218
c152.667 0 229 58 229 174z" />
    <glyph glyph-name="uFEC7" unicode="&#x638;" horiz-adv-x="1052" arabic-form="initial" 
d="M733 1002c-39.333 5.33301 -77 7.99902 -113 7.99902c-38 0 -73.667 -3 -107 -9v197c16 6.66699 51.667 10.334 107 11.001c48 0 85.667 -2 113 -6v-201zM1049 372.999c7.33301 -114.667 -34.6689 -207.333 -126.002 -278c-82 -63.333 -182.333 -95 -301 -95h-651v181
h148c38.667 0 62 15.667 70 47c2.66699 10 4.33398 47 5.00098 111c1.33301 102 -17.667 255 -57 459c-31.333 164.667 -65.333 312 -102 442l172 53c31.333 -92.667 61 -215 89 -367c27.333 -146 44.333 -271 51 -375c31.333 72.667 79.333 144 144 214
c72.667 78.667 135.334 118 188.001 118c100 0 187.667 -62 263 -186c64 -105.333 99.667 -213.333 107 -324zM867.998 356c0 54.667 -16.667 121 -50 199c-39.333 91.333 -82 137 -128 137c-56.667 0 -116 -72 -178 -216c-50.667 -117.333 -81 -215.333 -91 -294h218
c152.667 0 229 58 229 174z" />
    <glyph glyph-name="uFEC8" unicode="&#x638;" horiz-adv-x="1216" arabic-form="medial" 
d="M753 1007c-39.333 5.33301 -77 7.99902 -113 7.99902c-38 0 -73.667 -3 -107 -9v197c16 6.66699 51.667 10.334 107 11.001c48 0 85.667 -2 113 -6v-201zM1246 -0.000976562l-81.001 0.000976562c-35.333 0 -73.333 14.667 -114 44c-38 27.333 -66.333 57.666 -85 90.999
c-80.667 -90 -195.334 -135 -344.001 -135h-651v181h148c38.667 0 62 15.667 70 47c2.66699 10 4.33398 47 5.00098 111c1.33301 102 -17.667 255 -57 459c-31.333 164.667 -65.333 312 -102 442l172 53c31.333 -92.667 61 -215 89 -367c27.333 -146 44.333 -271 51 -375
c31.333 72.667 79.333 144 144 214c72.667 78.667 135.334 118 188.001 118c100.667 0 188.667 -62 264 -186c64 -105.333 99.333 -213.333 106 -324c8 -128 53.333 -192 136 -192h61v-181zM867.999 356c0 54.667 -16.667 121 -50 199c-39.333 91.333 -82 137 -128 137
c-56.667 0 -116 -72 -178 -216c-50.667 -117.333 -81 -215.333 -91 -294h218c152.667 0 229 58 229 174z" />
    <glyph glyph-name="uFECA" unicode="&#x639;" horiz-adv-x="1280" arabic-form="final" 
d="M1310 0h-584.001v149c0 82 23 168.667 69 260c44 88.667 98.333 160.667 163 216c-22.667 22.667 -69.667 42 -141 58c-59.333 13.333 -111 20 -155 20c-70 0 -132.667 -17.667 -188 -53c-64.667 -41.333 -97 -96.666 -97 -165.999c0 -86 35 -159.667 105 -221
c62.667 -54.667 127.667 -82 195 -82v-181h-111c-51.333 0 -94.666 -11.667 -129.999 -35c-41.333 -27.333 -62 -65.333 -62 -114c0 -42 18 -77.667 54 -107c31.333 -26 69.333 -42.333 114 -49l504 -78l-27 -180l-528 79c-94 14 -172.667 52.333 -236 115
c-68 66.667 -102 146 -102 238c0 122 69.667 212 209 270c-54 34 -97 83.667 -129 149c-30.667 62 -46 126.333 -46 193c0 125.333 50 225 150 299c88.667 66 196 99 322 99c89.333 0 190.333 -19 303 -57c115.333 -38.667 206.333 -85.334 273 -140.001l-69 -154
c-76.667 -18.667 -135 -62 -175 -130c-36 -60.667 -54 -132.667 -54 -216h373v-182z" />
    <glyph glyph-name="uFECB" unicode="&#x639;" horiz-adv-x="860" arabic-form="initial" 
d="M860 820l-37 -173l-241 48c-20 4 -42.333 6 -67 6c-68.667 0 -129.667 -17.333 -183 -52c-62 -40 -93 -92.667 -93 -158c0 -84.667 39 -158.334 117 -221.001c73.333 -58.667 153.333 -88 240 -88h244v-182h-870v182h224c-86.667 99.333 -130 203.333 -130 312
c0 102.667 46.333 195.334 139 278.001c88 78 179 117 273 117c16 0 31 -1.33301 45 -4z" />
    <glyph glyph-name="uFECC" unicode="&#x639;" horiz-adv-x="1170" arabic-form="medial" 
d="M1200 0h-604v149c0 82 23 168.667 69 260c44 88.667 98.333 160.667 163 216c-22.667 22.667 -69.667 42 -141 58c-59.333 13.333 -111 20 -155 20c-70 0 -132.667 -17.667 -188 -53c-64.667 -41.333 -97 -96.666 -97 -165.999c0 -86 35 -159.667 105 -221
c62.667 -54.667 127.667 -82 195 -82v-181h-576v182h212c-84 78 -126 177.667 -126 299c0 125.333 50 225 150 299c88.667 66 196 99 322 99c89.333 0 190.333 -19 303 -57c115.333 -38.667 206.333 -85.334 273 -140.001l-69 -154c-76.667 -18.667 -135 -62 -175 -130
c-36 -60.667 -54 -132.667 -54 -216h393v-182z" />
    <glyph glyph-name="uFECE" unicode="&#x63a;" horiz-adv-x="1280" arabic-form="final" 
d="M758 1006c-39.333 5.33301 -77 7.99902 -113 7.99902c-38 0 -73.667 -3 -107 -9v197c16 6.66699 51.667 10.334 107 11.001c48 0 85.667 -2 113 -6v-201zM1310 -0.000976562h-584.001v149c0 82 23 168.667 69 260c44 88.667 98.333 160.667 163 216
c-22.667 22.667 -69.667 42 -141 58c-59.333 13.333 -111 20 -155 20c-70 0 -132.667 -17.667 -188 -53c-64.667 -41.333 -97 -96.666 -97 -165.999c0 -86 35 -159.667 105 -221c62.667 -54.667 127.667 -82 195 -82v-181h-111c-51.333 -0 -94.666 -11.667 -129.999 -35
c-41.333 -27.333 -62 -65.333 -62 -114c0 -42 18 -77.667 54 -107c31.333 -26 69.333 -42.333 114 -49l504 -78l-27 -180l-528 79c-94 14 -172.667 52.333 -236 115c-68 66.667 -102 146 -102 238c0 122 69.667 212 209 270c-54 34 -97 83.667 -129 149
c-30.667 62 -46 126.333 -46 193c0 125.333 50 225 150 299c88.667 66 196 99 322 99c89.333 0 190.333 -19 303 -57c115.333 -38.667 206.333 -85.334 273 -140.001l-69 -154c-76.667 -18.667 -135 -62 -175 -130c-36 -60.667 -54 -132.667 -54 -216h373v-182z" />
    <glyph glyph-name="uFECF" unicode="&#x63a;" horiz-adv-x="860" arabic-form="initial" 
d="M544 998c-39.333 5.33301 -77 7.99902 -113 7.99902c-38 0 -73.667 -3 -107 -9v197c16 6.66699 51.667 10.334 107 11.001c48 0 85.667 -2 113 -6v-201zM860 819.999l-37 -173l-241 48c-20 4 -42.333 6 -67 6c-68.667 0 -129.667 -17.333 -183 -52
c-62 -40 -93 -92.667 -93 -158c0 -84.667 39 -158.334 117 -221.001c73.333 -58.667 153.333 -88 240 -88h244v-182h-870v182h224c-86.667 99.333 -130 203.333 -130 312c0 102.667 46.333 195.334 139 278.001c88 78 179 117 273 117c16 0 31 -1.33301 45 -4z" />
    <glyph glyph-name="uFED0" unicode="&#x63a;" horiz-adv-x="1170" arabic-form="medial" 
d="M668 1006c-39.333 5.33301 -77 7.99902 -113 7.99902c-38 0 -73.667 -3 -107 -9v197c16 6.66699 51.667 10.334 107 11.001c48 0 85.667 -2 113 -6v-201zM1200 -0.000976562h-604v149c0 82 23 168.667 69 260c44 88.667 98.333 160.667 163 216
c-22.667 22.667 -69.667 42 -141 58c-59.333 13.333 -111 20 -155 20c-70 0 -132.667 -17.667 -188 -53c-64.667 -41.333 -97 -96.666 -97 -165.999c0 -86 35 -159.667 105 -221c62.667 -54.667 127.667 -82 195 -82v-181h-576v182h212c-84 78 -126 177.667 -126 299
c0 125.333 50 225 150 299c88.667 66 196 99 322 99c89.333 0 190.333 -19 303 -57c115.333 -38.667 206.333 -85.334 273 -140.001l-69 -154c-76.667 -18.667 -135 -62 -175 -130c-36 -60.667 -54 -132.667 -54 -216h393v-182z" />
    <glyph glyph-name="uFED2" unicode="&#x641;" horiz-adv-x="1805" arabic-form="final" 
d="M1380 1005c-39.333 5.33301 -77 7.99902 -113 7.99902c-38 0 -73.667 -3 -107 -9v197c16 6.66699 51.667 10.334 107 11.001c48 0 85.667 -2 113 -6v-201zM1835 -0.000976562h-484c-52.667 0 -89 7.33301 -109 22c-21.333 -14.667 -65.666 -22 -132.999 -22h-618
c-104 0 -188.333 43.667 -253 131c-58.667 79.333 -88 172.666 -88 279.999c0 75.333 21 160 63 254c36.667 82 78.334 149.333 125.001 202l141 -105c-36.667 -40.667 -69.334 -98 -98.001 -172s-43 -138 -43 -192c0 -62 14.667 -112.333 44 -151
c32.667 -43.333 79 -65 139 -65h598c-25.333 52 -38 133 -38 243c0 108.667 16.333 206.667 49 294c41.333 110.667 100 166 176 166c91.333 0 183.666 -75.333 276.999 -226c81.333 -131.333 122 -232.666 122 -303.999c0 -87.333 -23.667 -145 -71 -173h201v-182z
M1522 357.999c0 32.667 -25.332 96.333 -75.999 191c-52.667 98.667 -91.334 148 -116.001 148c-48.667 0 -73 -84 -73 -252c0 -122.667 28.333 -210 85 -262c44 12 85 34.5 123 67.5s57 68.833 57 107.5z" />
    </font>
</defs>
</svg>
