<?xml version="1.0" standalone="no"?>
<!DOCTYPE svg PUBLIC "-//W3C//DTD SVG 1.1//EN" "http://www.w3.org/Graphics/SVG/1.1/DTD/svg11.dtd" >
<svg>
<metadata>
Created by FontForge 20090914 at Wed Oct 19 00:47:54 2011
 By www-data
(c) by Abolfazl Seilsepour - +98 912 591 3420  -  seilsepor@yahoo.com
</metadata>
<defs>
<font id="FarsiArabicStyle" horiz-adv-x="0" >
  <font-face 
    font-family="Far.Arabic Style"
    font-weight="400"
    font-stretch="normal"
    units-per-em="2048"
    panose-1="0 0 4 0 0 0 0 0 0 0"
    ascent="1638"
    descent="-410"
    bbox="-212 -1112 1627 1946"
    underline-thickness="80"
    underline-position="-560"
    unicode-range="U+0020-U+FEFC"
  />
<missing-glyph horiz-adv-x="1024" 
d="M128 0v1391h768v-1391h-768zM256 128h512v1135h-512v-1135z" />
    <glyph glyph-name="uE818" unicode="&#x651;&#x64b;" 
d="M427 1833c-16.667 -5.33301 -87.667 -37.333 -213 -96c-101.333 -47.333 -168 -71 -200 -71h-100c240 111.333 377.333 167 412 167h101zM465 1722c-16.667 -5.33301 -87.667 -37.333 -213 -96c-101.333 -47.333 -168 -71 -200 -71h-100c240 111.333 377.333 167 412 167
h101zM503 1477c-25.333 -6 -85.001 -32.668 -179.001 -80.001c-87.333 -44 -138 -66 -152 -66c-24.667 0 -52.334 20 -83.001 60l-67 89h59c14.667 0 34.834 -10.667 60.501 -32s40.834 -32 45.501 -32c32 0 48 13 48 39c0 44 -21.333 79 -64 105h61
c16 0 35.333 -14.167 58 -42.5s35.667 -42.5 39 -42.5c30 0 45 16 45 48c0 34.667 -17.333 61.334 -52 80.001c32.667 2.66699 51.667 4 57 4c25.333 0 48.333 -17.333 69 -52c26.667 -44.667 45 -70.667 55 -78z" />
    <glyph glyph-name="uFC5E" unicode="&#x651;&#x64c;" arabic-form="isolated" 
d="M496 1494c-25.333 -6 -85.001 -32.668 -179.001 -80.001c-87.333 -44 -138 -66 -152 -66c-24.667 0 -52.334 20 -83.001 60l-67 89h59c14.667 0 34.834 -10.667 60.501 -32s40.834 -32 45.501 -32c32 0 48 13 48 39c0 44 -21.333 79 -64 105h61
c16 0 35.333 -14.167 58 -42.5s35.667 -42.5 39 -42.5c30 0 45 16 45 48c0 34.667 -17.333 61.334 -52 80.001c32.667 2.66699 51.667 4 57 4c25.333 0 48.333 -17.333 69 -52c26.667 -44.667 45 -70.667 55 -78zM395.999 1758c0 -30 -24.666 -55.9971 -73.999 -77.9971
l58 -52h-44c-22 0 -45 8.33301 -69 25l-97.5 -61.5c-32.333 -20.333 -58.166 -30.5 -77.499 -30.5c-12.667 0 -25.334 3.33301 -38.001 10v83c-30.667 -13.333 -63.334 -20 -98.001 -20h-66c67.333 29.333 145.333 67.666 234 114.999v-96c22 8 52 21.333 90 40
c-42.667 37.333 -64 67.666 -64 90.999c0 27.333 20.667 57.666 62 90.999c7.33301 6 39.333 29.667 96 71c0 -16 14.667 -47.667 44 -95s44 -78.333 44 -93zM327 1768c0 37.333 -18.667 55.999 -56 55.999c-34 0 -51 -13.667 -51 -41c0 -10 18 -29.667 54 -59
c35.333 20.667 53 35.334 53 44.001z" />
    <glyph glyph-name="uFC5F" unicode="&#x651;&#x64d;" arabic-form="isolated" 
d="M451 1652c-25.333 -6 -85.001 -32.668 -179.001 -80.001c-87.333 -44 -138 -66 -152 -66c-24.667 0 -52.334 20 -83.001 60l-67 89h59c14.667 0 34.834 -10.667 60.501 -32s40.834 -32 45.501 -32c32 0 48 13 48 39c0 44 -21.333 79 -64 105h61
c16 0 35.333 -14.167 58 -42.5s35.667 -42.5 39 -42.5c30 0 45 16 45 48c0 34.667 -17.333 61.334 -52 80.001c32.667 2.66699 51.667 4 57 4c25.333 0 48.333 -17.333 69 -52c26.667 -44.667 45 -70.667 55 -78zM539.999 1574c-16.667 -5.33301 -87.667 -37.333 -213 -96
c-101.333 -47.333 -168 -71 -200 -71h-100c240 111.333 377.333 167 412 167h101zM577.999 1463c-16.667 -5.33301 -87.667 -37.333 -213 -96c-101.333 -47.333 -168 -71 -200 -71h-100c240 111.333 377.333 167 412 167h101z" />
    <glyph glyph-name="uFC60" unicode="&#x651;&#x64e;" arabic-form="isolated" 
d="M515 1466c-25.333 -6 -85.001 -32.668 -179.001 -80.001c-87.333 -44 -138 -66 -152 -66c-24.667 0 -52.334 20 -83.001 60l-67 89h59c14.667 0 34.834 -10.667 60.501 -32s40.834 -32 45.501 -32c32 0 48 13 48 39c0 44 -21.333 79 -64 105h61
c16 0 35.333 -14.167 58 -42.5s35.667 -42.5 39 -42.5c30 0 45 16 45 48c0 34.667 -17.333 61.334 -52 80.001c32.667 2.66699 51.667 4 57 4c25.333 0 48.333 -17.333 69 -52c26.667 -44.667 45 -70.667 55 -78zM483.999 1714c-16.667 -5.33301 -87.667 -37.333 -213 -96
c-101.333 -47.333 -168 -71 -200 -71h-100c240 111.333 377.333 167 412 167h101z" />
    <glyph glyph-name="uFC61" unicode="&#x651;&#x64f;" arabic-form="isolated" 
d="M521 1461c-25.333 -6 -85.001 -32.666 -179.001 -79.999c-87.333 -44 -138 -66 -152 -66c-24.667 0 -52.334 20 -83.001 60l-67 89h59c14.667 0 34.834 -10.667 60.501 -32s40.834 -32 45.501 -32c32 0 48 13 48 39c0 44 -21.333 79 -64 105h61
c16 0 35.333 -14.167 58 -42.5s35.667 -42.5 39 -42.5c30 0 45 16 45 48c0 26 -11.333 47.667 -34 65l-63 44l-106 -54c-38.667 -19.333 -76.334 -29 -113.001 -29h-92c72 27.333 157.667 68.333 257 123c-41.333 37.333 -62 67.333 -62 90
c0 27.333 20.667 57.666 62 90.999c7.33301 6 39.333 29.667 96 71c0 -16 14.667 -47.667 44 -95s44 -78.333 44 -93c0 -30 -24.667 -56 -74 -78l58 -52c18.667 -1.33301 38.334 -19.333 59.001 -54c25.333 -42.667 43 -67.667 53 -75zM355.999 1730
c0 37.333 -18.667 55.999 -56 55.999c-34 0 -51 -13.667 -51 -41c0 -10 18 -29.667 54 -59c35.333 20.667 53 35.334 53 44.001z" />
    <glyph glyph-name="uFC62" unicode="&#x651;&#x650;" arabic-form="isolated" 
d="M433 1523c-25.333 -6 -85.001 -32.668 -179.001 -80.001c-87.333 -44 -138 -66 -152 -66c-24.667 0 -52.334 20 -83.001 60l-67 89h59c14.667 0 34.834 -10.667 60.501 -32s40.834 -32 45.501 -32c32 0 48 13 48 39c0 44 -21.333 79 -64 105h61
c16 0 35.333 -14.167 58 -42.5s35.667 -42.5 39 -42.5c30 0 45 16 45 48c0 34.667 -17.333 61.334 -52 80.001c32.667 2.66699 51.667 4 57 4c25.333 0 48.333 -17.333 69 -52c26.667 -44.667 45 -70.667 55 -78zM521.999 1445c-16.667 -5.33301 -87.667 -37.333 -213 -96
c-101.333 -47.333 -168 -71 -200 -71h-100c240 111.333 377.333 167 412 167h101z" />
    <glyph glyph-name="uFDF2" unicode="&#xfedf;&#xfee0;&#xfeea;" horiz-adv-x="1598" arabic-form="isolated" 
d="M646 186c52 5.33301 98.332 11.665 138.999 18.998c60 10.667 95.667 30 107 58c0 92.667 -8.66699 243 -26 451l58 69c28 33.333 50.333 54 67 62c8 -12.667 16.333 -120.667 25 -324l16 -361h17c18 4 67 12.667 147 26c10.667 2.66699 39.334 8 86.001 16
c44 7.33301 73 23.333 87 48c0 60 -8.33301 215 -25 465c48.667 72.667 91 117.667 127 135c6.66699 -130 17.667 -314.333 33 -553c0 -10 -15 -47 -45 -111c-35.333 -73.333 -70.333 -120 -105 -140c-13.333 -8 -66 -23.333 -158 -46
c-33.333 -9.33301 -125.333 -29.666 -276 -60.999l-9 10c-6 54.667 -9.33301 109.334 -10 164.001c-42 -50 -127 -87.667 -255 -113v186zM646.999 -0.000976562l-181.001 -27.002l-11 5c-3.33301 17.333 -3.66602 52.666 -0.999023 105.999
c2 44.667 -1.66699 79.334 -11 104.001c-10 -17.333 -19 -29.666 -27 -36.999c-109.333 -27.333 -179.333 -41 -210 -41c-50.667 0 -86 11 -106 33s-30 58.667 -30 110c0 18.667 18 60.667 54 126c38.667 70 84.667 120 138 150c51.333 28.667 118 43 200 43
c21.333 0 37 -2.33301 47 -7c15.333 -73.333 29 -201.666 41 -384.999l6 -4l91 10v-186zM442.998 335.997l-2 57c-10 5.33301 -21 8 -33 8c-40.667 0 -84 -7 -130 -21c-56.667 -17.333 -92 -39 -106 -65c4 -18 28 -27 72 -27c64 0 126.667 12.333 188 37z" />
    <glyph glyph-name="uFEF5" unicode="&#xfedf;&#xfe82;" horiz-adv-x="1469" arabic-form="isolated" 
d="M662 941c-55.333 0 -97.001 -21.333 -125.001 -64l-16 -9l-7 2c7.33301 60 41.666 112.333 102.999 157c57.333 42.667 117.333 64 180 64c20.667 0 51.334 -1.66699 92.001 -5s71.334 -5 92.001 -5c22.667 0 50.167 6.33301 82.5 19s55.833 26.667 70.5 42l8 3l3 -9
c-2.66699 -26.667 -16 -54.667 -40 -84c-62 -76 -161 -114 -297 -114c-16 0 -40.333 0.5 -73 1.5s-57 1.5 -73 1.5zM874.999 404c1.33301 -19.333 -15.667 -53.5 -51 -102.5s-62 -73.5 -80 -73.5c0 160 -9.66699 321 -29 483c31.333 40 74 86.667 128 140
c6 -76 14.333 -187.333 25 -334zM1415 510c0 -28 -24.665 -81.668 -73.998 -161.001l-47 -79c-19.333 -30 -39 -53 -59 -69l-75 -60c-62.667 -50 -185.334 -102 -368.001 -156c-178.667 -52.667 -313.667 -79 -405 -79c-46.667 0 -111.667 8 -195 24
c-94.667 18 -140.334 36 -137.001 54l874 270c155.333 48 258.333 91.667 309 131c23.333 18 35 45.333 35 82c0 39.333 -2.66699 98.5 -8 177.5s-8 138.167 -8 177.5l58 72c28.667 36 51 57 67 63l21 -224c8 -85.333 12 -159.666 12 -222.999z" />
    <glyph glyph-name="uFEF6" unicode="&#xfee0;&#xfe82;" horiz-adv-x="1573" arabic-form="final" 
d="M675 918c-55.333 0 -97.001 -21.333 -125.001 -64l-16 -9l-7 2c7.33301 60 41.666 112.333 102.999 157c57.333 42.667 117.333 64 180 64c20.667 0 51.334 -1.66699 92.001 -5s71.334 -5 92.001 -5c22.667 0 50.167 6.33301 82.5 19s55.833 26.667 70.5 42l8 3l3 -9
c-2.66699 -26.667 -16 -54.667 -40 -84c-62 -76 -161 -114 -297 -114c-16 0 -40.333 0.5 -73 1.5s-57 1.5 -73 1.5zM887.999 381c1.33301 -19.333 -15.667 -53.5 -51 -102.5s-62 -73.5 -80 -73.5c0 160 -9.66699 321 -29 483c31.333 40 74 86.667 128 140
c6 -76 14.333 -187.333 25 -334zM1597 0c-54 -8 -143.33 -22.3301 -267.997 -42.9971l-12 10c0 42.667 -4.16699 106.167 -12.5 190.5s-12.5 147.833 -12.5 190.5c-41.333 -72.667 -69 -118.334 -83 -137.001c-16.667 -22 -52.334 -60.333 -107.001 -115
c-48.667 -48.667 -161.334 -97.334 -338.001 -146.001c-162 -44.667 -283.333 -67 -364 -67c-46.667 0 -111.667 8 -195 24c-94.667 18 -140.334 36 -137.001 54l369 112c66.667 19.333 185.667 55.666 357 108.999c231.333 74 364.666 134.667 399.999 182l55 74
c23.333 31.333 32.333 124.333 27 279c30.667 39.333 73 85 127 137l39 -680l12 -9c30.667 4 78.334 11 143.001 21v-186z" />
    <glyph glyph-name="uFEF7" unicode="&#xfedf;&#xfe84;" horiz-adv-x="1473" arabic-form="isolated" 
d="M875 404c1.33301 -19.333 -15.667 -53.5 -51 -102.5s-62 -73.5 -80 -73.5c0 160 -9.66699 321 -29 483c31.333 40 74 86.667 128 140c6 -76 14.333 -187.333 25 -334zM1415 510c0 -28 -24.665 -81.668 -73.998 -161.001l-47 -79c-19.333 -30 -39 -53 -59 -69l-75 -60
c-62.667 -50 -185.334 -102 -368.001 -156c-178.667 -52.667 -313.667 -79 -405 -79c-46.667 0 -111.667 8 -195 24c-94.667 18 -140.334 36 -137.001 54l874 270c155.333 48 258.333 91.667 309 131c23.333 18 35 45.333 35 82c0 39.333 -2.66699 98.5 -8 177.5
s-8 138.167 -8 177.5l58 72c28.667 36 51 57 67 63l21 -224c8 -85.333 12 -159.666 12 -222.999zM917.002 1124c0 -22 -51.332 -63.833 -153.999 -125.5s-168.667 -92.5 -198 -92.5c-16.667 0 -26.334 4.66699 -29.001 14c21.333 16 52 40.333 92 73l4 11
c-52 23.333 -78 47 -78 71c0 37.333 34.333 77.666 103 120.999c64 40 115.667 60 155 60l7 -6l-38 -42c-17.333 -19.333 -26 -35.666 -26 -48.999c0 -20.667 29.333 -31 88 -31c5.33301 0 25.333 3.33301 60 10c9.33301 -3.33301 14 -8 14 -14z" />
    <glyph glyph-name="uFEF8" unicode="&#xfee0;&#xfe84;" horiz-adv-x="1569" arabic-form="final" 
d="M892 381c1.33301 -19.333 -15.667 -53.5 -51 -102.5s-62 -73.5 -80 -73.5c0 160 -9.66699 321 -29 483c31.333 40 74 86.667 128 140c6 -76 14.333 -187.333 25 -334zM1601 0c-54 -8 -143.33 -22.3301 -267.997 -42.9971l-12 10c0 42.667 -4.16699 106.167 -12.5 190.5
s-12.5 147.833 -12.5 190.5c-41.333 -72.667 -69 -118.334 -83 -137.001c-16.667 -22 -52.334 -60.333 -107.001 -115c-48.667 -48.667 -161.334 -97.334 -338.001 -146.001c-162 -44.667 -283.333 -67 -364 -67c-46.667 0 -111.667 8 -195 24
c-94.667 18 -140.334 36 -137.001 54l369 112c66.667 19.333 185.667 55.666 357 108.999c231.333 74 364.666 134.667 399.999 182l55 74c23.333 31.333 32.333 124.333 27 279c30.667 39.333 73 85 127 137l39 -680l12 -9c30.667 4 78.334 11 143.001 21v-186z
M934.003 1101c0 -22 -51.332 -63.833 -153.999 -125.5s-168.667 -92.5 -198 -92.5c-16.667 0 -26.334 4.66699 -29.001 14c21.333 16 52 40.333 92 73l4 11c-52 23.333 -78 47 -78 71c0 37.333 34.333 77.666 103 120.999c64 40 115.667 60 155 60l7 -6l-38 -42
c-17.333 -19.333 -26 -35.666 -26 -48.999c0 -20.667 29.333 -31 88 -31c5.33301 0 25.333 3.33301 60 10c9.33301 -3.33301 14 -8 14 -14z" />
    <glyph glyph-name="uFEF9" unicode="&#xfedf;&#xfe88;" horiz-adv-x="1477" arabic-form="isolated" 
d="M875 404c1.33301 -19.333 -15.667 -53.5 -51 -102.5s-62 -73.5 -80 -73.5c0 160 -9.66699 321 -29 483c31.333 40 74 86.667 128 140c6 -76 14.333 -187.333 25 -334zM1415 510c0 -28 -24.665 -81.668 -73.998 -161.001l-47 -79c-19.333 -30 -39 -53 -59 -69l-75 -60
c-62.667 -50 -185.334 -102 -368.001 -156c-178.667 -52.667 -313.667 -79 -405 -79c-46.667 0 -111.667 8 -195 24c-94.667 18 -140.334 36 -137.001 54l874 270c155.333 48 258.333 91.667 309 131c23.333 18 35 45.333 35 82c0 39.333 -2.66699 98.5 -8 177.5
s-8 138.167 -8 177.5l58 72c28.667 36 51 57 67 63l21 -224c8 -85.333 12 -159.666 12 -222.999zM982.002 -346.001c0 -22.667 -51.166 -64.667 -153.499 -126s-168.5 -92 -198.5 -92c-16.667 0 -26.334 4.66699 -29.001 14c21.333 16 52 40.333 92 73l4 11
c-52 23.333 -78 47 -78 71c0 37.333 34.333 77.666 103 120.999c64 40 115.667 60 155 60l7 -6c-42.667 -47.333 -64 -77.666 -64 -90.999c0 -20.667 21.333 -31 64 -31c-4 0 24 3.33301 84 10c9.33301 -3.33301 14 -8 14 -14z" />
    <glyph glyph-name="uFEFA" unicode="&#xfee0;&#xfe88;" horiz-adv-x="1577" arabic-form="final" 
d="M892 381c1.33301 -19.333 -15.667 -53.5 -51 -102.5s-62 -73.5 -80 -73.5c0 160 -9.66699 321 -29 483c31.333 40 74 86.667 128 140c6 -76 14.333 -187.333 25 -334zM1601 0c-54 -8 -143.33 -22.3301 -267.997 -42.9971l-12 10c0 42.667 -4.16699 106.167 -12.5 190.5
s-12.5 147.833 -12.5 190.5c-41.333 -72.667 -69 -118.334 -83 -137.001c-16.667 -22 -52.334 -60.333 -107.001 -115c-48.667 -48.667 -161.334 -97.334 -338.001 -146.001c-162 -44.667 -283.333 -67 -364 -67c-46.667 0 -111.667 8 -195 24
c-94.667 18 -140.334 36 -137.001 54l369 112c66.667 19.333 185.667 55.666 357 108.999c231.333 74 364.666 134.667 399.999 182l55 74c23.333 31.333 32.333 124.333 27 279c30.667 39.333 73 85 127 137l39 -680l12 -9c30.667 4 78.334 11 143.001 21v-186z
M1009 -363.997c0 -22.667 -51.166 -64.667 -153.499 -126s-168.5 -92 -198.5 -92c-16.667 0 -26.334 4.66699 -29.001 14c21.333 16 52 40.333 92 73l4 11c-52 23.333 -78 47 -78 71c0 37.333 34.333 77.666 103 120.999c64 40 115.667 60 155 60l7 -6
c-42.667 -47.333 -64 -77.666 -64 -90.999c0 -20.667 21.333 -31 64 -31c-4 0 24 3.33301 84 10c9.33301 -3.33301 14 -8 14 -14z" />
    <glyph glyph-name="uFEFB" unicode="&#xfedf;&#xfe8e;" horiz-adv-x="1461" arabic-form="isolated" 
d="M875 404c1.33301 -19.333 -15.667 -53.5 -51 -102.5s-62 -73.5 -80 -73.5c0 160 -9.66699 321 -29 483c31.333 40 74 86.667 128 140c6 -76 14.333 -187.333 25 -334zM1415 510c0 -28 -24.665 -81.668 -73.998 -161.001l-47 -79c-19.333 -30 -39 -53 -59 -69l-75 -60
c-62.667 -50 -185.334 -102 -368.001 -156c-178.667 -52.667 -313.667 -79 -405 -79c-46.667 0 -111.667 8 -195 24c-94.667 18 -140.334 36 -137.001 54l874 270c155.333 48 258.333 91.667 309 131c23.333 18 35 45.333 35 82c0 39.333 -2.66699 98.5 -8 177.5
s-8 138.167 -8 177.5l58 72c28.667 36 51 57 67 63l21 -224c8 -85.333 12 -159.666 12 -222.999z" />
    <glyph glyph-name="uFEFC" unicode="&#xfee0;&#xfe8e;" horiz-adv-x="1573" arabic-form="final" 
d="M888 381c1.33301 -19.333 -15.667 -53.5 -51 -102.5s-62 -73.5 -80 -73.5c0 160 -9.66699 321 -29 483c31.333 40 74 86.667 128 140c6 -76 14.333 -187.333 25 -334zM1597 0c-54 -8 -143.33 -22.3301 -267.997 -42.9971l-12 10c0 42.667 -4.16699 106.167 -12.5 190.5
s-12.5 147.833 -12.5 190.5c-41.333 -72.667 -69 -118.334 -83 -137.001c-16.667 -22 -52.334 -60.333 -107.001 -115c-48.667 -48.667 -161.334 -97.334 -338.001 -146.001c-162 -44.667 -283.333 -67 -364 -67c-46.667 0 -111.667 8 -195 24
c-94.667 18 -140.334 36 -137.001 54l369 112c66.667 19.333 185.667 55.666 357 108.999c231.333 74 364.666 134.667 399.999 182l55 74c23.333 31.333 32.333 124.333 27 279c30.667 39.333 73 85 127 137l39 -680l12 -9c30.667 4 78.334 11 143.001 21v-186z" />
    <glyph glyph-name="u0652_u064E.liga" unicode="&#x652;&#x64e;" horiz-adv-x="1" 
d="M129 985c-2 -12.667 -3 -68.999 -3 -168.999c0 -80.667 -6.66699 -131.334 -20 -152.001l-42 -65c0 190 7.66699 296.667 23 320z" />
    <glyph glyph-name="u0652_u064B.liga" unicode="&#x652;&#x64b;" horiz-adv-x="1" 
d="M451 806c-2 -23.333 -15.668 -67.668 -41.001 -133.001c-13.333 -9.33301 -52.666 -18.666 -117.999 -27.999c-56 -8 -99 -12 -129 -12c-8 0 -17.333 1 -28 3v8c0 24.667 11.667 64.334 35 119.001c18 7.33301 63 16.666 135 27.999c64 10 111 15 141 15h5z" />
    <glyph glyph-name="u0652_u064D.liga" unicode="&#x652;&#x64d;" horiz-adv-x="1" 
d="M555 -666c-2 -23.333 -15.668 -67.668 -41.001 -133.001c-13.333 -9.33301 -52.666 -18.666 -117.999 -27.999c-56 -8 -99 -12 -129 -12c-8 0 -17.333 1 -28 3v8c0 24.667 11.667 64.334 35 119.001c18 7.33301 63 16.666 135 27.999c64 10 111 15 141 15h5z" />
    <glyph glyph-name="u0622" unicode="&#x622;" horiz-adv-x="477" arabic-form="isolated" 
d="M85 941c-34.667 0 -61.6641 -8 -80.9971 -24l-60 -49l-8 9c15.333 62.667 50 114 104 154s113.667 60 179 60c17.333 0 43.333 -1.66699 78 -5s60.667 -5 78 -5c49.333 0 91 9.33301 125 28l65 36l2 -8c0 -21.333 -13.667 -49.333 -41 -84
c-60.667 -76.667 -158.334 -115 -293.001 -115c-16.667 0 -41.334 0.5 -74.001 1.5s-57.334 1.5 -74.001 1.5zM291.003 176c1.33301 -19.333 -15.832 -53.5 -51.499 -102.5s-62.834 -73.5 -81.501 -73.5l-37 720c30.667 39.333 73 85 127 137
c0.666992 -2.66699 15 -229.667 43 -681z" />
    <glyph glyph-name="u0623" unicode="&#x623;" horiz-adv-x="480" arabic-form="isolated" 
d="M359 176c1.33301 -20 -15.5 -54.333 -50.5 -103s-61.833 -73 -80.5 -73c0 92.667 -11.333 323.667 -34 693c30.667 39.333 73 85 127 137zM452 1114c0 -22 -51.332 -63.833 -153.999 -125.5s-168.667 -92.5 -198 -92.5c-16.667 0 -26.334 4.66699 -29.001 14
c21.333 16 52 40.333 92 73l4 11c-52 23.333 -78 47 -78 71c0 37.333 34.333 77.666 103 120.999c64 40 115.667 60 155 60l7 -6l-38 -42c-17.333 -19.333 -26 -35.666 -26 -48.999c0 -20.667 29.333 -31 88 -31c5.33301 0 25.333 3.33301 60 10
c9.33301 -3.33301 14 -8 14 -14z" />
    <glyph glyph-name="u0624" unicode="&#x624;" horiz-adv-x="933" arabic-form="isolated" 
d="M293 -112c-40 0 -96.3301 7 -168.997 21c-83.333 16 -134 33.333 -152 52c32 20 165 59.333 399 118c212.667 53.333 338 104.333 376 153c-2.66699 13.333 -12.334 25.666 -29.001 36.999c-30.667 -14.667 -60.334 -22 -89.001 -22c-68 0 -102 27 -102 81
c0 47.333 20.333 101 61 161c43.333 64 87.333 96 132 96c84 0 126 -72 126 -216c0 -35.333 -8.66699 -86.666 -26 -153.999c-18.667 -72 -37 -120.333 -55 -145c-42.667 -58.667 -129.334 -104.667 -260.001 -138c-115.333 -29.333 -186 -44 -212 -44zM818.003 1002
c0 -22 -51.332 -63.833 -153.999 -125.5s-168.667 -92.5 -198 -92.5c-16.667 0 -26.334 4.66699 -29.001 14c21.333 16 52 40.333 92 73l4 11c-52 23.333 -78 47 -78 71c0 37.333 34.333 77.666 103 120.999c64 40 115.667 60 155 60l7 -6l-38 -42
c-17.333 -19.333 -26 -35.666 -26 -48.999c0 -20.667 29.333 -31 88 -31c5.33301 0 25.333 3.33301 60 10c9.33301 -3.33301 14 -8 14 -14z" />
    <glyph glyph-name="u0625" unicode="&#x625;" horiz-adv-x="509" arabic-form="isolated" 
d="M359 176c1.33301 -20 -15.5 -54.333 -50.5 -103s-61.833 -73 -80.5 -73c0 92.667 -11.333 323.667 -34 693c30.667 39.333 73 85 127 137zM512 -281c0 -22.667 -51.166 -64.667 -153.499 -126s-168.5 -92 -198.5 -92c-16.667 0 -26.334 4.66699 -29.001 14
c21.333 16 52 40.333 92 73l4 11c-52 23.333 -78 47 -78 71c0 37.333 34.333 77.666 103 120.999c64 40 115.667 60 155 60l7 -6c-42.667 -47.333 -64 -77.666 -64 -90.999c0 -20.667 21.333 -31 64 -31c-4 0 24 3.33301 84 10c9.33301 -3.33301 14 -8 14 -14z" />
    <glyph glyph-name="u0626" unicode="&#x626;" horiz-adv-x="1029" arabic-form="isolated" 
d="M961 312c0 -30.667 -14.335 -78.1699 -43.002 -142.503s-54.667 -105.166 -78 -122.499c-194 -141.333 -365.333 -212 -514 -212c-183.333 0 -275 86.333 -275 259c0 54.667 13.667 114.334 41 179.001c28.667 68.667 63.334 118.334 104.001 149.001l11 -7l3 -11
c-46.667 -54.667 -70 -112 -70 -172c0 -56.667 21.333 -102.667 64 -138c40 -34 88.667 -51 146 -51c54 0 123.167 11.333 207.5 34s149.833 47.667 196.5 75v12l-99 33c-47.333 16 -73.666 26.333 -78.999 31c-11.333 10 -17 33.333 -17 70
c0 55.333 44.5 132.333 133.5 231s160.5 148 214.5 148c8.66699 0 15 -4.33301 19 -13c-4 -18.667 -18.667 -53.334 -44 -104.001c-26 -52.667 -45 -83 -57 -91c-68.667 -9.33301 -103 -24.666 -103 -45.999l2 -9l8 -10c152.667 -40 229 -70.667 229 -92zM653.998 763.997
c0 -22 -51.332 -63.833 -153.999 -125.5s-168.667 -92.5 -198 -92.5c-16.667 0 -26.334 4.66699 -29.001 14c21.333 16 52 40.333 92 73l4 11c-52 23.333 -78 47 -78 71c0 37.333 34.333 77.666 103 120.999c64 40 115.667 60 155 60l7 -6l-38 -42
c-17.333 -19.333 -26 -35.666 -26 -48.999c0 -20.667 29.333 -31 88 -31c5.33301 0 25.333 3.33301 60 10c9.33301 -3.33301 14 -8 14 -14z" />
    <glyph glyph-name="u0627" unicode="&#x627;" horiz-adv-x="340" arabic-form="isolated" 
d="M277 176c1.33301 -20 -15.333 -54.333 -50 -103s-61 -73 -79 -73c0 147.333 -12.333 387.333 -37 720c30.667 39.333 73 85 127 137z" />
    <glyph glyph-name="u0628" unicode="&#x628;" horiz-adv-x="1441" arabic-form="isolated" 
d="M1387 318c-17.333 -55.333 -62.6689 -135 -136.002 -239c-58.667 -83.333 -116 -156.666 -172 -219.999l-3 10c2.66699 27.333 16.334 63.666 41.001 108.999c27.333 50 43.333 86.667 48 110l-19 3c-9.33301 0 -65 -14 -167 -42c-110 -30 -175.333 -47 -196 -51
c-133.333 -24.667 -282.666 -37 -447.999 -37c-82.667 0 -149.667 16 -201 48c-61.333 38.667 -92 97 -92 175c0 24.667 8.66699 61 26 109c19.333 54 37.333 79.333 54 76l4 -10c-5.33301 -11.333 -8 -23.333 -8 -36c0 -102 106.667 -153 320 -153
c206.667 0 449.667 36 729 108c67.333 17.333 137.333 38.333 210 63l8 -9zM814.997 -264c-16.667 -48.667 -41.333 -98.668 -74 -150.001l-3 -1c-77.333 18.667 -118.666 38.334 -123.999 59.001c4 16.667 14.667 43.667 32 81c18.667 40.667 32.667 64.667 42 72
c12 0 34 -8 66 -24c29.333 -14.667 49.666 -27 60.999 -37z" />
    <glyph glyph-name="u0629" unicode="&#x629;" horiz-adv-x="573" arabic-form="isolated" 
d="M492 929c-3.33301 -23.333 -17.667 -68.666 -43 -135.999c-16 -9.33301 -55.333 -18.333 -118 -27c-56 -8 -98.333 -12 -127 -12c-8 0 -17.667 1 -29 3c0 48 12.333 91 37 129c18 7.33301 63.667 16.666 137 27.999c70 10 117.667 15 143 15zM508.999 336
c-30.667 -104.667 -65.333 -182.999 -104 -234.999c-56 -75.333 -129.667 -113 -221 -113c-81.333 0 -122 48.333 -122 145c0 44.667 30 116.5 90 215.5s110 156.5 150 172.5c22 8.66699 44.667 13 68 13c52 0 88.667 -21.333 110 -64
c13.333 -26.667 23 -71.334 29 -134.001zM400 228.001c3.33301 8 5 14.999 5 20.999c0 26.667 -14.333 51.334 -43 74.001s-57 34 -85 34c-50 0 -95 -34.333 -135 -103c0 -56 37.667 -84 113 -84c60 0 108.333 19.333 145 58z" />
    <glyph glyph-name="u062A" unicode="&#x62a;" horiz-adv-x="1437" arabic-form="isolated" 
d="M891 660c-2 -24 -16.333 -69.001 -43 -135.001c-16 -8.66699 -56.333 -17.667 -121 -27c-62 -9.33301 -104.667 -13.666 -128 -12.999l-24 1c0 53.333 11.667 97 35 131c18 8 63.667 17.333 137 28c68.667 10 116.667 15 144 15zM1381 331.999
c-17.333 -55.333 -62.6689 -135 -136.002 -239c-58.667 -83.333 -116 -156.666 -172 -219.999l-3 10c2.66699 27.333 16.334 63.666 41.001 108.999c27.333 50 43.333 86.667 48 110l-19 3c-9.33301 0 -65 -14 -167 -42c-110 -30 -175.333 -47 -196 -51
c-133.333 -24.667 -282.666 -37 -447.999 -37c-82.667 0 -149.667 16 -201 48c-61.333 38.667 -92 97 -92 175c0 24.667 8.66699 61 26 109c19.333 54 37.333 79.333 54 76l4 -10c-5.33301 -11.333 -8 -23.333 -8 -36c0 -102 106.667 -153 320 -153
c206.667 0 449.667 36 729 108c67.333 17.333 137.333 38.333 210 63l8 -9z" />
    <glyph glyph-name="u062B" unicode="&#x62b;" horiz-adv-x="1449" arabic-form="isolated" 
d="M948 704c-2 -19.333 -12.334 -46.668 -31.001 -82.001c-19.333 -38 -36.333 -59.667 -51 -65c-63.333 52 -108.333 78 -135 78c-36 0 -84 -37 -144 -111l-5 9l-1 13c13.333 46.667 44.333 99.334 93 158.001c54.667 66 102.334 99 143.001 99c47.333 0 91 -33 131 -99z
M1391 328.998c-17.333 -55.333 -62.6689 -135 -136.002 -239c-58.667 -83.333 -116 -156.666 -172 -219.999l-3 10c2.66699 27.333 16.334 63.666 41.001 108.999c27.333 50 43.333 86.667 48 110l-19 3c-9.33301 0 -65 -14 -167 -42c-110 -30 -175.333 -47 -196 -51
c-133.333 -24.667 -282.666 -37 -447.999 -37c-82.667 0 -149.667 16 -201 48c-61.333 38.667 -92 97 -92 175c0 24.667 8.66699 61 26 109c19.333 54 37.333 79.333 54 76l4 -10c-5.33301 -11.333 -8 -23.333 -8 -36c0 -102 106.667 -153 320 -153
c206.667 0 449.667 36 729 108c67.333 17.333 137.333 38.333 210 63l8 -9z" />
    <glyph glyph-name="u062C" unicode="&#x62c;" horiz-adv-x="969" arabic-form="isolated" 
d="M1003 -329c-129.333 -122.667 -209.331 -192.998 -239.998 -210.998c-68.667 -40.667 -169.667 -61 -303 -61c-113.333 0 -207.333 21.667 -282 65c-91.333 53.333 -137 132.666 -137 237.999c0 125.333 33.333 240.333 100 345c34 53.333 112.667 146.666 236 279.999
c-58.667 49.333 -88 102 -88 158c0 15.333 18 52.333 54 111c43.333 70 94.666 127.333 153.999 172c70 52.667 141 79 213 79c68 0 102 -31 102 -93c0 -83.333 -56.333 -179.333 -169 -288l-314 -300c-112.667 -111.333 -169 -218.333 -169 -321
c0 -142 142.333 -213 427 -213c131.333 0 260.333 23.333 387 70l19 7c6 0.666992 10.667 -1 14 -5s4.66602 -9 3.99902 -15zM685.002 624.002c-16.667 24.667 -45.333 36.999 -86 36.999c-21.333 0 -53.333 -7 -96 -21c-48.667 -16 -73 -31.333 -73 -46
c0 -19.333 13.167 -39.666 39.5 -60.999s49.5 -32 69.5 -32c30 0 61.333 10 94 30c36.667 22.667 55 48 55 76zM701.003 52.001c-18.667 -52.667 -44 -101.666 -76 -146.999c-30.667 7.33301 -52.667 13.666 -66 18.999c-24 9.33301 -43 21.333 -57 36
c10 41.333 33.333 92 70 152c35.333 0 78.333 -20 129 -60z" />
    <glyph glyph-name="u062D" unicode="&#x62d;" horiz-adv-x="941" arabic-form="isolated" 
d="M1017 -324c-129.333 -122.667 -209.331 -192.998 -239.998 -210.998c-68.667 -40.667 -169.667 -61 -303 -61c-113.333 0 -207.333 21.667 -282 65c-91.333 53.333 -137 132.666 -137 237.999c0 125.333 33.333 240.333 100 345c34 53.333 112.667 146.666 236 279.999
c-58.667 49.333 -88 102 -88 158c0 15.333 18 52.333 54 111c43.333 70 94.666 127.333 153.999 172c70 52.667 141 79 213 79c68 0 102 -31 102 -93c0 -83.333 -56.333 -179.333 -169 -288l-314 -300c-112.667 -111.333 -169 -218.333 -169 -321
c0 -142 142.333 -213 427 -213c131.333 0 260.333 23.333 387 70l19 7c6 0.666992 10.667 -1 14 -5s4.66602 -9 3.99902 -15zM699.002 629.002c-16.667 24.667 -45.333 36.999 -86 36.999c-21.333 0 -53.333 -7 -96 -21c-48.667 -16 -73 -31.333 -73 -46
c0 -19.333 13.167 -39.666 39.5 -60.999s49.5 -32 69.5 -32c30 0 61.333 10 94 30c36.667 22.667 55 48 55 76z" />
    <glyph glyph-name="u062E" unicode="&#x62e;" horiz-adv-x="961" arabic-form="isolated" 
d="M609 1107c-16.667 -42 -40.999 -92.0029 -72.999 -150.003c-14 0.666992 -37 7.33398 -69 20.001c-36.667 14.667 -56.334 27.334 -59.001 38.001c10.667 42.667 34.667 93 72 151c14.667 0 37 -7.33301 67 -22c28 -13.333 48.667 -25.666 62 -36.999zM991.001 -332.003
c-129.333 -122.667 -209.331 -192.998 -239.998 -210.998c-68.667 -40.667 -169.667 -61 -303 -61c-113.333 0 -207.333 21.667 -282 65c-91.333 53.333 -137 132.666 -137 237.999c0 125.333 33.333 240.333 100 345c34 53.333 112.667 146.666 236 279.999
c-58.667 49.333 -88 102 -88 158c0 15.333 18 52.333 54 111c43.333 70 94.666 127.333 153.999 172c70 52.667 141 79 213 79c68 0 102 -31 102 -93c0 -83.333 -56.333 -179.333 -169 -288l-314 -300c-112.667 -111.333 -169 -218.333 -169 -321
c0 -142 142.333 -213 427 -213c131.333 0 260.333 23.333 387 70l19 7c6 0.666992 10.667 -1 14 -5s4.66602 -9 3.99902 -15zM673.003 620.999c-16.667 24.667 -45.333 36.999 -86 36.999c-21.333 0 -53.333 -7 -96 -21c-48.667 -16 -73 -31.333 -73 -46
c0 -19.333 13.167 -39.666 39.5 -60.999s49.5 -32 69.5 -32c30 0 61.333 10 94 30c36.667 22.667 55 48 55 76z" />
    <glyph glyph-name="u062F" unicode="&#x62f;" horiz-adv-x="709" arabic-form="isolated" 
d="M650 371c0 -30 -10.665 -70.666 -31.998 -121.999c-30.667 -74 -71.334 -126 -122.001 -156c-31.333 -18.667 -94.666 -39.334 -189.999 -62.001c-100.667 -24 -171.667 -36 -213 -36l-31 3c10 79.333 35.667 141.333 77 186c74.667 13.333 146 27 214 41
c105.333 21.333 166 42 182 62c-2.66699 13.333 -25.334 63.333 -68.001 150c6 22 21.333 52 46 90c27.333 42 49.666 65.667 66.999 71c16 -36 31.333 -73 46 -111c16 -40 24 -78.667 24 -116z" />
    <glyph glyph-name="u0630" unicode="&#x630;" horiz-adv-x="701" arabic-form="isolated" 
d="M570 877c-21.333 -56 -46 -105.667 -74 -149l-3 -1c-75.333 18 -116 37.333 -122 58c4 18.667 14.333 46 31 82c18.667 40.667 33 64.667 43 72c13.333 0 36.333 -7.66699 69 -23c35.333 -16 54 -29 56 -39zM650 371c0 -30 -10.665 -70.666 -31.998 -121.999
c-30.667 -74 -71.334 -126 -122.001 -156c-31.333 -18.667 -94.666 -39.334 -189.999 -62.001c-100.667 -24 -171.667 -36 -213 -36l-31 3c10 79.333 35.667 141.333 77 186c74.667 13.333 146 27 214 41c105.333 21.333 166 42 182 62
c-2.66699 13.333 -25.334 63.333 -68.001 150c6 22 21.333 52 46 90c27.333 42 49.666 65.667 66.999 71c16 -36 31.333 -73 46 -111c16 -40 24 -78.667 24 -116z" />
    <glyph glyph-name="u0631" unicode="&#x631;" horiz-adv-x="841" arabic-form="isolated" 
d="M770 255c0 -117.333 -18.999 -193.668 -56.999 -229.001c-52 -48.667 -124 -90 -216 -124c-88.667 -33.333 -170 -50 -244 -50c-37.333 0 -87.333 5.66699 -150 17c-70 12.667 -104 25.334 -102 38.001c158.667 59.333 394 153 706 281l20 39
c13.333 22 24.666 33.333 33.999 34z" />
    <glyph glyph-name="u0632" unicode="&#x632;" horiz-adv-x="825" arabic-form="isolated" 
d="M711 535c-20 -54.667 -45.334 -104.666 -76.001 -149.999c-37.333 10.667 -66.666 21 -87.999 31s-33 18.667 -35 26c4.66699 19.333 14.667 46 30 80c18 40 32 63.333 42 70c14 0 35.833 -6.83301 65.5 -20.5s50.167 -25.834 61.5 -36.501zM767.999 229.001
c0 -117.333 -19 -193.667 -57 -229c-52 -48.667 -124 -90 -216 -124c-88.667 -33.333 -170 -50 -244 -50c-37.333 0 -87.333 5.66699 -150 17c-70 12.667 -104 25.334 -102 38.001c169.333 71.333 404.666 164.666 705.999 279.999c8.66699 18.667 15.667 33 21 43
c10.667 20 21.334 30.333 32.001 31z" />
    <glyph glyph-name="u0633" unicode="&#x633;" horiz-adv-x="1565" arabic-form="isolated" 
d="M1335 136l-2.00195 9c0 16 7.5 40.167 22.5 72.5s22.5 56.833 22.5 73.5l-2 9c-123.333 -39.333 -308 -74 -554 -104c0 -18 -13.667 -58.667 -41 -122c-12.667 -29.333 -33 -69.333 -61 -120c-30 -42 -91.333 -75.333 -184 -100c-74.667 -20 -146.667 -30 -216 -30
c-186 0 -279 77.333 -279 232c0 50.667 17.333 116.667 52 198c38.667 90.667 78 142.334 118 155.001c10 1.33301 15 -1 15 -7c0 12.667 -1.33301 19 -4 19c-6.66699 0 -20 -30 -40 -90c-29.333 -88 -44 -146.333 -44 -175c0 -82 87 -123 261 -123
c154.667 0 258.334 26.333 311.001 79c3.33301 9.33301 5 15.666 5 18.999c0 40 -31 101.333 -93 184c16.667 42.667 49.334 103.334 98.001 182.001c14 -4 37.667 -19 71 -45c27.333 -21.333 54.666 -32 81.999 -32c87.333 0 195.333 11.333 324 34
c122.667 21.333 228.667 46.666 318 75.999l14 -11c-9.33301 -50 -34.666 -120.667 -75.999 -212c-48 -104.667 -87.333 -161.667 -118 -171z" />
    <glyph glyph-name="u0634" unicode="&#x634;" horiz-adv-x="1613" arabic-form="isolated" 
d="M1234 904c-3.33301 -19.333 -14 -46 -32 -80c-19.333 -36 -36 -58.333 -50 -67c-68.667 53.333 -113.667 80 -135 80c-42 0 -90 -36.333 -144 -109l-7 10l-1 13c18 49.333 49.667 101.333 95 156c54 65.333 101.333 98 142 98c50 0 94 -33.667 132 -101zM1355 121
l-2.00195 9c0 16 7.5 40.167 22.5 72.5s22.5 56.833 22.5 73.5l-2 9c-123.333 -39.333 -308 -74 -554 -104c0 -18 -13.667 -58.667 -41 -122c-12.667 -29.333 -33 -69.333 -61 -120c-30 -42 -91.333 -75.333 -184 -100c-74.667 -20 -146.667 -30 -216 -30
c-186 0 -279 77.333 -279 232c0 50.667 17.333 116.667 52 198c38.667 90.667 78 142.334 118 155.001c10 1.33301 15 -1 15 -7c0 12.667 -1.33301 19 -4 19c-6.66699 0 -20 -30 -40 -90c-29.333 -88 -44 -146.333 -44 -175c0 -82 87 -123 261 -123
c154.667 0 258.334 26.333 311.001 79c3.33301 9.33301 5 15.666 5 18.999c0 40 -31 101.333 -93 184c16.667 42.667 49.334 103.334 98.001 182.001c14 -4 37.667 -19 71 -45c27.333 -21.333 54.666 -32 81.999 -32c87.333 0 195.333 11.333 324 34
c122.667 21.333 228.667 46.666 318 75.999l14 -11c-9.33301 -50 -34.666 -120.667 -75.999 -212c-48 -104.667 -87.333 -161.667 -118 -171z" />
    <glyph glyph-name="u0635" unicode="&#x635;" horiz-adv-x="1605" arabic-form="isolated" 
d="M836 42l1.99902 -11.998c0 -24 -13.333 -67.667 -40 -131c-15.333 -36 -39.333 -80 -72 -132c-34.667 -36 -93 -64.667 -175 -86c-68.667 -18 -134.667 -27 -198 -27c-197.333 0 -296 76.667 -296 230c0 59.333 16 122 48 188c30 62.667 68 115.667 114 159l9 1l9 -1
l8 -13c-58.667 -84.667 -88 -153 -88 -205c0 -63.333 28.667 -106.333 86 -129c36.667 -14.667 93.667 -22 171 -22c152.667 0 257 25 313 75c3.33301 9.33301 5 16 5 20c0 46.667 -31 107.667 -93 183c24 57.333 53.333 115.666 88 174.999c21.333 -16 54 -38 98 -66h47
c17.333 0 36.666 5.33301 57.999 16c26.667 68.667 91.334 150.667 194.001 246c110 102 198.667 153 266 153c36.667 0 69.334 -10.333 98.001 -31c32 -22.667 48 -51.334 48 -86.001c0 -53.333 -17.667 -107.666 -53 -162.999c-54 -85.333 -106.667 -145.333 -158 -180
c-36 -24.667 -107.667 -57.334 -215 -98.001c-122.667 -46.667 -214 -68 -274 -64zM1383 405.002l0.000976562 10.001c0 31.333 -41 47 -123 47c-42.667 0 -92.667 -20.333 -150 -61c-60.667 -43.333 -92.667 -85 -96 -125c58 7.33301 123.667 22 197 44
c91.333 27.333 148.666 55.666 171.999 84.999z" />
    <glyph glyph-name="u0636" unicode="&#x636;" horiz-adv-x="1621" arabic-form="isolated" 
d="M1091 865c-18.667 -52 -43.999 -101 -75.999 -147l-4 -2c-52.667 13.333 -93 32.333 -121 57c4 18.667 14.333 46 31 82c18.667 40.667 33 64.667 43 72c13.333 0 36.666 -7.66699 69.999 -23c36 -16 55 -29 57 -39zM845.001 39l1.99902 -11.998
c0 -24 -13.333 -67.667 -40 -131c-15.333 -36 -39.333 -80 -72 -132c-34.667 -36 -93 -64.667 -175 -86c-68.667 -18 -134.667 -27 -198 -27c-197.333 0 -296 76.667 -296 230c0 59.333 16 122 48 188c30 62.667 68 115.667 114 159l9 1l9 -1l8 -13
c-58.667 -84.667 -88 -153 -88 -205c0 -63.333 28.667 -106.333 86 -129c36.667 -14.667 93.667 -22 171 -22c152.667 0 257 25 313 75c3.33301 9.33301 5 16 5 20c0 46.667 -31 107.667 -93 183c24 57.333 53.333 115.666 88 174.999c21.333 -16 54 -38 98 -66h47
c17.333 0 36.666 5.33301 57.999 16c26.667 68.667 91.334 150.667 194.001 246c110 102 198.667 153 266 153c36.667 0 69.334 -10.333 98.001 -31c32 -22.667 48 -51.334 48 -86.001c0 -53.333 -17.667 -107.666 -53 -162.999c-54 -85.333 -106.667 -145.333 -158 -180
c-36 -24.667 -107.667 -57.334 -215 -98.001c-122.667 -46.667 -214 -68 -274 -64zM1392 402.002l0.000976562 10.001c0 31.333 -41 47 -123 47c-42.667 0 -92.667 -20.333 -150 -61c-60.667 -43.333 -92.667 -85 -96 -125c58 7.33301 123.667 22 197 44
c91.333 27.333 148.666 55.666 171.999 84.999z" />
    <glyph glyph-name="u0637" unicode="&#x637;" horiz-adv-x="833" arabic-form="isolated" 
d="M213 288l-31 515.001c30 40.667 71.667 87.667 125 141c13.333 -152.667 24 -303.334 32 -452.001c2 -35.333 -11 -74 -39 -116c-25.333 -38.667 -54.333 -68 -87 -88zM209 -65.999c-32 0 -67.002 9.33398 -105.002 28.001c-41.333 21.333 -66.666 45.666 -75.999 72.999
l7 11c98.667 17.333 158.667 33.666 180 48.999c50.667 107.333 108 201.666 172 282.999c92.667 118 178.334 177 257.001 177c98 0 147 -54.333 147 -163c0 -5.33301 -13 -40.666 -39 -105.999c-66.667 -167.333 -213.334 -277.666 -440.001 -330.999
c-59.333 -14 -93.666 -21 -102.999 -21zM663.998 294.002c0 21.333 -14 39.666 -42 54.999c-24 13.333 -47.667 20 -71 20c-54.667 0 -110 -27.167 -166 -81.5s-86 -108.833 -90 -163.5c39.333 4.66699 101.333 24.667 186 60c97.333 40.667 158.333 77.334 183 110.001z
" />
    <glyph glyph-name="u0638" unicode="&#x638;" horiz-adv-x="857" arabic-form="isolated" 
d="M668 809c-8.66699 -20.667 -34 -70.666 -76 -149.999c-42 3.33301 -84.333 23.333 -127 60c17.333 53.333 41.666 103.666 72.999 150.999c14 0 36.667 -7.66699 68 -23c28.667 -14 49.334 -26.667 62.001 -38zM231 280.001l-31 515.001c30 40.667 71.667 87.667 125 141
c13.333 -152.667 24 -303.334 32 -452.001c2 -35.333 -11 -74 -39 -116c-25.333 -38.667 -54.333 -68 -87 -88zM227 -73.998c-32 0 -67.002 9.33398 -105.002 28.001c-41.333 21.333 -66.666 45.666 -75.999 72.999l7 11c98.667 17.333 158.667 33.666 180 48.999
c50.667 107.333 108 201.666 172 282.999c92.667 118 178.334 177 257.001 177c98 0 147 -54.333 147 -163c0 -5.33301 -13 -40.666 -39 -105.999c-66.667 -167.333 -213.334 -277.666 -440.001 -330.999c-59.333 -14 -93.666 -21 -102.999 -21zM681.998 286.003
c0 21.333 -14 39.666 -42 54.999c-24 13.333 -47.667 20 -71 20c-54.667 0 -110 -27.167 -166 -81.5s-86 -108.833 -90 -163.5c39.333 4.66699 101.333 24.667 186 60c97.333 40.667 158.333 77.334 183 110.001z" />
    <glyph glyph-name="u0639" unicode="&#x639;" horiz-adv-x="953" arabic-form="isolated" 
d="M1014 -338c-130.667 -124 -208.333 -193.668 -233 -209.001c-66.667 -41.333 -164 -62 -292 -62c-118.667 0 -218.667 23 -300 69c-100.667 56.667 -151 139.667 -151 249c0 80.667 14 154 42 220c20 47.333 58.667 112 116 194c24 34.667 60.333 79.667 109 135
c-63.333 100.667 -95 161.667 -95 183c0 36 20.667 97 62 183c43.333 90.667 79.666 139.334 108.999 146.001c17.333 4 34.333 6 51 6c68.667 0 117.667 -10.667 147 -32c0 -22.667 -10.333 -52.667 -31 -90c-18.667 -34.667 -37.667 -60.667 -57 -78
c-29.333 9.33301 -58.666 14 -87.999 14c-30 0 -51 -6 -63 -18c2 -20.667 21.167 -48.334 57.5 -83.001s64.833 -52 85.5 -52c5.33301 0 36 18.333 92 55c64 42 99.667 64.667 107 68c2.66699 -4.66699 4 -10 4 -16c0 -24.667 -6 -57 -18 -97
c-14 -46.667 -28.333 -74.667 -43 -84c-161.333 -104 -260 -171.667 -296 -203c-108.667 -95.333 -163 -195.666 -163 -300.999c0 -158.667 143.667 -238 431 -238c181.333 0 310 23 386 69c8.66699 5.33301 15.667 8 21 8c12 0 17.667 -6.33301 17 -19z" />
    <glyph glyph-name="u063A" unicode="&#x63a;" horiz-adv-x="977" arabic-form="isolated" 
d="M505 1084c-18 -44.667 -42.667 -93.667 -74 -147l-5 -2c-52 14 -93.333 32.667 -124 56c18 58 43.333 109.333 76 154c12 0 35.667 -8 71 -24s54 -28.333 56 -37zM1030 -345c-130.667 -124 -208.333 -193.668 -233 -209.001c-66.667 -41.333 -164 -62 -292 -62
c-118.667 0 -218.667 23 -300 69c-100.667 56.667 -151 139.667 -151 249c0 80.667 14 154 42 220c20 47.333 58.667 112 116 194c24 34.667 60.333 79.667 109 135c-63.333 100.667 -95 161.667 -95 183c0 36 20.667 97 62 183
c43.333 90.667 79.666 139.334 108.999 146.001c17.333 4 34.333 6 51 6c68.667 0 117.667 -10.667 147 -32c0 -22.667 -10.333 -52.667 -31 -90c-18.667 -34.667 -37.667 -60.667 -57 -78c-29.333 9.33301 -58.666 14 -87.999 14c-30 0 -51 -6 -63 -18
c2 -20.667 21.167 -48.334 57.5 -83.001s64.833 -52 85.5 -52c5.33301 0 36 18.333 92 55c64 42 99.667 64.667 107 68c2.66699 -4.66699 4 -10 4 -16c0 -24.667 -6 -57 -18 -97c-14 -46.667 -28.333 -74.667 -43 -84c-161.333 -104 -260 -171.667 -296 -203
c-108.667 -95.333 -163 -195.666 -163 -300.999c0 -158.667 143.667 -238 431 -238c181.333 0 310 23 386 69c8.66699 5.33301 15.667 8 21 8c12 0 17.667 -6.33301 17 -19z" />
    <glyph glyph-name="u0641" unicode="&#x641;" horiz-adv-x="1401" arabic-form="isolated" 
d="M1211 991c-20.667 -50.667 -46.332 -100.666 -76.999 -149.999c-16.667 2.66699 -39.667 10 -69 22c-36 14.667 -54 26.667 -54 36c0 10 9.83301 35.833 29.5 77.5s33.5 66.5 41.5 74.5c14 0 38.167 -7.33301 72.5 -22s53.166 -27.334 56.499 -38.001zM469.002 -58.999
c-106 0 -193.999 14.667 -263.999 44c-98 41.333 -147 107.333 -147 198c0 35.333 13.667 82.333 41 141s55 97.334 83 116.001l10 1l13 -3l4 -7c-14 -30.667 -21 -64.334 -21 -101.001c0 -74.667 41.667 -125 125 -151c48.667 -15.333 121.667 -23 219 -23
c115.333 0 236.666 11 363.999 33c161.333 28 273.333 65.667 336 113l3 13c-1.33301 10 -8.33301 25 -21 45c-35.333 -14 -64.333 -21 -87 -21c-74.667 0 -112 25.333 -112 76c0 54.667 43 138 129 250c18.667 24.667 48 37 88 37c39.333 0 69.333 -23 90 -69
c15.333 -34.667 23 -75 23 -121c0 -154 -36.333 -271 -109 -351c-66.667 -72 -177.667 -126.333 -333 -163c-162 -38 -306.667 -57 -434 -57z" />
    <glyph glyph-name="u0642" unicode="&#x642;" horiz-adv-x="1257" arabic-form="isolated" 
d="M455 -225c-128 0 -192 57.332 -192 171.999c0 44 15.667 101 47 171c-92 -27.333 -160 -54.666 -204 -81.999c-18 -22 -40 -46 -66 -72l-7 6l-2 4c0 19.333 17 66.333 51 141c12.667 28 23 49.333 31 64c14.667 27.333 28.334 46 41.001 56
c77.333 61.333 186.666 103 327.999 125l2 -13c0 -6.66699 -23 -55.667 -69 -147c-2 -22.667 -3 -43.334 -3 -62.001c0 -91.333 42 -137 126 -137c70.667 0 150 15.333 238 46s159 68 213 112c58.667 48 88 83.333 88 106c0 8 -3.33301 13.333 -10 16
c-66.667 -11.333 -105.667 -17 -117 -17c-60 0 -90 28 -90 84c0 48 25 108.667 75 182c53.333 78.667 102.333 118 147 118c82 0 123 -58.667 123 -176c0 -48 -16.333 -119.333 -49 -214c-29.333 -85.333 -60 -147 -92 -185
c-75.333 -89.333 -166.333 -160.666 -273 -213.999c-111.333 -56 -223.333 -84 -336 -84z" />
    <glyph glyph-name="u0643" unicode="&#x643;" horiz-adv-x="1261" arabic-form="isolated" 
d="M1210 444c0 -37.333 -17.0029 -88.333 -51.0029 -153c-55.333 -105.333 -158.333 -191 -309 -257c-134 -58.667 -268 -88 -402 -88c-98.667 0 -181.667 16.667 -249 50c-86.667 42.667 -130 108 -130 196c0 136 56.333 264 169 384
c100.667 107.333 220.334 183 359.001 227c66.667 21.333 115.667 32 147 32l11 -2c34.667 -50 52 -113.333 52 -190c0 -39.333 -20.333 -94.666 -61 -165.999c-32 -56 -57.667 -90.333 -77 -103c-35.333 -23.333 -88.166 -44.833 -158.499 -64.5s-127.5 -29.5 -171.5 -29.5
c0 20 8.16699 50.667 24.5 92s31.166 70.666 44.499 87.999l122 29l10 3c78.667 20 122.334 37.333 131.001 52c1.33301 14 2 24.333 2 31c0 18 -8.33301 41.333 -25 70h-5c-33.333 0 -87 -13.667 -161 -41c-100 -36.667 -168.667 -67 -206 -91
c-76 -48.667 -114 -107.667 -114 -177c0 -66.667 34 -116 102 -148c50.667 -23.333 114 -35 190 -35c107.333 0 218 12 332 36c149.333 31.333 246.333 75.333 291 132c0 58 -3.83301 145.167 -11.5 261.5s-11.5 203.5 -11.5 261.5c6.66699 16 25.834 41.333 57.501 76
s54.167 53.667 67.5 57c20.667 -168 31 -345.667 31 -533z" />
    <glyph glyph-name="u0644" unicode="&#x644;" horiz-adv-x="801" arabic-form="isolated" 
d="M761 136c0 -21.333 -14.667 -66.332 -44 -134.999c-20 -47.333 -37.667 -86.333 -53 -117c-25.333 -51.333 -87 -96 -185 -134c-86 -33.333 -163 -50 -231 -50c-124 0 -186 69.667 -186 209c0 78 32 166 96 264l12 -2l2 -12c-26 -60 -39 -101 -39 -123
c0 -43.333 17.333 -78.666 52 -105.999c31.333 -25.333 69.333 -38 114 -38c57.333 0 117 7.66699 179 23c81.333 20 131 48 149 84c-4.66699 141.333 -14 353.333 -28 636c28 37.333 67.667 80.333 119 129c0 -64.667 4 -153.334 12 -266.001l19 -267
c0.666992 -8.66699 3 -24.334 7 -47.001c3.33301 -20 5 -36 5 -48z" />
    <glyph glyph-name="u0645" unicode="&#x645;" horiz-adv-x="1061" arabic-form="isolated" 
d="M1001 372c-10 -78.667 -45.668 -148.997 -107.001 -210.997c-36 -36.667 -155.667 -72.334 -359 -107.001c-226.667 -38.667 -355 -64.667 -385 -78l-3 -6l-1 -32c-2 -66.667 28.667 -178 92 -334c64.667 -158 97 -269.667 97 -335s-8.33301 -109.666 -25 -132.999
c-17.333 20 -65.333 124.667 -144 314c-84 202.667 -126 329 -126 379c0 53.333 12.333 114.333 37 183c26 72 56.667 125.667 92 161c15.333 15.333 52 27.666 110 36.999c37.333 5.33301 104.333 15.666 201 30.999c107.333 17.333 165 35 173 53l2 29l42 102
c17.333 40 36 71 56 93c30.667 -6 76.334 -26 137.001 -60c64.667 -36.667 101.667 -65.334 111 -86.001z" />
    <glyph glyph-name="u0646" unicode="&#x646;" horiz-adv-x="949" arabic-form="isolated" 
d="M893 188c0 -152 -60.499 -287.667 -181.499 -407s-257.5 -179 -409.5 -179c-168 0 -252 69.333 -252 208c0 114 37.667 243.333 113 388c62 119.333 139.333 232 232 338c23.333 -4.66699 51.166 -17.834 83.499 -39.501s52.833 -42.5 61.5 -62.5
c-42.667 -82 -91.667 -146.333 -147 -193c-11.333 4 -44.333 23.667 -99 59c-88.667 -76.667 -133 -182 -133 -316c0 -96.667 67 -145 201 -145c56 0 132.333 13.667 229 41c115.333 32.667 173 67.667 173 105c0 88.667 -33.667 164.334 -101 227.001
c8.66699 24 26 61 52 111c30 57.333 49.667 88 59 92c22 -12 47.333 -46.167 76 -102.5s43 -97.833 43 -124.5z" />
    <glyph glyph-name="u0647" unicode="&#x647;" horiz-adv-x="545" arabic-form="isolated" 
d="M510 340c-30.667 -104.667 -65.333 -182.999 -104 -234.999c-56 -75.333 -129.667 -113 -221 -113c-81.333 0 -122 48.333 -122 145c0 44.667 30 116.5 90 215.5s110 156.5 150 172.5c22 8.66699 44.667 13 68 13c52 0 88.667 -21.333 110 -64
c13.333 -26.667 23 -71.334 29 -134.001zM401.001 232.001c3.33301 8 5 14.999 5 20.999c0 26.667 -14.333 51.334 -43 74.001s-57 34 -85 34c-50 0 -95 -34.333 -135 -103c0 -56 37.667 -84 113 -84c60 0 108.333 19.333 145 58z" />
    <glyph glyph-name="u0648" unicode="&#x648;" horiz-adv-x="901" arabic-form="isolated" 
d="M264 -181c-40 0 -96.3311 7.00195 -168.998 21.002c-83.333 16 -134 33.333 -152 52c24 18 153 56.333 387 115c220.667 55.333 350 107.333 388 156c-6 13.333 -15.667 25.333 -29 36c-30.667 -14 -60.334 -21 -89.001 -21c-68 0 -102 26.667 -102 80
c0 48.667 20 102.667 60 162c43.333 64 87.666 96 132.999 96c84 0 126 -72 126 -216c0 -62 -12.667 -126.333 -38 -193c-27.333 -74.667 -62.333 -128.334 -105 -161.001s-108.667 -60.334 -198 -83.001c-116 -29.333 -186.667 -44 -212 -44z" />
    <glyph glyph-name="u0649" unicode="&#x649;" horiz-adv-x="1017" arabic-form="isolated" 
d="M965 316c0 -30.667 -14.335 -78.1699 -43.002 -142.503s-54.667 -105.166 -78 -122.499c-194 -141.333 -365.333 -212 -514 -212c-183.333 0 -275 86.333 -275 259c0 54.667 13.667 114.334 41 179.001c28.667 68.667 63.334 118.334 104.001 149.001l11 -7l3 -11
c-46.667 -54.667 -70 -112 -70 -172c0 -56.667 21.333 -102.667 64 -138c40 -34 88.667 -51 146 -51c54 0 123.167 11.333 207.5 34s149.833 47.667 196.5 75v12l-99 33c-47.333 16 -73.666 26.333 -78.999 31c-11.333 10 -17 33.333 -17 70
c0 55.333 44.5 132.333 133.5 231s160.5 148 214.5 148c8.66699 0 15 -4.33301 19 -13c-4 -18.667 -18.667 -53.334 -44 -104.001c-26 -52.667 -45 -83 -57 -91c-68.667 -9.33301 -103 -24.666 -103 -45.999l2 -9l8 -10c152.667 -40 229 -70.667 229 -92z" />
    <glyph glyph-name="u064A" unicode="&#x64a;" horiz-adv-x="1017" arabic-form="isolated" 
d="M965 316c0 -30.667 -14.335 -78.1699 -43.002 -142.503s-54.667 -105.166 -78 -122.499c-194 -141.333 -365.333 -212 -514 -212c-183.333 0 -275 86.333 -275 259c0 54.667 13.667 114.334 41 179.001c28.667 68.667 63.334 118.334 104.001 149.001l11 -7l3 -11
c-46.667 -54.667 -70 -112 -70 -172c0 -56.667 21.333 -102.667 64 -138c40 -34 88.667 -51 146 -51c54 0 123.167 11.333 207.5 34s149.833 47.667 196.5 75v12l-99 33c-47.333 16 -73.666 26.333 -78.999 31c-11.333 10 -17 33.333 -17 70
c0 55.333 44.5 132.333 133.5 231s160.5 148 214.5 148c8.66699 0 15 -4.33301 19 -13c-4 -18.667 -18.667 -53.334 -44 -104.001c-26 -52.667 -45 -83 -57 -91c-68.667 -9.33301 -103 -24.666 -103 -45.999l2 -9l8 -10c152.667 -40 229 -70.667 229 -92z" />
    <glyph glyph-name="u067E" unicode="&#x67e;" horiz-adv-x="1445" arabic-form="isolated" 
d="M839 -300c-16 -46 -48.001 -97.667 -96.001 -155c-55.333 -66 -102.666 -99 -141.999 -99c-43.333 0 -86.333 32.333 -129 97c2 18.667 12 46 30 82c20 38.667 36.667 61 50 67c69.333 -53.333 114 -80 134 -80c34.667 0 83.667 36.333 147 109zM1393 340
c-17.333 -55.333 -62.6689 -135 -136.002 -239c-58.667 -83.333 -116 -156.666 -172 -219.999l-3 10c2.66699 27.333 16.334 63.666 41.001 108.999c27.333 50 43.333 86.667 48 110l-19 3c-9.33301 0 -65 -14 -167 -42c-110 -30 -175.333 -47 -196 -51
c-133.333 -24.667 -282.666 -37 -447.999 -37c-82.667 0 -149.667 16 -201 48c-61.333 38.667 -92 97 -92 175c0 24.667 8.66699 61 26 109c19.333 54 37.333 79.333 54 76l4 -10c-5.33301 -11.333 -8 -23.333 -8 -36c0 -102 106.667 -153 320 -153
c206.667 0 449.667 36 729 108c67.333 17.333 137.333 38.333 210 63l8 -9z" />
    <glyph glyph-name="u0686" unicode="&#x686;" horiz-adv-x="953" arabic-form="isolated" 
d="M1008 -338c-129.333 -122.667 -209.331 -192.998 -239.998 -210.998c-68.667 -40.667 -169.667 -61 -303 -61c-113.333 0 -207.333 21.667 -282 65c-91.333 53.333 -137 132.666 -137 237.999c0 125.333 33.333 240.333 100 345c34 53.333 112.667 146.666 236 279.999
c-58.667 49.333 -88 102 -88 158c0 15.333 18 52.333 54 111c43.333 70 94.666 127.333 153.999 172c70 52.667 141 79 213 79c68 0 102 -31 102 -93c0 -83.333 -56.333 -179.333 -169 -288l-314 -300c-112.667 -111.333 -169 -218.333 -169 -321
c0 -142 142.333 -213 427 -213c131.333 0 260.333 23.333 387 70l19 7c6 0.666992 10.667 -1 14 -5s4.66602 -9 3.99902 -15zM690.002 615.002c-16.667 24.667 -45.333 36.999 -86 36.999c-21.333 0 -53.333 -7 -96 -21c-48.667 -16 -73 -31.333 -73 -46
c0 -19.333 13.167 -39.666 39.5 -60.999s49.5 -32 69.5 -32c30 0 61.333 10 94 30c36.667 22.667 55 48 55 76zM833.003 101.001c-14 -47.333 -44.668 -99.666 -92.001 -156.999c-54 -65.333 -101.333 -98 -142 -98c-42.667 0 -87.667 33 -135 99
c3.33301 18.667 14.333 45.667 33 81c20.667 39.333 37 60.666 49 63.999c69.333 -52 115.333 -78 138 -78c34.667 0 82.334 37 143.001 111z" />
    <glyph glyph-name="u0698" unicode="&#x698;" horiz-adv-x="821" arabic-form="isolated" 
d="M737 572c-3.33301 -16 -15 -42.999 -35 -80.999s-35.667 -60.333 -47 -67c-68 52 -113 78 -135 78c-41.333 0 -89 -35.333 -143 -106l-7 6l-2 12c18.667 49.333 50.667 101.666 96 156.999c54.667 66.667 102 100 142 100c37.333 0 81 -33 131 -99zM766 258.001
c0 -117.333 -18.999 -193.668 -56.999 -229.001c-52 -48.667 -124 -90 -216 -124c-88.667 -33.333 -170 -50 -244 -50c-37.333 0 -87.333 5.66699 -150 17c-70 12.667 -104 25.334 -102 38.001c158.667 59.333 394 153 706 281l20 39c13.333 22 24.666 33.333 33.999 34z
" />
    <glyph glyph-name="u06AF" unicode="&#x6af;" horiz-adv-x="1513" arabic-form="isolated" 
d="M1486 1336c0 -28.667 -19.334 -64.334 -58.001 -107.001c-10.667 -12 -69 -52.333 -175 -121c-113.333 -73.333 -179.333 -117 -198 -131c0 32.667 15.667 74.334 47 125.001c14 22.667 74.333 65.667 181 129c102.667 61.333 170.334 96.333 203.001 105zM1611 1243
c0 -72.667 -30.668 -134.665 -92.001 -185.998c-12.667 -10.667 -73.667 -49 -183 -115c-44 -26.667 -92.333 -63.667 -145 -111c0 -76.667 5.66699 -166 17 -268l30 -265c2.66699 -24.667 -20 -65.667 -68 -123c-38.667 -46 -70.667 -78.667 -96 -98
c-51.333 -38.667 -142.333 -71.667 -273 -99c-112 -23.333 -210.667 -35 -296 -35c-105.333 0 -196 13.333 -272 40c-112 39.333 -168 101 -168 185c0 39.333 14.333 88.666 43 147.999c26.667 56 55.334 99.333 86.001 130l13 3c8.66699 0 14.667 -4.33301 18 -13
c-12.667 -29.333 -19 -60.333 -19 -93c0 -76 42.667 -127.333 128 -154c49.333 -15.333 124.333 -23 225 -23c86 0 186 8.33301 300 25c159.333 23.333 239 54.333 239 93c0 75.333 -9.33301 219.666 -28 432.999c22.667 26 50.667 60 84 102
c4.66699 40.667 28.334 103.667 71.001 189c42 37.333 104.333 82 187 134c91.333 57.333 157.666 91 198.999 101z" />
    <glyph glyph-name="uFB57" unicode="&#x67e;" horiz-adv-x="1464" arabic-form="final" 
d="M953 -333c-20 -50 -52.3301 -101.999 -96.9971 -155.999c-54 -65.333 -101.333 -98 -142 -98c-49.333 0 -92 32.333 -128 97c2.66699 19.333 13 46.666 31 81.999c19.333 38.667 35.666 61 48.999 67c67.333 -53.333 111.666 -80 132.999 -80
c37.333 0 85.666 36.333 144.999 109c5.33301 -5.33301 8.33301 -12.333 9 -21zM1497 0.000976562c-140.667 -26 -227.33 -38.999 -259.997 -38.999c-30.667 0 -50.334 4 -59.001 12c0 12 9.66699 48.333 29 109c-252 -112 -491.667 -168 -719 -168
c-104 0 -194 13.333 -270 40c-110.667 38.667 -166 100.334 -166 185.001c0 40 14.333 89 43 147c26.667 55.333 55.667 97.666 87 126.999l14 4l13 -3l4 -9c-13.333 -22 -20 -53.333 -20 -94c0 -76 44.667 -126.667 134 -152c47.333 -13.333 123.666 -20 228.999 -20
c113.333 0 238.666 10.333 375.999 31c150 22.667 271.667 52 365 88c16.667 9.33301 42.667 21.666 78 36.999l5 -7c-0.666992 -3.33301 -18 -38.333 -52 -105c5.33301 -12 21 -18 47 -18c6 0 46.667 7 122 21v-186z" />
    <glyph glyph-name="uFB58" unicode="&#x67e;" horiz-adv-x="408" arabic-form="initial" 
d="M412 -224c-17.333 -48.667 -48.999 -101 -94.999 -157c-54 -66 -101.333 -99 -142 -99c-49.333 0 -93.333 32.667 -132 98c3.33301 20.667 13.666 48 30.999 82c18.667 37.333 35.667 60 51 68c69.333 -52 114.333 -78 135 -78c42 0 90 36 144 108l7 -10zM383.001 260
l3.99902 -20c0 -112.667 -71 -181.667 -213 -207c-1.33301 0 -68.333 -11 -201 -33v186c130.667 22 267.334 46.667 410.001 74z" />
    <glyph glyph-name="uFB59" unicode="&#x67e;" horiz-adv-x="545" arabic-form="medial" 
d="M425 -326c-14.667 -45.333 -46.334 -97 -95.001 -155c-55.333 -66 -102.666 -99 -141.999 -99c-48.667 0 -92 32.333 -130 97c1.33301 18 11.5 45.667 30.5 83s35.5 59.333 49.5 66c69.333 -53.333 114.333 -80 135 -80c28 0 55.667 12.333 83 37
c5.33301 4.66699 26 28.667 62 72c4.66699 -5.33301 7 -12.333 7 -21zM573 12c-163.333 -30 -262.336 -45.001 -297.003 -45.001c-29.333 0 -47.333 3.66699 -54 11l-1 10c-1.33301 10.667 4.33398 34.667 17.001 72c-40 -13.333 -132.333 -33.333 -277 -60v186
c90.667 14.667 216.334 41 377.001 79c16.667 8.66699 42.667 21 78 37l2 -6c-1.33301 -11.333 -17.666 -45.666 -48.999 -102.999c0.666992 -14 19.667 -21 57 -21l147 25v-185z" />
    <glyph glyph-name="uFB7B" unicode="&#x686;" horiz-adv-x="713" arabic-form="final" 
d="M830 -554c-14.667 -46.667 -46.333 -99.001 -95 -157.001c-55.333 -66 -102.666 -99 -141.999 -99c-44.667 0 -88.667 32.667 -132 98c4.66699 20 15.667 47.333 33 82c19.333 38.667 35.666 61.334 48.999 68.001c68 -52 113 -78 135 -78c44 0 91.667 35.667 143 107
c5.33301 -5.33301 8.33301 -12.333 9 -21zM922.001 -876.001c-119.333 -104.667 -208.334 -167.665 -267.001 -188.998c-53.333 -19.333 -161 -29 -323 -29c-178 0 -267 60 -267 180c0 130.667 151 339 453 625c-14.667 11.333 -64.667 21.666 -150 30.999
c-68.667 7.33301 -103 28.333 -103 63c0 12.667 3 24.334 9 35.001c29.333 53.333 65.333 109.666 108 168.999c62.667 87.333 107.334 133.333 134.001 138l237 39v-186c-61.333 -8 -120 -16.333 -176 -25c-78 -12.667 -121 -23.667 -129 -33c6 -2 49 -7 129 -15
c66 -6.66699 103 -16.667 111 -30l3 -18c0 -26.667 -15.333 -68.334 -46 -125.001c-25.333 -47.333 -52 -89 -80 -125c-6 -8 -75.667 -75 -209 -201c-102.667 -97.333 -154 -169 -154 -215c0 -69.333 111 -104 333 -104c186 0 311 12.667 375 38h14l5 -10z" />
    <glyph glyph-name="uFB7C" unicode="&#x686;" horiz-adv-x="853" arabic-form="initial" 
d="M607 -326c-14 -46 -44.999 -98 -92.999 -156c-54 -65.333 -101 -98 -141 -98c-50.667 0 -94.334 32.333 -131.001 97c2 18.667 12.333 46 31 82c20 38.667 37 61 51 67c62.667 -53.333 107 -80 133 -80c35.333 0 84 36.333 146 109zM810.001 314
c-5.33301 -20 -27.332 -75.333 -65.999 -166l-588 -111c-25.333 -43.333 -66.333 -105.333 -123 -186l-3 4l56 170c-32.667 -8 -74.334 -16.333 -125.001 -25v187c54 8 128.333 21.333 223 40c37.333 73.333 81.333 140 132 200c70 83.333 132 125 186 125
c42.667 0 98 -39.667 166 -119s115.333 -119 142 -119zM535.002 294c-3.33301 23.333 -16.833 43.833 -40.5 61.5s-47.5 26.5 -71.5 26.5c-55.333 0 -114.333 -48 -177 -144z" />
    <glyph glyph-name="uFB7D" unicode="&#x686;" horiz-adv-x="896" arabic-form="medial" 
d="M607 -326c-14 -46 -44.999 -98 -92.999 -156c-54 -65.333 -101 -98 -141 -98c-50.667 0 -94.334 32.333 -131.001 97c2 18.667 12.333 46 31 82c20 38.667 37 61 51 67c62.667 -53.333 107 -80 133 -80c35.333 0 84 36.333 146 109zM925.001 0
c-62.667 -6 -156.334 -17.332 -281.001 -33.999c-8.66699 -1.33301 -17 0 -25 4c-10 5.33301 -14 12 -12 20c14 62 21 104.667 21 128l-23 1l-449 -84l-123 -184h-4c-0.666992 6.66699 8 34.667 26 84l33 90c-24 -6 -69 -14.333 -135 -25v186
c67.333 9.33301 143.333 22.666 228 39.999c34.667 70 79 136.667 133 200c71.333 84 134 126 188 126c51.333 0 107.333 -41.667 168 -125c58.667 -80 105.334 -117.667 140.001 -113c-4.66699 -19.333 -21.667 -64.333 -51 -135l17 -5c54 0 103.667 4 149 12v-186z
M535.001 294.001c0 10 -2.66699 19.333 -8 28c-43.333 40 -78 60 -104 60c-56.667 0 -115.667 -48 -177 -144c38.667 10 135 28.667 289 56z" />
    <glyph glyph-name="uFB8B" unicode="&#x698;" horiz-adv-x="929" arabic-form="final" 
d="M753 588c-2.66699 -18.667 -13.333 -46 -32 -82c-20 -39.333 -36.667 -61.333 -50 -66c-68.667 52 -113.667 78 -135 78c-36 0 -84 -36 -144 -108c-2.66699 4.66699 -4 11.334 -4 20.001c0 37.333 29.5 89.166 88.5 155.499s106.833 99.5 143.5 99.5
c50.667 0 95 -32.333 133 -97zM961.001 0c-32 -4.66699 -86.332 -13.335 -162.999 -26.002c-71.333 -12.667 -110.333 -26.667 -117 -42c-66 -144.667 -144.333 -217 -235 -217c-237.333 0 -383 13 -437 39c2 10.667 7.33301 21.334 16 32.001
c83.333 56 199.666 97.667 348.999 125c144 26.667 233.333 53.334 268 80.001c4 3.33301 13.333 18.333 28 45c34 62.667 66.333 100.667 97 114l194 36v-186z" />
    <glyph glyph-name="uFEDA" unicode="&#x6a9;" horiz-adv-x="1317" arabic-form="final" 
d="M1353 0c-53.333 -8 -132.999 -21.0029 -238.999 -39.0029c-4 51.333 -10.667 108.666 -20 171.999h-8c-83.333 -71.333 -180.666 -129.666 -291.999 -174.999c-118 -48 -228.667 -72 -332 -72c-102.667 0 -186.667 16.333 -252 49
c-85.333 42.667 -128 110.334 -128 203.001c0 42.667 10.333 92.334 31 149.001c88.667 243.333 265.667 402 531 476c57.333 16 96 24 116 24l12 -2c34.667 -56.667 52 -118 52 -184c0 -42 -21 -99.333 -63 -172c-34 -58.667 -59 -94 -75 -106
c-29.333 -22 -82.666 -43 -159.999 -63c-72.667 -19.333 -130 -29 -172 -29c0 36 23.333 96.333 70 181c61.333 12 107.666 22.333 138.999 31c72.667 19.333 114.334 37 125.001 53c0 30.667 -8.33301 63.334 -25 98.001c-45.333 0 -101.333 -13 -168 -39
c-110 -42.667 -178.333 -72.334 -205 -89.001c-76.667 -47.333 -115 -106.666 -115 -177.999c0 -64.667 31.667 -113 95 -145c50 -25.333 110.667 -38 182 -38c94 0 215.333 16.333 364 49c191.333 42 284.666 93 279.999 153c-12.667 156.667 -19 286.667 -19 390
c12.667 18.667 33 43.667 61 75c33.333 37.333 55.666 57.333 66.999 60c9.33301 -95.333 23.666 -310.666 42.999 -645.999l4 -8l16 -2c16.667 1.33301 45 4.66602 85 9.99902v-186z" />
    <glyph glyph-name="uFEDB" unicode="&#x6a9;" horiz-adv-x="681" arabic-form="initial" 
d="M724 1230c0 -74 -30 -135.999 -90 -185.999c-12 -10 -73.667 -48.333 -185 -115c-22 -13.333 -69.667 -50.333 -143 -111c0 -76.667 5.33301 -161.667 16 -255l29 -253c1.33301 -14.667 -15.667 -55.334 -51 -122.001c-42 -78 -80.667 -125.667 -116 -143
c-14.667 -7.33301 -89 -22.333 -223 -45v185c82 10.667 127.333 17 136 19c63.333 13.333 102 31.666 116 54.999c0 74.667 -9.33301 223 -28 445l84 102c4.66699 40.667 28.334 103.667 71.001 189c41.333 36.667 103.666 81.334 186.999 134.001
c91.333 57.333 157 91 197 101z" />
    <glyph glyph-name="uFEDC" unicode="&#x6a9;" horiz-adv-x="529" arabic-form="medial" 
d="M724 1230c0 -74 -30 -136 -90 -186c-12 -10 -73.667 -48.333 -185 -115c-22 -13.333 -69.667 -50.333 -143 -111c0 -94 6.66699 -203 20 -327l35 -325h25c17.333 0 41 3.33301 71 10l96 10v-186l-309 -45l-8 8c-8 52.667 -12 107.667 -12 165
c-37.333 -48.667 -70.333 -79.334 -99 -92.001c-16.667 -7.33301 -70 -19.333 -160 -36v186l148 27c50 14 83.333 36 100 66c0 76 -9.33301 217.667 -28 425l84 102c4.66699 40.667 28.334 103.667 71.001 189c41.333 36.667 103.666 81.334 186.999 134.001
c91.333 57.333 157 91 197 101z" />
    <glyph glyph-name="uFB93" unicode="&#x6af;" horiz-adv-x="1413" arabic-form="final" 
d="M1502 1316c0 -28.667 -19.334 -64.334 -58.001 -107.001c-10.667 -12 -69 -52.333 -175 -121c-113.333 -73.333 -179.333 -117 -198 -131c0 32.667 15.667 74.334 47 125.001c14 22.667 74.333 65.667 181 129c102.667 61.333 170.334 96.333 203.001 105zM1627 1223
c0 -72.667 -30.667 -134.667 -92 -186c-12.667 -10.667 -73.667 -49 -183 -115c-44 -26.667 -92.333 -63.667 -145 -111c0 -94 6.66699 -203 20 -327l35 -325h23c13.333 0 70.666 8.66699 171.999 26v-185l-312 -52l-8 8c-9.33301 73.333 -14.333 143.333 -15 210
c-24.667 -89.333 -110 -155.333 -256 -198c-102.667 -30 -217.667 -45 -345 -45c-105.333 0 -196 13.333 -272 40c-112 39.333 -168 101 -168 185c0 39.333 14.333 88.666 43 147.999c26.667 56 55.334 99.333 86.001 130l13 3c8.66699 0 14.667 -4.33301 18 -13
c-12.667 -29.333 -19 -60.333 -19 -93c0 -76 42.667 -127.333 128 -154c49.333 -15.333 124.333 -23 225 -23c244.667 0 403 28.333 475 85c41.333 32.667 62 61.334 62 86.001c0 121.333 -8.66699 248 -26 380c22.667 26 50.667 60 84 102
c4.66699 40.667 28.334 103.667 71.001 189c42 37.333 104.333 82 187 134c91.333 57.333 157.666 91 198.999 101z" />
    <glyph glyph-name="uFB94" unicode="&#x6af;" horiz-adv-x="709" arabic-form="initial" 
d="M597 1319c0 -49.333 -59.333 -113.667 -178 -193l-255 -166c0 29.333 16.333 71 49 125c13.333 22 73.333 65 180 129c104 62 172 97 204 105zM720 1226c0 -74 -29.999 -136 -89.999 -186c-12 -10 -73.667 -48.333 -185 -115c-22 -13.333 -69.667 -50.333 -143 -111
c0 -76.667 5.33301 -161.667 16 -255l29 -253c1.33301 -14.667 -15.667 -55.334 -51 -122.001c-42 -78 -80.667 -125.667 -116 -143c-8 -4 -81 -17.667 -219 -41v185c56 6 105.333 12.333 148 19c51.333 8 84.666 25 99.999 51c0 74.667 -9.33301 223 -28 445l84 102
c4.66699 40.667 28.334 103.667 71.001 189c41.333 36.667 103.666 81.334 186.999 134.001c91.333 57.333 157 91 197 101z" />
    <glyph glyph-name="uFB95" unicode="&#x6af;" horiz-adv-x="529" arabic-form="medial" 
d="M601 1323c0 -49.333 -59.333 -113.667 -178 -193l-255 -166c0 29.333 16.333 71 49 125c13.333 22 73.333 65 180 129c104 62 172 97 204 105zM724 1230c0 -74 -30 -136 -90 -186c-12 -10 -73.667 -48.333 -185 -115c-22 -13.333 -69.667 -50.333 -143 -111
c0 -94 6.66699 -203 20 -327l35 -325h25c17.333 0 41 3.33301 71 10l96 10v-186l-309 -45l-8 8c-8 52.667 -12 107.667 -12 165c-37.333 -48.667 -70.333 -79.334 -99 -92.001c-16.667 -7.33301 -70 -19.333 -160 -36v186l148 27c50 14 83.333 36 100 66
c0 76 -9.33301 217.667 -28 425l84 102c4.66699 40.667 28.334 103.667 71.001 189c41.333 36.667 103.666 81.334 186.999 134.001c91.333 57.333 157 91 197 101z" />
    <glyph glyph-name="uFE94" unicode="&#x6c0;" horiz-adv-x="601" arabic-form="final" 
d="M515 879c-2 -22 -16.333 -66.333 -43 -133c-11.333 -8.66699 -51 -18 -119 -28c-59.333 -8.66699 -102.666 -13 -129.999 -13l-22 2l-1 12c-2 26 10 65.667 36 119c21.333 8.66699 65.333 18 132 28c63.333 9.33301 108.666 14 135.999 14zM637 0l-185.002 -27.002l-11 5
c-3.33301 17.333 -3.66602 52.666 -0.999023 105.999c2 44.667 -1.66699 79.334 -11 104.001c-10 -17.333 -19 -29.666 -27 -36.999c-109.333 -27.333 -179.333 -41 -210 -41c-50.667 0 -86 11 -106 33s-30 58.667 -30 110c0 18.667 18 60.667 54 126
c38.667 70 84.334 119.667 137.001 149s119.667 44 201 44c21.333 0 37 -2.33301 47 -7c15.333 -73.333 29 -201.666 41 -384.999l6 -4l95 10v-186zM428.998 335.998l-2 57c-10 5.33301 -21 8 -33 8c-40.667 0 -84 -7 -130 -21c-56.667 -17.333 -92 -39 -106 -65
c4 -18 28 -27 72 -27c64 0 126.667 12.333 188 37z" />
    <glyph glyph-name="uFEF2" unicode="&#x6cc;" horiz-adv-x="1049" arabic-form="final" 
d="M1089 0c-36 -4 -98.667 -12.6709 -188 -26.0039c-86.667 -14.667 -134.667 -29.667 -144 -45l124 -51c66 -27.333 99 -44.666 99 -51.999c0 -30.667 -14 -77.667 -42 -141s-53.667 -103.666 -77 -120.999c-190 -142.667 -361.333 -214 -514 -214
c-184 0 -276 86.333 -276 259c0 54 13.667 114 41 180c30 72.667 65.333 122 106 148l14 -18c-47.333 -50 -71 -107.667 -71 -173c0 -55.333 21 -101 63 -137c40 -34 88.333 -51 145 -51c118.667 0 254 36 406 108v15c-128.667 42 -193 70.667 -193 86v65
c0 16 28.667 61.667 86 137c72 94.667 122.333 149.334 151 164.001c8.66699 4.66699 98.667 22.334 270 53.001v-186z" />
    <glyph glyph-name="uFEF3" unicode="&#x6cc;" horiz-adv-x="433" arabic-form="initial" 
d="M374 255l3.99902 -20c0 -63.333 -21.667 -112.333 -65 -147c-37.333 -30 -86.666 -50 -147.999 -60l-188 -28v186zM377.999 -257c-2 -23.333 -15.668 -67.668 -41.001 -133.001c-13.333 -9.33301 -52.666 -18.666 -117.999 -27.999c-56 -8 -99 -12 -129 -12
c-8 0 -17.333 1 -28 3v8c0 24.667 11.667 64.334 35 119.001c18 7.33301 63 16.666 135 27.999c64 10 111 15 141 15h5z" />
    <glyph glyph-name="uFEF4" unicode="&#x6cc;" horiz-adv-x="545" arabic-form="medial" 
d="M381 -197c-2 -24 -16.335 -69.332 -43.002 -135.999c-15.333 -8.66699 -55 -17.667 -119 -27c-56 -8 -98.667 -12 -128 -12c-10 0 -18.333 0.666992 -25 2c0 41.333 11.333 84.666 34 129.999c26.667 9.33301 72.334 19 137.001 29c62.667 9.33301 109.334 14 140.001 14
h4zM572.998 0.000976562c-138 -25.333 -233.001 -38.001 -285.001 -38.001c-29.333 0 -47.333 3.66699 -54 11l-1 10c-1.33301 10.667 4.33398 34.667 17.001 72c-24.667 -8 -114.334 -26.333 -269.001 -55v186c118 19.333 241 44 369 74c16.667 8.66699 42.667 21 78 37
l2 -6c-1.33301 -11.333 -17.666 -45.666 -48.999 -102.999c0.666992 -14.667 19.667 -21.667 57 -21c13.333 0 58.333 6 135 18v-185z" />
    <glyph glyph-name="Hcircumflex" unicode="&#x622;" horiz-adv-x="457" arabic-form="final" 
d="M578 1130c0 -14 -13.334 -37 -40.001 -69c-65.333 -79.333 -170 -119 -314 -119c-14.667 0 -37 0.333008 -67 1s-52.333 1 -67 1c-49.333 0 -89.666 -21.333 -120.999 -64l-13 -7l-7 7c8.66699 58.667 41.667 110 99 154c55.333 42 113.333 63 174 63
c18.667 0 46.667 -2 84 -6s65.333 -6 84 -6c51.333 0 113 22.333 185 67c2 -4 3 -11.333 3 -22zM492.999 0c-105.333 -16 -213 -37.334 -323 -64.001l-10 9c-6.66699 166.667 -17.667 416.334 -33 749.001c54 75.333 95 121 123 137l43 -677h23c16 0 40.667 3.66699 74 11
l103 21v-186z" />
    <glyph glyph-name="uFE84" unicode="&#x623;" horiz-adv-x="537" arabic-form="final" 
d="M569 0c-127.333 -19.333 -234 -39.333 -320 -60l-9 9c-8.66699 95.333 -14.667 213.333 -18 354l-9 355c30.667 39.333 73 85 127 137l31 -637h22c10 0 68.667 9.33301 176 28v-186zM464 1072c0 -22 -51.332 -63.833 -153.999 -125.5s-168.667 -92.5 -198 -92.5
c-16.667 0 -26.334 4.66699 -29.001 14c21.333 16 52 40.333 92 73l4 11c-52 23.333 -78 47 -78 71c0 37.333 34.333 77.666 103 120.999c64 40 115.667 60 155 60l7 -6l-38 -42c-17.333 -19.333 -26 -35.666 -26 -48.999c0 -20.667 29.333 -31 88 -31
c5.33301 0 25.333 3.33301 60 10c9.33301 -3.33301 14 -8 14 -14z" />
    <glyph glyph-name="uFE86" unicode="&#x624;" horiz-adv-x="957" arabic-form="final" 
d="M997 0c-29.333 -4 -74.665 -11 -135.998 -21c-10 -34 -29.333 -80 -58 -138c-34.667 -70 -72.334 -118.333 -113.001 -145c-36.667 -24 -96.334 -42.667 -179.001 -56l-175 -28c-104.667 0 -212 28 -322 84c77.333 30.667 132.666 49.667 165.999 57l307 67
c160 35.333 248.333 63 265 83l1 9l-9 18l-12 8c-68 0 -112 2.33301 -132 7c-54.667 12.667 -82 40.667 -82 84c0 23.333 11.333 61 34 113c20.667 48.667 39.667 84 57 106c10.667 14 29.334 21 56.001 21c30.667 0 59 -11.333 85 -34c3.33301 -3.33301 25.333 -27 66 -71
c68 6 128.333 13.333 181 22v-186zM807.001 666c0 -22 -51.332 -63.833 -153.999 -125.5s-168.667 -92.5 -198 -92.5c-16.667 0 -26.334 4.66699 -29.001 14c21.333 16 52 40.333 92 73l4 11c-52 23.333 -78 47 -78 71c0 37.333 34.333 77.666 103 120.999
c64 40 115.667 60 155 60l7 -6l-38 -42c-17.333 -19.333 -26 -35.666 -26 -48.999c0 -20.667 29.333 -31 88 -31c5.33301 0 25.333 3.33301 60 10c9.33301 -3.33301 14 -8 14 -14z" />
    <glyph glyph-name="uFE88" unicode="&#x625;" horiz-adv-x="457" arabic-form="final" 
d="M493 0c-104 -16 -211.333 -37.333 -322 -64l-9 9c-8 93.333 -15 218 -21 374c-6.66699 188 -12 313 -16 375c30.667 39.333 73 85 127 137l41 -677h22l178 32v-186zM512 -309c0 -22.667 -51.166 -64.667 -153.499 -126s-168.5 -92 -198.5 -92
c-16.667 0 -26.334 4.66699 -29.001 14c21.333 16 52 40.333 92 73l4 11c-52 23.333 -78 47 -78 71c0 37.333 34.333 77.666 103 120.999c64 40 115.667 60 155 60l7 -6c-42.667 -47.333 -64 -77.666 -64 -90.999c0 -20.667 21.333 -31 64 -31c-4 0 24 3.33301 84 10
c9.33301 -3.33301 14 -8 14 -14z" />
    <glyph glyph-name="uFE8A" unicode="&#x626;" horiz-adv-x="1041" arabic-form="final" 
d="M1069 0c-34.667 -4 -94.666 -12.6699 -179.999 -26.0029c-87.333 -15.333 -135.333 -30.333 -144 -45l124 -51c66 -27.333 99 -44.666 99 -51.999c0 -30.667 -14 -77.667 -42 -141s-53.667 -103.666 -77 -120.999c-190 -142.667 -361.333 -214 -514 -214
c-184 0 -276 86.333 -276 259c0 54 13.667 114 41 180c30 72.667 65.333 122 106 148l14 -18c-47.333 -50 -71 -107.667 -71 -173c0 -55.333 21 -101 63 -137c40 -34 88.333 -51 145 -51c118.667 0 254 36 406 108v15c-128.667 42 -193 70.667 -193 86v65
c0 16 28.667 61.667 86 137c71.333 93.333 121.666 148 150.999 164c12.667 6.66699 100 24.334 262 53.001v-186zM698.001 306.997c0 -22 -51.332 -63.833 -153.999 -125.5s-168.667 -92.5 -198 -92.5c-16.667 0 -26.334 4.66699 -29.001 14c21.333 16 52 40.333 92 73
l4 11c-52 23.333 -78 47 -78 71c0 37.333 34.333 77.666 103 120.999c64 40 115.667 60 155 60l7 -6l-38 -42c-17.333 -19.333 -26 -35.666 -26 -48.999c0 -20.667 29.333 -31 88 -31c5.33301 0 25.333 3.33301 60 10c9.33301 -3.33301 14 -8 14 -14z" />
    <glyph glyph-name="uFE8B" unicode="&#x626;" horiz-adv-x="453" arabic-form="initial" 
d="M446 808c0 -22 -51.332 -63.833 -153.999 -125.5s-168.667 -92.5 -198 -92.5c-16.667 0 -26.334 4.66699 -29.001 14c21.333 16 52 40.333 92 73l4 11c-52 23.333 -78 47 -78 71c0 37.333 34.333 77.666 103 120.999c64 40 115.667 60 155 60l7 -6l-38 -42
c-17.333 -19.333 -26 -35.666 -26 -48.999c0 -20.667 29.333 -31 88 -31c5.33301 0 25.333 3.33301 60 10c9.33301 -3.33301 14 -8 14 -14zM368.001 255l3.99902 -20c0 -63.333 -21.667 -112.333 -65 -147c-37.333 -30 -86.666 -50 -147.999 -60l-190 -28v186
c73.333 12 206.333 35 399 69z" />
    <glyph glyph-name="uFE8C" unicode="&#x626;" horiz-adv-x="545" arabic-form="medial" 
d="M569 0c-123.333 -22.667 -221.004 -34.001 -293.004 -34.001c-29.333 0 -47.333 3.66699 -54 11l-1 10c-1.33301 10.667 4.33398 34.667 17.001 72c-35.333 -12 -127.666 -31.667 -276.999 -59v186c100 16 225.667 42 377 78c16.667 8.66699 42.667 21 78 37l2 -6
c-1.33301 -11.333 -17.666 -45.666 -48.999 -102.999c0.666992 -14 19.667 -21 57 -21c22.667 0 70.334 4.66699 143.001 14v-185zM538.996 696.999c0 -22 -51.332 -63.833 -153.999 -125.5s-168.667 -92.5 -198 -92.5c-16.667 0 -26.334 4.66699 -29.001 14
c21.333 16 52 40.333 92 73l4 11c-52 23.333 -78 47 -78 71c0 37.333 34.333 77.666 103 120.999c64 40 115.667 60 155 60l7 -6l-38 -42c-17.333 -19.333 -26 -35.666 -26 -48.999c0 -20.667 29.333 -31 88 -31c5.33301 0 25.333 3.33301 60 10
c9.33301 -3.33301 14 -8 14 -14z" />
    <glyph glyph-name="uFE8E" unicode="&#x627;" horiz-adv-x="457" arabic-form="final" 
d="M481 0c-50 -8 -153.667 -30.668 -311 -68.001l-10 9c-6.66699 166.667 -17.667 416.334 -33 749.001c54 75.333 95 121 123 137l43 -677h24c21.333 0 76 11.667 164 35v-185z" />
    <glyph glyph-name="uFE90" unicode="&#x628;" horiz-adv-x="1489" arabic-form="final" 
d="M1521 0c-140.667 -26 -235.33 -38.999 -283.997 -38.999c-30.667 0 -50.334 4 -59.001 12c0 12 9.66699 48.333 29 109c-252 -112 -491.667 -168 -719 -168c-104 0 -194 13.333 -270 40c-110.667 38.667 -166 100.334 -166 185.001c0 40 14.333 89 43 147
c26.667 55.333 55.667 97.666 87 126.999l14 4l13 -3l4 -9c-13.333 -22 -20 -53.333 -20 -94c0 -76 44.667 -126.667 134 -152c47.333 -13.333 123.666 -20 228.999 -20c113.333 0 238.666 10.333 375.999 31c150 22.667 271.667 52 365 88
c16.667 9.33301 42.667 21.666 78 36.999l5 -7c-0.666992 -3.33301 -18 -38.333 -52 -105c5.33301 -12 21 -18 47 -18c22 0 70.667 7 146 21v-186zM787.004 -274.999c-18.667 -53.333 -44 -103.333 -76 -150c-78 22.667 -119 42 -123 58c4 18 13.667 44.667 29 80
c16.667 38.667 30 63 40 73c12.667 0 35 -8 67 -24c28.667 -14 49.667 -26.333 63 -37z" />
    <glyph glyph-name="uFE91" unicode="&#x628;" horiz-adv-x="437" arabic-form="initial" 
d="M286 -259c-20 -52.667 -44.666 -102.001 -73.999 -148.001l-3 -1c-49.333 12 -90 30 -122 54v4c0 13.333 9.5 39.833 28.5 79.5s33.5 63.834 43.5 72.501c12.667 0 36.167 -7.83301 70.5 -23.5s53.166 -28.167 56.499 -37.5zM371.001 257.999l4 -20
c0 -113.333 -71 -182.333 -213 -207l-197 -31v186c76 12.667 211.333 36.667 406 72z" />
    <glyph glyph-name="uFE92" unicode="&#x628;" horiz-adv-x="545" arabic-form="medial" 
d="M577 0c-108.667 -20 -206.337 -30 -293.004 -30c-29.333 0 -47.333 3.66699 -54 11l-1 10c-1.33301 10.667 4.33398 34.667 17.001 72c-53.333 -18 -145.666 -39 -276.999 -63v186c64.667 10.667 190.334 38 377.001 82c16.667 8.66699 42.667 21 78 37l2 -6
c-1.33301 -11.333 -17.666 -45.666 -48.999 -102.999c0.666992 -13.333 19.667 -20.333 57 -21c52 -0.666992 99.667 2.66602 143 9.99902v-185zM374.997 -230c-20 -53.333 -46.002 -103.334 -78.002 -150.001l-4 -2c-53.333 12.667 -93.666 31.667 -120.999 57v4
c0 12 10 38.333 30 79s34.667 64.334 44 71.001c14 0 36.333 -7.33301 67 -22c28.667 -14 49.334 -26.333 62.001 -37z" />
    <glyph glyph-name="uFE96" unicode="&#x62a;" horiz-adv-x="1489" arabic-form="final" 
d="M965 635c-6.66699 -29.333 -21.001 -74.334 -43.001 -135.001c-14.667 -8 -54.667 -17 -120 -27c-62 -9.33301 -104 -13.666 -126 -12.999l-27 1c0 59.333 13 103 39 131c16.667 8 61.334 17.333 134.001 28c68 10 115.667 15 143 15zM1525 -0.000976562
c-140.667 -26 -233.996 -38.999 -279.996 -38.999c-30.667 0 -50.334 4 -59.001 12c0 12 9.66699 48.333 29 109c-252 -112 -491.667 -168 -719 -168c-104 0 -194 13.333 -270 40c-110.667 38.667 -166 100.334 -166 185.001c0 40 14.333 89 43 147
c26.667 55.333 55.667 97.666 87 126.999l14 4l13 -3l4 -9c-13.333 -22 -20 -53.333 -20 -94c0 -76 44.667 -126.667 134 -152c47.333 -13.333 123.666 -20 228.999 -20c113.333 0 238.666 10.333 375.999 31c150 22.667 271.667 52 365 88
c16.667 9.33301 42.667 21.666 78 36.999l5 -7c-0.666992 -3.33301 -18 -38.333 -52 -105c5.33301 -12 21 -18 47 -18c19.333 0 66.666 7 141.999 21v-186z" />
    <glyph glyph-name="uFE97" unicode="&#x62a;" horiz-adv-x="441" arabic-form="initial" 
d="M388 849c-2 -23.333 -15.666 -68.334 -40.999 -135.001c-12.667 -8.66699 -52.334 -18 -119.001 -28c-58 -8.66699 -101.667 -13 -131 -13c-10 0 -18.333 0.666992 -25 2v9c0 34.667 11.667 75.334 35 122.001c26.667 9.33301 72 19 136 29c62 9.33301 108.667 14 140 14
h5zM369.001 256.999l4 -20c0 -63.333 -21.667 -112.333 -65 -147c-36.667 -29.333 -86 -49.333 -148 -60c-36 -5.33301 -99.667 -15.333 -191 -30v186z" />
    <glyph glyph-name="uFE98" unicode="&#x62a;" horiz-adv-x="545" arabic-form="medial" 
d="M505 682c-2.66699 -26.667 -17 -71.668 -43 -135.001c-14 -8 -53.667 -17 -119 -27c-61.333 -9.33301 -103.333 -13.666 -126 -12.999l-27 1c0 54.667 13 99 39 133c53.333 19.333 145.333 33 276 41zM585 -0.000976562c-116 -21.333 -215.336 -32.001 -298.003 -32.001
c-29.333 0 -47.333 3.66699 -54 11l-1 10c-1.33301 10.667 4.33398 34.667 17.001 72c-42 -14 -135.333 -34.333 -280 -61v186c88.667 14 215.334 40.667 380.001 80c16.667 8.66699 42.667 21 78 37l2 -6c-1.33301 -11.333 -17.666 -45.666 -48.999 -102.999
c0.666992 -14 19.667 -21 57 -21c52 0 101.333 4 148 12v-185z" />
    <glyph glyph-name="uFE9A" unicode="&#x62b;" horiz-adv-x="1501" arabic-form="final" 
d="M1055 682c-2 -20 -11.667 -47.333 -29 -82c-18.667 -38.667 -35.667 -60.334 -51 -65.001c-62.667 52 -107.667 78 -135 78c-35.333 0 -84 -37 -146 -111c-2.66699 6 -4 13.333 -4 22c13.333 46.667 44.333 99.334 93 158.001c54.667 66 102 99 142 99
c24 0 49.667 -11 77 -33c25.333 -20.667 43 -42.667 53 -66zM1525 0c-140.667 -26 -235.33 -38.999 -283.997 -38.999c-30.667 0 -50.334 4 -59.001 12c0 12 9.66699 48.333 29 109c-252 -112 -491.667 -168 -719 -168c-104 0 -194 13.333 -270 40
c-110.667 38.667 -166 100.334 -166 185.001c0 40 14.333 89 43 147c26.667 55.333 55.667 97.666 87 126.999l14 4l13 -3l4 -9c-13.333 -22 -20 -53.333 -20 -94c0 -76 44.667 -126.667 134 -152c47.333 -13.333 123.666 -20 228.999 -20
c113.333 0 238.666 10.333 375.999 31c150 22.667 271.667 52 365 88c16.667 9.33301 42.667 21.666 78 36.999l5 -7c-0.666992 -3.33301 -18 -38.333 -52 -105c5.33301 -12 21 -18 47 -18c22 0 70.667 7 146 21v-186z" />
    <glyph glyph-name="uFE9B" unicode="&#x62b;" horiz-adv-x="453" arabic-form="initial" 
d="M424 802c-4.66699 -20.667 -15.668 -48.001 -33.001 -82.001c-18.667 -37.333 -35 -60.666 -49 -69.999c-71.333 54.667 -116.333 82 -135 82c-44.667 0 -92.667 -36.667 -144 -110l-7 9l-1 13c14 46 45.333 98 94 156c54.667 65.333 102.334 98 143.001 98
c51.333 0 95.333 -32 132 -96zM369.999 263.999l4 -20c0 -110.667 -71 -179.667 -213 -207l-196 -37v186z" />
    <glyph glyph-name="uFE9C" unicode="&#x62b;" horiz-adv-x="545" arabic-form="medial" 
d="M502 691c-2.66699 -20 -13.001 -47.332 -31.001 -81.999c-19.333 -38.667 -36.333 -60.334 -51 -65.001c-60.667 52 -105.667 78 -135 78c-38 0 -85.333 -37 -142 -111l-7 9l-1 13c14.667 47.333 46 100 94 158c54.667 66 102.334 99 143.001 99c44.667 0 88 -33 130 -99
zM577.999 13.001c-160 -29.333 -256.67 -44 -290.003 -44c-29.333 0 -47.333 3.66699 -54 11l-1 10c-1.33301 10.667 4.33398 34.667 17.001 72c-49.333 -16.667 -141.666 -37.334 -276.999 -62.001v186c73.333 12 199 39 377 81c16.667 8.66699 42.667 21 78 37l2 -6
c-1.33301 -11.333 -17.666 -45.666 -48.999 -102.999c0.666992 -14 19.667 -21 57 -21l140 24v-185z" />
    <glyph glyph-name="uFE9E" unicode="&#x62c;" horiz-adv-x="733" arabic-form="final" 
d="M931 -874c-119.333 -104.667 -208.334 -167.666 -267.001 -188.999c-53.333 -19.333 -161 -29 -323 -29c-178 0 -267 60 -267 180c0 130.667 151 339 453 625c-14.667 11.333 -64.667 21.666 -150 30.999c-68.667 7.33301 -103 28.333 -103 63
c0 12.667 3 24.334 9 35.001c28.667 52 64.667 108.333 108 169c62.667 88 107.334 134 134.001 138l232 37v-186c-62 -7.33301 -119 -15 -171 -23c-78 -12 -121 -23 -129 -33c6 -2 49 -7 129 -15c66 -6.66699 103 -16.667 111 -30l3 -18
c0 -26.667 -15.333 -68.334 -46 -125.001c-25.333 -47.333 -52 -89 -80 -125c-6 -8 -75.667 -75 -209 -201c-102.667 -97.333 -154 -169 -154 -215c0 -69.333 111 -104 333 -104c186 0 311 12.667 375 38h14l5 -10zM719.999 -592.999
c-17.333 -44.667 -41.998 -94.667 -73.998 -150c-78 22.667 -119 42 -123 58c4 18.667 14 45.334 30 80.001c17.333 38 31.333 62 42 72c13.333 0 34.666 -7.33301 63.999 -22s49.666 -27.334 60.999 -38.001z" />
    <glyph glyph-name="uFE9F" unicode="&#x62c;" horiz-adv-x="865" arabic-form="initial" 
d="M822 320c-5.33301 -20 -27.332 -75.333 -65.999 -166l-588 -111c-25.333 -43.333 -66.333 -105.333 -123 -186l-3 4l56 170c-31.333 -8.66699 -73 -19 -125 -31v187c45.333 10 119.666 25.333 222.999 46c37.333 73.333 81.333 140 132 200c70 83.333 132 125 186 125
c42.667 0 98 -39.667 166 -119s115.333 -119 142 -119zM455.001 -192c-17.333 -54.667 -42 -104.667 -74 -150c-62 17.333 -103.667 36.333 -125 57v4c0 10.667 10 36 30 76c18.667 38 32.667 62.667 42 74c14 0 36.333 -7.66699 67 -23c28 -14 48 -26.667 60 -38z
M547.001 300c-3.33301 23.333 -16.833 43.833 -40.5 61.5s-47.5 26.5 -71.5 26.5c-55.333 0 -114.333 -48 -177 -144z" />
    <glyph glyph-name="uFEA0" unicode="&#x62c;" horiz-adv-x="896" arabic-form="medial" 
d="M934 13c-44 -8.66699 -137.669 -24.001 -281.002 -46.001c-8 -1.33301 -16.667 0.333984 -26 5.00098s-13 11 -11 19c14 62 21 104.667 21 128l-23 1l-449 -84l-123 -184h-4c-0.666992 6.66699 8 34.667 26 84l33 90c-38.667 -9.33301 -82.667 -18 -132 -26v186
c50.667 7.33301 125.667 21 225 41c34.667 70 79 136.667 133 200c71.333 84 134 126 188 126c51.333 0 107.333 -41.667 168 -125c58.667 -80 105.334 -117.667 140.001 -113c-4.66699 -19.333 -21.667 -64.333 -51 -135l17 -5c8.66699 0 58.334 8 149.001 24v-186z
M543.998 294.999c0 10 -2.66699 19.333 -8 28c-43.333 40 -78 60 -104 60c-56.667 0 -115.667 -48 -177 -144c38.667 10 135 28.667 289 56zM451.998 -197.001c-17.333 -54.667 -42 -104.667 -74 -150c-62 17.333 -103.667 36.333 -125 57v4c0 10.667 10 36 30 76
c18.667 38 32.667 62.667 42 74c14 0 36.333 -7.66699 67 -23c28 -14 48 -26.667 60 -38z" />
    <glyph glyph-name="uFEA2" unicode="&#x62d;" horiz-adv-x="729" arabic-form="final" 
d="M923 -874c-119.333 -104.667 -208.334 -167.666 -267.001 -188.999c-53.333 -19.333 -161 -29 -323 -29c-178 0 -267 60 -267 180c0 130.667 151 339 453 625c-14.667 11.333 -64.667 21.666 -150 30.999c-68.667 7.33301 -103 28.333 -103 63
c0 12.667 3 24.334 9 35.001c28.667 52 64.667 108.333 108 169c62.667 88 107.334 134 134.001 138l236 37v-186c-64.667 -7.33301 -123 -15 -175 -23c-78 -12 -121 -23 -129 -33c6 -2 49 -7 129 -15c66 -6.66699 103 -16.667 111 -30l3 -18
c0 -26.667 -15.333 -68.334 -46 -125.001c-25.333 -47.333 -52 -89 -80 -125c-6 -8 -75.667 -75 -209 -201c-102.667 -97.333 -154 -169 -154 -215c0 -69.333 111 -104 333 -104c186 0 311 12.667 375 38h14l5 -10z" />
    <glyph glyph-name="uFEA3" unicode="&#x62d;" horiz-adv-x="849" arabic-form="initial" 
d="M814 315c-5.33301 -20 -27.333 -75.333 -66 -166l-588 -111c-25.333 -43.333 -66.333 -105.333 -123 -186l-3 4l56 170c-50 -12 -90.333 -20.667 -121 -26v187c24 4 97 17.667 219 41c37.333 73.333 81.333 140 132 200c70 83.333 132 125 186 125
c42.667 0 98 -39.667 166 -119s115.333 -119 142 -119zM539 295c-3.33301 23.333 -16.833 43.833 -40.5 61.5s-47.5 26.5 -71.5 26.5c-55.333 0 -114.333 -48 -177 -144z" />
    <glyph glyph-name="uFEA4" unicode="&#x62d;" horiz-adv-x="896" arabic-form="medial" 
d="M933 0c-61.333 -4.66699 -155.001 -14.6689 -281.001 -30.002c-8.66699 -1.33301 -17 0 -25 4c-10 4.66699 -14 11.334 -12 20.001c14 62 21 104.667 21 128l-23 1l-449 -84l-123 -184h-4c-0.666992 6.66699 8 34.667 26 84l33 90
c-32.667 -8 -76.334 -17.667 -131.001 -29v186c18.667 2.66699 93.334 17.334 224.001 44.001c34.667 70 79 136.667 133 200c71.333 84 134 126 188 126c51.333 0 107.333 -41.667 168 -125c58.667 -80 105.334 -117.667 140.001 -113
c-4.66699 -19.333 -21.667 -64.333 -51 -135l17 -5c69.333 0 119 2.66699 149 8v-186zM542.999 297.998c0 10 -2.66699 19.333 -8 28c-43.333 40 -78 60 -104 60c-56.667 0 -115.667 -48 -177 -144c38.667 10 135 28.667 289 56z" />
    <glyph glyph-name="uFEA6" unicode="&#x62e;" horiz-adv-x="717" arabic-form="final" 
d="M562 408c-21.333 -50 -45.999 -100.002 -73.999 -150.002c-84.667 25.333 -127 44.333 -127 57c0 26.667 24 77.334 72 152.001c13.333 0 36.666 -7.33301 69.999 -22c36 -15.333 55.667 -27.666 59 -36.999zM915.001 -874.002
c-119.333 -104.667 -208.334 -167.666 -267.001 -188.999c-53.333 -19.333 -161 -29 -323 -29c-178 0 -267 60 -267 180c0 130.667 151 339 453 625c-14.667 11.333 -64.667 21.666 -150 30.999c-68.667 7.33301 -103 28.333 -103 63c0 12.667 3 24.334 9 35.001
c28.667 52 64.667 108.333 108 169c62.667 88 107.334 134 134.001 138l236 37v-186c-64.667 -7.33301 -123 -15 -175 -23c-78 -12 -121 -23 -129 -33c6 -2 49 -7 129 -15c66 -6.66699 103 -16.667 111 -30l3 -18c0 -26.667 -15.333 -68.334 -46 -125.001
c-25.333 -47.333 -52 -89 -80 -125c-6 -8 -75.667 -75 -209 -201c-102.667 -97.333 -154 -169 -154 -215c0 -69.333 111 -104 333 -104c186 0 311 12.667 375 38h14l5 -10z" />
    <glyph glyph-name="uFEA7" unicode="&#x62e;" horiz-adv-x="845" arabic-form="initial" 
d="M471 834c0 -21.333 -23.999 -71.334 -71.999 -150.001l-3 -1c-52 12.667 -94 30.667 -126 54c4.66699 16.667 15.667 44 33 82c19.333 42.667 33.666 67.334 42.999 74.001c83.333 -23.333 125 -43 125 -59zM807.001 314.999c-5.33301 -20 -27.334 -75.333 -66.001 -166
l-588 -111c-25.333 -43.333 -66.333 -105.333 -123 -186l-3 4l56 170c-55.333 -13.333 -94.666 -22 -117.999 -26v187c14.667 2 86.667 15.667 216 41c37.333 73.333 81.333 140 132 200c70 83.333 132 125 186 125c42.667 0 98 -39.667 166 -119s115.333 -119 142 -119z
M532 294.999c-3.33301 23.333 -16.833 43.833 -40.5 61.5s-47.5 26.5 -71.5 26.5c-55.333 0 -114.333 -48 -177 -144z" />
    <glyph glyph-name="uFEA8" unicode="&#x62e;" horiz-adv-x="896" arabic-form="medial" 
d="M466 838c0 -21.333 -23.999 -71.334 -71.999 -150.001l-3 -1c-52 12.667 -94 30.667 -126 54c4.66699 16.667 15.667 44 33 82c19.333 42.667 33.666 67.334 42.999 74.001c83.333 -23.333 125 -43 125 -59zM916.001 9.99902c-76.667 -10 -170.001 -23 -280.001 -39
c-8.66699 -1.33301 -17 0 -25 4c-10 5.33301 -14 12 -12 20c14 62 21 104.667 21 128l-23 1l-449 -84l-123 -184h-4c-0.666992 6.66699 8 34.667 26 84l33 90c-31.333 -8 -73.666 -18 -126.999 -30v186c21.333 4 94.666 19 219.999 45c34.667 70 79 136.667 133 200
c71.333 84 134 126 188 126c51.333 0 107.333 -41.667 168 -125c58.667 -80 105.334 -117.667 140.001 -113c-4.66699 -19.333 -21.667 -64.333 -51 -135l17 -5c34.667 0 84 5.66699 148 17v-186zM527 298.999c0 10 -2.66699 19.333 -8 28c-43.333 40 -78 60 -104 60
c-56.667 0 -115.667 -48 -177 -144c38.667 10 135 28.667 289 56z" />
    <glyph glyph-name="uFEAA" unicode="&#x62f;" horiz-adv-x="905" arabic-form="final" 
d="M949 0c-38 -8.66699 -78.999 -12.998 -122.999 -12.998l-22 4c-37.333 37.333 -77.666 66.666 -120.999 87.999c-19.333 -44 -51.333 -82 -96 -114c-46.667 -33.333 -93.334 -50 -140.001 -50c-237.333 0 -382 13 -434 39c4 14 11.333 24.333 22 31l86 52
c37.333 22.667 126.333 43.667 267 63c134 18.667 220 42.667 258 72c20 15.333 32.333 54.666 37 117.999c6 10 31.333 34 76 72l40 -104c21.333 -52.667 44.666 -79 69.999 -79c29.333 0 56 2.33301 80 7v-186z" />
    <glyph glyph-name="uFEAC" unicode="&#x630;" horiz-adv-x="909" arabic-form="final" 
d="M727 738c-18.667 -55.333 -43.335 -105.331 -74.002 -149.998l-3 -1c-51.333 11.333 -92 28.666 -122 51.999c3.33301 17.333 13.333 45 30 83s30.334 62.333 41.001 73c14.667 0 37.334 -6.83301 68.001 -20.5s50.667 -25.834 60 -36.501zM936.999 0.00195312
c-49.333 -11.333 -90.333 -17 -123 -17l-22 4c-37.333 37.333 -77.666 66.666 -120.999 87.999c-19.333 -44 -51.333 -82 -96 -114c-46.667 -33.333 -93.334 -50 -140.001 -50c-237.333 0 -382 13 -434 39c4 14 11.333 24.333 22 31l86 52
c37.333 22.667 126.333 43.667 267 63c134 18.667 220 42.667 258 72c20 15.333 32.333 54.666 37 117.999c6 10 31.333 34 76 72l40 -104c22 -53.333 45.333 -79.666 70 -78.999c21.333 0.666992 48 4.33398 80 11.001v-186z" />
    <glyph glyph-name="uFEAE" unicode="&#x631;" horiz-adv-x="921" arabic-form="final" 
d="M957 0c-29.333 -4 -79.666 -12.1699 -150.999 -24.5029s-110.333 -26.166 -117 -41.499c-66 -144.667 -144.333 -217 -235 -217c-237.333 0 -383 13 -437 39c2 10.667 7.33301 21.334 16 32.001c83.333 56 199.666 97.667 348.999 125
c144 26.667 233.333 53.334 268 80.001c4 3.33301 13.333 18.333 28 45c34 62.667 66.333 100.667 97 114l182 34v-186z" />
    <glyph glyph-name="uFEB0" unicode="&#x632;" horiz-adv-x="933" arabic-form="final" 
d="M728 514c-9.33301 -40.667 -33.333 -90.668 -72 -150.001l-3 -1c-78 18.667 -118.667 38.334 -122 59.001c8.66699 36 32.667 86.667 72 152c14.667 0 36.667 -7.33301 66 -22c27.333 -13.333 47 -26 59 -38zM969 -0.000976562
c-32 -3.33301 -86.332 -10.6699 -162.999 -22.0029c-70.667 -12 -109.667 -26 -117 -42c-66 -144.667 -144.333 -217 -235 -217c-237.333 0 -383 13 -437 39c2 10.667 7.33301 21.334 16 32.001c83.333 56 199.666 97.667 348.999 125c144 26.667 233.333 53.334 268 80.001
c4 3.33301 13.333 18.333 28 45c34 62.667 66.333 100.667 97 114c31.333 4.66699 96 15.334 194 32.001v-186z" />
    <glyph glyph-name="uFEB2" unicode="&#x633;" horiz-adv-x="1369" arabic-form="final" 
d="M1401 0c-256 -46.667 -444 -69.999 -564 -69.999v-4c0 -18.667 -14 -60 -42 -124c-14 -32 -35.667 -74.667 -65 -128c-29.333 -40 -88 -72.333 -176 -97c-73.333 -20.667 -142.333 -31 -207 -31c-197.333 0 -296 77.333 -296 232c0 44 18.667 110.667 56 200
c41.333 99.333 79.666 148.666 114.999 147.999c12 0 18 -2.33301 18 -7c0 12 -1.66699 18 -5 18c-6 0 -19.333 -28.333 -40 -85c-30.667 -82.667 -46 -136.334 -46 -161.001c0 -90 86.333 -135 259 -135c155.333 0 259.333 25.667 312 77c3.33301 9.33301 5 16 5 20
c0 47.333 -31 107 -93 179c18.667 44.667 60 117 124 217l5 1c12 -5.33301 26.667 -20.166 44 -44.499s32.333 -39.833 45 -46.5c28.667 -15.333 74.334 -23 137.001 -23c90.667 0 228.667 16.667 414 50v-186z" />
    <glyph glyph-name="uFEB3" unicode="&#x633;" horiz-adv-x="657" arabic-form="initial" 
d="M614 309c-13.333 -42.667 -28 -75.335 -44 -98.002c-87.333 -125.333 -176 -245.666 -266 -360.999l-4 13c2.66699 24.667 17 60.334 43 107.001c28 50.667 44.667 87 50 109l-14 4l-402 -83v187c231.333 40 439 88.333 623 145c6 -6 10.667 -13.667 14 -23z" />
    <glyph glyph-name="uFEB4" unicode="&#x633;" horiz-adv-x="1064" arabic-form="medial" 
d="M1095 8c-138 -28 -233.334 -41.998 -286.001 -41.998c-17.333 0 -27.333 5.66699 -30 17c-1.33301 5.33301 -0.333008 18.666 3 39.999l-5 9c-5.33301 -1.33301 -45.666 -13 -120.999 -35c-50 -14.667 -90.667 -22 -122 -22l-13 2l-5 9l6 38l-5 8
c-75.333 -18.667 -189 -40 -341 -64l-16 5c3.33301 20.667 8.66602 43.667 15.999 69c-20 -10.667 -49.333 -19 -88 -25l-115 -17v186c129.333 23.333 207.333 38.333 234 45c74 17.333 141.667 38 203 62l6 -10l-39 -93c8.66699 -5.33301 27.334 -8 56.001 -8
c46 0 93 14 141 42l127 77c4.66699 -3.33301 7 -8 7 -14c0 -6.66699 -5.33301 -21.334 -16 -44.001s-16 -38.667 -16 -48l1 -7c45.333 0 91.333 14.667 138 44c61.333 38.667 95 59 101 61l8 -12l-17 -49c-6.66699 -19.333 -10 -36.333 -10 -51l1 -11l22 -2
c22.667 0 81 8.66699 175 26v-186z" />
    <glyph glyph-name="uFEB6" unicode="&#x634;" horiz-adv-x="1365" arabic-form="final" 
d="M1216 578c-2.66699 -17.333 -13.668 -44.667 -33.001 -82c-20.667 -40 -37 -62.667 -49 -68c-68.667 52 -113.667 78 -135 78c-36.667 0 -84.667 -35.667 -144 -107l-6 21c14 46.667 45.333 99 94 157c54.667 65.333 102.334 98 143.001 98c52.667 0 96 -32.333 130 -97z
M1393 -0.000976562c-256 -46.667 -444 -69.999 -564 -69.999v-4c0 -18.667 -14 -60 -42 -124c-14 -32 -35.667 -74.667 -65 -128c-29.333 -40 -88 -72.333 -176 -97c-73.333 -20.667 -142.333 -31 -207 -31c-197.333 0 -296 77.333 -296 232c0 44 18.667 110.667 56 200
c41.333 99.333 79.666 148.666 114.999 147.999c12 0 18 -2.33301 18 -7c0 12 -1.66699 18 -5 18c-6 0 -19.333 -28.333 -40 -85c-30.667 -82.667 -46 -136.334 -46 -161.001c0 -90 86.333 -135 259 -135c155.333 0 259.333 25.667 312 77c3.33301 9.33301 5 16 5 20
c0 47.333 -31 107 -93 179c18.667 44.667 60 117 124 217l5 1c12 -5.33301 26.667 -20.166 44 -44.499s32.333 -39.833 45 -46.5c28.667 -15.333 74.334 -23 137.001 -23c90.667 0 228.667 16.667 414 50v-186z" />
    <glyph glyph-name="uFEB7" unicode="&#x634;" horiz-adv-x="653" arabic-form="initial" 
d="M492 722c-4.66699 -22 -15.332 -49.667 -31.999 -83c-18.667 -38.667 -35.334 -61 -50.001 -67c-66.667 54.667 -111 82 -133 82c-38 0 -86.667 -37 -146 -111c-2.66699 6 -4 13 -4 21c13.333 46 44 98.333 92 157c54 66 101 99 141 99c23.333 0 49 -11 77 -33
c26 -20 44.333 -41.667 55 -65zM611.002 330c-13.333 -42.667 -28 -75.334 -44 -98.001c-87.333 -125.333 -176 -245.666 -266 -360.999l-4 13c2.66699 24.667 17 60.334 43 107.001c28 50.667 44.667 87 50 109l-14 4c-86.667 -24 -225 -58.667 -415 -104v187
c146.667 25.333 358.667 80.666 636 165.999c6 -6 10.667 -13.667 14 -23z" />
    <glyph glyph-name="uFEB8" unicode="&#x634;" horiz-adv-x="1064" arabic-form="medial" 
d="M927 857c-33.333 -92 -60.668 -141.332 -82.001 -147.999c-69.333 52 -114.666 78 -135.999 78c-43.333 0 -91 -35.333 -143 -106l-4 6l-2 12c13.333 45.333 44.333 97.666 93 156.999c54.667 66.667 102 100 142 100c35.333 0 79.333 -33 132 -99zM1096 3.00098
c-121.333 -24.667 -217.334 -36.998 -288.001 -36.998c-17.333 0 -27.333 5.66699 -30 17c-1.33301 5.33301 -0.333008 18.666 3 39.999l-5 9c-5.33301 -1.33301 -45.666 -13 -120.999 -35c-50 -14.667 -90.667 -22 -122 -22l-13 2l-5 9l6 38l-5 8
c-75.333 -18.667 -189 -40 -341 -64l-16 5c3.33301 20.667 8.66602 43.667 15.999 69c-19.333 -10.667 -89.333 -24.667 -210 -42v186l241 45c55.333 10 123 30.667 203 62l6 -10l-39 -93c8.66699 -5.33301 27.334 -8 56.001 -8c46 0 93 14 141 42l127 77
c4.66699 -3.33301 7 -8 7 -14c0 -6.66699 -5.33301 -21.334 -16 -44.001s-16 -38.667 -16 -48l1 -7c45.333 0 91.333 14.667 138 44c61.333 38.667 95 59 101 61l8 -12l-17 -49c-6.66699 -19.333 -10 -36.333 -10 -51l1 -11l22 -2c38.667 0 97.667 7 177 21v-186z" />
    <glyph glyph-name="uFEBA" unicode="&#x635;" horiz-adv-x="1569" arabic-form="final" 
d="M1597 0c-205.333 -40 -393.001 -60.001 -563.001 -60.001c-40 0 -67 4 -81 12c-18 10 -32.667 32 -44 66c-20 -7.33301 -40.333 -13.333 -61 -18c0 -16 -14.667 -57.333 -44 -124c-14.667 -33.333 -35.667 -74 -63 -122c-29.333 -40 -90 -72 -182 -96
c-72 -18.667 -142.667 -28 -212 -28c-189.333 0 -284 76.667 -284 230c0 59.333 16 122 48 188c30 62.667 68 115.667 114 159l9 1l9 -1l8 -13c-58.667 -81.333 -88 -154.666 -88 -219.999c0 -90.667 85.667 -136 257 -136c152.667 0 257 25 313 75
c3.33301 9.33301 5 16 5 20c0 46.667 -31 107.667 -93 183c24 57.333 53.333 115.666 88 174.999c6 -2.66699 25.333 -17 58 -43c22.667 -18 44.667 -27 66 -27c28.667 0 55 7 79 21c34 90 124.333 211.333 271 364c30.667 32 77.334 48 140.001 48
c37.333 0 69 -8.33301 95 -25c30.667 -19.333 46 -46.666 46 -81.999c0 -38.667 -15.667 -94 -47 -166c-25.333 -58.667 -64 -107.667 -116 -147c-23.333 -18 -77 -50.333 -161 -97c12 -2 37.667 -3 77 -3c42.667 0 98.667 6.33301 168 19c36 6 98.667 17 188 33v-186z
M1356 409.999c0 38.667 -33 58 -99 58c-46.667 0 -96.667 -21.333 -150 -64c-56 -44.667 -85.333 -89.667 -88 -135l1 -7c38 0 98.333 17.333 181 52c86 36 137.667 68 155 96z" />
    <glyph glyph-name="uFEBB" unicode="&#x635;" horiz-adv-x="1145" arabic-form="initial" 
d="M141 -47c-11.333 0 -20 3.00098 -26 9.00098l-2 11c0.666992 6 3.33398 24 8.00098 54c-15.333 -3.33301 -66 -12.333 -152 -27v186c43.333 4.66699 84 10 122 16s68.333 16.667 91 32l108 73l5 -1l8 -13c-0.666992 -9.33301 -6.66699 -24.833 -18 -46.5
s-17 -38.834 -17 -51.501c0 -11.333 6.66699 -17 20 -17c82 0 150 14 204 42c12 25.333 62.333 87.833 151 187.5s146.334 158.834 173.001 177.501c35.333 25.333 77.666 38 126.999 38c98 0 147 -47.667 147 -143c0 -18.667 -16 -63.334 -48 -134.001
c-10.667 -23.333 -27.334 -55 -50.001 -95c-60.667 -81.333 -191.667 -153.333 -393 -216c-176 -54.667 -328.667 -82 -458 -82zM941 363.001c0 37.333 -42.333 56 -127 56c-40 0 -88.333 -21.333 -145 -64c-58.667 -44 -91.667 -85 -99 -123
c53.333 5.33301 119 20.333 197 45c92.667 29.333 150.667 58 174 86z" />
    <glyph glyph-name="uFEBC" unicode="&#x635;" horiz-adv-x="1179" arabic-form="medial" 
d="M1221 12c-248 -47.333 -406.666 -70.999 -475.999 -70.999c-74 0 -124 2.33301 -150 7c-56 10 -96.333 34.333 -121 73c-143.333 -46.667 -257.666 -70 -342.999 -70c-6.66699 0 -12.334 2.66699 -17.001 8l-1 10c0.666992 6 3.33398 24 8.00098 54
c-25.333 -2.66699 -76 -10.334 -152 -23.001v186c23.333 2 63.666 6.66699 120.999 14c29.333 4.66699 59.333 14.667 90 30c33.333 23.333 70 47.666 110 72.999l5 -1l8 -13c0 -2 -5.66699 -17.167 -17 -45.5s-17 -49.833 -17 -64.5l7 -5l46 -1
c24 -0.666992 61.667 6.33301 113 21c54 14.667 89 28.667 105 42c20 48 60.333 116.333 121 205c63.333 92.667 113 153 149 181c40 31.333 85.333 47 136 47c44 0 80 -12.667 108 -38s42 -59.666 42 -102.999c0 -28.667 -9.66699 -67 -29 -115
c-32 -79.333 -70 -138 -114 -176c-28.667 -24.667 -88 -59.667 -178 -105h37c25.333 0 161.666 21.667 408.999 65v-185zM968.001 402.001c0 37.333 -40 55.999 -120 55.999c-44 0 -90.5 -20.667 -139.5 -62s-76.833 -83.666 -83.5 -126.999l4 -16
c38.667 0 99.5 17.667 182.5 53s135.167 67.333 156.5 96z" />
    <glyph glyph-name="uFEBE" unicode="&#x636;" horiz-adv-x="1565" arabic-form="final" 
d="M1073 865c-21.333 -50.667 -45.001 -100.001 -71.001 -148.001c-38 2 -80.333 20.333 -127 55c12.667 52.667 36.334 103.334 71.001 152.001c14 0 36 -7.16699 66 -21.5s50.333 -26.833 61 -37.5zM1597 -0.000976562c-205.333 -40 -393.001 -60.001 -563.001 -60.001
c-40 0 -67 4 -81 12c-18 10 -32.667 32 -44 66c-20 -7.33301 -40.333 -13.333 -61 -18c0 -16 -14.667 -57.333 -44 -124c-14.667 -33.333 -35.667 -74 -63 -122c-29.333 -40 -90 -72 -182 -96c-72 -18.667 -142.667 -28 -212 -28c-189.333 0 -284 76.667 -284 230
c0 59.333 16 122 48 188c30 62.667 68 115.667 114 159l9 1l9 -1l8 -13c-58.667 -81.333 -88 -154.666 -88 -219.999c0 -90.667 85.667 -136 257 -136c152.667 0 257 25 313 75c3.33301 9.33301 5 16 5 20c0 46.667 -31 107.667 -93 183
c24 57.333 53.333 115.666 88 174.999c6 -2.66699 25.333 -17 58 -43c22.667 -18 44.667 -27 66 -27c28.667 0 55 7 79 21c34 90 124.333 211.333 271 364c30.667 32 77.334 48 140.001 48c37.333 0 69 -8.33301 95 -25c30.667 -19.333 46 -46.666 46 -81.999
c0 -38.667 -15.667 -94 -47 -166c-25.333 -58.667 -64 -107.667 -116 -147c-23.333 -18 -77 -50.333 -161 -97c12 -2 37.667 -3 77 -3c42.667 0 98.667 6.33301 168 19c36 6 98.667 17 188 33v-186zM1356 409.998c0 38.667 -33 58 -99 58
c-46.667 0 -96.667 -21.333 -150 -64c-56 -44.667 -85.333 -89.667 -88 -135l1 -7c38 0 98.333 17.333 181 52c86 36 137.667 68 155 96z" />
    <glyph glyph-name="uFEBF" unicode="&#x636;" horiz-adv-x="1141" arabic-form="initial" 
d="M640 884c-11.333 -27.333 -35.999 -76.333 -73.999 -147l-6 -2c-80.667 18 -121 37.667 -121 59c0 13.333 23.667 63.333 71 150c13.333 0 35.666 -7.66699 66.999 -23c29.333 -14 50.333 -26.333 63 -37zM143.001 -49c-11.333 0 -20.002 3.00098 -26.002 9.00098l-2 11
c0.666992 6 3.33398 24 8.00098 54c-27.333 -4 -78.666 -12.333 -153.999 -25v186c46.667 4 88.334 8.66699 125.001 14s66.667 16 90 32l108 73l5 -1l8 -13c-0.666992 -9.33301 -6.66699 -24.833 -18 -46.5s-17 -38.834 -17 -51.501c0 -11.333 6.66699 -17 20 -17
c82 0 150 14 204 42c12 25.333 62.333 87.833 151 187.5s146.334 158.834 173.001 177.501c35.333 25.333 77.666 38 126.999 38c98 0 147 -47.667 147 -143c0 -18.667 -16 -63.334 -48 -134.001c-10.667 -23.333 -27.334 -55 -50.001 -95
c-60.667 -81.333 -191.667 -153.333 -393 -216c-176 -54.667 -328.667 -82 -458 -82zM942.999 361.001c0 37.333 -42.333 56 -127 56c-40 0 -88.333 -21.333 -145 -64c-58.667 -44 -91.667 -85 -99 -123c53.333 5.33301 119 20.333 197 45c92.667 29.333 150.667 58 174 86z
" />
    <glyph glyph-name="uFEC0" unicode="&#x636;" horiz-adv-x="1179" arabic-form="medial" 
d="M855 948c-18.667 -50 -43.333 -100 -74 -150l-4 -1c-52 13.333 -92.333 32 -121 56v4c0 27.333 23.333 77.333 70 150c12.667 0 36.667 -7.5 72 -22.5s54.333 -27.167 57 -36.5zM1209 4c-220 -42 -374.666 -62.999 -463.999 -62.999c-74 0 -124 2.33301 -150 7
c-56 10 -96.333 34.333 -121 73c-143.333 -46.667 -257.666 -70 -342.999 -70c-6.66699 0 -12.334 2.66699 -17.001 8l-1 10c0.666992 6 3.33398 24 8.00098 54c-25.333 -2.66699 -76 -10.334 -152 -23.001v186c23.333 2 63.666 6.66699 120.999 14
c29.333 4.66699 59.333 14.667 90 30c33.333 23.333 70 47.666 110 72.999l5 -1l8 -13c0 -2 -5.66699 -17.167 -17 -45.5s-17 -49.833 -17 -64.5l7 -5l46 -1c24 -0.666992 61.667 6.33301 113 21c54 14.667 89 28.667 105 42c20 48 60.333 116.333 121 205
c63.333 92.667 113 153 149 181c40 31.333 85.333 47 136 47c44 0 80 -12.667 108 -38s42 -59.666 42 -102.999c0 -28.667 -9.66699 -67 -29 -115c-32 -79.333 -70 -138 -114 -176c-28.667 -24.667 -88 -59.667 -178 -105h37c47.333 0 179.666 19 396.999 57v-185z
M968.002 402.001c0 37.333 -40 55.999 -120 55.999c-44 0 -90.5 -20.667 -139.5 -62s-76.833 -83.666 -83.5 -126.999l4 -16c38.667 0 99.5 17.667 182.5 53s135.167 67.333 156.5 96z" />
    <glyph glyph-name="uFEC2" unicode="&#x637;" horiz-adv-x="961" arabic-form="final" 
d="M420 606c2 -26 -12.333 -60.333 -43 -103c-28.667 -39.333 -56 -66.333 -82 -81l-31 516l58.5 73c28.333 35.333 50.5 57 66.5 65zM989 0c-222.667 -42 -395.667 -63.001 -519 -63.001c-112.667 0 -174.667 35.333 -186 106l-23 -1c-36 -1.33301 -76.667 8.66699 -122 30
c-51.333 24.667 -77 54.334 -77 89.001l7 11l116 21c50 10.667 86 22 108 34c28.667 96.667 86 194 172 292c98 111.333 191 167 279 167c33.333 0 63.666 -12.167 90.999 -36.5s41 -52.833 41 -85.5c0 -88 -34.667 -173.667 -104 -257c-61.333 -73.333 -136 -130 -224 -170
c10.667 -2.66699 23 -4 37 -4c76.667 0 211.334 17.667 404.001 53v-186zM744 427.999c0 21.333 -13.332 39.333 -39.999 54c-22.667 12.667 -45.667 19 -69 19c-58.667 0 -115.667 -26.167 -171 -78.5s-83.666 -107.833 -84.999 -166.5
c45.333 9.33301 107.666 31 186.999 65c93.333 40 152.666 75.667 177.999 107z" />
    <glyph glyph-name="uFEC3" unicode="&#x637;" horiz-adv-x="773" arabic-form="initial" 
d="M267 626c1.33301 -27.333 -12.333 -62.333 -41 -105c-27.333 -39.333 -54 -67.333 -80 -84l-31 511c30 39.333 71.667 84.333 125 135zM-38.999 0l0.000976562 185.001c60.667 5.33301 125 17 193 35c53.333 92 114.666 175 183.999 249c95.333 102 179 153 251 153
c42.667 0 77.667 -14 105 -42s41 -63.333 41 -106c0 -16.667 -11.667 -55.334 -35 -116.001c-41.333 -106.667 -143.333 -191.667 -306 -255c-82 -32 -226.333 -66.333 -433 -103zM607.002 386.001c-4.66699 31.333 -49 46.999 -133 46.999
c-38.667 0 -88 -24.167 -148 -72.5s-94 -91.166 -102 -128.499c40 0 108 18 204 54c101.333 38 161 71.333 179 100z" />
    <glyph glyph-name="uFEC4" unicode="&#x637;" horiz-adv-x="845" arabic-form="medial" 
d="M198 462l-31 514c30.667 40.667 72.334 87.334 125.001 140.001c21.333 -242.667 32 -393.334 32 -452.001c0 -36 -13.333 -74.333 -40 -115c-24.667 -38 -53.334 -67 -86.001 -87zM876 12c-249.333 -44 -412 -66 -488 -66c-118.667 0 -189 30.333 -211 91
c-66.667 -10.667 -137.334 -23 -212.001 -37v186l126 20c39.333 6.66699 71 16 95 28c28 87.333 83.667 182 167 284c96.667 118 183.667 177 261 177c101.333 0 152 -54.333 152 -163c0 -8.66699 -22 -65 -66 -169c-32.667 -76.667 -120 -149 -262 -217
c10.667 -3.33301 24 -5 40 -5c44.667 0 177.334 19 398.001 57v-186zM637 435c0 21.333 -15 39.667 -45 55c-25.333 13.333 -49.666 20 -72.999 20c-52 0 -106.5 -27.833 -163.5 -83.5s-85.5 -109.5 -85.5 -161.5c43.333 5.33301 105.666 25 186.999 59
c92.667 38.667 152.667 75.667 180 111z" />
    <glyph glyph-name="uFEC6" unicode="&#x638;" horiz-adv-x="957" arabic-form="final" 
d="M744 930c-18.667 -49.333 -42.668 -98.333 -72.001 -147l-3 -1c-77.333 17.333 -118.666 36 -123.999 56c12.667 54.667 37.334 106 74.001 154c13.333 0 36.666 -7.66699 69.999 -23c36 -16 54.333 -29 55 -39zM415.999 606c2 -26 -12.333 -60.333 -43 -103
c-28.667 -39.333 -56 -66.333 -82 -81l-31 516l58.5 73c28.333 35.333 50.5 57 66.5 65zM972.999 0c-222.667 -42 -391.667 -63.001 -507 -63.001c-112.667 0 -174.667 35.333 -186 106l-23 -1c-36 -1.33301 -76.667 8.66699 -122 30c-51.333 24.667 -77 54.334 -77 89.001
l7 11l116 21c50 10.667 86 22 108 34c28.667 96.667 86 194 172 292c98 111.333 191 167 279 167c33.333 0 63.666 -12.167 90.999 -36.5s41 -52.833 41 -85.5c0 -88 -34.667 -173.667 -104 -257c-61.333 -73.333 -136 -130 -224 -170c10.667 -2.66699 23 -4 37 -4
c68.667 0 199.334 17.667 392.001 53v-186zM739.999 427.999c0 21.333 -13.332 39.333 -39.999 54c-22.667 12.667 -45.667 19 -69 19c-58.667 0 -115.667 -26.167 -171 -78.5s-83.666 -107.833 -84.999 -166.5c45.333 9.33301 107.666 31 186.999 65
c93.333 40 152.666 75.667 177.999 107z" />
    <glyph glyph-name="uFEC7" unicode="&#x638;" horiz-adv-x="805" arabic-form="initial" 
d="M634 886c-11.333 -27.333 -35.999 -76.333 -73.999 -147l-6 -2c-80.667 18 -121 37.667 -121 59c0 13.333 23.667 63.333 71 150c13.333 0 35.666 -7.66699 66.999 -23c29.333 -14 50.333 -26.333 63 -37zM271.001 626c1.33301 -27.333 -12.333 -62.333 -41 -105
c-27.333 -39.333 -54 -67.333 -80 -84l-31 511c30 39.333 71.667 84.333 125 135zM-30.998 0l0.000976562 185c56.667 4.66699 119.667 16.334 189 35.001c53.333 92 114.666 175 183.999 249c95.333 102 179 153 251 153c42.667 0 77.667 -14 105 -42s41 -63.333 41 -106
c0 -16.667 -11.667 -55.334 -35 -116.001c-41.333 -106.667 -143.333 -191.667 -306 -255c-84 -32.667 -227 -67 -429 -103zM611.003 386c-4.66699 31.333 -49 46.999 -133 46.999c-38.667 0 -88 -24.167 -148 -72.5s-94 -91.166 -102 -128.499c40 0 108 18 204 54
c101.333 38 161 71.333 179 100z" />
    </font>
</defs>
</svg>
