<?xml version="1.0" standalone="no"?>
<!DOCTYPE svg PUBLIC "-//W3C//DTD SVG 1.1//EN" "http://www.w3.org/Graphics/SVG/1.1/DTD/svg11.dtd" >
<svg>
<metadata>
Created by FontForge 20090914 at Wed Oct 19 01:31:29 2011
 By www-data
(c) by Abolfazl Seilsepour - +98 912 591 3420  -  seilsepor@yahoo.com
</metadata>
<defs>
<font id="FarKamranOutline" horiz-adv-x="0" >
  <font-face 
    font-family="Far.Kamran Outline"
    font-weight="400"
    font-stretch="normal"
    units-per-em="2048"
    panose-1="0 0 4 0 0 0 0 0 0 0"
    ascent="1638"
    descent="-410"
    bbox="-285 -1359 2512 2827"
    underline-thickness="80"
    underline-position="-810"
    unicode-range="U+0020-U+FEFC"
  />
<missing-glyph horiz-adv-x="1024" 
d="M128 0v1383h768v-1383h-768zM256 128h512v1127h-512v-1127z" />
    <glyph glyph-name="uE818" unicode="&#x651;&#x64b;" 
d="M690 2020c0 -46.667 -16.832 -84.166 -50.499 -112.499s-73.834 -42.5 -120.501 -42.5c-12.667 0 -25 1 -37 3c-40.667 -48.667 -92 -73 -154 -73c-48 0 -87.333 20.667 -118 62c-28 37.333 -42 80.666 -42 129.999c0 56.667 32.667 85 98 85c38 0 63 -15.333 75 -46
c6.66699 48.667 37 73 91 73c15.333 0 29 -3.66699 41 -11v10c0 60 32.667 90 98 90c33.333 0 62.333 -20.333 87 -61c21.333 -35.333 32 -71 32 -107zM630.001 2020c0 18 -5.33301 39.333 -16 64c-13.333 29.333 -27.666 44 -42.999 44c-25.333 0 -38 -9 -38 -27
c0 -4.66699 6.83301 -15.167 20.5 -31.5s20.5 -28.5 20.5 -36.5c0 -39.333 -23.333 -59 -70 -59c-25.333 0 -49.333 21.667 -72 65c-20.667 0 -31 -7.66699 -31 -23c0 -4.66699 1.83301 -11.5 5.5 -20.5s5.5 -15.833 5.5 -20.5c0 -37.333 -24 -56 -72 -56
c-33.333 0 -50.666 21.667 -51.999 65c-0.666992 17.333 -8 26 -22 26c-25.333 0 -38 -7.66699 -38 -23c0 -88.667 33.333 -133 100 -133c15.333 0 36.166 6.66699 62.499 20s42.833 26.333 49.5 39s15 19 25 19c5.33301 0 12.666 -1.16699 21.999 -3.5s16.333 -3.5 21 -3.5
c81.333 0 122 31.667 122 95zM349.001 1980l-2 1v-1h2zM609.001 2621c0 -45.333 -20.333 -74.667 -61 -88.001l-295 -98c-12.667 -4 -26 -6 -40 -6c-58 0 -87 30 -87 90c0 46.667 21.333 77.334 64 92.001l294 99c8.66699 3.33301 20.667 5 36 5c59.333 0 89 -31.333 89 -94
zM592.001 2392c0 -46 -20.001 -75.667 -60.001 -89l-296 -99c-1.33301 -0.666992 -7.66602 -4.5 -18.999 -11.5s-20 -10.5 -26 -10.5c-52.667 0 -79 35.667 -79 107c0 47.333 20.667 78 62 92l296 98c9.33301 4 21.333 6 36 6c57.333 0 86 -31 86 -93zM549 2621
c0 22.667 -11.001 34 -33.001 34c-11.333 0 -60 -14.667 -146 -44c-81.333 -27.333 -133.666 -46 -156.999 -56c-18.667 -8 -28 -20 -28 -36c0 -19.333 10.667 -29 32 -29c11.333 0 62 14.667 152 44c88 29.333 141 48.333 159 57c14 6.66699 21 16.667 21 30zM531.999 2392
c0 21.333 -10.001 32 -30.001 32c-12 0 -61.333 -14.333 -148 -43c-83.333 -28 -134.666 -46.5 -153.999 -55.5s-29 -21.5 -29 -37.5c0 -19.333 11 -29 33 -29c10 0 60.667 15 152 45s144 48.667 158 56c12 6.66699 18 17.334 18 32z" />
    <glyph glyph-name="uFC5E" unicode="&#x651;&#x64c;" arabic-form="isolated" 
d="M728 2010c0 -46 -16.832 -83.167 -50.499 -111.5s-74.167 -42.5 -121.5 -42.5c-12 0 -24 1 -36 3c-41.333 -49.333 -93 -74 -155 -74c-48 0 -87.333 20.667 -118 62c-27.333 38 -41 81.667 -41 131c0 56 32.667 84 98 84c38 0 63 -15.333 75 -46c6 49.333 36 74 90 74
c15.333 0 29.333 -3.66699 42 -11v9c0 60 32.333 90 97 90c33.333 0 62.666 -20.333 87.999 -61c21.333 -35.333 32 -71 32 -107zM668.001 2010c0 18 -5.66699 39.333 -17 64c-13.333 30 -27.666 45 -42.999 45c-25.333 0 -38 -9.33301 -38 -28
c0 -4 6.83301 -14.333 20.5 -31s20.5 -28.667 20.5 -36c0 -40 -23.333 -60 -70 -60c-24.667 0 -48.667 22 -72 66c-20 0 -30 -7.66699 -30 -23c0 -4.66699 1.66699 -11.5 5 -20.5s5 -15.833 5 -20.5c0 -38 -24 -57 -72 -57c-32.667 0 -50 22 -52 66c0 17.333 -7 26 -21 26
c-25.333 0 -38 -7.66699 -38 -23c0 -88.667 33 -133 99 -133c16 0 37.167 6.5 63.5 19.5s42.833 26 49.5 39s15 19.5 25 19.5c4.66699 0 11.667 -1.33301 21 -4s16.666 -4 21.999 -4c81.333 0 122 31.667 122 95zM387.001 1970l-2 2v-2h2zM640.001 2462
c0 -22.667 -0.333008 -39.334 -1 -50c-7.33301 -74.667 -55.333 -133.334 -144 -176c-38 -18.667 -115.333 -42.667 -232 -72c-16.667 -4 -28 -6 -34 -6c-25.333 0 -47 10 -65 30s-27 43 -27 69c0 42.667 25 71.667 75 87v8c1.33301 7.33301 -14.334 19.666 -47.001 37
c-34.667 18 -52 39.333 -52 64c0 52 32.667 78 98 78c43.333 0 83 -24 119 -72c30.667 94 88.334 141 173.001 141c91.333 0 137 -46 137 -138zM582.001 2473c0 44 -24.002 66 -72.002 66c-35.333 0 -65.833 -14.5 -91.5 -43.5s-38.5 -61.5 -38.5 -97.5
c0 -4.66699 0.833008 -11.334 2.5 -20c1.66699 -8.66699 2.5 -15.334 2.5 -20c0 -23.333 -17.333 -35 -52 -35c-15.333 0 -24.666 9.66699 -27.999 29c-11.333 78.667 -45 118 -101 118c-21.333 0 -32 -5.66699 -32 -17l3 -8c17.333 0 43 -10.667 77 -32
c14 -18 21 -38.333 21 -61c0 -23.333 -12.5 -45.166 -37.5 -65.5c-25 -20.333 -37.5 -31.5 -37.5 -33.5c0 -24 9.66699 -36 29 -36c10.667 0 96.334 29.333 257.001 88c65.333 23.333 98 79.333 98 168zM535.999 2442c0 -21.333 -8.83301 -40.666 -26.5 -58
c-17.667 -17.333 -37.167 -26 -58.5 -26s-32 18.333 -32 55c0 51.333 23.333 77 70 77c31.333 0 47 -16 47 -48z" />
    <glyph glyph-name="uFC5F" unicode="&#x651;&#x64d;" arabic-form="isolated" 
d="M715 2659c0 -46.667 -17.333 -84.334 -52 -113c-32 -28 -71.667 -42 -119 -42c-12 0 -24.333 1 -37 3c-40.667 -48.667 -92 -73 -154 -73c-48 0 -87.333 20.667 -118 62c-27.333 37.333 -41 81 -41 131c0 56 32.333 84 97 84c38 0 63 -15.333 75 -46
c6.66699 48.667 37 73 91 73c15.333 0 29 -3.33301 41 -10v9c0 60 32.667 90 98 90c33.333 0 62.333 -20.333 87 -61c21.333 -35.333 32 -71 32 -107zM656 2659c0 18 -5.66699 39.333 -17 64c-13.333 29.333 -27.666 44 -42.999 44c-25.333 0 -38 -9 -38 -27
c0 -4.66699 6.83301 -15.167 20.5 -31.5s20.5 -28.166 20.5 -35.5c0 -40 -23.333 -60 -70 -60c-25.333 0 -49.333 22 -72 66c-20.667 0 -31 -7.66699 -31 -23c0 -5.33301 1.83301 -12.333 5.5 -21s5.5 -15.667 5.5 -21c0 -37.333 -24 -56 -72 -56
c-33.333 0 -50.666 22 -51.999 66c-0.666992 17.333 -8 26 -22 26c-25.333 0 -38 -7.66699 -38 -23c0 -88.667 33.333 -133 100 -133c15.333 0 36.166 6.5 62.499 19.5s42.833 26 49.5 39s15 19.5 25 19.5c5.33301 0 12.666 -1.33301 21.999 -4s16.333 -4 21 -4
c82 0 123 31.667 123 95zM374 2619l-1 2v-2h1zM778 2340c0 -44 -19.332 -72.667 -57.999 -86c-208 -70.667 -317.333 -106 -328 -106c-63.333 0 -95 33.333 -95 100c0 42 21 70 63 84l295 98c9.33301 3.33301 21.666 5 36.999 5c57.333 0 86 -31.667 86 -95zM767.001 2119
c0 -43.333 -20.001 -71.668 -60.001 -85.001l-295 -100c-9.33301 -2.66699 -21.666 -4 -36.999 -4c-24.667 0 -45.5 9.83301 -62.5 29.5s-25.5 41.834 -25.5 66.501c0 43.333 20.667 72 62 86l296 98c8.66699 2.66699 20.667 4 36 4c57.333 0 86 -31.667 86 -95zM716 2343
c0 21.333 -9.66699 32 -29 32c-10.667 0 -59.667 -14.333 -147 -43c-84.667 -28 -136.167 -46.167 -154.5 -54.5s-27.5 -19.833 -27.5 -34.5c0 -23.333 10.333 -35 31 -35c8.66699 0 59.167 15.333 151.5 46s145.5 49.667 159.5 57c10.667 5.33301 16 16 16 32zM707 2119
c0 24 -9.66699 36 -29 36c-12.667 0 -61.667 -14.333 -147 -43c-82 -26.667 -132.833 -44.667 -152.5 -54s-29.5 -20 -29.5 -32c0 -24.667 9.66699 -37 29 -37c14.667 0 64.667 14.333 150 43c82.667 27.333 134.667 46.333 156 57c15.333 7.33301 23 17.333 23 30z" />
    <glyph glyph-name="uFC60" unicode="&#x651;&#x64e;" arabic-form="isolated" 
d="M715 1969c0 -46 -17.333 -83.666 -52 -112.999c-32 -27.333 -71.667 -41 -119 -41c-12 0 -24.333 1 -37 3c-40.667 -48.667 -92 -73 -154 -73c-48 0 -87.333 20.667 -118 62c-27.333 37.333 -41 80.666 -41 129.999c0 56 32.333 84 97 84c38 0 63 -15 75 -45
c6.66699 48.667 37 73 91 73c15.333 0 29 -3.66699 41 -11v9c0 60.667 32.667 91 98 91c33.333 0 62.333 -20.333 87 -61c21.333 -35.333 32 -71.333 32 -108zM656 1969c0 18.667 -5.66699 40.333 -17 65c-13.333 29.333 -27.666 44 -42.999 44
c-25.333 0 -38 -9.33301 -38 -28c0 -4 6.83301 -14.333 20.5 -31s20.5 -28.667 20.5 -36c0 -39.333 -23.333 -59 -70 -59c-25.333 0 -49.333 21.667 -72 65c-20.667 0 -31 -7.66699 -31 -23c0 -4.66699 1.83301 -11.5 5.5 -20.5s5.5 -15.833 5.5 -20.5
c0 -38 -24 -57 -72 -57c-33.333 0 -50.666 22 -51.999 66c-0.666992 17.333 -8 26 -22 26c-25.333 0 -38 -7.66699 -38 -23c0 -88.667 33.333 -133 100 -133c15.333 0 36.166 6.66699 62.499 20s42.833 26.333 49.5 39s15 19 25 19c5.33301 0 12.666 -1.16699 21.999 -3.5
s16.333 -3.5 21 -3.5c82 0 123 31.333 123 94zM374 1930l-1 1v-1h1zM598 2308c0 -46 -20 -75.667 -60 -89c-209.333 -69.333 -318.333 -104 -327 -104c-62 0 -93 31.333 -93 94c0 44.667 21.333 74 64 88c207.333 69.333 315 104 323 104c62 0 93 -31 93 -93zM538 2308
c0 22.667 -10 34 -30 34c-8 0 -57.5 -14.833 -148.5 -44.5s-143.5 -48.167 -157.5 -55.5c-16.667 -8 -25 -20.667 -25 -38c0 -19.333 10.333 -29 31 -29c8 0 58.667 15.5 152 46.5s147 50.167 161 57.5c11.333 6 17 15.667 17 29z" />
    <glyph glyph-name="uFC61" unicode="&#x651;&#x64f;" arabic-form="isolated" 
d="M740 1982c0 -46 -16.668 -83.333 -50.001 -112s-73.666 -43 -120.999 -43c-12 0 -24.333 1 -37 3c-40.667 -48.667 -92 -73 -154 -73c-48 0 -87.333 20.667 -118 62c-27.333 37.333 -41 81 -41 131c0 56 32.333 84 97 84c38 0 63 -15.333 75 -46
c6.66699 49.333 37 74 91 74c15.333 0 29 -3.66699 41 -11v9c0 60 32.667 90 98 90c33.333 0 62.333 -20.333 87 -61c21.333 -35.333 32 -71 32 -107zM680.999 1982c0 18 -5.66699 39.333 -17 64c-13.333 30 -27.666 45 -42.999 45c-25.333 0 -38 -9.33301 -38 -28
c0 -4 6.83301 -14.333 20.5 -31s20.5 -28.667 20.5 -36c0 -40 -23.333 -60 -70 -60c-25.333 0 -49.333 22 -72 66c-20.667 0 -31 -7.66699 -31 -23c0 -4.66699 1.83301 -11.5 5.5 -20.5s5.5 -15.833 5.5 -20.5c0 -38 -24 -57 -72 -57c-33.333 0 -50.666 22 -51.999 66
c-0.666992 17.333 -8 26 -22 26c-25.333 0 -38 -7.66699 -38 -23c0 -88.667 33.333 -133 100 -133c15.333 0 36.166 6.5 62.499 19.5s42.833 26 49.5 39s15 19.5 25 19.5c5.33301 0 12.666 -1.33301 21.999 -4s16.333 -4 21 -4c82 0 123 31.667 123 95zM398.999 1942l-1 2
v-2h1zM652.999 2422c0 -94 -46.001 -157.667 -138.001 -191c-164 -60 -255.667 -90 -275 -90c-59.333 0 -89 32 -89 96c0 38.667 22 68.334 66 89c38.667 12 77.334 24.667 116.001 38c-1.33301 6 -2 12 -2 18c0 52 17.667 98.5 53 139.5s78.333 61.5 129 61.5
c93.333 0 140 -53.667 140 -161zM592.998 2439c0 56 -23.335 84 -70.002 84c-37.333 0 -68.666 -14.167 -93.999 -42.5s-38 -61.166 -38 -98.5c0 -4 1 -10.5 3 -19.5s3 -15.5 3 -19.5c0 -12.667 -31 -30.167 -93 -52.5s-93 -40.833 -93 -55.5c0 -23.333 8.66699 -35 26 -35
c14.667 0 101.334 29 260.001 87c64 24 96 74.667 96 152zM546.996 2427c0 -22 -8.83301 -41.5 -26.5 -58.5s-37.5 -25.5 -59.5 -25.5c-21.333 0 -32 19.333 -32 58c0 50 24.667 75 74 75c29.333 0 44 -16.333 44 -49z" />
    <glyph glyph-name="uFC62" unicode="&#x651;&#x650;" arabic-form="isolated" 
d="M703 2345c0 -46 -16.832 -83.167 -50.499 -111.5s-74.167 -42.5 -121.5 -42.5c-12 0 -24 1 -36 3c-41.333 -48.667 -93 -73 -155 -73c-48 0 -87.333 20.667 -118 62c-27.333 37.333 -41 80.666 -41 130c0 56 32.667 84 98 84c37.333 0 62.333 -15 75 -45
c6 48.667 36 73 90 73c15.333 0 29 -3.66699 41 -11v9c0 60.667 32.667 91 98 91c33.333 0 62.666 -20.333 87.999 -61c21.333 -35.333 32 -71.333 32 -108zM643.001 2345c0 18.667 -5.66797 40.334 -17.001 65c-13.333 29.333 -27.666 44 -42.999 44
c-25.333 0 -38 -9 -38 -27c0 -4.66699 6.83301 -15.334 20.5 -32c13.667 -16.667 20.5 -28.667 20.5 -36c0 -39.333 -23.333 -59 -70 -59c-24.667 0 -48.667 21.667 -72 65c-20 0 -30 -7.66699 -30 -23c0 -4.66699 1.66699 -11.5 5 -20.5s5 -15.833 5 -20.5
c0 -38 -24 -57 -72 -57c-32.667 0 -50 22 -52 66c-0.666992 17.333 -7.66699 26 -21 26c-25.333 0 -38 -7.66699 -38 -23c0 -88.667 33 -133 99 -133c16 0 37 6.66699 63 20s42.333 26.333 49 39s15.334 19 26.001 19c4.66699 0 11.667 -1.16699 21 -3.5
s16.666 -3.5 21.999 -3.5c81.333 0 122 31.333 122 94zM362 2306l-2 1v-1h2zM802 2048c0 -45.333 -20.332 -75 -60.999 -89l-296 -99c-8.66699 -3.33301 -21.334 -5 -38.001 -5c-57.333 0 -86 31.667 -86 95c0 43.333 20.667 72 62 86l293 99c9.33301 3.33301 22.333 5 39 5
c58 0 87 -30.667 87 -92zM742.001 2048c0 21.333 -10.668 32.001 -32.001 32.001c-13.333 0 -62.333 -14.333 -147 -43c-78 -26.667 -129.333 -45.334 -154 -56.001c-17.333 -8 -26 -19 -26 -33c0 -22 9.66699 -33 29 -33c11.333 0 61.333 14.5 150 43.5
s141.334 47.833 158.001 56.5c14.667 7.33301 22 18.333 22 33z" />
    <glyph glyph-name="uFDF2" unicode="&#xfedf;&#xfee0;&#xfeea;" horiz-adv-x="1633" arabic-form="isolated" 
d="M1105 1323c0 -128 -40 -192.001 -120 -192.001c-72 0 -108 31.667 -108 95c0 12 2 30.333 6 55s6 43.334 6 56.001c0 10 -2 25 -6 45s-6 35 -6 45c0 59.333 35.667 89 107 89c80.667 0 121 -64.333 121 -193zM1293 989.999c0 -129.333 -67 -194 -201 -194
c-43.333 0 -81.333 10.667 -114 32c-38.667 -20.667 -85.667 -31 -141 -31c-120.667 0 -181 71.333 -181 214c0 90.667 37 136 111 136c71.333 0 107 -30.333 107 -91c0 -19.333 -5.33301 -38.333 -16 -57l8 -1l12 4c-0.666992 6 -1 12.667 -1 20c0 65.333 32 98 96 98
c65.333 0 96.333 -42 93 -126h7c4 0 8 1.33301 12 4c-13.333 22 -20 43.333 -20 64c0 27.333 10.833 50.5 32.5 69.5s46.5 28.5 74.5 28.5c80.667 0 121 -56.667 121 -170zM1553 821.999c0 -180.667 -37.333 -356.669 -112 -528.002c-94 -216.667 -219 -325 -375 -325
c-70 0 -128.667 30.333 -176 91c-62.667 -60.667 -130.334 -91 -203.001 -91c-98 0 -172 42 -222 126c-82 2 -154.333 22 -217 60c-75.333 44.667 -113 105.334 -113 182.001c0 84.667 43.667 148.334 131 191.001c41.333 20 118 54.667 230 104c26 64 67.667 96 125 96
c84 0 126 -36 126 -108c0 -28 -14.333 -79 -43 -153s-43 -127.667 -43 -161c0 -40.667 16.333 -61 49 -61c48.667 0 83.334 57 104.001 171l41 230c12.667 68 55 102 127 102c34 0 63.667 -9.66699 89 -29c27.333 -21.333 41 -48.333 41 -81c0 -8 -1 -16.667 -3 -26
c-39.333 -175.333 -59 -280 -59 -314c0 -35.333 7 -53 21 -53c77.333 0 137 81.667 179 245c29.333 115.333 44 229.333 44 342c0 78.667 37.333 118 112 118c38 0 71.667 -11.667 101 -35c30.667 -25.333 46 -56.333 46 -93zM1045 1300v65c0 61.333 -20.333 92 -61 92
c-30.667 0 -46 -11.333 -46 -34c0 -10 2 -24.833 6 -44.5s6 -34.5 6 -44.5c0 -12 -2 -29.833 -6 -53.5s-6 -41.5 -6 -53.5c0 -24.667 15.667 -37 47 -37c40 0 60 36.667 60 110zM1233 987.997c0 68.667 -18.668 102.999 -56.001 102.999c-34 0 -51 -10.333 -51 -31
c0 -7.33301 4.33301 -19.166 13 -35.499s13 -27.833 13 -34.5c0 -34.667 -26 -52 -78 -52c-44.667 0 -67 13.667 -67 41c0 4 0.666992 9.83301 2 17.5s2 13.167 2 16.5c0 27.333 -12 41 -36 41c-6 0 -18.167 -19.333 -36.5 -58s-42.5 -58 -72.5 -58c-48 0 -72 18.333 -72 55
c0 7.33301 3.33301 17.833 10 31.5s10 24.167 10 31.5c0 21.333 -15.333 32 -46 32c-34.667 0 -52 -25.667 -52 -77c0 -100.667 40.667 -151 122 -151c24.667 0 48.334 2 71.001 6c7.33301 1.33301 19.333 6.33301 36 15c14.667 7.33301 27 11 37 11l39 -18
c25.333 -12.667 49 -19 71 -19c94 0 141 44.333 141 133zM1493 821.996c0 46.667 -29 69.999 -87 69.999c-34.667 0 -52 -20 -52 -60c0 -138 -18 -267.333 -54 -388c-50.667 -172.667 -127.667 -259 -231 -259c-52 0 -78 41.333 -78 124c0 40 7.66699 92.667 23 158
c26 108 39 165.667 39 173c0 32 -23.667 48 -71 48c-38.667 0 -61 -17.667 -67 -53c-10.667 -62 -28 -151.333 -52 -268c-25.333 -121.333 -77 -182 -155 -182c-70 0 -105 38.667 -105 116c0 35.333 14 89.666 42 162.999s42 125.333 42 156c0 31.333 -21.333 47 -64 47
c-26.667 0 -45 -6.66699 -55 -20c-4 -7.33301 -12.667 -25.666 -26 -54.999c-9.33301 -12 -75.333 -43 -198 -93c-100 -40.667 -150 -94.667 -150 -162c0 -61.333 34.667 -109 104 -143c55.333 -26 117 -39 185 -39c-14 0 -21 -2.66699 -21 -8
c0 -8.66699 25.667 -26.667 77 -54c78 -41.333 133 -62 165 -62c52 0 114.667 36 188 108c-10.667 0 -16 -2 -16 -6c0 -8 21 -24 63 -48c63.333 -36 105.666 -54 126.999 -54c136.667 0 246.334 102 329.001 306c65.333 160.667 98 322.334 98 485.001zM495.999 404.995
c0 -10 -1.33398 -25.332 -4.00098 -45.999s-4 -36.334 -4 -47.001c0 -22.667 -21 -34 -63 -34h-16c-54.667 0 -82 20.667 -82 62c0 24.667 17.333 47 52 67c30.667 17.333 59.334 26 86.001 26c20.667 0 31 -9.33301 31 -28zM430.998 362.996
c-10.667 -3.33301 -24.333 -10.668 -41 -22.001c4 -2 8.66699 -3 14 -3h8l16 2c0 4.66699 1 12.334 3 23.001z" />
    <glyph glyph-name="uFEF5" unicode="&#xfedf;&#xfe82;" horiz-adv-x="1065" arabic-form="isolated" 
d="M636 418c0 -44 -11.999 -81.999 -35.999 -113.999c-26.667 -34.667 -61.334 -52 -104.001 -52c-76 0 -117 53.667 -123 161c-8.66699 161.333 -36 322.666 -82 483.999c-28.667 100 -43 155.333 -43 166c0 32 11.833 60.167 35.5 84.5s51.5 36.5 83.5 36.5
c90 0 161 -108.667 213 -326c37.333 -157.333 56 -304 56 -440zM985.001 1065c0 -30 -3.50195 -74.833 -10.502 -134.5s-10.5 -104.5 -10.5 -134.5c0 -34.667 -1.33301 -86.167 -4 -154.5s-4 -119.5 -4 -153.5c0 -146 -47 -268.333 -141 -367
c-95.333 -101.333 -215.666 -152 -360.999 -152c-214 0 -321 62 -321 186c0 79.333 35.333 119 106 119c28.667 0 71.167 -4.83301 127.5 -14.5s98.833 -14.5 127.5 -14.5c64.667 0 116 29 154 87c32 50 48.667 109 50 177l7 461c2.66699 142.667 53.334 214 152.001 214
c85.333 0 128 -39.667 128 -119zM576.999 457.001c0 90 -19 215.001 -57 375.001c-46 195.333 -97 293 -153 293c-39.333 0 -59 -22.667 -59 -68c8 -30.667 24 -88.334 48 -173.001c42 -144.667 67.667 -301 77 -469c4 -68.667 25 -103 63 -103c54 0 81 48.333 81 145z
M925.999 1065c0 40 -22.999 60 -68.999 60c-41.333 0 -68.333 -18 -81 -54c-6.66699 -17.333 -10.334 -52 -11.001 -104l-8 -458c-1.33301 -88 -23 -162 -65 -222c-48 -68 -114.333 -102 -199 -102c-42.667 0 -101 5.66699 -175 17l-70 11c-38 0 -57 -16.333 -57 -49
c0 -88.667 87.667 -133 263 -133c130 0 236.667 44 320 132c82 86 123 194.333 123 325c0 34 1.16699 85.167 3.5 153.5s3.5 119.833 3.5 154.5c0 30 3.66699 74.833 11 134.5s11 104.5 11 134.5zM655 1602c0 -94 -39.001 -175.332 -117.001 -243.999
c-75.333 -66.667 -160.666 -100 -255.999 -100c-32 0 -62.667 4 -92 12c-5.33301 -68 -45.333 -102 -120 -102c-77.333 0 -116 39.667 -116 119c0 65.333 9.33301 130.333 28 195c26 92.667 61 139 105 139c12 0 42 -16.833 90 -50.5s83 -50.5 105 -50.5
c32.667 0 75.5 35.167 128.5 105.5s95.167 105.5 126.5 105.5c34 0 62.167 -12.833 84.5 -38.5s33.5 -55.834 33.5 -90.501zM593.999 1605c0 44 -19.3359 66.0029 -58.0029 66.0029c-2 0 -16.667 -18.333 -44 -55c-33.333 -44 -63.666 -78 -90.999 -102
c-41.333 -36.667 -80 -55 -116 -55c-44 0 -81 12.667 -111 38c-41.333 35.333 -69.666 56.666 -84.999 63.999c-18.667 -0.666992 -36.667 -41.334 -54 -122.001c-14 -66.667 -21 -117.334 -21 -152.001c0 -39.333 18.667 -59 56 -59c26.667 0 47.334 20 62.001 60
s21.667 60 21 60c12.667 0 33.5 -5 62.5 -15s51.167 -15 66.5 -15c76 0 146.333 28.667 211 86c67.333 59.333 101 126.333 101 201z" />
    <glyph glyph-name="uFEF6" unicode="&#xfee0;&#xfe82;" horiz-adv-x="1024" arabic-form="final" 
d="M1045 -31l-52.002 -0.000976562c-86 0 -157.333 38 -214 114c-86.667 -76 -182 -114 -286 -114c-126.667 0 -222 29.667 -286 89c-47.333 43.333 -71 91.333 -71 144c0 34 12.167 63.167 36.5 87.5s53.5 36.5 87.5 36.5c10.667 0 44.834 -13.5 102.501 -40.5
s102.5 -40.5 134.5 -40.5c64 0 115.333 29 154 87c33.333 50.667 50.333 109.667 51 177c0.666992 54 4.33398 194.333 11.001 421c1.33301 48 5 96.667 11 146c8.66699 72 54.334 108 137.001 108c86 0 129 -41.667 129 -125c0 -20 -2.66699 -47 -8 -81
c-6 -38 -9.33301 -65 -10 -81c-0.666992 -28.667 -2.33398 -86 -5.00098 -172l-12 -387c-0.666992 -23.333 0.666016 -41.666 3.99902 -54.999c8 -26.667 36.667 -39.334 86 -38.001v-60h-38c-74.667 0 -112 56 -112 168c0 142.667 5.66699 325 17 547
c0.666992 14.667 4 39.334 10 74.001c5.33301 32 8 57.333 8 76c0 50 -23 75 -69 75c-44.667 0 -71 -19 -79 -57c-4 -18 -7 -60.333 -9 -127c-2 -61.333 -5.66699 -205.333 -11 -432c-2 -86.667 -24.333 -160 -67 -220c-49.333 -69.333 -115.333 -104 -198 -104
c-56 0 -135 26.667 -237 80c-42 0 -63 -21.667 -63 -65c0 -58 37 -102.667 111 -134c54.667 -23.333 116.334 -35 185.001 -35c44.667 0 107.667 21.667 189 65c68.667 36.667 103 57.667 103 63c0 1.33301 -1 2 -3 2l67 -65c46 -43.333 94 -65 144 -65h52v-62z
M640.998 417.999c0 -44 -12 -81.666 -36 -112.999c-26.667 -35.333 -61 -53 -103 -53c-76.667 0 -118 53.667 -124 161c-8.66699 152 -47 348 -115 588c-7.33301 25.333 -11 46.666 -11 63.999c0 32.667 12 60.667 36 84s52.333 35 85 35
c90.667 0 161.667 -108.667 213 -326c36.667 -156 55 -302.667 55 -440zM580.998 461c0 90 -18.332 214.333 -54.999 373c-44.667 194 -95.667 291 -153 291c-39.333 0 -59 -22.667 -59 -68c0 -12 2 -24.667 6 -38c71.333 -234 110.666 -435.333 117.999 -604
c2.66699 -66.667 24 -100 64 -100c52.667 0 79 48.667 79 146zM655.999 1611c0 -94.667 -39.001 -176.334 -117.001 -245.001c-75.333 -66.667 -161 -100 -257 -100c-31.333 0 -61.666 4.33301 -90.999 13c-5.33301 -68.667 -45.333 -103 -120 -103
c-77.333 0 -116 40 -116 120c0 64.667 9.33301 129.334 28 194.001c26 92.667 61 139 105 139c12 0 42 -16.833 90 -50.5s82.667 -50.5 104 -50.5c32.667 0 75.5 35.167 128.5 105.5s95.5 105.5 127.5 105.5c34 0 62.167 -12.667 84.5 -38s33.5 -55.333 33.5 -90z
M594.998 1614c0 44 -19.6689 66.0029 -59.002 66.0029c-2 0 -16.667 -18.667 -44 -56c-32.667 -44 -62.667 -78 -90 -102c-41.333 -36.667 -80.333 -55 -117 -55c-43.333 0 -80 12.667 -110 38c-41.333 35.333 -69.666 56.666 -84.999 63.999
c-18.667 -0.666992 -36.667 -41.334 -54 -122.001c-14 -66.667 -21 -117 -21 -151c0 -40 18.667 -60 56 -60c26 0 46.5 20.167 61.5 60.5s22.167 60.5 21.5 60.5c12 0 32.667 -5.16699 62 -15.5s51.333 -15.5 66 -15.5c76.667 0 147.334 28.667 212.001 86
c67.333 59.333 101 126.666 101 201.999z" />
    <glyph glyph-name="uFEF7" unicode="&#xfedf;&#xfe84;" horiz-adv-x="1065" arabic-form="isolated" 
d="M636 418c0 -44 -11.999 -81.999 -35.999 -113.999c-26.667 -34.667 -61.334 -52 -104.001 -52c-76 0 -117 53.667 -123 161c-8.66699 161.333 -36 322.666 -82 483.999c-28.667 100 -43 155.333 -43 166c0 32 11.833 60.167 35.5 84.5s51.5 36.5 83.5 36.5
c90 0 161 -108.667 213 -326c37.333 -157.333 56 -304 56 -440zM985.001 1065c0 -30 -3.50195 -74.833 -10.502 -134.5s-10.5 -104.5 -10.5 -134.5c0 -34.667 -1.33301 -86.167 -4 -154.5s-4 -119.5 -4 -153.5c0 -146 -47 -268.333 -141 -367
c-95.333 -101.333 -215.666 -152 -360.999 -152c-214 0 -321 62 -321 186c0 79.333 35.333 119 106 119c28.667 0 71.167 -4.83301 127.5 -14.5s98.833 -14.5 127.5 -14.5c64.667 0 116 29 154 87c32 50 48.667 109 50 177l7 461c2.66699 142.667 53.334 214 152.001 214
c85.333 0 128 -39.667 128 -119zM576.999 457.001c0 90 -19 215.001 -57 375.001c-46 195.333 -97 293 -153 293c-39.333 0 -59 -22.667 -59 -68c8 -30.667 24 -88.334 48 -173.001c42 -144.667 67.667 -301 77 -469c4 -68.667 25 -103 63 -103c54 0 81 48.333 81 145z
M925.999 1065c0 40 -22.999 60 -68.999 60c-41.333 0 -68.333 -18 -81 -54c-6.66699 -17.333 -10.334 -52 -11.001 -104l-8 -458c-1.33301 -88 -23 -162 -65 -222c-48 -68 -114.333 -102 -199 -102c-42.667 0 -101 5.66699 -175 17l-70 11c-38 0 -57 -16.333 -57 -49
c0 -88.667 87.667 -133 263 -133c130 0 236.667 44 320 132c82 86 123 194.333 123 325c0 34 1.16699 85.167 3.5 153.5s3.5 119.833 3.5 154.5c0 30 3.66699 74.833 11 134.5s11 104.5 11 134.5zM491 1469c0 -40 -18 -65.999 -54 -77.999
c-210 -71.333 -320.667 -107 -332 -107c-64 0 -96 30.333 -96 91c0 48 34.667 82.667 104 104c-9.33301 11.333 -14 30.333 -14 57c0 45.333 23.667 85.666 71 120.999c44 32.667 89.667 49 137 49c60 0 90 -23.333 90 -70c0 -49.333 -33.667 -73 -101 -71l-10 -20
c8.66699 -4.66699 13.667 -7 15 -7c10 0 26.667 5.83301 50 17.5s40.333 17.5 51 17.5c59.333 0 89 -34.667 89 -104zM431 1469c0 28.667 -8.66797 43.002 -26.001 43.002c-12 0 -29.167 -4.66699 -51.5 -14s-39.5 -14 -51.5 -14c-52.667 0 -79 20 -79 60
c0 18.667 8.83301 35.5 26.5 50.5s35.834 22.167 54.501 21.5c8.66699 -0.666992 13.667 -1.33398 15 -2.00098h-1c19.333 -0.666992 29 5 29 17c0 4 -0.666992 7.66699 -2 11c-6 4 -15 6 -27 6c-30.667 0 -64 -11 -100 -33c-39.333 -24.667 -59 -51 -59 -79
c0 -8 11.667 -23.333 35 -46c-1.33301 -8 -3 -16 -5 -24c-0.666992 -4 -1.66699 -13.333 -3 -28l-93 -30c-17.333 -6 -26 -17.333 -26 -34c0 -20.667 12.667 -31 38 -31c12.667 0 63.667 15.333 153 46c80.667 27.333 133.667 46.666 159 57.999c9.33301 4 14 11.333 14 22z
" />
    <glyph glyph-name="uFEF8" unicode="&#xfee0;&#xfe84;" horiz-adv-x="1024" arabic-form="final" 
d="M1045 -31l-52.002 -0.000976562c-86 0 -157.333 38 -214 114c-86.667 -76 -182 -114 -286 -114c-126.667 0 -222 29.667 -286 89c-47.333 43.333 -71 91.333 -71 144c0 34 12.167 63.167 36.5 87.5s53.5 36.5 87.5 36.5c10.667 0 44.834 -13.5 102.501 -40.5
s102.5 -40.5 134.5 -40.5c64 0 115.333 29 154 87c33.333 50.667 50.333 109.667 51 177c0.666992 54 4.33398 194.333 11.001 421c1.33301 48 5 96.667 11 146c8.66699 72 54.334 108 137.001 108c86 0 129 -41.667 129 -125c0 -20 -2.66699 -47 -8 -81
c-6 -38 -9.33301 -65 -10 -81c-0.666992 -28.667 -2.33398 -86 -5.00098 -172l-12 -387c-0.666992 -23.333 0.666016 -41.666 3.99902 -54.999c8 -26.667 36.667 -39.334 86 -38.001v-60h-38c-74.667 0 -112 56 -112 168c0 142.667 5.66699 325 17 547
c0.666992 14.667 4 39.334 10 74.001c5.33301 32 8 57.333 8 76c0 50 -23 75 -69 75c-44.667 0 -71 -19 -79 -57c-4 -18 -7 -60.333 -9 -127c-2 -61.333 -5.66699 -205.333 -11 -432c-2 -86.667 -24.333 -160 -67 -220c-49.333 -69.333 -115.333 -104 -198 -104
c-56 0 -135 26.667 -237 80c-42 0 -63 -21.667 -63 -65c0 -58 37 -102.667 111 -134c54.667 -23.333 116.334 -35 185.001 -35c44.667 0 107.667 21.667 189 65c68.667 36.667 103 57.667 103 63c0 1.33301 -1 2 -3 2l67 -65c46 -43.333 94 -65 144 -65h52v-62z
M640.998 417.999c0 -44 -12 -81.666 -36 -112.999c-26.667 -35.333 -61 -53 -103 -53c-76.667 0 -118 53.667 -124 161c-8.66699 152 -47 348 -115 588c-7.33301 25.333 -11 46.666 -11 63.999c0 32.667 12 60.667 36 84s52.333 35 85 35
c90.667 0 161.667 -108.667 213 -326c36.667 -156 55 -302.667 55 -440zM580.998 461c0 90 -18.332 214.333 -54.999 373c-44.667 194 -95.667 291 -153 291c-39.333 0 -59 -22.667 -59 -68c0 -12 2 -24.667 6 -38c71.333 -234 110.666 -435.333 117.999 -604
c2.66699 -66.667 24 -100 64 -100c52.667 0 79 48.667 79 146zM490.999 1460c0 -40 -18 -65.998 -54 -77.998c-210 -71.333 -320.667 -107 -332 -107c-64 0 -96 30.333 -96 91c0 48 34.667 82.667 104 104c-9.33301 11.333 -14 30.333 -14 57
c0 45.333 23.667 85.666 71 120.999c44 32.667 89.667 49 137 49c60 0 90 -23.667 90 -71c0 -48.667 -33.667 -72 -101 -70l-10 -20c8.66699 -4.66699 13.667 -7.33398 15 -8.00098c10 0 26.667 6 50 18s40.333 18 51 18c59.333 0 89 -34.667 89 -104zM430.999 1460
c0 28 -8.66797 42.001 -26.001 42.001c-12 0 -29.167 -4.5 -51.5 -13.5s-39.5 -13.5 -51.5 -13.5c-52.667 0 -79 20 -79 60c0 18.667 8.83301 35.5 26.5 50.5s35.834 22.167 54.501 21.5c8.66699 -0.666992 13.667 -1.33398 15 -2.00098h-1
c19.333 -1.33301 29 4.33398 29 17.001c0 4 -0.666992 7.66699 -2 11c-6 4 -15 6 -27 6c-30.667 0 -64 -11 -100 -33c-39.333 -24.667 -59 -51 -59 -79c0 -8 11.667 -23.333 35 -46c-1.33301 -8 -3 -16 -5 -24c-0.666992 -4.66699 -1.66699 -14 -3 -28l-93 -31
c-17.333 -5.33301 -26 -16.333 -26 -33c0 -20.667 12.667 -31 38 -31c12.667 0 63.667 15.333 153 46c80.667 27.333 133.667 46.666 159 57.999c9.33301 4 14 11.333 14 22z" />
    <glyph glyph-name="uFEF9" unicode="&#xfedf;&#xfe88;" horiz-adv-x="1065" arabic-form="isolated" 
d="M636 418c0 -44 -11.999 -81.999 -35.999 -113.999c-26.667 -34.667 -61.334 -52 -104.001 -52c-76 0 -117 53.667 -123 161c-8.66699 161.333 -36 322.666 -82 483.999c-28.667 100 -43 155.333 -43 166c0 32 11.833 60.167 35.5 84.5s51.5 36.5 83.5 36.5
c90 0 161 -108.667 213 -326c37.333 -157.333 56 -304 56 -440zM985.001 1065c0 -30 -3.50195 -74.833 -10.502 -134.5s-10.5 -104.5 -10.5 -134.5c0 -34.667 -1.33301 -86.167 -4 -154.5s-4 -119.5 -4 -153.5c0 -146 -47 -268.333 -141 -367
c-95.333 -101.333 -215.666 -152 -360.999 -152c-214 0 -321 62 -321 186c0 79.333 35.333 119 106 119c28.667 0 71.167 -4.83301 127.5 -14.5s98.833 -14.5 127.5 -14.5c64.667 0 116 29 154 87c32 50 48.667 109 50 177l7 461c2.66699 142.667 53.334 214 152.001 214
c85.333 0 128 -39.667 128 -119zM576.999 457.001c0 90 -19 215.001 -57 375.001c-46 195.333 -97 293 -153 293c-39.333 0 -59 -22.667 -59 -68c8 -30.667 24 -88.334 48 -173.001c42 -144.667 67.667 -301 77 -469c4 -68.667 25 -103 63 -103c54 0 81 48.333 81 145z
M925.999 1065c0 40 -22.999 60 -68.999 60c-41.333 0 -68.333 -18 -81 -54c-6.66699 -17.333 -10.334 -52 -11.001 -104l-8 -458c-1.33301 -88 -23 -162 -65 -222c-48 -68 -114.333 -102 -199 -102c-42.667 0 -101 5.66699 -175 17l-70 11c-38 0 -57 -16.333 -57 -49
c0 -88.667 87.667 -133 263 -133c130 0 236.667 44 320 132c82 86 123 194.333 123 325c0 34 1.16699 85.167 3.5 153.5s3.5 119.833 3.5 154.5c0 30 3.66699 74.833 11 134.5s11 104.5 11 134.5zM829 -405.998c0 -39.333 -17.999 -65.3311 -53.999 -77.998
c-209.333 -71.333 -320 -107 -332 -107c-64 0 -96 30.667 -96 92c0 48 34.667 82.667 104 104c-9.33301 11.333 -14 30.333 -14 57c0 45.333 24 85.666 72 120.999c43.333 32 88.666 48 135.999 48c60.667 0 91 -23.333 91 -70c0 -48.667 -33.667 -72 -101 -70
c-2 -4 -5.66699 -10.667 -11 -20c8.66699 -4.66699 13.667 -7.33398 15 -8.00098c10 0 26.667 5.83301 50 17.5s40.333 17.5 51 17.5c59.333 0 89 -34.667 89 -104zM769.001 -405.996c0 28.667 -8.66797 42.999 -26.001 42.999c-12 0 -29 -4.5 -51 -13.5
s-39 -13.5 -51 -13.5c-53.333 0 -80 19.667 -80 59c0 18.667 8.83301 35.5 26.5 50.5s35.834 22.167 54.501 21.5c9.33301 0 14.666 -0.333008 15.999 -1h-2c19.333 -1.33301 29 4.33398 29 17.001c0 4 -0.333008 7.33301 -1 10c-6.66699 4 -16 6 -28 6
c-30 0 -63 -11 -99 -33c-40 -24 -60 -50 -60 -78c0 -8.66699 11.667 -24 35 -46c-0.666992 -8 -2 -16.333 -4 -25c-1.33301 -4 -2.66602 -13 -3.99902 -27l-93 -31c-17.333 -5.33301 -26 -16.666 -26 -33.999c0 -20 12.667 -30 38 -30c12.667 0 63.667 15.333 153 46
c80.667 27.333 133.667 46.666 159 57.999c9.33301 4 14 11 14 21z" />
    <glyph glyph-name="uFEFA" unicode="&#xfee0;&#xfe88;" horiz-adv-x="1024" arabic-form="final" 
d="M1045 -31l-52.002 -0.000976562c-86 0 -157.333 38 -214 114c-86.667 -76 -182 -114 -286 -114c-126.667 0 -222 29.667 -286 89c-47.333 43.333 -71 91.333 -71 144c0 34 12.167 63.167 36.5 87.5s53.5 36.5 87.5 36.5c10.667 0 44.834 -13.5 102.501 -40.5
s102.5 -40.5 134.5 -40.5c64 0 115.333 29 154 87c33.333 50.667 50.333 109.667 51 177c0.666992 54 4.33398 194.333 11.001 421c1.33301 48 5 96.667 11 146c8.66699 72 54.334 108 137.001 108c86 0 129 -41.667 129 -125c0 -20 -2.66699 -47 -8 -81
c-6 -38 -9.33301 -65 -10 -81c-0.666992 -28.667 -2.33398 -86 -5.00098 -172l-12 -387c-0.666992 -23.333 0.666016 -41.666 3.99902 -54.999c8 -26.667 36.667 -39.334 86 -38.001v-60h-38c-74.667 0 -112 56 -112 168c0 142.667 5.66699 325 17 547
c0.666992 14.667 4 39.334 10 74.001c5.33301 32 8 57.333 8 76c0 50 -23 75 -69 75c-44.667 0 -71 -19 -79 -57c-4 -18 -7 -60.333 -9 -127c-2 -61.333 -5.66699 -205.333 -11 -432c-2 -86.667 -24.333 -160 -67 -220c-49.333 -69.333 -115.333 -104 -198 -104
c-56 0 -135 26.667 -237 80c-42 0 -63 -21.667 -63 -65c0 -58 37 -102.667 111 -134c54.667 -23.333 116.334 -35 185.001 -35c44.667 0 107.667 21.667 189 65c68.667 36.667 103 57.667 103 63c0 1.33301 -1 2 -3 2l67 -65c46 -43.333 94 -65 144 -65h52v-62z
M640.998 417.999c0 -44 -12 -81.666 -36 -112.999c-26.667 -35.333 -61 -53 -103 -53c-76.667 0 -118 53.667 -124 161c-8.66699 152 -47 348 -115 588c-7.33301 25.333 -11 46.666 -11 63.999c0 32.667 12 60.667 36 84s52.333 35 85 35
c90.667 0 161.667 -108.667 213 -326c36.667 -156 55 -302.667 55 -440zM580.998 461c0 90 -18.332 214.333 -54.999 373c-44.667 194 -95.667 291 -153 291c-39.333 0 -59 -22.667 -59 -68c0 -12 2 -24.667 6 -38c71.333 -234 110.666 -435.333 117.999 -604
c2.66699 -66.667 24 -100 64 -100c52.667 0 79 48.667 79 146zM828.999 -415c0 -40 -17.999 -65.998 -53.999 -77.998c-209.333 -71.333 -320 -107 -332 -107c-64 0 -96 30.667 -96 92c0 48 34.667 82.667 104 104c-9.33301 11.333 -14 30.333 -14 57
c0 45.333 24 85.666 72 120.999c43.333 32 88.666 48 135.999 48c60.667 0 91 -23.333 91 -70c0 -48.667 -33.667 -72 -101 -70c-2 -4.66699 -5.66699 -11.334 -11 -20.001c8.66699 -5.33301 13.667 -8 15 -8c10 0 26.667 5.83301 50 17.5s40.333 17.5 51 17.5
c59.333 0 89 -34.667 89 -104zM769 -414.998c0 28.667 -8.66797 43.001 -26.001 43.001c-12 0 -29 -4.5 -51 -13.5s-39 -13.5 -51 -13.5c-53.333 0 -80 19.667 -80 59c0 18.667 8.83301 35.5 26.5 50.5s35.834 22.167 54.501 21.5c9.33301 0 14.666 -0.333008 15.999 -1h-2
c19.333 -1.33301 29 4 29 16c0 4 -0.333008 7.66699 -1 11c-6.66699 4 -16 6 -28 6c-30 0 -63 -11 -99 -33c-40 -24 -60 -50 -60 -78c0 -8.66699 11.667 -24 35 -46c-0.666992 -8.66699 -2 -17 -4 -25c-1.33301 -4 -2.66602 -13 -3.99902 -27l-93 -31
c-17.333 -6 -26 -17.333 -26 -34c0 -20 12.667 -30 38 -30c12.667 0 63.667 15.333 153 46c80.667 27.333 133.667 46.666 159 57.999c9.33301 4 14 11 14 21z" />
    <glyph glyph-name="uFEFB" unicode="&#xfedf;&#xfe8e;" horiz-adv-x="1065" arabic-form="isolated" 
d="M636 418c0 -44 -11.999 -81.999 -35.999 -113.999c-26.667 -34.667 -61.334 -52 -104.001 -52c-76 0 -117 53.667 -123 161c-8.66699 161.333 -36 322.666 -82 483.999c-28.667 100 -43 155.333 -43 166c0 32 11.833 60.167 35.5 84.5s51.5 36.5 83.5 36.5
c90 0 161 -108.667 213 -326c37.333 -157.333 56 -304 56 -440zM985.001 1065c0 -30 -3.50195 -74.833 -10.502 -134.5s-10.5 -104.5 -10.5 -134.5c0 -34.667 -1.33301 -86.167 -4 -154.5s-4 -119.5 -4 -153.5c0 -146 -47 -268.333 -141 -367
c-95.333 -101.333 -215.666 -152 -360.999 -152c-214 0 -321 62 -321 186c0 79.333 35.333 119 106 119c28.667 0 71.167 -4.83301 127.5 -14.5s98.833 -14.5 127.5 -14.5c64.667 0 116 29 154 87c32 50 48.667 109 50 177l7 461c2.66699 142.667 53.334 214 152.001 214
c85.333 0 128 -39.667 128 -119zM576.999 457.001c0 90 -19 215.001 -57 375.001c-46 195.333 -97 293 -153 293c-39.333 0 -59 -22.667 -59 -68c8 -30.667 24 -88.334 48 -173.001c42 -144.667 67.667 -301 77 -469c4 -68.667 25 -103 63 -103c54 0 81 48.333 81 145z
M925.999 1065c0 40 -22.999 60 -68.999 60c-41.333 0 -68.333 -18 -81 -54c-6.66699 -17.333 -10.334 -52 -11.001 -104l-8 -458c-1.33301 -88 -23 -162 -65 -222c-48 -68 -114.333 -102 -199 -102c-42.667 0 -101 5.66699 -175 17l-70 11c-38 0 -57 -16.333 -57 -49
c0 -88.667 87.667 -133 263 -133c130 0 236.667 44 320 132c82 86 123 194.333 123 325c0 34 1.16699 85.167 3.5 153.5s3.5 119.833 3.5 154.5c0 30 3.66699 74.833 11 134.5s11 104.5 11 134.5z" />
    <glyph glyph-name="uFEFC" unicode="&#xfee0;&#xfe8e;" horiz-adv-x="1024" arabic-form="final" 
d="M1045 -31l-52.002 -0.000976562c-86 0 -157.333 38 -214 114c-86.667 -76 -182 -114 -286 -114c-126.667 0 -222 29.667 -286 89c-47.333 43.333 -71 91.333 -71 144c0 34 12.167 63.167 36.5 87.5s53.5 36.5 87.5 36.5c10.667 0 44.834 -13.5 102.501 -40.5
s102.5 -40.5 134.5 -40.5c64 0 115.333 29 154 87c33.333 50.667 50.333 109.667 51 177c0.666992 54 4.33398 194.333 11.001 421c1.33301 48 5 96.667 11 146c8.66699 72 54.334 108 137.001 108c86 0 129 -41.667 129 -125c0 -20 -2.66699 -47 -8 -81
c-6 -38 -9.33301 -65 -10 -81c-0.666992 -28.667 -2.33398 -86 -5.00098 -172l-12 -387c-0.666992 -23.333 0.666016 -41.666 3.99902 -54.999c8 -26.667 36.667 -39.334 86 -38.001v-60h-38c-74.667 0 -112 56 -112 168c0 142.667 5.66699 325 17 547
c0.666992 14.667 4 39.334 10 74.001c5.33301 32 8 57.333 8 76c0 50 -23 75 -69 75c-44.667 0 -71 -19 -79 -57c-4 -18 -7 -60.333 -9 -127c-2 -61.333 -5.66699 -205.333 -11 -432c-2 -86.667 -24.333 -160 -67 -220c-49.333 -69.333 -115.333 -104 -198 -104
c-56 0 -135 26.667 -237 80c-42 0 -63 -21.667 -63 -65c0 -58 37 -102.667 111 -134c54.667 -23.333 116.334 -35 185.001 -35c44.667 0 107.667 21.667 189 65c68.667 36.667 103 57.667 103 63c0 1.33301 -1 2 -3 2l67 -65c46 -43.333 94 -65 144 -65h52v-62z
M640.998 417.999c0 -44 -12 -81.666 -36 -112.999c-26.667 -35.333 -61 -53 -103 -53c-76.667 0 -118 53.667 -124 161c-8.66699 152 -47 348 -115 588c-7.33301 25.333 -11 46.666 -11 63.999c0 32.667 12 60.667 36 84s52.333 35 85 35
c90.667 0 161.667 -108.667 213 -326c36.667 -156 55 -302.667 55 -440zM580.998 461c0 90 -18.332 214.333 -54.999 373c-44.667 194 -95.667 291 -153 291c-39.333 0 -59 -22.667 -59 -68c0 -12 2 -24.667 6 -38c71.333 -234 110.666 -435.333 117.999 -604
c2.66699 -66.667 24 -100 64 -100c52.667 0 79 48.667 79 146z" />
    <glyph glyph-name="u0652_u064E.liga" unicode="&#x652;&#x64e;" horiz-adv-x="1" 
d="M215 1424c34.667 -12 52.002 -35 52.002 -69l-2 -254c-0.666992 -18.667 -8.33398 -36 -23.001 -52s-32.334 -24 -53.001 -24c-7.33301 0 -15 1.33301 -23 4c-36 12 -53.667 36 -53 72l2 252c-0.666992 8 1 18 5 30c11.333 31.333 31 47 59 47c10.667 0 22.667 -2 36 -6z
M199.002 1378c-16.667 6 -27.6641 0.999023 -32.9971 -15.001c-2.66699 -8.66699 -4.66699 -49.667 -6 -123c-0.666992 -85.333 -1.33398 -114.666 -2.00098 -87.999c1.33301 -46.667 9.66602 -72.667 24.999 -78s25.666 0.333984 30.999 17.001
c2.66699 8 4.33398 51.333 5.00098 130c1.33301 104 2.66602 132 3.99902 84c-1.33301 43.333 -9.33301 67.666 -24 72.999z" />
    <glyph glyph-name="u0652_u064B.liga" unicode="&#x652;&#x64b;" horiz-adv-x="1" 
d="M786 1110c0 -49.333 -13.334 -92.667 -40.001 -130c-29.333 -42 -67.666 -63 -114.999 -63c-83.333 0 -125 39.333 -125 118c0 70 21.667 120.333 65 151c30.667 21.333 62 32 94 32c80.667 0 121 -36 121 -108zM496.999 1107c0 -49.333 -13.334 -92.333 -40.001 -129
c-29.333 -40.667 -67.666 -61 -114.999 -61c-83.333 0 -125 40.333 -125 121c0 119.333 51 179 153 179c84.667 0 127 -36.667 127 -110zM723.998 1099c0 40 -19.667 60.002 -59 60.002c-66.667 0 -100 -38.333 -100 -115c0 -44 22 -66 66 -66s74.667 30 92 90l-2 -1
c0 3.33301 0.5 8.66602 1.5 15.999s1.5 12.666 1.5 15.999zM434.998 1096c0 40.667 -19.333 61 -58 61c-66 0 -99 -37 -99 -111c0 -45.333 21.333 -68 64 -68c27.333 0 50.333 13.333 69 40c16 23.333 24 49.333 24 78z" />
    <glyph glyph-name="u0652_u064D.liga" unicode="&#x652;&#x64d;" horiz-adv-x="1" 
d="M856 -720c0 -49.333 -13.334 -92.667 -40.001 -130c-29.333 -42 -67.666 -63 -114.999 -63c-83.333 0 -125 39.333 -125 118c0 70 21.667 120.333 65 151c30.667 21.333 62 32 94 32c80.667 0 121 -36 121 -108zM566.999 -723.001
c0 -49.333 -13.334 -92.333 -40.001 -129c-29.333 -40.667 -67.666 -61 -114.999 -61c-83.333 0 -125 40.333 -125 121c0 119.333 51 179 153 179c84.667 0 127 -36.667 127 -110zM793.998 -731.001c0 40 -19.667 60.002 -59 60.002c-66.667 0 -100 -38.333 -100 -115
c0 -44 22 -66 66 -66s74.667 30 92 90l-2 -1c0 3.33301 0.5 8.66602 1.5 15.999s1.5 12.666 1.5 15.999zM504.998 -733.999c0 40.667 -19.333 61 -58 61c-66 0 -99 -37 -99 -111c0 -45.333 21.333 -68 64 -68c27.333 0 50.333 13.333 69 40c16 23.333 24 49.333 24 78z" />
    <glyph glyph-name="u0622" unicode="&#x622;" horiz-adv-x="625" arabic-form="isolated" 
d="M779 1414c0 -94.667 -39 -176.334 -117 -245.001c-75.333 -66.667 -161 -100 -257 -100c-31.333 0 -61.666 4.33301 -90.999 13c-5.33301 -68.667 -45.333 -103 -120 -103c-77.333 0 -116 40 -116 120c0 64.667 9.33301 129.334 28 194.001c26 92.667 61 139 105 139
c12 0 42 -16.833 90 -50.5s82.667 -50.5 104 -50.5c32.667 0 75.667 35.167 129 105.5s95.666 105.5 126.999 105.5c34 0 62.167 -12.667 84.5 -38s33.5 -55.333 33.5 -90zM551 820c0 -236.667 -51.668 -482 -155.001 -736c-31.333 -77.333 -85.666 -116 -162.999 -116
c-66.667 0 -100 42.333 -100 127c0 27.333 5.66699 57.333 17 90c88 258 138 489.667 150 695c5.33301 87.333 44 131 116 131c90 0 135 -63.667 135 -191zM717.999 1417c0 44 -19.6689 66.0029 -59.002 66.0029c-2 0 -16.667 -18.667 -44 -56
c-32.667 -44 -62.667 -78 -90 -102c-41.333 -36.667 -80 -55 -116 -55c-44 0 -81 12.667 -111 38c-41.333 35.333 -69.666 56.666 -84.999 63.999c-18.667 -0.666992 -36.667 -41.334 -54 -122.001c-14 -66 -21 -116.333 -21 -151c0 -40 18.667 -60 56 -60
c26 0 46.5 20.167 61.5 60.5s22.167 60.5 21.5 60.5c12 0 32.667 -5.16699 62 -15.5s51.333 -15.5 66 -15.5c76.667 0 147.334 28.667 212.001 86c67.333 59.333 101 126.666 101 201.999zM492.997 785.003c0 111.333 -25.666 167 -76.999 167
c-34.667 0 -53.334 -24 -56.001 -72c-14 -222 -65 -460.333 -153 -715c-10.667 -29.333 -16 -54.333 -16 -75c0 -38.667 16.333 -58 49 -58c50 0 91 39.333 123 118l55 182c50 165.333 75 316.333 75 453z" />
    <glyph glyph-name="u0623" unicode="&#x623;" horiz-adv-x="502" arabic-form="isolated" 
d="M433 1014c0 -402 -45 -712 -135 -930c-31.333 -76.667 -81.333 -115 -150 -115c-75.333 0 -113 41 -113 123c0 23.333 6.33301 54.333 19 93c84.667 268 127 559.667 127 875c0 90 37 135 111 135c94 0 141 -60.333 141 -181zM373 1014c0 80.667 -26.999 121 -80.999 121
c-34.667 0 -52 -25 -52 -75c0 -328 -43.333 -626.333 -130 -895c-10 -31.333 -15 -55.333 -15 -72c0 -42.667 17.667 -64 53 -64c41.333 0 72.666 25 93.999 75c87.333 206.667 131 510 131 910zM505.001 1398c0 -40 -17.667 -66.001 -53 -78.001
c-210 -71.333 -320.667 -107 -332 -107c-64.667 0 -97 30.667 -97 92c0 48 34.667 82.667 104 104c-9.33301 10.667 -14 29.334 -14 56.001c0 46 24 86.333 72 121c44 32.667 89.667 49 137 49c60 0 90 -23.333 90 -70c0 -49.333 -33.667 -73 -101 -71
c-2 -4 -5.66699 -10.667 -11 -20c8.66699 -4.66699 13.667 -7 15 -7c10 0 26.667 5.83301 50 17.5s40.333 17.5 51 17.5c59.333 0 89 -34.667 89 -104zM445.001 1398c0 28.667 -8.66699 43.001 -26 43.001c-12 0 -29 -4.66699 -51 -14s-39 -14 -51 -14
c-53.333 0 -80 20 -80 60c0 18.667 8.83301 35.5 26.5 50.5s35.834 22.167 54.501 21.5c9.33301 -0.666992 14.666 -1.33398 15.999 -2.00098h-2c19.333 -0.666992 29 5 29 17c0 4 -0.333008 7.66699 -1 11c-6 4 -15.333 6 -28 6c-30 0 -63 -11 -99 -33
c-40 -24.667 -60 -51 -60 -79c0 -8 11.667 -23.333 35 -46c-0.666992 -8 -2 -16 -4 -24c-1.33301 -4 -2.33301 -13.333 -3 -28l-94 -30c-17.333 -6 -26 -17.333 -26 -34c0 -20.667 13 -31 39 -31c12 0 63 15.333 153 46c80 28 133 47.667 159 59c8.66699 4 13 11 13 21z" />
    <glyph glyph-name="u0624" unicode="&#x624;" horiz-adv-x="877" arabic-form="isolated" 
d="M748 916c0 -42.667 -19.334 -70.666 -58.001 -83.999l-323 -111c-17.333 -6.66699 -31.666 -10 -42.999 -10c-69.333 0 -104 33.667 -104 101c0 49.333 41 86.666 123 111.999c-14.667 18.667 -22 39 -22 61c0 50.667 26 95.667 78 135c48.667 38 98.667 57 150 57
c70.667 0 106 -25 106 -75c0 -48 -19 -75.667 -57 -83c-50 -9.33301 -76 -15.333 -78 -18c5.33301 -4.66699 11.666 -7 18.999 -7c12.667 0 31.334 5.16699 56.001 15.5s43.667 15.5 57 15.5c64 0 96 -36.333 96 -109zM796.999 338.001
c0 -159.333 -92.333 -339.333 -277 -540c-150 -163.333 -265.333 -245 -346 -245c-80 0 -120 44.333 -120 133c0 47.333 21.667 87.333 65 120c109.333 81.333 191 151 245 209c-129.333 49.333 -194 144.666 -194 285.999c0 22.667 7 51 21 85
c29.333 68.667 76.833 124.834 142.5 168.501s136.167 65.5 211.5 65.5c78 0 140.333 -28 187 -84c43.333 -52.667 65 -118.667 65 -198zM687.999 916.001c0 32.667 -11.001 48.998 -33.001 48.998c-13.333 0 -32.666 -5 -57.999 -15s-44.666 -15 -57.999 -15
c-53.333 0 -80 21 -80 63c0 18 9.16699 35.5 27.5 52.5s36.833 25.5 55.5 25.5c6 0 12 -1.66699 18 -5l-2 2c24.667 -2.66699 37 7 37 29c0 10 -14.667 15 -44 15c-33.333 0 -69.333 -13.333 -108 -40c-41.333 -28 -62 -58 -62 -90c0 -12.667 10 -27.667 30 -45
s30 -27 30 -29c0 -7.33301 -26.833 -22.666 -80.5 -45.999s-80.5 -41.666 -80.5 -54.999c0 -26 14.667 -39 44 -39c15.333 0 71.666 16.667 168.999 50c93.333 32 152.333 54 177 66c12 6 18 15 18 27zM736.998 337.999c0 59.333 -16.667 110.334 -50 153.001
c-36 47.333 -83 71 -141 71c-69.333 0 -138.333 -26.333 -207 -79c-73.333 -56 -110 -117.667 -110 -185c0 -109.333 65 -188.666 195 -237.999c17.333 -6.66699 26 -15.334 26 -26.001c0 -31.333 -99.667 -124.333 -299 -279c-24 -18.667 -36 -41 -36 -67
c0 -50 22 -75 66 -75c8 0 15.333 1.66699 22 5c74.667 31.333 165.667 105 273 221c174 189.333 261 355.666 261 498.999zM594.998 321c0 -22.667 -5.66699 -49 -17 -79c-13.333 -36.667 -29 -55 -47 -55c-102 0 -153 32 -153 96c0 34 14.167 64.5 42.5 91.5
s59.5 40.5 93.5 40.5c54 0 81 -31.333 81 -94zM534.998 321c0 15.333 -4 26 -12 32c-4.66699 0 -8.66699 0.666992 -12 2c-16.667 0 -33 -8.16699 -49 -24.5s-24 -32.5 -24 -48.5c0 -22 26 -34 78 -36c12.667 24.667 19 49.667 19 75z" />
    <glyph glyph-name="u0625" unicode="&#x625;" horiz-adv-x="513" arabic-form="isolated" 
d="M433 1014c0 -402 -45 -712 -135 -930c-31.333 -76.667 -81.333 -115 -150 -115c-75.333 0 -113 41 -113 123c0 23.333 6.33301 54.333 19 93c84.667 268 127 559.667 127 875c0 90 37 135 111 135c94 0 141 -60.333 141 -181zM373 1014c0 80.667 -26.999 121 -80.999 121
c-34.667 0 -52 -25 -52 -75c0 -328 -43.333 -626.333 -130 -895c-10 -31.333 -15 -55.333 -15 -72c0 -42.667 17.667 -64 53 -64c41.333 0 72.666 25 93.999 75c87.333 206.667 131 510 131 910zM359.001 -361c0 -39.333 -17.999 -65.3311 -53.999 -77.998
c-210 -71.333 -320.667 -107 -332 -107c-64 0 -96 30.667 -96 92c0 48 34.667 82.667 104 104c-9.33301 11.333 -14 30.333 -14 57c0 45.333 23.667 85.666 71 120.999c44 32.667 89.667 49 137 49c60 0 90 -23.667 90 -71c0 -48.667 -33.333 -72 -100 -70
c-2.66699 -4 -6.33398 -10.667 -11.001 -20c8.66699 -4.66699 13.667 -7.33398 15 -8.00098c10 0 26.667 6 50 18s40.333 18 51 18c59.333 0 89 -35 89 -105zM299.002 -360.998c0 28.667 -8.66797 43 -26.001 43c-12 0 -29 -4.5 -51 -13.5s-39 -13.5 -51 -13.5
c-53.333 0 -80 19.667 -80 59c0 18.667 8.83301 35.5 26.5 50.5s35.834 22.167 54.501 21.5c8.66699 0 13.667 -0.333008 15 -1h-1c19.333 -1.33301 29 4.33398 29 17.001c0 4 -0.666992 7.33301 -2 10c-6 4 -15 6 -27 6c-30 0 -63 -11 -99 -33c-40 -24 -60 -50 -60 -78
c0 -8 11.667 -23.333 35 -46c-1.33301 -8 -3 -16.333 -5 -25c-0.666992 -4 -1.66699 -13 -3 -27l-93 -31c-17.333 -5.33301 -26 -16.333 -26 -33c0 -20.667 12.667 -31 38 -31c12.667 0 63.667 15.333 153 46c80.667 27.333 133.667 46.666 159 57.999
c9.33301 4 14 11 14 21z" />
    <glyph glyph-name="u0626" unicode="&#x626;" horiz-adv-x="1549" arabic-form="isolated" 
d="M894 774c0 -43.333 -19.668 -72 -59.001 -86l-322 -111c-15.333 -5.33301 -29.666 -8 -42.999 -8c-69.333 0 -104 33.667 -104 101c0 48 40.667 84.667 122 110c-14 19.333 -21 41.333 -21 66c0 46 27.333 89.333 82 130c51.333 38 101 57 149 57
c69.333 0 104 -25 104 -75c0 -59.333 -28.667 -89 -86 -89c-10 0 -19.333 1 -28 3c-10.667 -4 -18.667 -9 -24 -15c7.33301 -4 15.333 -6 24 -6c10.667 0 29.667 5.33301 57 16s47.333 16 60 16c25.333 0 47 -12 65 -36c16 -22 24 -46.333 24 -73zM1469 506
c0 -52 -30.999 -115.667 -92.999 -191c-64 -77.333 -121.333 -116 -172 -116c-34.667 0 -52 23 -52 69c0 6.66699 0.666992 14.334 2 23.001c-82 -40 -128.667 -79.333 -140 -118l155 -61c90.667 -36 136 -95.667 136 -179v-26c-0.666992 -3.33301 -1 -6.66602 -1 -9.99902
c-34.667 -131.333 -107.334 -239.333 -218.001 -324c-132 -100.667 -277.333 -151 -436 -151c-148 0 -268.667 38.667 -362 116c-101.333 83.333 -152 197.666 -152 342.999c0 156 58.333 312 175 468c64 85.333 124 128 180 128c82 0 123 -42.667 123 -128
c0 -17.333 -34 -82 -102 -194s-102 -194.667 -102 -248c0 -132.667 91.333 -199 274 -199c64.667 0 134 15.667 208 47c88.667 38 133 85.333 133 142c0 38 -52.333 75.667 -157 113s-157 74.666 -157 111.999c0 99.333 73 206 219 320c125.333 98 245.333 162.333 360 193
c18.667 5.33301 36 8 52 8c36.667 0 67 -13.5 91 -40.5s36 -59.167 36 -96.5zM834 774c0 32 -11.668 47.999 -35.001 47.999c-14 0 -34 -5.16699 -60 -15.5s-46 -15.5 -60 -15.5c-50 0 -75 21.333 -75 64c0 50 29.333 75 88 75h12c6 -0.666992 10 -1 12 -1
c17.333 0 26 9.66699 26 29c0 10 -12.667 15 -38 15c-52.667 0 -98 -20.333 -136 -61c-28 -29.333 -42 -51.333 -42 -66c0 -15.333 10 -31.666 30 -48.999l30 -26c0 -8.66699 -26.833 -24.5 -80.5 -47.5s-80.5 -40.833 -80.5 -53.5c0 -27.333 15 -41 45 -41
c13.333 0 69.333 16.667 168 50c90.667 31.333 150.334 53.333 179.001 66c11.333 5.33301 17 15 17 29zM1408 504.999c0 52 -23.999 78.0068 -71.999 78.0068c-42 0 -116.667 -31 -224 -93c-227.333 -132.667 -341 -255.334 -341 -368.001
c0 -14.667 52.5 -48.334 157.5 -101.001s157.5 -98.334 157.5 -137.001l-1 -6c-18.667 -74.667 -72.334 -133.334 -161.001 -176.001c-73.333 -36 -153.333 -54 -240 -54c-93.333 0 -169.666 19.333 -228.999 58c-70.667 45.333 -106 112.333 -106 201
c0 48 17.667 110.333 53 187c25.333 55.333 58.333 114.666 99 177.999c35.333 55.333 53 81 53 77c0 44.667 -18.333 67 -55 67c-30 0 -60 -15.667 -90 -47c-143.333 -148.667 -215 -312 -215 -490c0 -124.667 46 -223.667 138 -297c84.667 -67.333 190.667 -101 318 -101
c145.333 0 278.666 46.667 399.999 140c82.667 63.333 140 137.666 172 222.999c15.333 40 23 64.333 23 73c0 57.333 -25.333 100.333 -76 129c-11.333 6.66699 -57.666 24 -138.999 52c-50 17.333 -75 41.666 -75 72.999c0 41.333 31.667 84.666 95 129.999
c59.333 43.333 110.666 65 153.999 65c18.667 0 28 -6.66699 28 -20c0 -7.33301 -3.16699 -19.166 -9.5 -35.499s-9.5 -28.5 -9.5 -36.5v-14c34 10.667 75 45.667 123 105s72 106 72 140z" />
    <glyph glyph-name="u0627" unicode="&#x627;" horiz-adv-x="513" arabic-form="isolated" 
d="M433 1014c0 -402 -45 -712 -135 -930c-31.333 -76.667 -81.333 -115 -150 -115c-75.333 0 -113 41 -113 123c0 23.333 6.33301 54.333 19 93c84.667 268 127 559.667 127 875c0 90 37 135 111 135c94 0 141 -60.333 141 -181zM373 1014c0 80.667 -26.999 121 -80.999 121
c-34.667 0 -52 -25 -52 -75c0 -328 -43.333 -626.333 -130 -895c-10 -31.333 -15 -55.333 -15 -72c0 -42.667 17.667 -64 53 -64c41.333 0 72.666 25 93.999 75c87.333 206.667 131 510 131 910z" />
    <glyph glyph-name="u0628" unicode="&#x628;" horiz-adv-x="2141" arabic-form="isolated" 
d="M2061 468c0 -276.667 -164.331 -476 -492.998 -598c-227.333 -84.667 -509.333 -127 -846 -127c-308 0 -492 68.333 -552 205c-22.667 50.667 -34 123 -34 217c0 90.667 45.333 193.334 136 308.001c95.333 119.333 186.666 179 273.999 179
c30 0 56.667 -10.167 80 -30.5s35 -44.833 35 -73.5c0 -31.333 -42 -97 -126 -197s-126 -166 -126 -198c0 -88 128.333 -132 385 -132c49.333 0 136.666 5.33301 261.999 16c501.333 40.667 752 187 752 439c0 35.333 -7 82.666 -21 141.999
c-16.667 68.667 -26.334 116 -29.001 142v8c0 73.333 39.333 110 118 110c52.667 0 97.334 -45.333 134.001 -136c28.667 -70.667 45 -139.667 49 -207c1.33301 -16.667 2 -39 2 -67zM1181 -401c0 -54 -15.667 -102.668 -47 -146.001c-34.667 -47.333 -78 -71 -130 -71
c-103.333 0 -155 58 -155 174c0 46.667 18.333 88.5 55 125.5s78 55.5 124 55.5c42 0 78 -12.667 108 -38s45 -58.666 45 -99.999zM2001 498.999c0 41.333 -11.666 101.335 -34.999 180.002c-27.333 93.333 -56.333 140 -87 140c-40.667 0 -61 -16 -61 -48
c2 -12.667 8.66699 -40.667 20 -84c20 -79.333 30 -163.333 30 -252c0 -135.333 -82.667 -246 -248 -332c-134 -70 -277.667 -110 -431 -120c-21.333 -0.666992 -63.666 -2.66699 -126.999 -6c-56.667 -2.66699 -141.334 -8 -254.001 -16
c-16.667 -1.33301 -19.334 -2 -8.00098 -2c-302 0 -453 67.333 -453 202c0 48 42.167 122.667 126.5 224s126.5 154 126.5 158c0 34 -19 51 -57 51c-62 0 -136.333 -56.333 -223 -169c-82.667 -106.667 -124 -193.334 -124 -260.001c0 -86.667 9.66699 -151.334 29 -194.001
c50 -111.333 215.667 -167 497 -167c317.333 0 584 37.667 800 113c319.333 111.333 479 295 479 551v31zM1120 -406.999c0 55.333 -29.667 83 -89 83c-30 0 -57.833 -12.5 -83.5 -37.5s-38.5 -52.5 -38.5 -82.5v-26c0 -58.667 30.667 -88 92 -88c34 0 63 17 87 51
c21.333 30.667 32 64 32 100z" />
    <glyph glyph-name="u0629" unicode="&#x629;" horiz-adv-x="828" arabic-form="isolated" 
d="M681 1019c0 -40.667 -19.333 -67.665 -58 -80.998l-325 -113c-14.667 -5.33301 -28.667 -8 -42 -8c-70.667 0 -106 33 -106 99c0 48 41.333 85.333 124 112c-14.667 19.333 -22 41.666 -22 66.999c0 48.667 27.333 92.667 82 132c50 36.667 99.667 55 149 55
c70 0 105 -25 105 -75c0 -60 -28.667 -90 -86 -90c-9.33301 0 -18.666 1 -27.999 3c-8.66699 -1.33301 -16.334 -6.33301 -23.001 -15c5.33301 -3.33301 12 -5 20 -5c12.667 0 31.5 5.33301 56.5 16s43.833 16 56.5 16c28 0 51.667 -12 71 -36
c17.333 -22.667 26 -48.334 26 -77.001zM748 208.002c0 -159.333 -97 -239 -291 -239c-86 0 -159.333 21.333 -220 64c-68 48 -102 113.333 -102 196c0 116.667 66.667 231 200 343c-7.33301 21.333 -11 45 -11 71c0 77.333 36.333 116 109 116
c36.667 0 69.334 -13.333 98.001 -40c15.333 4 29.666 6 42.999 6c88.667 0 133 -42.333 133 -127c0 -39.333 -15.333 -74.333 -46 -105c58 -136 87 -231 87 -285zM621 1019c0 36 -10.999 54 -32.999 54c-13.333 0 -32.333 -5.5 -57 -16.5s-43.667 -16.5 -57 -16.5
c-56 0 -84 21 -84 63c0 18.667 9.16699 36.667 27.5 54s36.833 26 55.5 26c6.66699 0 12.667 -1.66699 18 -5h8c19.333 0 29 9.66699 29 29c0 10 -13.333 15 -40 15c-42.667 0 -84.334 -17.333 -125.001 -52c-34 -28 -51 -53 -51 -75c0 -13.333 10 -29.666 30 -48.999
s30 -30.333 30 -33c0 -5.33301 -27 -19 -81 -41s-81 -41 -81 -57c0 -25.333 15.333 -38 46 -38c47.333 0 163 39 347 117c12 5.33301 18 13.666 18 24.999zM688.001 188.002c0 36 -15.501 91.8311 -46.501 167.498s-46.5 123.5 -46.5 143.5
c0 4.66699 9.16699 19.5 27.5 44.5s27.5 42.833 27.5 53.5c0 18.667 -9.16699 34.834 -27.5 48.501s-37.166 20.5 -56.499 20.5c-4.66699 0 -12 -1.33301 -22 -4s-17.333 -4 -22 -4c-3.33301 0 -15.833 6.83301 -37.5 20.5s-38.167 20.5 -49.5 20.5
c-32.667 0 -49 -22 -49 -66c0 -8 2.16699 -20.167 6.5 -36.5s6.5 -28.5 6.5 -36.5c0 18.667 -3.33301 28 -10 28c-15.333 0 -46 -39 -92 -117c-68.667 -115.333 -103 -188.666 -103 -219.999c0 -146.667 87.667 -220 263 -220c154 0 231 52.333 231 157zM540 254
c0 -53.333 -32.667 -80 -98 -80c-74.667 0 -112 22.667 -112 68c0 30 15.667 66.667 47 110c32.667 46 63 69 91 69c18.667 0 36 -23.667 52 -71c13.333 -38 20 -70 20 -96zM480 254c0 23.333 -7.66797 53.333 -23.001 90c-39.333 -36.667 -60.666 -70.667 -63.999 -102
c8 -4 27 -6 57 -6c20 0 30 6 30 18z" />
    <glyph glyph-name="u062A" unicode="&#x62a;" horiz-adv-x="2141" arabic-form="isolated" 
d="M1423 779c0 -54 -13.999 -98.333 -41.999 -133c-30.667 -38 -72.334 -57 -125.001 -57c-30.667 0 -57.167 12.333 -79.5 37s-33.5 52.667 -33.5 84c0 50.667 15.167 93.167 45.5 127.5s70.833 51.5 121.5 51.5c75.333 0 113 -36.667 113 -110zM1118 782
c0 -50 -13 -92.667 -39 -128c-28.667 -40 -67 -60 -115 -60c-84 0 -126 40.667 -126 122c0 51.333 14.833 93.833 44.5 127.5s69.5 50.5 119.5 50.5c77.333 0 116 -37.333 116 -112zM2061 468c0 -276.667 -164.331 -476 -492.998 -598
c-227.333 -84.667 -509.333 -127 -846 -127c-308 0 -492 68.333 -552 205c-22.667 50.667 -34 123 -34 217c0 90.667 45.333 193.334 136 308.001c95.333 119.333 186.666 179 273.999 179c30 0 56.667 -10.167 80 -30.5s35 -44.833 35 -73.5c0 -31.333 -42 -97 -126 -197
s-126 -166 -126 -198c0 -88 128.333 -132 385 -132c49.333 0 136.666 5.33301 261.999 16c501.333 40.667 752 187 752 439c0 35.333 -7 82.666 -21 141.999c-16.667 68.667 -26.334 116 -29.001 142v8c0 73.333 39.333 110 118 110c52.667 0 97.334 -45.333 134.001 -136
c28.667 -70.667 45 -139.667 49 -207c1.33301 -16.667 2 -39 2 -67zM1363 768c0 40.667 -20.333 61.001 -61 61.001c-66 0 -99 -39.667 -99 -119c0 -40.667 22.333 -61 67 -61c27.333 0 50.333 13.333 69 40c16 23.333 24 49.666 24 78.999zM1059 783.001
c0 34 -23 51 -69 51c-60 0 -90 -39.667 -90 -119c0 -41.333 21.333 -62 64 -62c63.333 0 95 43.333 95 130zM2001 499.001c0 41.333 -11.666 101.335 -34.999 180.002c-27.333 93.333 -56.333 140 -87 140c-40.667 0 -61 -16 -61 -48c2 -12.667 8.66699 -40.667 20 -84
c20 -79.333 30 -163.333 30 -252c0 -135.333 -82.667 -246 -248 -332c-134 -70 -277.667 -110 -431 -120c-21.333 -0.666992 -63.666 -2.66699 -126.999 -6c-56.667 -2.66699 -141.334 -8 -254.001 -16c-16.667 -1.33301 -19.334 -2 -8.00098 -2
c-302 0 -453 67.333 -453 202c0 48 42.167 122.667 126.5 224s126.5 154 126.5 158c0 34 -19 51 -57 51c-62 0 -136.333 -56.333 -223 -169c-82.667 -106.667 -124 -193.334 -124 -260.001c0 -86.667 9.66699 -151.334 29 -194.001c50 -111.333 215.667 -167 497 -167
c317.333 0 584 37.667 800 113c319.333 111.333 479 295 479 551v31z" />
    <glyph glyph-name="u062B" unicode="&#x62b;" horiz-adv-x="2141" arabic-form="isolated" 
d="M1322 1092c0 -48 -13 -90.667 -39 -128c-30 -42 -68 -63 -114 -63c-84.667 0 -127 42.333 -127 127c0 49.333 15 90.833 45 124.5s69 50.5 117 50.5c78.667 0 118 -37 118 -111zM1444 797c0 -48.667 -12.665 -91.667 -37.998 -129
c-28.667 -41.333 -66.334 -62 -113.001 -62c-86.667 0 -130 41.333 -130 124c0 50 15.167 91.833 45.5 125.5s70.166 50.5 119.499 50.5c77.333 0 116 -36.333 116 -109zM1129 785c0 -42.667 -13.668 -82 -41.001 -118c-29.333 -38.667 -64.666 -58 -105.999 -58
c-88.667 0 -133 39.667 -133 119c0 119.333 51 179 153 179c84.667 0 127 -40.667 127 -122zM2061 468c0 -276.667 -164.331 -476 -492.998 -598c-227.333 -84.667 -509.333 -127 -846 -127c-308 0 -492 68.333 -552 205c-22.667 50.667 -34 123 -34 217
c0 90.667 45.333 193.334 136 308.001c95.333 119.333 186.666 179 273.999 179c30 0 56.667 -10.167 80 -30.5s35 -44.833 35 -73.5c0 -31.333 -42 -97 -126 -197s-126 -166 -126 -198c0 -88 128.333 -132 385 -132c49.333 0 136.666 5.33301 261.999 16
c501.333 40.667 752 187 752 439c0 35.333 -7 82.666 -21 141.999c-16.667 68.667 -26.334 116 -29.001 142v8c0 73.333 39.333 110 118 110c52.667 0 97.334 -45.333 134.001 -136c28.667 -70.667 45 -139.667 49 -207c1.33301 -16.667 2 -39 2 -67zM1261 1083
c0 40 -23.667 60 -71 60c-60 0 -90 -40.667 -90 -122c0 -40 22 -60 66 -60c40.667 0 71.667 30 93 90l-1 -1c0 3.33301 0.5 8.83301 1.5 16.5s1.5 13.167 1.5 16.5zM1383 786c0 40 -22.001 60 -66.001 60c-62 0 -93 -40.333 -93 -121c0 -39.333 24 -59 72 -59
c36.667 0 65.334 30 86.001 90l-2 -2c0 4 0.5 9.5 1.5 16.5s1.5 12.167 1.5 15.5zM1069 786c2.66699 40 -17.001 60 -59.001 60c-66.667 0 -100 -38.667 -100 -116c0 -40.667 22 -61 66 -61c36.667 0 67.334 30.333 92.001 91v-1zM2001 499
c0 41.333 -11.666 101.335 -34.999 180.002c-27.333 93.333 -56.333 140 -87 140c-40.667 0 -61 -16 -61 -48c2 -12.667 8.66699 -40.667 20 -84c20 -79.333 30 -163.333 30 -252c0 -135.333 -82.667 -246 -248 -332c-134 -70 -277.667 -110 -431 -120
c-21.333 -0.666992 -63.666 -2.66699 -126.999 -6c-56.667 -2.66699 -141.334 -8 -254.001 -16c-16.667 -1.33301 -19.334 -2 -8.00098 -2c-302 0 -453 67.333 -453 202c0 48 42.167 122.667 126.5 224s126.5 154 126.5 158c0 34 -19 51 -57 51
c-62 0 -136.333 -56.333 -223 -169c-82.667 -106.667 -124 -193.334 -124 -260.001c0 -86.667 9.66699 -151.334 29 -194.001c50 -111.333 215.667 -167 497 -167c317.333 0 584 37.667 800 113c319.333 111.333 479 295 479 551v31z" />
    <glyph glyph-name="u062C" unicode="&#x62c;" horiz-adv-x="1282" arabic-form="isolated" 
d="M1293 -459c0 -46 -25.668 -89 -77.001 -129c-160 -124 -355.667 -186 -587 -186c-146 0 -264 39 -354 117c-94.667 82 -142 195 -142 339c0 193.333 81 369.333 243 528c-10 -2 -20 -3 -30 -3c-71.333 0 -107 51 -107 153c0 78 15.667 157.333 47 238
c40 102 92 153 156 153c24.667 0 56.334 -11.667 95.001 -35c87.333 -53.333 154.666 -86.333 201.999 -99c31.333 -9.33301 103.666 -21.333 216.999 -36c88.667 -11.333 133 -54 133 -128c0 -49.333 -21.667 -88.666 -65 -117.999l-152 -79
c-310 -164.667 -465 -346.334 -465 -545.001c0 -62 25.333 -110.667 76 -146c44.667 -30 99.334 -45 164.001 -45c110.667 0 259.667 43.667 447 131c32.667 15.333 60.334 23 83.001 23c34 0 61.833 -13.5 83.5 -40.5s32.5 -57.833 32.5 -92.5zM964.999 -127
c0 -52.667 -17 -99.667 -51 -141c-36.667 -44 -80.667 -66 -132 -66c-98 0 -147 51 -147 153c0 134 69.333 201 208 201c36.667 0 66.667 -15.667 90 -47c21.333 -28.667 32 -62 32 -100zM600.999 378c-44 13.333 -83.667 29.999 -119 49.999c0.666992 -6.66699 1 -35 1 -85
c0 -16.667 -3 -32.667 -9 -48c40 30.667 82.333 58.334 127 83.001zM1233 -459.001c0 48 -20.9971 71.9922 -62.9971 71.9922c-9.33301 0 -50.333 -19 -123 -57c-126.667 -65.333 -255 -98 -385 -98c-84.667 0 -156.334 20.333 -215.001 61
c-67.333 46.667 -101 110.667 -101 192c0 136.667 54.333 258.334 163 365.001c72 70.667 175.667 141.334 311 212.001l127 64c55.333 34.667 83 69.334 83 104.001c0 36.667 -24.667 58.667 -74 66c-134.667 19.333 -213 32 -235 38c-53.333 14 -126 49.667 -218 107
c-26 16.667 -46.333 25 -61 25c-44.667 0 -81.334 -48 -110.001 -144c-22.667 -75.333 -34 -142.333 -34 -201c0 -54 17.333 -81 52 -81c49.333 0 74 27 74 81c0 4.66699 -0.833008 11.334 -2.5 20.001s-2.5 15.334 -2.5 20.001c0 82.667 12.667 124 38 124
c64.667 -27.333 141.667 -57.333 231 -90c22.667 -5.33301 34 -14.666 34 -27.999c0 -10 -39.667 -37.333 -119 -82c-116.667 -65.333 -212.334 -150.666 -287.001 -255.999c-82 -115.333 -123 -234.666 -123 -357.999c0 -134 39.667 -236.667 119 -308
c76 -68 181.667 -102 317 -102c219.333 0 404 58.667 554 176c33.333 26.667 50 52.667 50 78zM906.002 -122.009c0 54.667 -27.667 82 -83 82c-38 0 -69.167 -14 -93.5 -42s-36.5 -61.333 -36.5 -100c0 -60 29.667 -90 89 -90c36 0 66 16.333 90 49
c22.667 30 34 63.667 34 101z" />
    <glyph glyph-name="u062D" unicode="&#x62d;" horiz-adv-x="1295" arabic-form="isolated" 
d="M1293 -459c0 -48 -25.6689 -90.998 -77.002 -128.998c-167.333 -124 -363 -186 -587 -186c-146 0 -264 39 -354 117c-94.667 82 -142 195 -142 339c0 193.333 80.667 369.333 242 528c-9.33301 -2 -19 -3 -29 -3c-71.333 0 -107 51 -107 153
c0 77.333 15.667 156.666 47 237.999c40 102 92 153 156 153c26.667 0 58.334 -11.667 95.001 -35c80 -51.333 146.667 -85 200 -101c48.667 -14.667 121.667 -26 219 -34c88.667 -7.33301 133 -50 133 -128c0 -56 -21.667 -95.333 -65 -118l-152 -79
c-310 -166.667 -465 -348.334 -465 -545.001c0 -62 25.333 -110.667 76 -146c44.667 -30 99.334 -45 164.001 -45c124 0 273 43.667 447 131c30 15.333 57.667 23 83 23c34 0 61.833 -13.5 83.5 -40.5s32.5 -57.833 32.5 -92.5zM600.998 378.002
c-44 13.333 -83.667 29.999 -119 49.999c0.666992 -6.66699 1 -35 1 -85c0 -16.667 -3 -32.667 -9 -48c40 30.667 82.333 58.334 127 83.001zM1233 -458.999c0 48 -20.998 71.9971 -62.998 71.9971c-6 0 -47 -19 -123 -57c-132 -65.333 -260.333 -98 -385 -98
c-84.667 0 -156.334 20.333 -215.001 61c-67.333 46.667 -101 110.667 -101 192c0 222.667 160 417 480 583l42 21l81 43c54 30 81 62.667 81 98c0 38.667 -24.667 60.667 -74 66c-114.667 12 -193.667 24 -237 36c-56 16 -128 52.333 -216 109
c-25.333 16.667 -45.666 25 -60.999 25c-44.667 0 -81.334 -48 -110.001 -144c-22.667 -75.333 -34 -142.333 -34 -201c0 -54 17.333 -81 52 -81c44.667 0 68.667 25 72 75c0.666992 12 0.666992 19.667 0 23l-3 23c0 82.667 12.667 124 38 124c8 0 27.667 -8.66699 59 -26
l62 -35c15.333 -6 52 -15.667 110 -29c22.667 -5.33301 34 -14.666 34 -27.999c0 -10 -39.667 -37.333 -119 -82c-116.667 -65.333 -212.334 -150.666 -287.001 -255.999c-82 -115.333 -123 -234.666 -123 -357.999c0 -134 39.667 -236.667 119 -308
c76 -68 181.667 -102 317 -102c213.333 0 398 58.667 554 176c33.333 25.333 50 51.333 50 78z" />
    <glyph glyph-name="u062E" unicode="&#x62e;" horiz-adv-x="1295" arabic-form="isolated" 
d="M673 1044c0 -52.667 -16.667 -99.667 -50 -141c-35.333 -44 -79 -66 -131 -66c-98.667 0 -148 57.667 -148 173c0 46.667 18.167 88.5 54.5 125.5s77.833 55.5 124.5 55.5c100 0 150 -49 150 -147zM1293 -459c0 -48 -25.6689 -90.998 -77.002 -128.998
c-167.333 -124 -363 -186 -587 -186c-146 0 -264 39 -354 117c-94.667 82 -142 195 -142 339c0 193.333 80.667 369.333 242 528c-9.33301 -2 -19 -3 -29 -3c-71.333 0 -107 51 -107 153c0 77.333 15.667 156.666 47 237.999c40 102 92 153 156 153
c26.667 0 58.334 -11.667 95.001 -35c80 -51.333 146.667 -85 200 -101c48.667 -14.667 121.667 -26 219 -34c88.667 -7.33301 133 -50 133 -128c0 -56 -21.667 -95.333 -65 -118l-152 -79c-310 -166.667 -465 -348.334 -465 -545.001c0 -62 25.333 -110.667 76 -146
c44.667 -30 99.334 -45 164.001 -45c124 0 273 43.667 447 131c30 15.333 57.667 23 83 23c34 0 61.833 -13.5 83.5 -40.5s32.5 -57.833 32.5 -92.5zM612.998 1039c0 61.333 -27.333 92 -82 92c-37.333 0 -67.833 -14.5 -91.5 -43.5s-35.5 -62.5 -35.5 -100.5
c0 -60 29 -90 87 -90c32 0 60.667 16 86 48c24 30 36 61.333 36 94zM600.998 378.002c-44 13.333 -83.667 29.999 -119 49.999c0.666992 -6.66699 1 -35 1 -85c0 -16.667 -3 -32.667 -9 -48c40 30.667 82.333 58.334 127 83.001zM1233 -458.999
c0 48 -20.998 71.9971 -62.998 71.9971c-6 0 -47 -19 -123 -57c-132 -65.333 -260.333 -98 -385 -98c-84.667 0 -156.334 20.333 -215.001 61c-67.333 46.667 -101 110.667 -101 192c0 222.667 160 417 480 583l42 21l81 43c54 30 81 62.667 81 98
c0 38.667 -24.667 60.667 -74 66c-114.667 12 -193.667 24 -237 36c-56 16 -128 52.333 -216 109c-25.333 16.667 -45.666 25 -60.999 25c-44.667 0 -81.334 -48 -110.001 -144c-22.667 -75.333 -34 -142.333 -34 -201c0 -54 17.333 -81 52 -81c44.667 0 68.667 25 72 75
c0.666992 12 0.666992 19.667 0 23l-3 23c0 82.667 12.667 124 38 124c8 0 27.667 -8.66699 59 -26l62 -35c15.333 -6 52 -15.667 110 -29c22.667 -5.33301 34 -14.666 34 -27.999c0 -10 -39.667 -37.333 -119 -82c-116.667 -65.333 -212.334 -150.666 -287.001 -255.999
c-82 -115.333 -123 -234.666 -123 -357.999c0 -134 39.667 -236.667 119 -308c76 -68 181.667 -102 317 -102c213.333 0 398 58.667 554 176c33.333 25.333 50 51.333 50 78z" />
    <glyph glyph-name="u062F" unicode="&#x62f;" horiz-adv-x="805" arabic-form="isolated" 
d="M725 210c0 -78 -52 -180.997 -156 -308.997c-150 -184.667 -263.333 -287.334 -340 -308.001c-15.333 -4 -31 -6 -47 -6c-37.333 0 -68.666 14.167 -93.999 42.5s-38 61.166 -38 98.499c0 39.333 18.333 73.333 55 102c236.667 185.333 355 307.666 355 366.999l-121 114
c-80.667 76 -121 132 -121 168c0 36.667 16.667 69.334 50 98.001c31.333 27.333 65.666 41 102.999 41c25.333 0 51.333 -10 78 -30c58 -44.667 114.667 -102 170 -172c70.667 -88.667 106 -157.334 106 -206.001zM664 210.003c0 42 -38.833 110.501 -116.5 205.501
s-136.5 142.5 -176.5 142.5c-22.667 0 -43.334 -8.5 -62.001 -25.5s-28 -36.833 -28 -59.5c0 -9.33301 39.833 -51.166 119.5 -125.499s119.5 -124.833 119.5 -151.5c0 -82.667 -127 -221.334 -381 -416.001c-13.333 -10.667 -21.666 -20.334 -24.999 -29.001
c-0.666992 -5.33301 -1 -12 -1 -20c0 -55.333 25 -83 75 -83c67.333 0 179 96.333 335 289c94 116 141 207 141 273z" />
    <glyph glyph-name="u0630" unicode="&#x630;" horiz-adv-x="805" arabic-form="isolated" 
d="M454 947c0 -53.333 -16.667 -102 -50 -146c-36.667 -47.333 -80.667 -71 -132 -71c-100 0 -150 49.333 -150 148c0 57.333 17 105.833 51 145.5s79.333 59.5 136 59.5c38.667 0 72.5 -13 101.5 -39s43.5 -58.333 43.5 -97zM725 210c0 -78 -52 -180.997 -156 -308.997
c-150 -184.667 -263.333 -287.334 -340 -308.001c-15.333 -4 -31 -6 -47 -6c-37.333 0 -68.666 14.167 -93.999 42.5s-38 61.166 -38 98.499c0 39.333 18.333 73.333 55 102c236.667 185.333 355 307.666 355 366.999l-121 114c-80.667 76 -121 132 -121 168
c0 36.667 16.667 69.334 50 98.001c31.333 27.333 65.666 41 102.999 41c25.333 0 51.333 -10 78 -30c58 -44.667 114.667 -102 170 -172c70.667 -88.667 106 -157.334 106 -206.001zM393 941.003c0 54 -27.667 80.999 -83 80.999c-38 0 -68.833 -14.167 -92.5 -42.5
s-35.5 -62.166 -35.5 -101.499c0 -58 29.333 -87 88 -87c35.333 0 65 16.667 89 50c22.667 30.667 34 64 34 100zM664 210.002c0 42 -38.833 110.501 -116.5 205.501s-136.5 142.5 -176.5 142.5c-22.667 0 -43.334 -8.5 -62.001 -25.5s-28 -36.833 -28 -59.5
c0 -9.33301 39.833 -51.166 119.5 -125.499s119.5 -124.833 119.5 -151.5c0 -82.667 -127 -221.334 -381 -416.001c-13.333 -10.667 -21.666 -20.334 -24.999 -29.001c-0.666992 -5.33301 -1 -12 -1 -20c0 -55.333 25 -83 75 -83c67.333 0 179 96.333 335 289
c94 116 141 207 141 273z" />
    <glyph glyph-name="u0631" unicode="&#x631;" horiz-adv-x="736" arabic-form="isolated" 
d="M656 292c0 -89.333 -59.668 -222.833 -179.001 -400.5s-220.666 -286.5 -303.999 -326.5c-23.333 -10.667 -45.666 -16 -66.999 -16c-86.667 0 -130 39.667 -130 119c0 43.333 17.667 83 53 119c165.333 168 287.666 343.667 366.999 527c28.667 65.333 73 98 133 98
c84.667 0 127 -40 127 -120zM594.999 288c0 42.667 -22 64.001 -66 64.001c-32.667 0 -58 -20 -76 -60c-61.333 -134 -115.333 -233 -162 -297c-30.667 -41.333 -104.334 -125.333 -221.001 -252c-23.333 -25.333 -35 -50.333 -35 -75c0 -40 23.667 -60 71 -60
c64.667 0 163.334 96.333 296.001 289c128.667 187.333 193 317.666 193 390.999z" />
    <glyph glyph-name="u0632" unicode="&#x632;" horiz-adv-x="736" arabic-form="isolated" 
d="M702 822c0 -61.333 -18.499 -112.667 -55.499 -154s-85.833 -62 -146.5 -62c-86.667 0 -130 57.667 -130 173c0 10 3.66699 25.667 11 47c29.333 88 94.333 132 195 132c35.333 0 65.166 -14 89.499 -42s36.5 -59.333 36.5 -94zM656.001 291.999
c0 -89.333 -59.668 -222.833 -179.001 -400.5s-220.666 -286.5 -303.999 -326.5c-23.333 -10.667 -45.666 -16 -66.999 -16c-86.667 0 -130 39.667 -130 119c0 43.333 17.667 83 53 119c165.333 168 287.666 343.667 366.999 527c28.667 65.333 73 98 133 98
c84.667 0 127 -40 127 -120zM641 814.999c0 55.333 -27.001 83 -81.001 83c-59.333 0 -100.333 -30.667 -123 -92c-4.66699 -14 -7 -23 -7 -27v-25c0 -58.667 29.333 -88 88 -88c34.667 0 64.334 16.667 89.001 50c22.667 30 34 63 34 99zM594.999 287.999
c0 42.667 -22 64.001 -66 64.001c-32.667 0 -58 -20 -76 -60c-61.333 -134 -115.333 -233 -162 -297c-30.667 -41.333 -104.334 -125.333 -221.001 -252c-23.333 -25.333 -35 -50.333 -35 -75c0 -40 23.667 -60 71 -60c64.667 0 163.334 96.333 296.001 289
c128.667 187.333 193 317.666 193 390.999z" />
    <glyph glyph-name="u0633" unicode="&#x633;" horiz-adv-x="2106" arabic-form="isolated" 
d="M2026 519c0 -98.667 -38.002 -211.333 -114.002 -338c-83.333 -141.333 -170 -212 -260 -212c-58 0 -108 22.667 -150 68c-50.667 -45.333 -105.667 -68 -165 -68c-30.667 0 -58.667 4.33301 -84 13c-119.333 -288 -318.666 -432 -597.999 -432
c-163.333 0 -290.833 46 -382.5 138s-137.5 220 -137.5 384c0 129.333 35.667 259.333 107 390c74 136 166.667 233 278 291c33.333 17.333 63.333 26 90 26c78.667 0 118 -41.333 118 -124c0 -45.333 -20.667 -84 -62 -116c-169.333 -131.333 -254 -287.666 -254 -468.999
c0 -72.667 26.333 -130.334 79 -173.001c49.333 -39.333 111 -59 185 -59c128 0 227 57 297 171c59.333 96.667 89 213 89 349c0 14.667 -0.5 37 -1.5 67s-1.5 52.667 -1.5 68c0 95.333 41.667 143 125 143c84.667 0 131 -35.667 139 -107
c6.66699 -53.333 8.33398 -143.333 5.00098 -270c3.33301 -9.33301 8 -14 14 -14c19.333 0 41.333 30 66 90c11.333 28 26.333 82 45 162c16.667 68.667 58 103 124 103c89.333 0 134 -33.667 134 -101c0 -28 -9 -68.833 -27 -122.5s-27 -94.5 -27 -122.5v-9
c27.333 0.666992 51.333 44.334 72 131.001c6 28 18.667 83.333 38 166c14.667 62 52 93 112 93c36 0 68.667 -10 98 -30c32.667 -22.667 49 -51.334 49 -86.001zM1966 522.001c0 35.333 -27.9971 52.998 -83.9971 52.998c-34 0 -59.667 -34 -77 -102
c-6 -32 -15.667 -79.667 -29 -143c-23.333 -97.333 -62 -146 -116 -146c-42 0 -63 27.333 -63 82c0 25.333 9 62.833 27 112.5s27 86.834 27 111.501c0 33.333 -24.667 50 -74 50c-32 0 -53.333 -17.333 -64 -52l-53 -182c-32 -80.667 -71.333 -121 -118 -121
c-52 0 -78 32.333 -78 97c0 10.667 1 27 3 49s3 38.667 3 50c0 2.66699 -0.666992 24.667 -2 66c-0.666992 47.333 -3.66699 77.333 -9 90c-10 26.667 -35 40 -75 40c-46 0 -69 -24 -69 -72c0 -15.333 1 -38.333 3 -69s3 -53.667 3 -69
c0 -156.667 -34.667 -289.667 -104 -399c-80.667 -127.333 -195.334 -191 -344.001 -191c-92 0 -168 27.333 -228 82c-62 56.667 -93 130.667 -93 222c0 189.333 93.333 358.666 280 507.999c24.667 19.333 37 41.333 37 66c0 42 -19.667 63 -59 63
c-20 0 -40.667 -5.66699 -62 -17c-98 -51.333 -182.333 -141.666 -253 -270.999c-67.333 -123.333 -101 -242.666 -101 -357.999c0 -146 40.333 -259.5 121 -340.5s194 -121.5 340 -121.5c211.333 0 372 91.333 482 274c22 48 46 97.333 72 148c6 12 15 18 27 18
c11.333 0 28.166 -3.16699 50.499 -9.5s39.166 -9.5 50.499 -9.5c24 0 57.667 12.667 101 38c38 22.667 57 35 57 37c0 -5.33301 17.667 -17.333 53 -36c52 -26 86.667 -39 104 -39c72.667 0 144.667 64.667 216 194c65.333 118 98 217 98 297z" />
    <glyph glyph-name="u0634" unicode="&#x634;" horiz-adv-x="2106" arabic-form="isolated" 
d="M1767 1166c0 -126.667 -55.667 -190 -167 -190c-30.667 0 -57.167 12.333 -79.5 37s-33.5 52.667 -33.5 84c0 51.333 14.667 94 44 128s69.333 51 120 51c77.333 0 116 -36.667 116 -110zM1885 866c0 -50 -15.334 -91.666 -46.001 -124.999
c-31.333 -35.333 -71.666 -53 -120.999 -53c-30.667 0 -57.167 12.167 -79.5 36.5s-33.5 52.166 -33.5 83.499c0 119.333 59 179 177 179c68.667 0 103 -40.333 103 -121zM1587 878.001c0 -50 -13.333 -92.667 -40 -128c-29.333 -40 -68 -60 -116 -60
c-84 0 -126 39.667 -126 119c0 119.333 59.333 179 178 179c69.333 0 104 -36.667 104 -110zM2026 519.001c0 -98.667 -38.002 -211.333 -114.002 -338c-83.333 -141.333 -170 -212 -260 -212c-58 0 -108 22.667 -150 68c-50.667 -45.333 -105.667 -68 -165 -68
c-30.667 0 -58.667 4.33301 -84 13c-119.333 -288 -318.666 -432 -597.999 -432c-163.333 0 -290.833 46 -382.5 138s-137.5 220 -137.5 384c0 129.333 35.667 259.333 107 390c74 136 166.667 233 278 291c33.333 17.333 63.333 26 90 26c78.667 0 118 -41.333 118 -124
c0 -45.333 -20.667 -84 -62 -116c-169.333 -131.333 -254 -287.666 -254 -468.999c0 -72.667 26.333 -130.334 79 -173.001c49.333 -39.333 111 -59 185 -59c128 0 227 57 297 171c59.333 96.667 89 213 89 349c0 14.667 -0.5 37 -1.5 67s-1.5 52.667 -1.5 68
c0 95.333 41.667 143 125 143c84.667 0 131 -35.667 139 -107c6.66699 -53.333 8.33398 -143.333 5.00098 -270c3.33301 -9.33301 8 -14 14 -14c19.333 0 41.333 30 66 90c11.333 28 26.333 82 45 162c16.667 68.667 58 103 124 103c89.333 0 134 -33.667 134 -101
c0 -28 -9 -68.833 -27 -122.5s-27 -94.5 -27 -122.5v-9c27.333 0.666992 51.333 44.334 72 131.001c6 28 18.667 83.333 38 166c14.667 62 52 93 112 93c36 0 68.667 -10 98 -30c32.667 -22.667 49 -51.334 49 -86.001zM1707 1166c0 33.333 -21.667 50 -65 50
c-63.333 0 -95 -39.667 -95 -119c0 -40.667 22 -61 66 -61c62.667 0 94 43.333 94 130zM1825 868.002c0 39.333 -19.334 59 -58.001 59c-67.333 0 -101 -37.667 -101 -113c0 -44 21.333 -66 64 -66c28.667 0 52.334 13.333 71.001 40c16 23.333 24 50 24 80zM1527 871.002
c0 38.667 -14.668 58 -44.001 58h-17c-66.667 0 -100 -38 -100 -114c0 -43.333 22 -65 66 -65c44.667 0 75.334 29.333 92.001 88v-1c2 -6 3 5.33301 3 34zM1966 522.002c0 35.333 -27.9971 52.998 -83.9971 52.998c-34 0 -59.667 -34 -77 -102
c-6 -32 -15.667 -79.667 -29 -143c-23.333 -97.333 -62 -146 -116 -146c-42 0 -63 27.333 -63 82c0 25.333 9 62.833 27 112.5s27 86.834 27 111.501c0 33.333 -24.667 50 -74 50c-32 0 -53.333 -17.333 -64 -52l-53 -182c-32 -80.667 -71.333 -121 -118 -121
c-52 0 -78 32.333 -78 97c0 10.667 1 27 3 49s3 38.667 3 50c0 2.66699 -0.666992 24.667 -2 66c-0.666992 47.333 -3.66699 77.333 -9 90c-10 26.667 -35 40 -75 40c-46 0 -69 -24 -69 -72c0 -15.333 1 -38.333 3 -69s3 -53.667 3 -69
c0 -156.667 -34.667 -289.667 -104 -399c-80.667 -127.333 -195.334 -191 -344.001 -191c-92 0 -168 27.333 -228 82c-62 56.667 -93 130.667 -93 222c0 189.333 93.333 358.666 280 507.999c24.667 19.333 37 41.333 37 66c0 42 -19.667 63 -59 63
c-20 0 -40.667 -5.66699 -62 -17c-98 -51.333 -182.333 -141.666 -253 -270.999c-67.333 -123.333 -101 -242.666 -101 -357.999c0 -146 40.333 -259.5 121 -340.5s194 -121.5 340 -121.5c211.333 0 372 91.333 482 274c22 48 46 97.333 72 148c6 12 15 18 27 18
c11.333 0 28.166 -3.16699 50.499 -9.5s39.166 -9.5 50.499 -9.5c24 0 58 12.333 102 37c38.667 22 58 33.667 58 35c0 -4 17 -15 51 -33c52 -26 86.667 -39 104 -39c72.667 0 144.667 64.667 216 194c65.333 118 98 217 98 297z" />
    <glyph glyph-name="u0635" unicode="&#x635;" horiz-adv-x="2061" arabic-form="isolated" 
d="M2062 578c0 -124.667 -47.3311 -242.329 -141.998 -352.996c-87.333 -101.333 -193.333 -174.333 -318 -219c-32 -76.667 -80 -115 -144 -115c-44 0 -74.667 26 -92 78c-40.667 1.33301 -77.334 7.66602 -110.001 18.999c-120 -292 -320.333 -438 -601 -438
c-163.333 0 -290.833 46 -382.5 138s-137.5 220 -137.5 384c0 132.667 35 263.334 105 392.001c73.333 135.333 166.666 231.666 279.999 288.999c34.667 17.333 64.667 26 90 26c78.667 0 118 -41.333 118 -124c0 -44.667 -20.667 -83.334 -62 -116.001
c-169.333 -134.667 -254 -291 -254 -469c0 -72.667 26.333 -130.334 79 -173.001c49.333 -39.333 111 -59 185 -59c122 0 219 58 291 174c61.333 99.333 92 213.666 92 342.999v3c-1.33301 8 -2 18.667 -2 32v35c0 98 42.333 147 127 147c98 0 147 -69.667 147 -209
c0 -6.66699 -1 -40.334 -3 -101.001c16.667 -10.667 36.667 -16 60 -16c30.667 132 81 259.667 151 383c92.667 162 190 243 292 243c74 0 132.333 -31.667 175 -95c37.333 -55.333 56 -121.666 56 -198.999zM2003 578.005c0 56.667 -12.6709 107.668 -38.0039 153.001
c-30.667 54 -72 81 -124 81c-78 0 -155.667 -61 -233 -183c-56 -88.667 -100.333 -185.667 -133 -291c-5.33301 -30.667 -16.666 -74 -33.999 -130c-8 -16 -24.333 -24 -49 -24c-75.333 0 -116.666 22.333 -123.999 67c1.33301 -7.33301 2 39.667 2 141
c0 80.667 -28 121 -84 121c-47.333 0 -71 -27.667 -71 -83c0 -8 0.5 -20 1.5 -36s1.5 -28 1.5 -36c0 -146.667 -36 -275.667 -108 -387c-84 -128.667 -195.333 -193 -334 -193c-89.333 0 -164.666 26 -225.999 78c-65.333 54.667 -98 126 -98 214
c0 169.333 63.333 317.333 190 444c10 10.667 40 35.667 90 75c24.667 19.333 37 41.333 37 66c0 42 -19.667 63 -59 63c-19.333 0 -40 -5.66699 -62 -17c-92 -46.667 -174.667 -137.667 -248 -273c-70.667 -129.333 -106 -248 -106 -356c0 -146 40.333 -259.5 121 -340.5
s194 -121.5 340 -121.5c212 0 376 98 492 294c16 37.333 37.667 82.666 65 135.999c6 12 15 18 27 18c6 0 11.333 -1 16 -3c40 -17.333 84.333 -26 133 -26c8 0 20 -13.167 36 -39.5s28.333 -39.5 37 -39.5c24 0 45 15 63 45c20.667 36.667 36 57.667 46 63
c36.667 14 77.334 33 122.001 57c207.333 110 311 264.333 311 463zM1873 600.006c0 -22 -3.66699 -43.667 -11 -65c-47.333 -136 -122.333 -232.333 -225 -289c-9.33301 -4.66699 -17.333 -7 -24 -7c-12.667 0 -19 10 -19 30c0 58 24.667 135 74 231
c53.333 106 105.333 159 156 159c32.667 0 49 -19.667 49 -59zM1813 597.006c-50.667 -26 -97.999 -110.667 -141.999 -254c91.333 75.333 138.666 160 141.999 254z" />
    <glyph glyph-name="u0636" unicode="&#x636;" horiz-adv-x="2142" arabic-form="isolated" 
d="M1659 1068c0 -49.333 -17.001 -95.332 -51.001 -137.999c-35.333 -46 -77 -69 -125 -69c-104 0 -156 50 -156 150c0 59.333 16.833 108.166 50.5 146.499s79.834 57.5 138.501 57.5c95.333 0 143 -49 143 -147zM2062 578.001
c0 -124.667 -47.3311 -242.329 -141.998 -352.996c-87.333 -101.333 -193.333 -174.333 -318 -219c-32 -76.667 -80 -115 -144 -115c-44 0 -74.667 26 -92 78c-40.667 1.33301 -77.334 7.66602 -110.001 18.999c-120 -292 -320.333 -438 -601 -438
c-163.333 0 -290.833 46 -382.5 138s-137.5 220 -137.5 384c0 132.667 35 263.334 105 392.001c73.333 135.333 166.666 231.666 279.999 288.999c34.667 17.333 64.667 26 90 26c78.667 0 118 -41.333 118 -124c0 -44.667 -20.667 -83.334 -62 -116.001
c-169.333 -134.667 -254 -291 -254 -469c0 -72.667 26.333 -130.334 79 -173.001c49.333 -39.333 111 -59 185 -59c122 0 219 58 291 174c61.333 99.333 92 213.666 92 342.999v3c-1.33301 8 -2 18.667 -2 32v35c0 98 42.333 147 127 147c98 0 147 -69.667 147 -209
c0 -6.66699 -1 -40.334 -3 -101.001c16.667 -10.667 36.667 -16 60 -16c30.667 132 81 259.667 151 383c92.667 162 190 243 292 243c74 0 132.333 -31.667 175 -95c37.333 -55.333 56 -121.666 56 -198.999zM1599 1073.01c0 54.667 -27.667 82 -83 82
c-86.667 0 -130 -48 -130 -144c0 -58.667 31.333 -88 94 -88c34.667 0 63.667 16.667 87 50c21.333 30 32 63.333 32 100zM2003 578.006c0 56.667 -12.6709 107.668 -38.0039 153.001c-30.667 54 -72 81 -124 81c-78 0 -155.667 -61 -233 -183
c-56 -88.667 -100.333 -185.667 -133 -291c-5.33301 -30.667 -16.666 -74 -33.999 -130c-8 -16 -24.333 -24 -49 -24c-75.333 0 -116.666 22.333 -123.999 67c1.33301 -7.33301 2 39.667 2 141c0 80.667 -28 121 -84 121c-47.333 0 -71 -27.667 -71 -83
c0 -8 0.5 -20 1.5 -36s1.5 -28 1.5 -36c0 -146.667 -36 -275.667 -108 -387c-84 -128.667 -195.333 -193 -334 -193c-89.333 0 -164.666 26 -225.999 78c-65.333 54.667 -98 126 -98 214c0 169.333 63.333 317.333 190 444c10 10.667 40 35.667 90 75
c24.667 19.333 37 41.333 37 66c0 42 -19.667 63 -59 63c-19.333 0 -40 -5.66699 -62 -17c-92 -46.667 -174.667 -137.667 -248 -273c-70.667 -129.333 -106 -248 -106 -356c0 -146 40.333 -259.5 121 -340.5s194 -121.5 340 -121.5c212 0 376 98 492 294
c16 37.333 37.667 82.666 65 135.999c6 12 15 18 27 18c6 0 11.333 -1 16 -3c40 -17.333 84.333 -26 133 -26c8 0 20 -13.167 36 -39.5s28.333 -39.5 37 -39.5c24 0 45 15 63 45c20.667 36.667 36 57.667 46 63c36.667 14 77.334 33 122.001 57
c207.333 110 311 264.333 311 463zM1873 600.007c0 -22 -3.66699 -43.667 -11 -65c-47.333 -136 -122.333 -232.333 -225 -289c-9.33301 -4.66699 -17.333 -7 -24 -7c-12.667 0 -19 10 -19 30c0 58 24.667 135 74 231c53.333 106 105.333 159 156 159
c32.667 0 49 -19.667 49 -59zM1813 597.007c-50.667 -26 -97.999 -110.667 -141.999 -254c91.333 75.333 138.666 160 141.999 254z" />
    <glyph glyph-name="u0637" unicode="&#x637;" horiz-adv-x="1221" arabic-form="isolated" 
d="M1141 522c0 -102 -35.001 -198.332 -105.001 -288.999c-130 -168.667 -294.667 -256 -494 -262c-34 -48 -74 -72 -120 -72c-50 0 -83.667 27.667 -101 83c-139.333 20 -209 73.333 -209 160c0 34 7 68.667 21 104c18.667 46 41.667 69 69 69c6.66699 0 14.667 -3 24 -9
c50.667 -32.667 108 -50.667 172 -54c16.667 28.667 35.334 65 56.001 109c3.33301 6 13 37.667 29 95c55.333 189.333 90.666 385 105.999 587c6.66699 88 57.334 132 152.001 132c64.667 0 97 -34 97 -102c0 -110.667 -11.667 -228.667 -35 -354
c51.333 30.667 98.333 46 141 46c64 0 114 -25.333 150 -76c31.333 -44.667 47 -100.334 47 -167.001zM1082 522.001c0 122 -45.3311 182.998 -135.998 182.998c-28.667 0 -68 -14.333 -118 -43l-75 -42c-16.667 0 -25 9 -25 27c0 46.667 8.66699 115.834 26 207.501
s26 160.834 26 207.501c0 36.667 -13.667 55 -41 55c-55.333 0 -85.333 -25 -90 -75c-36 -355.333 -84 -592.666 -144 -711.999c-46.667 -92.667 -76.334 -139 -89.001 -139c-84.667 0 -155.667 19.333 -213 58c-20 -18 -30 -52 -30 -102c0 -52 30.667 -83 92 -93
c68 -11.333 104.667 -24.333 110 -39c13.333 -36.667 29 -55 47 -55s38 10.333 60 31l44 40c19.333 1.33301 56.666 5.66602 111.999 12.999c131.333 19.333 248 94.333 350 225c62.667 80 94 164.333 94 253zM967.001 507.999c0 -56 -40 -120.001 -120 -192.001
s-148.667 -108 -206 -108c-13.333 0 -20 6.66699 -20 20c0 24.667 20 67.334 60 128.001c86.667 132.667 165 199 235 199c34 0 51 -15.667 51 -47zM904.001 492.998c-62 -16.667 -124.667 -81.667 -188 -195c101.333 55.333 164 120.333 188 195z" />
    <glyph glyph-name="u0638" unicode="&#x638;" horiz-adv-x="1246" arabic-form="isolated" 
d="M1166 1025c0 -56 -15.668 -105 -47.001 -147c-35.333 -46.667 -80 -70 -134 -70c-98.667 0 -149 47.333 -151 142c-5.33301 -73.333 -15.666 -150.333 -30.999 -231c51.333 30.667 98.333 46 141 46c64 0 114 -25.333 150 -76c31.333 -44.667 47 -100.334 47 -167.001
c0 -102 -35 -198.333 -105 -289c-130 -168.667 -294.667 -256 -494 -262c-34 -48 -74 -72 -120 -72c-50 0 -83.667 27.667 -101 83c-139.333 20 -209 73.333 -209 160c0 34 7 68.667 21 104c18.667 46 41.667 69 69 69c6.66699 0 14.667 -3 24 -9
c50.667 -32.667 108 -50.667 172 -54l56 109c4 7.33301 13.667 39 29 95c55.333 197.333 90.666 393 105.999 587c6.66699 88 57.334 132 152.001 132c50 0 80.333 -20 91 -60c5.33301 -18 7 -57 5 -117c14 108 82.333 162 205 162c34.667 0 64 -13.667 88 -41
s36 -58.666 36 -93.999zM1105 1017c0 54.667 -27 82 -81 82c-86.667 0 -130 -48 -130 -144c0 -58 30.333 -87 91 -87c34.667 0 64 16.667 88 50c21.333 30 32 63 32 99zM1082 522c0 122 -45.3311 182.998 -135.998 182.998c-28.667 0 -68 -14.333 -118 -43l-75 -42
c-16.667 0 -25 9 -25 27c0 46.667 8.66699 115.834 26 207.501s26 160.834 26 207.501c0 36.667 -13.667 55 -41 55c-55.333 0 -85.333 -25 -90 -75c-36 -355.333 -84 -592.666 -144 -711.999c-46.667 -92.667 -76.334 -139 -89.001 -139c-84.667 0 -155.667 19.333 -213 58
c-20 -18 -30 -52 -30 -102c0 -52 30.667 -83 92 -93c68 -11.333 104.667 -24.333 110 -39c13.333 -36.667 29 -55 47 -55s38 10.333 60 31l44 40c19.333 1.33301 56.666 5.66602 111.999 12.999c131.333 19.333 248 94.333 350 225c62.667 80 94 164.333 94 253z
M967.001 507.998c0 -56 -40 -120.001 -120 -192.001s-148.667 -108 -206 -108c-13.333 0 -20 6.66699 -20 20c0 24.667 20 67.334 60 128.001c86.667 132.667 165 199 235 199c34 0 51 -15.667 51 -47zM904.001 492.997c-62 -16.667 -124.667 -81.667 -188 -195
c101.333 55.333 164 120.333 188 195z" />
    <glyph glyph-name="u0639" unicode="&#x639;" horiz-adv-x="1293" arabic-form="isolated" 
d="M1293 -405c0 -45.333 -19.002 -82.6699 -57.002 -112.003c-14 -11.333 -52.333 -32.666 -115 -63.999c-170 -86.667 -331 -130 -483 -130c-150.667 0 -271 39.333 -361 118c-94.667 83.333 -142 199.333 -142 348c0 186 87 366 261 540c-68 38 -102 99.667 -102 185
c0 94.667 60.333 192.334 181 293.001c116.667 96.667 223.667 145 321 145c34 0 63.667 -9.66699 89 -29c28 -21.333 42 -48.333 42 -81c0 -40.667 -19.333 -92.667 -58 -156c-42 -68.667 -81.333 -103 -118 -103c-37.333 0 -56 18 -56 54c0 10 1.33301 22.333 4 37
c-75.333 -48 -118.666 -95.667 -129.999 -143c9.33301 -2 20 -3 32 -3c44 0 112.333 25.333 205 76s143.667 76 153 76c88 0 132 -43.333 132 -130c0 -9.33301 -0.666992 -15.666 -2 -18.999c-5.33301 -40.667 -55.333 -88.667 -150 -144l-191 -108
c-227.333 -136 -341 -299.333 -341 -490c0 -123.333 81.667 -185 245 -185c81.333 0 162 13.333 242 40c47.333 16 114 48.667 200 98c28.667 16 57.334 24 86.001 24c34.667 0 62.667 -14.667 84 -44c19.333 -26 29 -57 29 -93zM1233 -405.004
c0 50.667 -19.666 76 -58.999 76c-22.667 0 -49.334 -9.66699 -80.001 -29c-12 -8 -37 -22.667 -75 -44c-110.667 -60.667 -233.667 -91 -369 -91c-86 0 -156.333 19.333 -211 58c-62 44 -93 107.333 -93 190c0 204.667 117.333 380.334 352 527.001l286 174
c15.333 9.33301 28.666 19.666 39.999 30.999l7 21l-1 -2c2.66699 53.333 -20.333 80 -69 80c18 0 27 -2.33301 27 -7c0 -10.667 -46.333 -33.667 -139 -69c-133.333 -50 -217 -75 -251 -75c-60 0 -90 18.667 -90 56c0 38.667 26.833 85 80.5 139s99.834 81 138.501 81
c26.667 0 40 -15 40 -45c-1.33301 -8.66699 -5 -27.334 -11 -56.001c22.667 16 46.667 46.333 72 91s38 80.334 38 107.001c0 33.333 -24 50 -72 50c-77.333 0 -169 -43.333 -275 -130c-110.667 -90 -166 -172.667 -166 -248c0 -52.667 43.333 -110.667 130 -174
c-4 -4 -28.667 -32 -74 -84c-143.333 -162 -215 -317.667 -215 -467c0 -133.333 43.333 -236 130 -308c80.667 -66.667 189 -100 325 -100c184.667 0 363.667 58 537 174c31.333 21.333 47 46 47 74z" />
    <glyph glyph-name="u063A" unicode="&#x63a;" horiz-adv-x="1293" arabic-form="isolated" 
d="M857 1198c0 -57.333 -19.333 -105.667 -58 -145s-86.667 -59 -144 -59c-86 0 -129 49 -129 147c0 136.667 63 205 189 205c94.667 0 142 -49.333 142 -148zM1293 -405.001c0 -45.333 -19.002 -82.6699 -57.002 -112.003c-14 -11.333 -52.333 -32.666 -115 -63.999
c-170 -86.667 -331 -130 -483 -130c-150.667 0 -271 39.333 -361 118c-94.667 83.333 -142 199.333 -142 348c0 186 87 366 261 540c-68 38 -102 99.667 -102 185c0 94.667 60.333 192.334 181 293.001c116.667 96.667 223.667 145 321 145c34 0 63.667 -9.66699 89 -29
c28 -21.333 42 -48.333 42 -81c0 -40.667 -19.333 -92.667 -58 -156c-42 -68.667 -81.333 -103 -118 -103c-37.333 0 -56 18 -56 54c0 10 1.33301 22.333 4 37c-75.333 -48 -118.666 -95.667 -129.999 -143c9.33301 -2 20 -3 32 -3c44 0 112.333 25.333 205 76
s143.667 76 153 76c88 0 132 -43.333 132 -130c0 -9.33301 -0.666992 -15.666 -2 -18.999c-5.33301 -40.667 -55.333 -88.667 -150 -144l-191 -108c-227.333 -136 -341 -299.333 -341 -490c0 -123.333 81.667 -185 245 -185c81.333 0 162 13.333 242 40
c47.333 16 114 48.667 200 98c28.667 16 57.334 24 86.001 24c34.667 0 62.667 -14.667 84 -44c19.333 -26 29 -57 29 -93zM796.998 1193c0 62.667 -27.333 94 -82 94c-86 0 -129 -48.667 -129 -146c0 -58 28.667 -87 86 -87c34.667 0 64.167 14.333 88.5 43
s36.5 60.667 36.5 96zM1233 -405.005c0 50.667 -19.666 76 -58.999 76c-22.667 0 -49.334 -9.66699 -80.001 -29c-12 -8 -37 -22.667 -75 -44c-110.667 -60.667 -233.667 -91 -369 -91c-86 0 -156.333 19.333 -211 58c-62 44 -93 107.333 -93 190
c0 204.667 117.333 380.334 352 527.001l286 174c15.333 9.33301 28.666 19.666 39.999 30.999l7 21l-1 -2c2.66699 53.333 -20.333 80 -69 80c18 0 27 -2.33301 27 -7c0 -10.667 -46.333 -33.667 -139 -69c-133.333 -50 -217 -75 -251 -75c-60 0 -90 18.667 -90 56
c0 38.667 26.833 85 80.5 139s99.834 81 138.501 81c26.667 0 40 -15 40 -45c-1.33301 -8.66699 -5 -27.334 -11 -56.001c22.667 16 46.667 46.333 72 91s38 80.334 38 107.001c0 33.333 -24 50 -72 50c-77.333 0 -169 -43.333 -275 -130
c-110.667 -90 -166 -172.667 -166 -248c0 -52.667 43.333 -110.667 130 -174c-4 -4 -28.667 -32 -74 -84c-143.333 -162 -215 -317.667 -215 -467c0 -133.333 43.333 -236 130 -308c80.667 -66.667 189 -100 325 -100c184.667 0 363.667 58 537 174
c31.333 21.333 47 46 47 74z" />
    <glyph glyph-name="u0641" unicode="&#x641;" horiz-adv-x="1823" arabic-form="isolated" 
d="M1466 1108c0 -52.667 -17.333 -99.667 -52 -141c-36.667 -44 -80.667 -66 -132 -66c-98.667 0 -148 50.667 -148 152c0 133.333 62.667 200 188 200c96 0 144 -48.333 144 -145zM1743 566c0 -42.667 -26.0029 -88 -78.0029 -136
c-57.333 -131.333 -191.666 -243.666 -402.999 -336.999c-187.333 -82.667 -363.333 -124 -528 -124c-135.333 0 -257 17.333 -365 52c-156 50 -234 128.667 -234 236c0 89.333 41.5 173.333 124.5 252s169.5 118 259.5 118c73.333 0 110 -36.667 110 -110
c0 -60 -35.333 -109.333 -106 -148c-76 -42.667 -116.333 -70.334 -121 -83.001c48 -27.333 162 -41 342 -41c148.667 0 296.334 33 443.001 99c-87.333 32 -131 88.667 -131 170c0 89.333 38.667 168.333 116 237c74.667 66.667 157.334 100 248.001 100
c128.667 0 210.667 -68.333 246 -205c51.333 -5.33301 77 -32 77 -80zM1405 1112c0 54 -27.667 81 -83 81c-86 0 -129 -47.333 -129 -142c0 -59.333 29.667 -89 89 -89c36.667 0 67 16.333 91 49c21.333 29.333 32 63 32 101zM1683 565
c0 15.333 -13.6699 22.999 -41.0029 22.999c-14.667 0 -28 17.333 -40 52c-16.667 46 -33 78.333 -49 97c-29.333 34.667 -73.666 52 -132.999 52c-74 0 -142.333 -27 -205 -81c-65.333 -56 -98 -120.667 -98 -194c0 -52 64.667 -104.667 194 -158c0 -10 -7 -19.667 -21 -29
c-152.667 -95.333 -346.667 -143 -582 -143c-244.667 0 -367 32.667 -367 98c0 26 37.833 65.833 113.5 119.5s113.5 91.834 113.5 114.501c0 34.667 -18.333 52 -55 52c-70 0 -140.667 -34.333 -212 -103s-107 -138 -107 -208c0 -83.333 71.667 -145 215 -185
c98.667 -27.333 207 -41 325 -41c134.667 0 277.334 27.667 428.001 83c160.667 59.333 283.334 134.666 368.001 225.999c18.667 20 45.667 59.667 81 119c4 6.66699 18.333 23.334 43 50.001c19.333 21.333 29 40 29 56zM1480.99 545.999c0 -39.333 -50.333 -59 -151 -59
c-49.333 0 -74 15 -74 45c0 28.667 19.333 53.667 58 75c34.667 19.333 67 29 97 29c46.667 0 70 -30 70 -90z" />
    <glyph glyph-name="u0642" unicode="&#x642;" horiz-adv-x="1397" arabic-form="isolated" 
d="M1259 880c0 -46.667 -12.332 -89 -36.999 -127c-28.667 -43.333 -65.334 -65 -110.001 -65c-88.667 0 -133 40 -133 120c0 52 15 95.333 45 130s70.667 52 122 52c75.333 0 113 -36.667 113 -110zM962.001 869c0 -50.667 -12.666 -93.667 -37.999 -129
c-28.667 -39.333 -67.334 -59 -116.001 -59c-82.667 0 -124 44.333 -124 133c0 46 15.667 85.333 47 118s70.333 49 117 49c76 0 114 -37.333 114 -112zM1317 129c0 -174.667 -66.332 -316.666 -198.999 -425.999c-124 -102 -274.667 -153 -452 -153
c-170 0 -301.333 48.667 -394 146c-91.333 95.333 -137 228.333 -137 399c0 84.667 27.333 180 82 286c63.333 121.333 132.666 182 207.999 182c76 0 114 -40.667 114 -122c0 -14.667 -21.667 -66.5 -65 -155.5s-65 -156.5 -65 -202.5c0 -77.333 23.167 -137.5 69.5 -180.5
s108.166 -64.5 185.499 -64.5c150 0 262.667 40.667 338 122c-11.333 -0.666992 -22.666 -1 -33.999 -1c-83.333 0 -150 30.333 -200 91c-46.667 56.667 -70 127.667 -70 213c0 89.333 28.333 166.666 85 231.999c60 68 134 102 222 102c105.333 0 186.333 -54.667 243 -164
c46 -88 69 -189.333 69 -304zM1198 869.001c2 40.667 -19.333 61 -64 61c-62.667 0 -94 -38.667 -94 -116c0 -44 23.667 -66 71 -66c32.667 0 61.667 31 87 93l-2 -1zM903.003 871.001c1.33301 33.333 -22.334 50 -71.001 50c-27.333 0 -49.666 -13.667 -66.999 -41
c-15.333 -23.333 -23 -49.333 -23 -78c0 -40.667 22 -61 66 -61c42 0 73 30.333 93 91v-1zM1258 129.001c0 98 -17.999 185 -53.999 261c-46 98 -112.333 147 -199 147c-70.667 0 -130.334 -28.333 -179.001 -85c-46 -54 -69 -117 -69 -189c0 -161.333 73.667 -242 221 -242
c10 0 25 1.83301 45 5.5s35 5.5 45 5.5c18 0 27 -8.66699 27 -26c0 -7.33301 -1 -13 -3 -17c-70 -140.667 -204 -211 -402 -211c-98 0 -178 24.333 -240 73c-68.667 54 -103 128.667 -103 224c0 57.333 22.667 132.333 68 225l67 139c0 42.667 -18.333 64 -55 64
c-56 0 -110.667 -55 -164 -165c-46 -95.333 -69 -176.333 -69 -243c0 -323.333 157.333 -485 472 -485c160 0 296.667 45.333 410 136c121.333 97.333 182 225 182 383zM1112 222.001c0 -18.667 -14.667 -34 -44 -46c-24.667 -10 -47.667 -15 -69 -15
c-69.333 0 -104 33.667 -104 101c0 31.333 9.83301 59 29.5 83s45.167 36 76.5 36c74 0 111 -53 111 -159zM1053 236.001c-4 56.667 -21.333 85.001 -52 85.001s-46 -19.667 -46 -59c0 -28 14.667 -42 44 -42h18c8.66699 3.33301 20.667 8.66602 36 15.999z" />
    <glyph glyph-name="u0643" unicode="&#x643;" horiz-adv-x="2157" arabic-form="isolated" 
d="M2446 1888c0 -40.667 -22.3311 -84.999 -66.998 -132.999c-142 -151.333 -352.667 -320.333 -632 -507c-76.667 -50.667 -168.334 -104 -275.001 -160c42.667 -27.333 64 -86.666 64 -177.999c0 -153.333 -3 -257.666 -9 -312.999c-23.333 -213.333 -113 -376 -269 -488
c-142 -101.333 -324.333 -152 -547 -152c-385.333 0 -578 118.333 -578 355c0 84 17 164 51 240c42 95.333 100 143 174 143c68.667 0 103 -39.333 103 -118c0 -24 -7.66699 -58.833 -23 -104.5s-23 -80.167 -23 -103.5c0 -84.667 102.333 -127 307 -127
c310 0 483.333 100 520 300c9.33301 50 14 126 14 228v29c0 63.333 2 116.666 6 159.999c7.33301 76.667 38.666 123.667 93.999 141c-41.333 23.333 -62 57.666 -62 102.999s31.333 86.666 94 123.999c344.667 203.333 615 403 811 599c43.333 44 88 66 134 66
c75.333 0 113 -34.667 113 -104zM2387 1888c0 29.333 -17.998 44.001 -53.998 44.001c-29.333 0 -70.666 -25.333 -124 -76l-110 -107c-140.667 -132 -368 -290.667 -682 -476c-42 -24.667 -63 -48 -63 -70c0 -42 25.667 -63 77 -63c27.333 0 121.666 52.333 282.999 157
c121.333 79.333 248.666 171.666 381.999 276.999c194 153.333 291 258 291 314zM1478 907.002c0 94 -25.999 141.001 -77.999 141.001c-40 0 -65 -24 -75 -72c-3.33301 -14 -5 -53.333 -5 -118c0 -146.667 -6.66699 -255.334 -20 -326.001
c-43.333 -233.333 -236 -350 -578 -350c-244.667 0 -367 62.333 -367 187c0 23.333 7.66699 57.833 23 103.5s23 80.5 23 104.5c0 39.333 -15 59 -45 59c-50.667 0 -92.334 -43.333 -125.001 -130c-25.333 -67.333 -38 -132 -38 -194c0 -196.667 172.667 -295 518 -295
c183.333 0 338 36 464 108c144.667 83.333 236 208.333 274 375c19.333 85.333 29 221 29 407z" />
    <glyph glyph-name="u0644" unicode="&#x644;" horiz-adv-x="1492" arabic-form="isolated" 
d="M1412 1177c0 -21.333 -3.66699 -101.668 -11 -241.001c-14.667 -298 -28.667 -485 -42 -561c-34.667 -198.667 -107.667 -360 -219 -484c-126 -139.333 -284 -209 -474 -209c-162.667 0 -291.334 44 -386.001 132c-96.667 90.667 -145 217 -145 379
c0 96.667 20.333 191 61 283c45.333 102 107 174 185 216c32.667 17.333 61.334 26 86.001 26c35.333 0 64.833 -12.167 88.5 -36.5s35.5 -54.5 35.5 -90.5c0 -6.66699 -30.667 -56.667 -92 -150s-92 -168 -92 -224c0 -75.333 26.333 -136 79 -182
c50 -44 113.333 -66 190 -66c200 0 333.333 130.667 400 392c38.667 152.667 58 363.334 58 632.001v106c0 141.333 48 212 144 212c89.333 0 134 -44.667 134 -134zM1354 1143c4.66699 72.667 -20.667 108.999 -76 108.999c-42 0 -66.667 -18 -74 -54
c-1.33301 -6 -5 -85 -11 -237c-12 -316.667 -36.333 -537 -73 -661c-76.667 -260 -224.667 -390 -444 -390c-94 0 -171.667 27.333 -233 82c-64 57.333 -96 132.333 -96 225c0 95.333 61.333 220 184 374c0 43.333 -23.333 65 -70 65c-18.667 0 -40.667 -8 -66 -24
c-62.667 -39.333 -112.667 -105 -150 -197c-34 -83.333 -51 -166 -51 -248c0 -143.333 43.333 -254.333 130 -333c83.333 -75.333 197.333 -113 342 -113c176.667 0 322 65 436 195c101.333 114.667 166.333 264 195 448c22.667 143.333 35.667 274.333 39 393
c2 74.667 4 129.334 6 164.001z" />
    <glyph glyph-name="u0645" unicode="&#x645;" horiz-adv-x="1171" arabic-form="isolated" 
d="M1091 445c0 -137.333 -95.001 -220.999 -285.001 -250.999c-0.666992 -73.333 -30 -110 -88 -110c-61.333 0 -120.666 37.667 -177.999 113c-30.667 10.667 -77.667 23.667 -141 39c-8.66699 -36.667 -13 -87.334 -13 -152.001c0 -119.333 11.667 -316 35 -590
c9.33301 -107.333 14 -174.333 14 -201c0 -92 -43 -138 -129 -138c-67.333 0 -109 37.333 -125 112c-21.333 94 -32.333 199.667 -33 317c0 94.667 -1 200.667 -3 318l-1 121c-3.33301 277.333 31.334 438 104.001 482c25.333 15.333 51.666 23 78.999 23
c16.667 0 58 -10.667 124 -32c9.33301 76.667 39 140 89 190c52 52.667 115.667 79 191 79c105.333 0 190.333 -26.667 255 -80c70 -57.333 105 -137.333 105 -240zM1031 445.001c0 77.333 -27.999 140.668 -83.999 190.001c-53.333 48 -119 72 -197 72
c-73.333 0 -131.833 -23.333 -175.5 -70s-65.5 -107 -65.5 -181c0 -20.667 -9 -31 -27 -31c-17.333 0 -42.833 7 -76.5 21s-59.167 21 -76.5 21c-84 0 -126 -140.333 -126 -421c0 -60.667 3.33301 -185 10 -373l7 -236c4 -119.333 19 -188.333 45 -207
c15.333 -10.667 29.666 -16 42.999 -16c44.667 0 67 26.333 67 79c0 82 -6.66699 189.667 -20 323c-19.333 194.667 -29 364 -29 508c0 115.333 24 173 72 173c10.667 0 64.667 -13.667 162 -41c2 -0.666992 22.333 -20.334 61 -59.001c36 -35.333 64.667 -53 86 -53
c26.667 0 40 24 40 72c0 16 8 27 24 33c12 2 36 6.33301 72 13c125.333 23.333 188 84.333 188 183zM881 454.003c0 -45.333 -49 -68 -147 -68c-52 0 -78 23.667 -78 71c0 63.333 24.667 95 74 95c34.667 0 67 -7.66699 97 -23c36 -18 54 -43 54 -75zM822 454.003
c-5.33301 22.667 -36 35.666 -92 38.999c-9.33301 -3.33301 -14 -15.666 -14 -36.999v-6c18.667 -2 34 -3 46 -3h24c16.667 0 28.667 2.33301 36 7z" />
    <glyph glyph-name="u0646" unicode="&#x646;" horiz-adv-x="1413" arabic-form="isolated" 
d="M933 263c0 -62 -17.667 -113 -53 -153c-37.333 -42 -87 -63 -149 -63c-85.333 0 -128 50.667 -128 152c0 133.333 68.333 200 205 200c35.333 0 65 -13.667 89 -41s36 -59 36 -95zM1333 360c0 -222 -56.332 -409.334 -168.999 -562.001
c-124.667 -169.333 -294.334 -254 -509.001 -254c-162.667 0 -290 46.333 -382 139s-138 220.334 -138 383.001c0 124.667 36.667 254.667 110 390c77.333 141.333 169.666 238.333 276.999 291c35.333 17.333 64.666 26 87.999 26c78.667 0 118 -41.333 118 -124
c0 -44 -20.667 -83 -62 -117c-169.333 -137.333 -254 -293.666 -254 -468.999c0 -73.333 26.333 -131 79 -173c48.667 -38.667 110.334 -58 185.001 -58c128.667 0 228.334 57 299.001 171c58 94.667 87 210.334 87 347.001c0 15.333 -0.5 38.166 -1.5 68.499
s-1.5 53.166 -1.5 68.499c0 96.667 42.333 145 127 145c66 0 109.333 -31.667 130 -95c11.333 -34.667 17 -93.667 17 -177zM872.001 256.999c0 55.333 -27 83 -81 83c-86 0 -129 -47.667 -129 -143c0 -60 28.333 -90 85 -90c36.667 0 67 16.333 91 49
c22.667 29.333 34 63 34 101zM1274 427.999c2.66699 96 -26.668 144 -88.001 144c-47.333 0 -71 -24 -71 -72c0 -15.333 1 -38.666 3 -69.999s3 -54.666 3 -69.999c0 -158.667 -34.667 -292 -104 -400c-81.333 -126.667 -197 -190 -347 -190
c-93.333 0 -169.666 27.667 -228.999 83s-89 129.333 -89 222c0 182 93.333 351.333 280 508c24.667 20.667 37 42.667 37 66c0 42.667 -19.667 64 -59 64c-34 0 -79.667 -23.333 -137 -70c-64.667 -52.667 -123 -126.334 -175 -221.001
c-69.333 -126 -104 -244.667 -104 -356c0 -146.667 40.333 -260.334 121 -341.001s194 -121 340 -121c198 0 353 79 465 237c97.333 138 148.333 311 153 519z" />
    <glyph glyph-name="u0647" unicode="&#x647;" horiz-adv-x="828" arabic-form="isolated" 
d="M748 208c0 -159.333 -97 -239 -291 -239c-86 0 -159.333 21.333 -220 64c-68 48 -102 113.333 -102 196c0 116.667 66.667 231 200 343c-7.33301 21.333 -11 45 -11 71c0 77.333 36.333 116 109 116c36.667 0 69.334 -13.333 98.001 -40c15.333 4 29.666 6 42.999 6
c88.667 0 133 -42.333 133 -127c0 -39.333 -15.333 -74.333 -46 -105c58 -136 87 -231 87 -285zM688 188c0 36 -15.501 91.8311 -46.501 167.498s-46.5 123.5 -46.5 143.5c0 4.66699 9.16699 19.5 27.5 44.5s27.5 42.833 27.5 53.5c0 18.667 -9.16699 34.834 -27.5 48.501
s-37.166 20.5 -56.499 20.5c-4.66699 0 -12 -1.33301 -22 -4s-17.333 -4 -22 -4c-3.33301 0 -15.833 6.83301 -37.5 20.5s-38.167 20.5 -49.5 20.5c-32.667 0 -49 -22 -49 -66c0 -8 2.16699 -20.167 6.5 -36.5s6.5 -28.5 6.5 -36.5c0 18.667 -3.33301 28 -10 28
c-15.333 0 -46 -39 -92 -117c-68.667 -115.333 -103 -188.666 -103 -219.999c0 -146.667 87.667 -220 263 -220c154 0 231 52.333 231 157zM539.999 253.998c0 -53.333 -32.667 -80 -98 -80c-74.667 0 -112 22.667 -112 68c0 30 15.667 66.667 47 110c32.667 46 63 69 91 69
c18.667 0 36 -23.667 52 -71c13.333 -38 20 -70 20 -96zM479.999 253.998c0 23.333 -7.66797 53.333 -23.001 90c-39.333 -36.667 -60.666 -70.667 -63.999 -102c8 -4 27 -6 57 -6c20 0 30 6 30 18z" />
    <glyph glyph-name="u0648" unicode="&#x648;" horiz-adv-x="877" arabic-form="isolated" 
d="M797 338c0 -159.333 -92.333 -339.333 -277 -540c-150 -163.333 -265.333 -245 -346 -245c-80 0 -120 44.333 -120 133c0 47.333 21.667 87.333 65 120c109.333 81.333 191 151 245 209c-129.333 49.333 -194 144.666 -194 285.999c0 22.667 7 51 21 85
c29.333 68.667 76.833 124.834 142.5 168.501s136.167 65.5 211.5 65.5c78 0 140.333 -28 187 -84c43.333 -52.667 65 -118.667 65 -198zM737 338c0 59.333 -16.667 110.334 -50 153.001c-36 47.333 -83 71 -141 71c-69.333 0 -138.333 -26.333 -207 -79
c-73.333 -56 -110 -117.667 -110 -185c0 -109.333 65 -188.666 195 -237.999c17.333 -6.66699 26 -15.334 26 -26.001c0 -31.333 -99.667 -124.333 -299 -279c-24 -18.667 -36 -41 -36 -67c0 -50 22 -75 66 -75c8 0 15.333 1.66699 22 5c74.667 31.333 165.667 105 273 221
c174 189.333 261 355.666 261 498.999zM595 321.001c0 -22.667 -5.66699 -49 -17 -79c-13.333 -36.667 -29 -55 -47 -55c-102 0 -153 32 -153 96c0 34 14.167 64.5 42.5 91.5s59.5 40.5 93.5 40.5c54 0 81 -31.333 81 -94zM535 321.001c0 15.333 -4 26 -12 32
c-4.66699 0 -8.66699 0.666992 -12 2c-16.667 0 -33 -8.16699 -49 -24.5s-24 -32.5 -24 -48.5c0 -22 26 -34 78 -36c12.667 24.667 19 49.667 19 75z" />
    <glyph glyph-name="u0649" unicode="&#x649;" horiz-adv-x="1547" arabic-form="isolated" 
d="M1467 500c0 -46.667 -31.3291 -108.002 -93.9961 -184.002c-64.667 -78 -119.334 -117 -164.001 -117c-42 0 -60.333 30.667 -55 92c-80 -36.667 -126.667 -76 -140 -118c6.66699 -9.33301 36.334 -22 89.001 -38c62 -18.667 106.333 -38.667 133 -60
c46 -36 69 -83.333 69 -142v-26l-1 -8c-28.667 -141.333 -109.334 -257.666 -242.001 -348.999c-124.667 -85.333 -262 -128 -412 -128c-148 0 -269 38 -363 114c-101.333 82.667 -152 196.667 -152 342c0 112 33 234.333 99 367c77.333 154.667 165.666 232 264.999 232
c76.667 0 115 -47.667 115 -143c0 0.666992 -34 -56.666 -102 -171.999s-102 -200.333 -102 -255c0 -132.667 91.333 -199 274 -199c63.333 0 131.666 15.333 204.999 46c90.667 37.333 136 83 136 137c0 -1.33301 -52.5 31 -157.5 97s-157.5 108.667 -157.5 128
c0 102 72.333 209.667 217 323c122.667 96 243.667 161.333 363 196c17.333 5.33301 33.666 8 48.999 8c85.333 0 128 -47.667 128 -143zM1408 515.998c0 43.333 -25.6689 65.001 -77.002 65.001c-9.33301 0 -17.333 -1 -24 -3c-101.333 -30 -210.666 -88.667 -327.999 -176
c-138.667 -102.667 -208 -196.334 -208 -281.001c0 -16.667 52.5 -50.167 157.5 -100.5s157.5 -93.5 157.5 -129.5c0 -74 -50.333 -135 -151 -183c-84 -40 -167.667 -60 -251 -60c-92.667 0 -169 19.333 -229 58c-70.667 46 -106 113 -106 201
c0 71.333 25.333 146.333 76 225c80 122 123 189.333 129 202v6c0 52 -20 78 -60 78c-11.333 0 -25.666 -4.33301 -42.999 -13c-66.667 -32 -127.334 -109.333 -182.001 -232c-50 -112.667 -75 -211 -75 -295c0 -126 45.667 -225 137 -297c84 -66.667 190.333 -100 319 -100
c112.667 0 218 27.333 316 82c100.667 56 178 132.333 232 229c31.333 56 47 97.667 47 125c0 57.333 -25 100.333 -75 129l-140 50c-50 18 -75 44 -75 78c0 40 32 82.333 96 127c60 42 111.667 63 155 63c18 0 27 -6 27 -18c0 -6 -3.33301 -17.333 -10 -34s-10 -29 -10 -37
v-15c36.667 13.333 78.334 50 125.001 110s70 108.667 70 146z" />
    </font>
</defs>
</svg>
