<?xml version="1.0" standalone="no"?>
<!DOCTYPE svg PUBLIC "-//W3C//DTD SVG 1.1//EN" "http://www.w3.org/Graphics/SVG/1.1/DTD/svg11.dtd" >
<svg>
<metadata>
Created by FontForge 20090914 at Wed Oct 19 01:33:16 2011
 By www-data
(c) by Abolfazl Seilsepour - +98 912 591 3420  -  seilsepor@yahoo.com
</metadata>
<defs>
<font id="Far.KoodakBold" horiz-adv-x="0" >
  <font-face 
    font-family="Far.Koodak"
    font-weight="700"
    font-stretch="normal"
    units-per-em="2048"
    panose-1="0 0 7 0 0 0 0 0 0 0"
    ascent="1638"
    descent="-410"
    bbox="-192 -1375 2217 2102"
    underline-thickness="60"
    underline-position="-840"
    unicode-range="U+0020-U+FEFC"
  />
<missing-glyph horiz-adv-x="1024" 
d="M128 0v1255h768v-1255h-768zM256 128h512v999h-512v-999z" />
    <glyph glyph-name="uE818" unicode="&#x651;&#x64b;" 
d="M509 1536c4.66699 -23.333 6.99805 -45.334 6.99805 -66.001c0 -52 -10.667 -95.333 -32 -130c-25.333 -42 -62.333 -63 -111 -63c-46.667 0 -78 22.667 -94 68c-25.333 -70 -71.666 -105 -138.999 -105c-64 0 -96 42 -96 126c0 36.667 7.66699 71.334 23 104.001
c8.66699 18 20.334 27 35.001 27c22 0 31 -15.333 27 -46c-6.66699 -58.667 6.66602 -88 39.999 -88c48.667 0 79 43 91 129c4 28.667 16 43 36 43c18.667 0 28.334 -13.333 29.001 -40c2.66699 -66.667 23.667 -100 63 -100c45.333 0 62 42.333 50 127
c-0.666992 4.66699 -1 9.66699 -1 15c0 30 10.667 45 32 45c20.667 0 34 -15.333 40 -46zM482.998 1926l-385 -119.999c-4.66699 -1.33301 -9.66699 -2 -15 -2c-29.333 0 -44 15.667 -44 47c0 23.333 14 39.666 42 48.999l371 118c6 2 13 3 21 3c33.333 0 50 -16 50 -48
c0 -23.333 -13.333 -39 -40 -47zM491.998 1724l-384 -120c-4.66699 -1.33301 -9.66699 -2 -15 -2c-29.333 0 -44 15.667 -44 47c0 24 13.667 40.333 41 49l371 118c6 2 13 3 21 3c34 0 51 -16 51 -48c0 -23.333 -13.667 -39 -41 -47z" />
    <glyph glyph-name="uFC5E" unicode="&#x651;&#x64c;" arabic-form="isolated" 
d="M515 1550c4.66699 -24 6.99805 -46.001 6.99805 -66.001c0 -52 -10.667 -95.333 -32 -130c-26 -42 -63 -63 -111 -63c-46.667 0 -78 22.667 -94 68c-25.333 -70 -71.666 -105 -138.999 -105c-64 0 -96 42 -96 126c0 36.667 7.66699 71.334 23 104.001
c8 18 19.667 27 35 27c21.333 0 30.333 -15.333 27 -46c-7.33301 -58.667 6 -88 40 -88c48.667 0 79 43 91 129c4 28.667 16 43 36 43c18 0 27.667 -13.333 29 -40c2 -66.667 23 -100 63 -100c44.667 0 61.334 42.333 50.001 127c-0.666992 4.66699 -1 9.66699 -1 15
c0 30 10.667 45 32 45c20 0 33.333 -15.333 40 -46zM537.998 1970c0 -70.667 -33.665 -131.667 -100.998 -183c24 -16.667 36 -34.334 36 -53.001c0 -22.667 -13.333 -34 -40 -34c-20.667 0 -43 9.33301 -67 28c-146.667 -77.333 -249.334 -116 -308.001 -116
c-34.667 0 -52 14.333 -52 43c0 22.667 13.667 37.667 41 45c45.333 12 68 38.333 68 79c0 18.667 -13 28 -39 28c-18.667 0 -36.334 -5 -53.001 -15c-10 -6 -18.667 -9 -26 -9c-16 0 -24 8.33301 -24 25c0 13.333 6.33301 26.333 19 39c27.333 27.333 61.666 41 102.999 41
c61.333 0 92 -28 92 -84c0 -20 -5.66699 -42 -17 -66c38.667 14.667 77.667 34.334 117 59.001c-29.333 30.667 -44 65 -44 103c0 46 17.167 88 51.5 126s74.5 57 120.5 57c32.667 0 61.334 -10.833 86.001 -32.5s37 -48.5 37 -80.5zM450 1936
c0 38 -18.333 57.001 -55 57.001c-18 0 -34.333 -8.83301 -49 -26.5s-22 -35.5 -22 -53.5c0 -30 15.667 -53.333 47 -70c18 5.33301 35.667 17.666 53 36.999s26 38 26 56z" />
    <glyph glyph-name="uFC5F" unicode="&#x651;&#x64d;" arabic-form="isolated" 
d="M526 2056c4.66699 -23.333 6.99805 -45.335 6.99805 -66.002c0 -51.333 -10.667 -94.666 -32 -129.999c-25.333 -42 -62.333 -63 -111 -63c-46.667 0 -78 22.667 -94 68c-25.333 -70 -71.666 -105 -138.999 -105c-64 0 -96 42 -96 126c0 37.333 7.66699 72 23 104
c8.66699 18 20.334 27 35.001 27c22 0 31 -15.333 27 -46c-6.66699 -58.667 6.66602 -88 39.999 -88c48.667 0 79 43 91 129c4 28.667 16 43 36 43c18.667 0 28.334 -13.333 29.001 -40c2.66699 -66.667 23.667 -100 63 -100c45.333 0 62 42.333 50 127
c-0.666992 4.66699 -1 9.66699 -1 15.001c0 30 10.667 45 32 45c20.667 0 34 -15.333 40 -46zM490.998 1616l-385 -119.999c-4 -1.33301 -9 -2 -15 -2c-29.333 0 -44 15.667 -44 47c0 24 14 40.333 42 49l371 118c6.66699 2 13.667 3 21 3c33.333 0 50 -16 50 -48
c0 -22.667 -13.333 -38.334 -40 -47.001zM499.998 1423l-384 -119c-4 -1.33301 -9 -2 -15 -2c-29.333 0 -44 15.333 -44 46c0 24 13.667 40.333 41 49l372 119c6 2 12.667 3 20 3c34 0 51 -16 51 -48c0 -23.333 -13.667 -39.333 -41 -48z" />
    <glyph glyph-name="uFC60" unicode="&#x651;&#x64e;" arabic-form="isolated" 
d="M526 1512c4.66699 -23.333 6.99805 -45.334 6.99805 -66.001c0 -51.333 -10.667 -94.666 -32 -129.999c-25.333 -42 -62.333 -63 -111 -63c-46.667 0 -78 22.667 -94 68c-25.333 -70 -71.666 -105 -138.999 -105c-64 0 -96 42 -96 126c0 37.333 7.66699 72 23 104
c8.66699 18 20.334 27 35.001 27c22 0 31 -15.333 27 -46c-6.66699 -58.667 6.66602 -88 39.999 -88c48.667 0 79 43 91 129c4 28.667 16 43 36 43c18.667 0 28.334 -13.333 29.001 -40c2.66699 -66.667 23.667 -100 63 -100c45.333 0 62 42.333 50 127
c-0.666992 4.66699 -1 9.66699 -1 15c0 30 10.667 45 32 45c20.667 0 34 -15.333 40 -46zM515.998 1695l-384 -119.999c-4 -1.33301 -9 -2 -15 -2c-29.333 0 -44 15.667 -44 47c0 24 13.667 40.333 41 49l371 118c6.66699 2 13.667 3 21 3c34 0 51 -16 51 -48
c0 -22.667 -13.667 -38.334 -41 -47.001z" />
    <glyph glyph-name="uFC61" unicode="&#x651;&#x64f;" arabic-form="isolated" 
d="M543 1521c4.66699 -24 6.99707 -46.001 6.99707 -66.001c0 -52 -10.667 -95.333 -32 -130c-25.333 -42 -62.333 -63 -111 -63c-46.667 0 -78 22.667 -94 68c-25.333 -70 -71.666 -105 -138.999 -105c-64 0 -96 42 -96 126c0 36.667 7.66699 71.334 23 104.001
c8.66699 18 20.334 27 35.001 27c21.333 0 30.333 -15.333 27 -46c-7.33301 -58.667 6 -88 40 -88c48.667 0 79 43 91 129c4 28.667 16 43 36 43c18.667 0 28.334 -13.333 29.001 -40c2.66699 -66.667 23.667 -100 63 -100c45.333 0 62 42.333 50 127
c-0.666992 4.66699 -1 9.66699 -1 15c0 30 10.667 45 32 45c20.667 0 34 -15.333 40 -46zM557.997 1939c0 -70.667 -33.667 -131.666 -101 -182.999c24 -16.667 36 -34.334 36 -53.001c0 -22.667 -13.333 -34 -40 -34c-20.667 0 -43 9.33301 -67 28
c-146.667 -77.333 -249.334 -116 -308.001 -116c-34.667 0 -52 14.333 -52 43c0 22.667 13.667 37.667 41 45c99.333 26 179.333 58.333 240 97c-29.333 30.667 -44 65 -44 103c0 46 17.167 88 51.5 126s74.5 57 120.5 57c32.667 0 61.334 -10.833 86.001 -32.5
s37 -48.5 37 -80.5zM469.997 1905c0 38 -18.333 57.001 -55 57.001c-17.333 0 -33.5 -8.83301 -48.5 -26.5s-22.5 -35.5 -22.5 -53.5c0 -30 15.667 -53.333 47 -70c18 5.33301 35.667 17.666 53 36.999s26 38 26 56z" />
    <glyph glyph-name="uFC62" unicode="&#x651;&#x650;" arabic-form="isolated" 
d="M518 1795c4.66699 -23.333 6.99805 -45.334 6.99805 -66.001c0 -51.333 -10.667 -94.666 -32 -129.999c-25.333 -42 -62.333 -63 -111 -63c-46.667 0 -78 22.667 -94 68c-25.333 -70 -71.666 -105 -138.999 -105c-64 0 -96 42 -96 126c0 37.333 7.66699 72 23 104
c8 18 19.667 27 35 27c21.333 0 30.333 -15.333 27 -46c-7.33301 -58.667 6 -88 40 -88c48.667 0 79 43 91 129c4 28.667 16 43 36 43c18 0 27.667 -13.333 29 -40c2 -66.667 23 -100 63 -100c44.667 0 61.334 42.333 50.001 127c-0.666992 4.66699 -1 9.66699 -1 15
c0 30 10.667 45 32 45c20.667 0 34 -15.333 40 -46zM501.998 1383l-384 -119.999c-4 -1.33301 -9 -2 -15 -2c-29.333 0 -44 15.667 -44 47c0 24 13.667 40.333 41 49l371 118c6.66699 2 13.667 3 21 3c34 0 51 -16 51 -48c0 -22.667 -13.667 -38.334 -41 -47.001z" />
    <glyph glyph-name="uFDF2" unicode="&#xfedf;&#xfee0;&#xfeea;" horiz-adv-x="1465" arabic-form="isolated" 
d="M974 1322c0 -29.333 -9.66699 -44 -29 -44c-18 0 -28.667 14.333 -32 43l-18 150c-4.66699 37.333 9.33301 56 42 56c24.667 0 37 -16.667 37 -50v-155zM1154 1214c4 -19.333 6.00098 -39 6.00098 -59c0 -47.333 -10.333 -87.333 -31 -120
c-24 -39.333 -58.333 -59 -103 -59c-38.667 0 -67 17.333 -85 52c-24 -57.333 -65.667 -86 -125 -86c-60.667 0 -91 40 -91 120c0 34 7 65.667 21 95c8.66699 18 21 27 37 27c22.667 0 32 -16 28 -48c-6.66699 -49.333 3.66602 -74 30.999 -74
c41.333 0 67.333 37.667 78 113c4 29.333 16.333 44 37 44c18.667 0 28.667 -14 30 -42c2 -57.333 19.333 -86 52 -86c29.333 0 44 22.333 44 67c0 14 -1 28 -3 42c-6 41.333 4.66699 62 32 62c21.333 0 35.333 -16 42 -48zM1454 311
c-22.667 -214 -113.001 -321 -271.001 -321c-100.667 0 -174.334 45.667 -221.001 137c-49.333 -84 -124.666 -126 -225.999 -126c-64 0 -118.667 16.333 -164 49c-48.667 34.667 -78.667 82.334 -90 143.001c-34 -17.333 -74.667 -26 -122 -26
c-56.667 0 -108.334 12 -155.001 36c-57.333 29.333 -86 69.666 -86 120.999c0 60 20.667 113.333 62 160c24 27.333 65.333 58.333 124 93c61.333 37.333 103 67 125 89c7.33301 7.33301 28 38.666 62 93.999c18.667 30.667 44.334 46 77.001 46c46 0 69 -35 69 -105
c0 -28 -1.33301 -70 -4 -126s-4 -98 -4 -126c0 -64.667 5.33301 -111.667 16 -141c18 -49.333 53.333 -74 106 -74c84 0 122.667 57.667 116 173l-20 357c-2 34 4.33301 63 19 87c16.667 28 41.334 42 74.001 42c58 0 88.333 -36.333 91 -109l12 -294
c7.33301 -176.667 50.333 -265 129 -265c64 0 99.333 48.667 106 146c8.66699 130.667 0.666992 274.667 -24 432c-2 12.667 -3 24.334 -3 35.001c0 78.667 30.667 118 92 118c54 0 86.333 -37.333 97 -112c16 -111.333 24 -217.333 24 -318
c0 -74 -3.66699 -145.667 -11 -215zM473 514c-17.333 -14.667 -56.333 -39.001 -117 -73.001c-40.667 -23.333 -61 -45.333 -61 -66c0 -20 24 -30 72 -30c46 0 80 5.66699 102 17c-2 36.667 -0.666992 87.334 4 152.001z" />
    <glyph glyph-name="uFEF5" unicode="&#xfedf;&#xfe82;" horiz-adv-x="1012" arabic-form="isolated" 
d="M583 188c82 23.333 139.332 57.3311 171.999 101.998c38 52 57 134 57 246c0 44.667 -2 90 -6 136l-35 401c-3.33301 38 3 71.667 19 101c18.667 34.667 46.334 52 83.001 52c66.667 0 102.667 -45.333 108 -136l26 -447c1.33301 -22.667 2 -49.667 2 -81
c0 -406 -199 -609 -597 -609c-117.333 0 -176 35 -176 105c0 48.667 48 82.334 144 101.001c13.333 2.66699 81 12.334 203 29.001zM432.999 445.998c0 202 -51 389.999 -153 563.999c-14.667 24.667 -22 50 -22 76c0 30.667 9.16699 56.334 27.5 77.001s42.5 31 72.5 31
c70 0 131 -73.333 183 -220c49.333 -138.667 74 -294.667 74 -468c0 -74.667 -5.66699 -144 -17 -208c-10 -56 -42.667 -84 -98 -84c-50.667 0 -76 25.333 -76 76c0 17.333 1.5 43.333 4.5 78s4.5 60.667 4.5 78zM752.999 1547c0 -59.333 -24.999 -108.332 -74.999 -146.999
c-46 -36 -99.333 -54 -160 -54c-27.333 0 -68.666 2 -123.999 6s-96.666 6 -123.999 6c-48.667 0 -85.667 -10.333 -111 -31c-8 -6.66699 -21.667 -25.334 -41 -56.001c-12.667 -20 -29.334 -30 -50.001 -30c-25.333 0 -38 13 -38 39c0 61.333 20 111.833 60 151.5
s91 59.5 153 59.5c29.333 0 73.666 -2.16699 132.999 -6.5s103.666 -6.5 132.999 -6.5c43.333 0 87.5 18 132.5 54s70.5 54 76.5 54c23.333 0 35 -13 35 -39z" />
    <glyph glyph-name="uFEF6" unicode="&#xfee0;&#xfe82;" horiz-adv-x="1203" arabic-form="final" 
d="M587 190c85.333 16 146.334 57.002 183.001 123.002c28 50 42 124.667 42 224c0 44 -2 89 -6 135l-35 401c-3.33301 38 3 71.667 19 101c18.667 34.667 46.334 52 83.001 52c66.667 0 102.667 -45.333 108 -136l26 -447c8.66699 -146.667 22.667 -246.334 42 -299.001
c27.333 -73.333 74.666 -110 141.999 -110h40v-233h-65c-58 0 -109.833 16.833 -155.5 50.5s-75.834 78.167 -90.501 133.5c-69.333 -154.667 -242 -232 -518 -232c-110.667 0 -166 36.333 -166 109c0 47.333 35.667 76.666 107 87.999c42 6 123.333 19.333 244 40z
M433.001 446.002c0 202 -51 389.999 -153 563.999c-14.667 24.667 -22 50 -22 76c0 30.667 9.16699 56.334 27.5 77.001s42.5 31 72.5 31c70 0 131 -73.333 183 -220c49.333 -138.667 74 -294.667 74 -468c0 -74.667 -5.66699 -144 -17 -208c-10 -56 -42.667 -84 -98 -84
c-50.667 0 -76 25.333 -76 76c0 17.333 1.5 43.333 4.5 78s4.5 60.667 4.5 78zM753.001 1547c0 -59.333 -24.999 -108.332 -74.999 -146.999c-46 -36 -99.333 -54 -160 -54c-27.333 0 -68.666 2 -123.999 6s-96.666 6 -123.999 6c-48.667 0 -85.667 -10.333 -111 -31
c-8 -6.66699 -21.667 -25.334 -41 -56.001c-12.667 -20 -29.334 -30 -50.001 -30c-25.333 0 -38 13 -38 39c0 61.333 20 111.833 60 151.5s91 59.5 153 59.5c29.333 0 73.666 -2.16699 132.999 -6.5s103.666 -6.5 132.999 -6.5c43.333 0 87.5 18 132.5 54s70.5 54 76.5 54
c23.333 0 35 -13 35 -39z" />
    <glyph glyph-name="uFEF7" unicode="&#xfedf;&#xfe84;" horiz-adv-x="943" arabic-form="isolated" 
d="M515 188c82.667 23.333 140.332 57.333 172.999 102c38 52 57 134 57 246c0 35.333 -2.33301 80.666 -7 135.999l-34 401c-3.33301 38 3 71.667 19 101c18.667 34.667 46.334 52 83.001 52c66 0 101.667 -45.333 107 -136l26 -447c2 -34.667 3 -61.667 3 -81
c0 -406 -199.333 -609 -598 -609c-117.333 0 -176 35 -176 105c0 48.667 48 82.334 144 101.001c9.33301 2 77 11.667 203 29zM374.998 446c0 201.333 -50.999 389.335 -152.999 564.002c-14 24 -21 49.333 -21 76c0 30 9.16699 55.5 27.5 76.5s42.166 31.5 71.499 31.5
c86.667 0 155 -97.667 205 -293c35.333 -138 53 -269.667 53 -395c0 -72 -6 -141.333 -18 -208c-10 -56 -42.333 -84 -97 -84c-51.333 0 -77 25.667 -77 77c0 17.333 1.5 43.166 4.5 77.499s4.5 60.166 4.5 77.499zM505.999 1353l-337.995 -108.001
c-10.667 -3.33301 -20.334 -5 -29.001 -5c-30 0 -45 13 -45 39c0 24 16.333 43 49 57l57 24c-36 32.667 -54 71.334 -54 116.001c0 51.333 18.167 94 54.5 128s80.5 51 132.5 51c27.333 0 53.666 -6 78.999 -18c31.333 -14.667 47 -34 47 -58c0 -24.667 -11.667 -37 -35 -37
c-10.667 0 -26.834 2.16699 -48.501 6.5s-37.834 6.5 -48.501 6.5c-50.667 0 -76 -22 -76 -66c0 -48.667 38 -73 114 -73c7.33301 0 47.333 10.667 120 32c11.333 3.33301 21.666 5 30.999 5c34.667 0 52 -13.333 52 -40s-20.667 -46.667 -62 -60z" />
    <glyph glyph-name="uFEF8" unicode="&#xfee0;&#xfe84;" horiz-adv-x="1134" arabic-form="final" 
d="M519 190c85.333 16 146.667 57.001 184 123.001c28 49.333 42 124 42 224c0 34.667 -2.33301 79.667 -7 135l-34 401c-3.33301 38 3 71.667 19 101c18.667 34.667 46.334 52 83.001 52c66 0 101.667 -45.333 107 -136l26 -447c8.66699 -143.333 23 -243 43 -299
c26.667 -73.333 74 -110 142 -110h39v-233h-64c-58.667 0 -110.5 16.667 -155.5 50s-75.167 78 -90.5 134c-70.667 -154.667 -243.334 -232 -518.001 -232c-111.333 0 -167 36.333 -167 109c0 47.333 35.667 76.666 107 87.999c42 6 123.333 19.333 244 40zM375.001 446.001
c0 201.333 -50.999 389.335 -152.999 564.002c-14 24 -21 49.333 -21 76c0 30 9.16699 55.5 27.5 76.5s42.166 31.5 71.499 31.5c86.667 0 155 -97.667 205 -293c35.333 -138 53 -269.667 53 -395c0 -72 -6 -141.333 -18 -208c-10 -56 -42.333 -84 -97 -84
c-51.333 0 -77 25.667 -77 77c0 17.333 1.5 43.166 4.5 77.499s4.5 60.166 4.5 77.499zM506.002 1353l-337.995 -108.001c-10.667 -3.33301 -20.334 -5 -29.001 -5c-30 0 -45 13 -45 39c0 24 16.333 43 49 57l57 24c-36 32.667 -54 71.334 -54 116.001
c0 51.333 18.167 94 54.5 128s80.5 51 132.5 51c27.333 0 53.666 -6 78.999 -18c31.333 -14.667 47 -34 47 -58c0 -24.667 -11.667 -37 -35 -37c-10.667 0 -26.834 2.16699 -48.501 6.5s-37.834 6.5 -48.501 6.5c-50.667 0 -76 -22 -76 -66c0 -48.667 38 -73 114 -73
c7.33301 0 47.333 10.667 120 32c11.333 3.33301 21.666 5 30.999 5c34.667 0 52 -13.333 52 -40s-20.667 -46.667 -62 -60z" />
    <glyph glyph-name="uFEF9" unicode="&#xfedf;&#xfe88;" horiz-adv-x="943" arabic-form="isolated" 
d="M515 188c82.667 23.333 140.332 57.333 172.999 102c38 52 57 134 57 246c0 35.333 -2.33301 80.666 -7 135.999l-34 401c-3.33301 38 3 71.667 19 101c18.667 34.667 46.334 52 83.001 52c66 0 101.667 -45.333 107 -136l26 -447c2 -34.667 3 -61.667 3 -81
c0 -406 -199.333 -609 -598 -609c-117.333 0 -176 35 -176 105c0 48.667 48 82.334 144 101.001c9.33301 2 77 11.667 203 29zM374.998 446c0 201.333 -50.999 389.335 -152.999 564.002c-14 24 -21 49.333 -21 76c0 30 9.16699 55.5 27.5 76.5s42.166 31.5 71.499 31.5
c86.667 0 155 -97.667 205 -293c35.333 -138 53 -269.667 53 -395c0 -72 -6 -141.333 -18 -208c-10 -56 -42.333 -84 -97 -84c-51.333 0 -77 25.667 -77 77c0 17.333 1.5 43.166 4.5 77.499s4.5 60.166 4.5 77.499zM559.999 -454.998l-337.998 -106.999
c-10.667 -3.33301 -20.334 -5 -29.001 -5c-30 0 -45 12.667 -45 38s16.333 44.666 49 57.999l57 23c-36 33.333 -54 72 -54 116c0 52 18.167 94.833 54.5 128.5s80.5 50.5 132.5 50.5c27.333 0 53.333 -6 78 -18c31.333 -14.667 47 -34 47 -58s-11.333 -36 -34 -36
c-10.667 0 -26.834 2 -48.501 6s-37.834 6 -48.501 6c-50.667 0 -76 -21.667 -76 -65c0 -48.667 38 -73 114 -73c6.66699 0 46.334 10.333 119.001 31c12 3.33301 22.333 5 31 5c35.333 0 53 -13.333 53 -40s-20.667 -46.667 -62 -60z" />
    <glyph glyph-name="uFEFA" unicode="&#xfee0;&#xfe88;" horiz-adv-x="1134" arabic-form="final" 
d="M519 190c85.333 16 146.667 57.001 184 123.001c28 49.333 42 124 42 224c0 34.667 -2.33301 79.667 -7 135l-34 401c-3.33301 38 3 71.667 19 101c18.667 34.667 46.334 52 83.001 52c66 0 101.667 -45.333 107 -136l26 -447c8.66699 -143.333 23 -243 43 -299
c26.667 -73.333 74 -110 142 -110h39v-233h-64c-58.667 0 -110.5 16.667 -155.5 50s-75.167 78 -90.5 134c-70.667 -154.667 -243.334 -232 -518.001 -232c-111.333 0 -167 36.333 -167 109c0 47.333 35.667 76.666 107 87.999c42 6 123.333 19.333 244 40zM375.001 446.001
c0 201.333 -50.999 389.335 -152.999 564.002c-14 24 -21 49.333 -21 76c0 30 9.16699 55.5 27.5 76.5s42.166 31.5 71.499 31.5c86.667 0 155 -97.667 205 -293c35.333 -138 53 -269.667 53 -395c0 -72 -6 -141.333 -18 -208c-10 -56 -42.333 -84 -97 -84
c-51.333 0 -77 25.667 -77 77c0 17.333 1.5 43.166 4.5 77.499s4.5 60.166 4.5 77.499zM560.002 -454.997l-337.998 -106.999c-10.667 -3.33301 -20.334 -5 -29.001 -5c-30 0 -45 12.667 -45 38s16.333 44.666 49 57.999l57 23c-36 33.333 -54 72 -54 116
c0 52 18.167 94.833 54.5 128.5s80.5 50.5 132.5 50.5c27.333 0 53.333 -6 78 -18c31.333 -14.667 47 -34 47 -58s-11.333 -36 -34 -36c-10.667 0 -26.834 2 -48.501 6s-37.834 6 -48.501 6c-50.667 0 -76 -21.667 -76 -65c0 -48.667 38 -73 114 -73
c6.66699 0 46.334 10.333 119.001 31c12 3.33301 22.333 5 31 5c35.333 0 53 -13.333 53 -40s-20.667 -46.667 -62 -60z" />
    <glyph glyph-name="uFEFB" unicode="&#xfedf;&#xfe8e;" horiz-adv-x="943" arabic-form="isolated" 
d="M515 188c82.667 23.333 140.332 57.333 172.999 102c38 52 57 134 57 246c0 35.333 -2.33301 80.666 -7 135.999l-34 401c-3.33301 38 3 71.667 19 101c18.667 34.667 46.334 52 83.001 52c66 0 101.667 -45.333 107 -136l26 -447c2 -34.667 3 -61.667 3 -81
c0 -406 -199.333 -609 -598 -609c-117.333 0 -176 35 -176 105c0 48.667 48 82.334 144 101.001c9.33301 2 77 11.667 203 29zM374.998 446c0 201.333 -50.999 389.335 -152.999 564.002c-14 24 -21 49.333 -21 76c0 30 9.16699 55.5 27.5 76.5s42.166 31.5 71.499 31.5
c86.667 0 155 -97.667 205 -293c35.333 -138 53 -269.667 53 -395c0 -72 -6 -141.333 -18 -208c-10 -56 -42.333 -84 -97 -84c-51.333 0 -77 25.667 -77 77c0 17.333 1.5 43.166 4.5 77.499s4.5 60.166 4.5 77.499z" />
    <glyph glyph-name="uFEFC" unicode="&#xfee0;&#xfe8e;" horiz-adv-x="1134" arabic-form="final" 
d="M519 190c85.333 16 146.667 57.001 184 123.001c28 49.333 42 124 42 224c0 34.667 -2.33301 79.667 -7 135l-34 401c-3.33301 38 3 71.667 19 101c18.667 34.667 46.334 52 83.001 52c66 0 101.667 -45.333 107 -136l26 -447c8.66699 -143.333 23 -243 43 -299
c26.667 -73.333 74 -110 142 -110h39v-233h-64c-58.667 0 -110.5 16.667 -155.5 50s-75.167 78 -90.5 134c-70.667 -154.667 -243.334 -232 -518.001 -232c-111.333 0 -167 36.333 -167 109c0 47.333 35.667 76.666 107 87.999c42 6 123.333 19.333 244 40zM375.001 446.001
c0 201.333 -50.999 389.335 -152.999 564.002c-14 24 -21 49.333 -21 76c0 30 9.16699 55.5 27.5 76.5s42.166 31.5 71.499 31.5c86.667 0 155 -97.667 205 -293c35.333 -138 53 -269.667 53 -395c0 -72 -6 -141.333 -18 -208c-10 -56 -42.333 -84 -97 -84
c-51.333 0 -77 25.667 -77 77c0 17.333 1.5 43.166 4.5 77.499s4.5 60.166 4.5 77.499z" />
    <glyph glyph-name="u0652_u064E.liga" unicode="&#x652;&#x64e;" horiz-adv-x="1" 
d="M162 1315l1.99902 -293c0 -3.33301 -0.666992 -7 -2 -11c-4.66699 -15.333 -13.667 -23 -27 -23c-4.66699 0 -9.66699 0.666992 -15 2c-16.667 5.33301 -25 18.333 -25 39l-4 284c0 4.66699 1 10 3 16c5.33301 18 15.333 27 30 27c4.66699 0 9.33398 -0.666992 14.001 -2
c16 -4.66699 24 -17.667 24 -39z" />
    <glyph glyph-name="u0652_u064B.liga" unicode="&#x652;&#x64b;" horiz-adv-x="1" 
d="M649 1039c0 -32 -11.166 -59.332 -33.499 -81.999s-49.5 -34 -81.5 -34s-59 11.333 -81 34s-33 50 -33 82c0 31.333 11.167 58.166 33.5 80.499s49.166 33.5 80.499 33.5c32 0 59.167 -11 81.5 -33s33.5 -49 33.5 -81zM370.001 1039
c0 -32 -10.999 -59.334 -32.999 -82.001s-49 -34 -81 -34s-59.167 11.333 -81.5 34s-33.5 50 -33.5 82s11.167 59 33.5 81s49.5 33 81.5 33c31.333 0 58.166 -11.167 80.499 -33.5s33.5 -49.166 33.5 -80.499z" />
    <glyph glyph-name="u0652_u064D.liga" unicode="&#x652;&#x64d;" horiz-adv-x="1" 
d="M856 -788c0 -32 -11.166 -59.332 -33.499 -81.999s-49.5 -34 -81.5 -34s-59 11.333 -81 34s-33 50 -33 82c0 31.333 11.167 58.166 33.5 80.499s49.166 33.5 80.499 33.5c32 0 59.167 -11 81.5 -33s33.5 -49 33.5 -81zM577.001 -787.999
c0 -32 -10.999 -59.334 -32.999 -82.001s-49 -34 -81 -34s-59.167 11.333 -81.5 34s-33.5 50 -33.5 82s11.167 59 33.5 81s49.5 33 81.5 33c31.333 0 58.166 -11.167 80.499 -33.5s33.5 -49.166 33.5 -80.499z" />
    <glyph glyph-name="u0622" unicode="&#x622;" horiz-adv-x="798" arabic-form="isolated" 
d="M634 75c0 -72.667 -28.666 -108.999 -85.999 -108.999c-54.667 0 -83.334 34 -86.001 102l-38 994c-1.33301 41.333 6 77.666 22 108.999c19.333 38.667 48.333 58 87 58c67.333 0 101 -50.667 101 -152v-1002zM844.001 1547
c0 -59.333 -24.6699 -108.332 -74.0029 -146.999c-45.333 -36 -98.666 -54 -159.999 -54c-27.333 0 -68.666 2 -123.999 6s-96.666 6 -123.999 6c-50 0 -87.333 -10.333 -112 -31c-8 -6.66699 -21.667 -25.334 -41 -56.001c-12.667 -20 -29 -30 -49 -30c-26 0 -39 13 -39 39
c0 61.333 20.167 111.833 60.5 151.5s91.5 59.5 153.5 59.5c29.333 0 73.5 -2.16699 132.5 -6.5s103.167 -6.5 132.5 -6.5c43.333 0 87.5 18 132.5 54s70.833 54 77.5 54c22.667 0 34 -13 34 -39z" />
    <glyph glyph-name="u0623" unicode="&#x623;" horiz-adv-x="596" arabic-form="isolated" 
d="M499 75c0 -72.667 -28.667 -108.999 -86 -108.999c-54 0 -82.333 34 -85 102l-39 994c-1.33301 41.333 6 77.666 22 108.999c20 38.667 49 58 87 58c67.333 0 101 -50.667 101 -152v-1002zM550 1385l-337.998 -108c-10.667 -3.33301 -20 -5 -28 -5
c-30 0 -45 12.667 -45 38c0 26 16 45.333 48 58l57 23c-36 33.333 -54 72.333 -54 117c0 52 18 94.667 54 128s80.333 50 133 50c28 0 54.333 -5.66699 79 -17c31.333 -14 47 -33.333 47 -58s-11.667 -37 -35 -37c-10.667 0 -26.834 2 -48.501 6s-37.834 6 -48.501 6
c-50.667 0 -76 -21.667 -76 -65c0 -48.667 38.333 -73 115 -73c4.66699 0 44.334 10.667 119.001 32c9.33301 2.66699 19.666 4 30.999 4c34.667 0 52 -13.333 52 -40c0 -26 -20.667 -45.667 -62 -59z" />
    <glyph glyph-name="u0624" unicode="&#x624;" horiz-adv-x="808" arabic-form="isolated" 
d="M802 276c0 -153.333 -55.002 -293.667 -165.002 -421c-98.667 -114 -224.667 -201 -378 -261c-17.333 -6.66699 -34.666 -10 -51.999 -10c-27.333 0 -50.833 8.83301 -70.5 26.5s-29.5 39.834 -29.5 66.501c0 42 24 73.667 72 95
c88.667 39.333 170.667 89.666 246 150.999c91.333 74.667 150.333 149 177 223c-31.333 -15.333 -69 -23 -113 -23c-74 0 -131.667 21.167 -173 63.5s-62 100.5 -62 174.5c0 75.333 23 146.333 69 213c50.667 73.333 110.334 110 179.001 110c100.667 0 178 -45 232 -135
c45.333 -75.333 68 -166.333 68 -273zM603.998 341.999c-2.66699 32 -12.667 60 -30 84c-20 27.333 -45 41 -75 41c-22 0 -41 -7.5 -57 -22.5s-24 -33.5 -24 -55.5c0 -44 29 -66 87 -66c42.667 0 75.667 6.33301 99 19zM632.998 943.999l-337.996 -106.999
c-10.667 -3.33301 -20.334 -5 -29.001 -5c-30 0 -45 12.667 -45 38s16.333 44.666 49 57.999l57 23c-36 33.333 -54 72 -54 116c0 51.333 18.167 94 54.5 128s80.5 51 132.5 51c27.333 0 53.666 -6 78.999 -18c31.333 -14.667 47 -34 47 -58s-11.667 -36 -35 -36
c-10.667 0 -26.834 2 -48.501 6s-37.834 6 -48.501 6c-50.667 0 -76 -21.667 -76 -65c0 -48.667 38 -73 114 -73c7.33301 0 47.333 10.333 120 31c12 3.33301 22 5 30 5c35.333 0 53 -13.333 53 -40s-20.667 -46.667 -62 -60z" />
    <glyph glyph-name="u0625" unicode="&#x625;" horiz-adv-x="660" arabic-form="isolated" 
d="M509 75c0 -72.667 -28.666 -108.999 -85.999 -108.999c-54.667 0 -83.334 34 -86.001 102l-38 994c-1.33301 41.333 6 77.666 22 108.999c19.333 38.667 48.333 58 87 58c67.333 0 101 -50.667 101 -152v-1002zM616.001 -459.999l-336.999 -106.999
c-10.667 -3.33301 -20.334 -5 -29.001 -5c-30 0 -45 12.667 -45 38s16.333 44.666 49 57.999l57 23c-36 33.333 -54 72 -54 116c0 52 18 94.833 54 128.5s80 50.5 132 50.5c27.333 0 53.666 -6 78.999 -18c31.333 -14.667 47 -34 47 -58s-11.333 -36 -34 -36
c-11.333 0 -27.666 2 -48.999 6s-37.666 6 -48.999 6c-50 0 -75 -21.667 -75 -65c0 -48.667 38 -73 114 -73c13.333 0 35 5 65 15c33.333 11.333 55.666 18 66.999 20c4 0.666992 10 1 18 1c35.333 0 53 -13.333 53 -40s-21 -46.667 -63 -60z" />
    <glyph glyph-name="u0626" unicode="&#x626;" horiz-adv-x="1376" arabic-form="isolated" 
d="M1413 654c0 -48 -16.335 -82.3311 -49.002 -102.998c-19.333 -12.667 -56 -22.667 -110 -30c-73.333 -10.667 -137.666 -30.334 -192.999 -59.001c-74.667 -39.333 -112 -89.333 -112 -150c0 -26 26.667 -43.667 80 -53l136 -24c57.333 -16 97.666 -36 120.999 -60
c27.333 -28.667 41 -70.667 41 -126c0 -127.333 -73.667 -239 -221 -335c-140 -91.333 -292.667 -137 -458 -137c-153.333 0 -271.666 38 -354.999 114c-86 78.667 -129 194 -129 346c0 74 12 148 36 222c31.333 96.667 74 145 128 145c55.333 0 83 -30 83 -90
c0 -23.333 -8 -61 -24 -113s-24 -91 -24 -117c0 -184 103.333 -276 310 -276c132.667 0 246.334 23 341.001 69c81.333 39.333 122 79 122 119c0 22.667 -33.333 39 -100 49c-90.667 13.333 -152.667 29 -186 47c-66.667 36 -100 97 -100 183
c0 123.333 59.667 234.666 179 333.999c114 95.333 233.667 143 359 143c83.333 0 125 -32.667 125 -98zM620.998 638.002l-336.997 -106.999c-10.667 -3.33301 -20.334 -5 -29.001 -5c-30 0 -45 12.667 -45 38s16.333 44.666 49 57.999l56 23
c-35.333 33.333 -53 72.333 -53 117c0 52 17.833 94.667 53.5 128s79.834 50 132.501 50c27.333 0 53.666 -6 78.999 -18c31.333 -14.667 47 -34 47 -58s-11.667 -36 -35 -36c-10.667 0 -26.834 2 -48.501 6s-37.834 6 -48.501 6c-50.667 0 -76 -21.667 -76 -65
c0 -48.667 38.333 -73 115 -73c4.66699 0 44.334 10.667 119.001 32c9.33301 2.66699 19.666 4 30.999 4c35.333 0 53 -13.333 53 -40s-21 -46.667 -63 -60z" />
    <glyph glyph-name="u0627" unicode="&#x627;" horiz-adv-x="375" arabic-form="isolated" 
d="M374 75c0 -72.667 -28.667 -108.999 -86 -108.999c-54 0 -82.333 34 -85 102l-39 994c-1.33301 41.333 6 77.666 22 108.999c20 38.667 49 58 87 58c67.333 0 101 -50.667 101 -152v-1002z" />
    <glyph glyph-name="u0628" unicode="&#x628;" horiz-adv-x="1673" arabic-form="isolated" 
d="M1668 337c0 -148.667 -90 -254.333 -270 -317c-144 -50 -358 -75 -642 -75c-394.667 0 -592 115.667 -592 347c0 60 8.66699 118 26 174c24.667 79.333 60 119 106 119c48.667 0 73 -24.333 73 -73c0 -16.667 -3.5 -41.167 -10.5 -73.5s-10.5 -56.833 -10.5 -73.5
c0 -56 21.667 -97.667 65 -125c64 -40 182 -60 354 -60h123c118 0 226 7.33301 324 22c172.667 26 259 68.667 259 128c0 26.667 -10.667 64.667 -32 114s-32 84 -32 104c0 74.667 33 112 99 112c54.667 0 97 -42.667 127 -128c22 -62.667 33 -127.667 33 -195z
M991 -359.999c0 -31.333 -11.168 -58.333 -33.501 -81s-49.166 -34 -80.499 -34c-32 0 -59.167 11.167 -81.5 33.5s-33.5 49.5 -33.5 81.5s11.167 59.167 33.5 81.5s49.5 33.5 81.5 33.5s59 -11.167 81 -33.5s33 -49.5 33 -81.5z" />
    <glyph glyph-name="u0629" unicode="&#x629;" horiz-adv-x="779" arabic-form="isolated" 
d="M774 294c0 -97.333 -35.333 -175.667 -106 -235c-62.667 -52.667 -136.667 -79 -222 -79c-78 0 -139.667 17.667 -185 53c-50.667 39.333 -76 96.666 -76 171.999c0 49.333 13.333 105.333 40 168c20.667 48.667 42.667 87.667 66 117
c-52.667 26.667 -79 60.334 -79 101.001c0 32 10.5 60 31.5 84s47.167 36 78.5 36c98.667 0 197.667 -43 297 -129c103.333 -90 155 -186 155 -288zM562 272.999c0 56.667 -47.667 105.333 -143 146c-38 -51.333 -57 -98.333 -57 -141c0 -52 29.333 -78 88 -78
c26 0 50 5.66699 72 17c26.667 13.333 40 32 40 56zM541 1014l-336.999 -106.999c-10.667 -3.33301 -20.334 -5 -29.001 -5c-30 0 -45 12.667 -45 38s16.333 44.666 49 57.999l57 23c-36 33.333 -54 72 -54 116c0 52 18 94.833 54 128.5s80 50.5 132 50.5
c27.333 0 53.666 -6 78.999 -18c31.333 -14.667 47 -34 47 -58s-11.333 -36 -34 -36c-11.333 0 -27.666 2 -48.999 6s-37.666 6 -48.999 6c-50 0 -75 -21.667 -75 -65c0 -48.667 38 -73 114 -73c13.333 0 35 5 65 15c33.333 11.333 55.666 18 66.999 20
c4 0.666992 10 1 18 1c35.333 0 53 -13.333 53 -40s-21 -46.667 -63 -60z" />
    <glyph glyph-name="u062A" unicode="&#x62a;" horiz-adv-x="1673" arabic-form="isolated" 
d="M1668 337c0 -148.667 -90 -254.333 -270 -317c-144 -50 -358 -75 -642 -75c-394.667 0 -592 115.667 -592 347c0 60 8.66699 118 26 174c24.667 79.333 60 119 106 119c48.667 0 73 -24.333 73 -73c0 -16.667 -3.5 -41.167 -10.5 -73.5s-10.5 -56.833 -10.5 -73.5
c0 -56 21.667 -97.667 65 -125c64 -40 182 -60 354 -60h123c118 0 226 7.33301 324 22c172.667 26 259 68.667 259 128c0 26.667 -10.667 64.667 -32 114s-32 84 -32 104c0 74.667 33 112 99 112c54.667 0 97 -42.667 127 -128c22 -62.667 33 -127.667 33 -195z
M1113 806.001c0 -32 -11 -59.333 -33 -82s-49 -34 -81 -34s-59 11.333 -81 34s-33 50 -33 82s11 59 33 81s49 33 81 33s59 -11 81 -33s33 -49 33 -81zM835 806.001c0 -32 -11.166 -59.332 -33.499 -81.999s-49.5 -34 -81.5 -34s-59 11.333 -81 34s-33 50 -33 82
c0 31.333 11.167 58.166 33.5 80.499s49.166 33.5 80.499 33.5c32 0 59.167 -11 81.5 -33s33.5 -49 33.5 -81z" />
    <glyph glyph-name="u062B" unicode="&#x62b;" horiz-adv-x="1667" arabic-form="isolated" 
d="M1668 337c0 -148.667 -90 -254.333 -270 -317c-144 -50 -358 -75 -642 -75c-394.667 0 -592 115.667 -592 347c0 60 8.66699 118 26 174c24.667 79.333 60 119 106 119c48.667 0 73 -24.333 73 -73c0 -16.667 -3.5 -41.167 -10.5 -73.5s-10.5 -56.833 -10.5 -73.5
c0 -56 21.667 -97.667 65 -125c64 -40 182 -60 354 -60h123c118 0 226 7.33301 324 22c172.667 26 259 68.667 259 128c0 26.667 -10.667 64.667 -32 114s-32 84 -32 104c0 74.667 33 112 99 112c54.667 0 97 -42.667 127 -128c22 -62.667 33 -127.667 33 -195zM635 687.001
c0 31.333 11.168 58.333 33.501 81s49.166 34 80.499 34c32 0 59 -11.167 81 -33.5s33 -49.5 33 -81.5s-11 -59.167 -33 -81.5s-49 -33.5 -81 -33.5s-59 11.167 -81 33.5s-33 49.5 -33 81.5zM913.001 687.001c0 32 11.168 59.167 33.501 81.5s49.5 33.5 81.5 33.5
c31.333 0 58.166 -11.333 80.499 -34s33.5 -49.667 33.5 -81c0 -32 -11 -59.167 -33 -81.5s-49 -33.5 -81 -33.5s-59.167 11.167 -81.5 33.5s-33.5 49.5 -33.5 81.5zM774.002 930.001c0 31.333 11.168 58.333 33.501 81s49.166 34 80.499 34c32 0 59.167 -11.167 81.5 -33.5
s33.5 -49.5 33.5 -81.5s-11.167 -59.167 -33.5 -81.5s-49.5 -33.5 -81.5 -33.5s-59 11.167 -81 33.5s-33 49.5 -33 81.5z" />
    <glyph glyph-name="u062C" unicode="&#x62c;" horiz-adv-x="1178" arabic-form="isolated" 
d="M1179 -682c-127.333 -42.667 -247.333 -63.9961 -360 -63.9961c-436.667 0 -655 179.333 -655 538c0 138 56.333 266 169 384c90.667 94.667 200.667 169 330 223c-109.333 8.66699 -176 13 -200 13c-32 0 -69 -14.333 -111 -43s-66.333 -43 -73 -43
c-61.333 0 -92 28.667 -92 86c0 44.667 23 92.667 69 144c52 58.667 111.333 88 178 88c53.333 0 133 -7.5 239 -22.5s185.667 -22.5 239 -22.5c37.333 0 76.333 1 117 3c40 2 73.667 -6.33301 101 -25c30.667 -20.667 46 -50.334 46 -89.001
c0 -74.667 -46 -120.334 -138 -137.001c-162 -28.667 -309.333 -90.334 -442 -185.001c-147.333 -104.667 -221 -214.334 -221 -329.001c0 -139.333 46.667 -235.666 140 -288.999c70.667 -40.667 183 -61 337 -61c56.667 0 153.667 13 291 39c10.667 2 19.667 3 27 3
c67.333 0 101 -32.667 101 -98c0 -54.667 -30.667 -92.334 -92 -113.001zM889 -164.996c0 -32 -11 -59.333 -33 -82s-49 -34 -81 -34s-59 11.333 -81 34s-33 50 -33 82s11 59 33 81s49 33 81 33s59 -11 81 -33s33 -49 33 -81z" />
    <glyph glyph-name="u062D" unicode="&#x62d;" horiz-adv-x="1178" arabic-form="isolated" 
d="M1179 -682c-127.333 -42.667 -247.333 -63.9961 -360 -63.9961c-436.667 0 -655 179.333 -655 538c0 138 56.333 266 169 384c90.667 94.667 200.667 169 330 223c-109.333 8.66699 -176 13 -200 13c-32 0 -69 -14.333 -111 -43s-66.333 -43 -73 -43
c-61.333 0 -92 28.667 -92 86c0 44.667 23 92.667 69 144c52 58.667 111.333 88 178 88c53.333 0 133 -7.5 239 -22.5s185.667 -22.5 239 -22.5c37.333 0 76.333 1 117 3c40 2 73.667 -6.33301 101 -25c30.667 -20.667 46 -50.334 46 -89.001
c0 -74.667 -46 -120.334 -138 -137.001c-162 -28.667 -309.333 -90.334 -442 -185.001c-147.333 -104.667 -221 -214.334 -221 -329.001c0 -139.333 46.667 -235.666 140 -288.999c70.667 -40.667 183 -61 337 -61c56.667 0 153.667 13 291 39c10.667 2 19.667 3 27 3
c67.333 0 101 -32.667 101 -98c0 -54.667 -30.667 -92.334 -92 -113.001z" />
    <glyph glyph-name="u062E" unicode="&#x62e;" horiz-adv-x="1178" arabic-form="isolated" 
d="M1179 -682c-127.333 -42.667 -247.333 -63.9961 -360 -63.9961c-436.667 0 -655 179.333 -655 538c0 138 56.333 266 169 384c90.667 94.667 200.667 169 330 223c-109.333 8.66699 -176 13 -200 13c-32 0 -69 -14.333 -111 -43s-66.333 -43 -73 -43
c-61.333 0 -92 28.667 -92 86c0 44.667 23 92.667 69 144c52 58.667 111.333 88 178 88c53.333 0 133 -7.5 239 -22.5s185.667 -22.5 239 -22.5c37.333 0 76.333 1 117 3c40 2 73.667 -6.33301 101 -25c30.667 -20.667 46 -50.334 46 -89.001
c0 -74.667 -46 -120.334 -138 -137.001c-162 -28.667 -309.333 -90.334 -442 -185.001c-147.333 -104.667 -221 -214.334 -221 -329.001c0 -139.333 46.667 -235.666 140 -288.999c70.667 -40.667 183 -61 337 -61c56.667 0 153.667 13 291 39c10.667 2 19.667 3 27 3
c67.333 0 101 -32.667 101 -98c0 -54.667 -30.667 -92.334 -92 -113.001zM782 963.004c0 -32 -11.168 -59.167 -33.501 -81.5s-49.5 -33.5 -81.5 -33.5c-31.333 0 -58.166 11.333 -80.499 34s-33.5 49.667 -33.5 81c0 32 11 59.167 33 81.5s49 33.5 81 33.5
s59.167 -11.167 81.5 -33.5s33.5 -49.5 33.5 -81.5z" />
    <glyph glyph-name="u062F" unicode="&#x62f;" horiz-adv-x="877" arabic-form="isolated" 
d="M768 55c-42 -30 -109.669 -57.333 -203.002 -82c-66 -17.333 -135.333 -26 -208 -26c-135.333 0 -200 36.333 -194 109c4.66699 58.667 55.334 94.334 152.001 107.001c22.667 3.33301 96.334 10.333 221.001 21c104 21.333 157.667 49 161 83
c6.66699 67.333 -67 167.333 -221 300c-55.333 48 -81 90 -77 126c3.33301 30 15.833 53.833 37.5 71.5s47.5 25.167 77.5 22.5c70 -6 148.333 -75.667 235 -209c83.333 -128 125 -229.667 125 -305c0 -94.667 -35.333 -167.334 -106 -218.001z" />
    <glyph glyph-name="u0630" unicode="&#x630;" horiz-adv-x="877" arabic-form="isolated" 
d="M768 55c-42 -30 -109.669 -57.333 -203.002 -82c-66 -17.333 -135.333 -26 -208 -26c-135.333 0 -200 36.333 -194 109c4.66699 58.667 55.334 94.334 152.001 107.001c22.667 3.33301 96.334 10.333 221.001 21c104 21.333 157.667 49 161 83
c6.66699 67.333 -67 167.333 -221 300c-55.333 48 -81 90 -77 126c3.33301 30 15.833 53.833 37.5 71.5s47.5 25.167 77.5 22.5c70 -6 148.333 -75.667 235 -209c83.333 -128 125 -229.667 125 -305c0 -94.667 -35.333 -167.334 -106 -218.001zM474.998 1050
c0 -32 -11 -59.167 -33 -81.5s-49 -33.5 -81 -33.5s-59.167 11.167 -81.5 33.5s-33.5 49.5 -33.5 81.5s11.167 59 33.5 81s49.5 33 81.5 33s59 -11 81 -33s33 -49 33 -81z" />
    <glyph glyph-name="u0631" unicode="&#x631;" horiz-adv-x="825" arabic-form="isolated" 
d="M817 433c2 -26 3 -51.001 3 -75.001c0 -181.333 -53 -335.333 -159 -462c-100.667 -121.333 -240.334 -207.333 -419.001 -258c-14 -4 -29.333 -6 -46 -6c-66 0 -99 30 -99 90c0 50 30.333 88.667 91 116c154.667 70 260.334 135.333 317.001 196
c66 70.667 99 165.334 99 284.001c0 13.333 -1 33.333 -3 60s-3 46.667 -3 60c0 109.333 33 164 99 164c71.333 0 111.333 -56.333 120 -169z" />
    <glyph glyph-name="u0632" unicode="&#x632;" horiz-adv-x="831" arabic-form="isolated" 
d="M755 886c0 -32 -11.166 -59.332 -33.499 -81.999s-49.5 -34 -81.5 -34s-59 11.333 -81 34s-33 50 -33 82c0 31.333 11.167 58.166 33.5 80.499s49.166 33.5 80.499 33.5c32 0 59.167 -11 81.5 -33s33.5 -49 33.5 -81zM817.001 433.001c2 -26 3 -51.001 3 -75.001
c0 -181.333 -53 -335.333 -159 -462c-100.667 -121.333 -240.334 -207.333 -419.001 -258c-14 -4 -29.333 -6 -46 -6c-66 0 -99 30 -99 90c0 50 30.333 88.667 91 116c154.667 70 260.334 135.333 317.001 196c66 70.667 99 165.334 99 284.001c0 13.333 -1 33.333 -3 60
s-3 46.667 -3 60c0 109.333 33 164 99 164c71.333 0 111.333 -56.333 120 -169z" />
    <glyph glyph-name="u0633" unicode="&#x633;" horiz-adv-x="2023" arabic-form="isolated" 
d="M2020 317c0 -88 -26.002 -161.666 -78.002 -220.999c-54 -63.333 -124.333 -95 -211 -95c-95.333 0 -162.666 40 -201.999 120c-35.333 -80 -94.333 -120 -177 -120c-63.333 0 -110 10.667 -140 32c0 -170 -43 -309.667 -129 -419c-100.667 -128 -247 -192 -439 -192
c-170 0 -297 56 -381 168c-66 88 -99 196 -99 324c0 195.333 45.333 293 136 293c49.333 0 74 -29 74 -87c0 -20 -3 -49.667 -9 -89s-9 -69 -9 -89c0 -92.667 28.333 -164 85 -214c54 -48 128 -72 222 -72c116 0 206 30 270 90c66.667 62 100 150.333 100 265
c0 35.333 -13.5 86 -40.5 152s-40.5 111 -40.5 135c0 68 34 102 102 102c26.667 0 51.334 -14.333 74.001 -43c35.333 -44.667 58.333 -71.334 69 -80.001c35.333 -28.667 81.666 -43 138.999 -43c46 0 76.333 18.667 91 56c4 19.333 12.333 54.333 25 105
c10 38 36 57 78 57c44.667 0 72.334 -29 83.001 -87c15.333 -87.333 63 -131 143 -131c50 0 75 28.333 75 85c0 14.667 -4.16699 36.5 -12.5 65.5s-12.5 50.833 -12.5 65.5c0 22.667 7.83301 43 23.5 61s34.5 27 56.5 27c48.667 0 84.667 -26.333 108 -79
c17.333 -38.667 26 -86 26 -142z" />
    <glyph glyph-name="u0634" unicode="&#x634;" horiz-adv-x="2025" arabic-form="isolated" 
d="M2020 317c0 -88 -26.002 -161.666 -78.002 -220.999c-54 -63.333 -124.333 -95 -211 -95c-95.333 0 -162.666 40 -201.999 120c-35.333 -80 -94.333 -120 -177 -120c-63.333 0 -110 10.667 -140 32c0 -170 -43 -309.667 -129 -419c-100.667 -128 -247 -192 -439 -192
c-170 0 -297 56 -381 168c-66 88 -99 196 -99 324c0 195.333 45.333 293 136 293c49.333 0 74 -29 74 -87c0 -20 -3 -49.667 -9 -89s-9 -69 -9 -89c0 -92.667 28.333 -164 85 -214c54 -48 128 -72 222 -72c116 0 206 30 270 90c66.667 62 100 150.333 100 265
c0 35.333 -13.5 86 -40.5 152s-40.5 111 -40.5 135c0 68 34 102 102 102c26.667 0 51.334 -14.333 74.001 -43c35.333 -44.667 58.333 -71.334 69 -80.001c35.333 -28.667 81.666 -43 138.999 -43c46 0 76.333 18.667 91 56c4 19.333 12.333 54.333 25 105
c10 38 36 57 78 57c44.667 0 72.334 -29 83.001 -87c15.333 -87.333 63 -131 143 -131c50 0 75 28.333 75 85c0 14.667 -4.16699 36.5 -12.5 65.5s-12.5 50.833 -12.5 65.5c0 22.667 7.83301 43 23.5 61s34.5 27 56.5 27c48.667 0 84.667 -26.333 108 -79
c17.333 -38.667 26 -86 26 -142zM1246 756.001c0 32 11.168 59.167 33.501 81.5s49.5 33.5 81.5 33.5c31.333 0 58.166 -11.333 80.499 -34s33.5 -49.667 33.5 -81c0 -32 -11 -59.167 -33 -81.5s-49 -33.5 -81 -33.5s-59.167 11.167 -81.5 33.5s-33.5 49.5 -33.5 81.5z
M1525 756.001c0 31.333 11.168 58.333 33.501 81s49.166 34 80.499 34c32 0 59.167 -11.167 81.5 -33.5s33.5 -49.5 33.5 -81.5s-11.167 -59.167 -33.5 -81.5s-49.5 -33.5 -81.5 -33.5s-59 11.167 -81 33.5s-33 49.5 -33 81.5zM1386 999.001c0 32 11 59.167 33 81.5
s49 33.5 81 33.5s59 -11.167 81 -33.5s33 -49.5 33 -81.5s-11 -59 -33 -81s-49 -33 -81 -33s-59 11 -81 33s-33 49 -33 81z" />
    <glyph glyph-name="u0635" unicode="&#x635;" horiz-adv-x="2111" arabic-form="isolated" 
d="M2109 427c0 -160 -78.9971 -277.331 -236.997 -351.998c-118.667 -56 -270 -84 -454 -84c-94.667 0 -163.334 14 -206.001 42c0 -172.667 -43 -313.334 -129 -422.001c-100 -126 -246.333 -189 -439 -189c-170 0 -297 56 -381 168c-66 88 -99 196 -99 324
c0 195.333 45.333 293 136 293c49.333 0 74 -29 74 -87c0 -20 -3 -49.667 -9 -89s-9 -69 -9 -89c0 -92.667 28.333 -164 85 -214c54 -48 128 -72 222 -72c116 0 206 30 270 90c66.667 62 100 150.333 100 265c0 35.333 -13.5 86 -40.5 152s-40.5 111 -40.5 135
c0 68 34 102 102 102c22.667 0 58.667 -27.667 108 -83s87.333 -83 114 -83c29.333 0 65.666 34.333 108.999 103c150 236 300.333 354 451 354c81.333 0 147.166 -23.833 197.499 -71.5s75.5 -111.834 75.5 -192.501zM1915 375.002c0 63.333 -34.667 95.001 -104 95.001
c-90.667 0 -195.667 -82.333 -315 -247c78.667 0 158.667 9.33301 240 28c119.333 27.333 179 68.666 179 123.999z" />
    <glyph glyph-name="u0636" unicode="&#x636;" horiz-adv-x="2117" arabic-form="isolated" 
d="M2109 427c0 -160 -78.9971 -277.331 -236.997 -351.998c-118.667 -56 -270 -84 -454 -84c-94.667 0 -163.334 14 -206.001 42c0 -172.667 -43 -313.334 -129 -422.001c-100 -126 -246.333 -189 -439 -189c-170 0 -297 56 -381 168c-66 88 -99 196 -99 324
c0 195.333 45.333 293 136 293c49.333 0 74 -29 74 -87c0 -20 -3 -49.667 -9 -89s-9 -69 -9 -89c0 -92.667 28.333 -164 85 -214c54 -48 128 -72 222 -72c116 0 206 30 270 90c66.667 62 100 150.333 100 265c0 35.333 -13.5 86 -40.5 152s-40.5 111 -40.5 135
c0 68 34 102 102 102c22.667 0 58.667 -27.667 108 -83s87.333 -83 114 -83c29.333 0 65.666 34.333 108.999 103c150 236 300.333 354 451 354c81.333 0 147.166 -23.833 197.499 -71.5s75.5 -111.834 75.5 -192.501zM1915 375.002c0 63.333 -34.667 95.001 -104 95.001
c-90.667 0 -195.667 -82.333 -315 -247c78.667 0 158.667 9.33301 240 28c119.333 27.333 179 68.666 179 123.999zM1749 962.003c0 -32 -10.999 -59.334 -32.999 -82.001s-49 -34 -81 -34s-59.167 11.333 -81.5 34s-33.5 50 -33.5 82s11.167 59 33.5 81s49.5 33 81.5 33
c31.333 0 58.166 -11.167 80.499 -33.5s33.5 -49.166 33.5 -80.499z" />
    <glyph glyph-name="u0637" unicode="&#x637;" horiz-adv-x="1250" arabic-form="isolated" 
d="M1248 425c0 -142 -65 -251 -195 -327c-110.667 -64.667 -249.334 -97 -416.001 -97h-198c-183.333 0 -275 49 -275 147c0 58 50 87 150 87c66.667 0 113 12.333 139 37c35.333 34 53 133.667 53 299c0 113.333 -10.333 285 -31 515c-3.33301 36 5.83398 68.5 27.501 97.5
s50.5 43.5 86.5 43.5c62 0 94.667 -39 98 -117l15 -365c3.33301 -85.333 -1.66699 -158 -15 -218c96 102.667 193.333 154 292 154c76.667 0 140.667 -23.667 192 -71s77 -109 77 -185zM1059 375c0 56 -42.333 83.999 -127 83.999c-54 0 -122.667 -35.333 -206 -106
c-17.333 -14.667 -62 -57.667 -134 -129c157.333 0 281 18.667 371 56c64 26.667 96 58.334 96 95.001z" />
    <glyph glyph-name="u0638" unicode="&#x638;" horiz-adv-x="1254" arabic-form="isolated" 
d="M1248 425c0 -142 -65 -251 -195 -327c-110.667 -64.667 -249.334 -97 -416.001 -97h-198c-183.333 0 -275 49 -275 147c0 58 50 87 150 87c66.667 0 113 12.333 139 37c35.333 34 53 133.667 53 299c0 113.333 -10.333 285 -31 515c-3.33301 36 5.83398 68.5 27.501 97.5
s50.5 43.5 86.5 43.5c62 0 94.667 -39 98 -117l15 -365c3.33301 -85.333 -1.66699 -158 -15 -218c96 102.667 193.333 154 292 154c76.667 0 140.667 -23.667 192 -71s77 -109 77 -185zM1059 375c0 56 -42.333 83.999 -127 83.999c-54 0 -122.667 -35.333 -206 -106
c-17.333 -14.667 -62 -57.667 -134 -129c157.333 0 281 18.667 371 56c64 26.667 96 58.334 96 95.001zM1122 991.999c0 -31.333 -11.168 -58.333 -33.501 -81s-49.166 -34 -80.499 -34c-32 0 -59.167 11.167 -81.5 33.5s-33.5 49.5 -33.5 81.5s11.167 59.167 33.5 81.5
s49.5 33.5 81.5 33.5s59 -11.167 81 -33.5s33 -49.5 33 -81.5z" />
    <glyph glyph-name="u0639" unicode="&#x639;" horiz-adv-x="1067" arabic-form="isolated" 
d="M831 -735c-193.333 0 -346.335 34.667 -459.002 104c-138 85.333 -207 219 -207 401c0 176 85.333 327 256 453c-94 66 -141 151.333 -141 256c0 101.333 35 186.666 105 255.999s156 104 258 104c56.667 0 112.334 -13.667 167.001 -41c66 -33.333 99 -75.333 99 -126
c0 -56 -23.333 -84 -70 -84c-16 0 -48.167 8.66699 -96.5 26s-85.833 26 -112.5 26c-42.667 0 -78 -11.667 -106 -35c-30 -24.667 -45 -58 -45 -100c0 -87.333 68.333 -131 205 -131c16 0 56.333 5.33301 121 16l139 23c4 0.666992 11.333 1 22 1
c66.667 0 100 -32.667 100 -98c0 -59.333 -26.667 -94 -80 -104c-417.333 -78 -626 -220.667 -626 -428c0 -105.333 61.667 -182.666 185 -231.999c88 -35.333 194 -53 318 -53c71.333 0 134 2.33301 188 7c30 2.66699 54.833 -4.5 74.5 -21.5s29.5 -40.5 29.5 -70.5
c0 -59.333 -31.167 -99 -93.5 -119s-139.166 -30 -230.499 -30z" />
    <glyph glyph-name="u063A" unicode="&#x63a;" horiz-adv-x="1067" arabic-form="isolated" 
d="M831 -735c-193.333 0 -346.335 34.667 -459.002 104c-138 85.333 -207 219 -207 401c0 176 85.333 327 256 453c-94 66 -141 151.333 -141 256c0 101.333 35 186.666 105 255.999s156 104 258 104c56.667 0 112.334 -13.667 167.001 -41c66 -33.333 99 -75.333 99 -126
c0 -56 -23.333 -84 -70 -84c-16 0 -48.167 8.66699 -96.5 26s-85.833 26 -112.5 26c-42.667 0 -78 -11.667 -106 -35c-30 -24.667 -45 -58 -45 -100c0 -87.333 68.333 -131 205 -131c16 0 56.333 5.33301 121 16l139 23c4 0.666992 11.333 1 22 1
c66.667 0 100 -32.667 100 -98c0 -59.333 -26.667 -94 -80 -104c-417.333 -78 -626 -220.667 -626 -428c0 -105.333 61.667 -182.666 185 -231.999c88 -35.333 194 -53 318 -53c71.333 0 134 2.33301 188 7c30 2.66699 54.833 -4.5 74.5 -21.5s29.5 -40.5 29.5 -70.5
c0 -59.333 -31.167 -99 -93.5 -119s-139.166 -30 -230.499 -30zM675.998 1108c0 -32 -10.999 -59.334 -32.999 -82.001s-49 -34 -81 -34s-59.167 11.333 -81.5 34s-33.5 50 -33.5 82s11.167 59 33.5 81s49.5 33 81.5 33c31.333 0 58.166 -11.167 80.499 -33.5
s33.5 -49.166 33.5 -80.499z" />
    <glyph glyph-name="u0641" unicode="&#x641;" horiz-adv-x="1676" arabic-form="isolated" 
d="M1673 399c0 -190 -114.333 -320.334 -343 -391.001c-136 -42 -327.333 -63 -574 -63c-394.667 0 -592 115.667 -592 347c0 60 8.66699 118 26 174c24.667 79.333 60 119 106 119c48.667 0 73 -24.333 73 -73c0 -16.667 -3.5 -41.167 -10.5 -73.5
s-10.5 -56.833 -10.5 -73.5c0 -56 21.667 -97.667 65 -125c64 -40 182 -60 354 -60h123c155.333 0 294.666 17.667 417.999 53c136.667 39.333 203.334 88.333 200.001 147c-10.667 -12.667 -29.334 -25.667 -56.001 -39c-33.333 -16.667 -66 -25 -98 -25
c-76.667 0 -134 24.667 -172 74c-29.333 38 -44 80.667 -44 128c0 73.333 21.333 147.333 64 222c50.667 89.333 113.667 134 189 134c94.667 0 168.334 -59 221.001 -177c40.667 -91.333 61 -190.666 61 -297.999zM1469 567.999c0 26.667 -10 51.334 -30 74.001
s-43 34 -69 34c-22 0 -40.833 -9.33301 -56.5 -28s-23.5 -39.334 -23.5 -62.001c0 -53.333 25.667 -80 77 -80c68 0 102 20.667 102 62zM1437 1125c0 -32 -11 -59.167 -33 -81.5s-49 -33.5 -81 -33.5s-59 11.167 -81 33.5s-33 49.5 -33 81.5s11 59 33 81s49 33 81 33
s59 -11 81 -33s33 -49 33 -81z" />
    <glyph glyph-name="u0642" unicode="&#x642;" horiz-adv-x="1242" arabic-form="isolated" 
d="M1240 176c0 -189.333 -52.6689 -336.665 -158.002 -441.998s-252.666 -158 -441.999 -158c-156 0 -277.667 50.333 -365 151c-74 85.333 -111 189.333 -111 312c0 65.333 8.33301 126.666 25 183.999c23.333 80 58.333 120 105 120c51.333 0 77 -27.667 77 -83
c0 -20 -3.83301 -49.333 -11.5 -88s-11.5 -68 -11.5 -88c0 -90 30 -159.333 90 -208c54.667 -44.667 128.334 -67 221.001 -67c116 0 210.667 22.667 284 68c89.333 55.333 130.666 137.666 123.999 246.999c-36 -42 -90 -63 -162 -63c-151.333 0 -227 69 -227 207
c0 82 20.667 160.667 62 236c50.667 92.667 117.334 139 200.001 139c98 0 175.333 -56.333 232 -169c45.333 -90.667 68 -190 68 -298zM1029 314.001c-12.667 76 -45.333 114 -98 114c-24 0 -45.167 -9.16699 -63.5 -27.5s-27.5 -39.5 -27.5 -63.5
c0 -49.333 29.667 -74 89 -74c52.667 0 86 17 100 51zM1162 908.001c0 -32 -11 -59.333 -33 -82s-49 -34 -81 -34s-59 11.333 -81 34s-33 50 -33 82s11 59 33 81s49 33 81 33s59 -11 81 -33s33 -49 33 -81zM883.999 908.001c0 -32 -11.166 -59.332 -33.499 -81.999
s-49.5 -34 -81.5 -34s-59 11.333 -81 34s-33 50 -33 82c0 31.333 11.167 58.166 33.5 80.499s49.166 33.5 80.499 33.5c32 0 59.167 -11 81.5 -33s33.5 -49 33.5 -81z" />
    <glyph glyph-name="u0643" unicode="&#x643;" horiz-adv-x="1794" arabic-form="isolated" 
d="M1751 1036c-212.667 -50.667 -390.666 -104.667 -533.999 -162c-16 -6.66699 -24 -17.334 -24 -32.001c0 -14 6.66699 -26 20 -36c246 -186.667 369 -346.334 369 -479.001c0 -254.667 -275.333 -382 -826 -382c-394.667 0 -592 115.667 -592 347
c0 60 8.66699 118 26 174c24.667 79.333 60 119 106 119c48.667 0 73 -24.333 73 -73c0 -16.667 -3.5 -41.167 -10.5 -73.5s-10.5 -56.833 -10.5 -73.5c0 -56 21.667 -97.667 65 -125c64 -40 182 -60 354 -60h37c155.333 0 286 10 392 30
c131.333 24.667 197 61.334 197 110.001c0 34.667 -56 100 -168 196c-126 108 -199.667 182 -221 222c-12.667 24 -19 55 -19 93c0 80 28.333 137.667 85 173c126.667 78.667 329.667 150.667 609 216c17.333 4 32.666 6 45.999 6c30 0 56.5 -8.66699 79.5 -26
s34.5 -40.666 34.5 -69.999c0 -48.667 -29.333 -80 -88 -94z" />
    <glyph glyph-name="u0644" unicode="&#x644;" horiz-adv-x="1106" arabic-form="isolated" 
d="M1104 380c0 -410.667 -172.002 -616 -516.002 -616c-128 0 -230.667 39.5 -308 118.5s-116 182.5 -116 310.5c0 74 9.66699 140 29 198c24.667 74 59.667 111 105 111c52 0 78 -25 78 -75c0 -22.667 -4 -56 -12 -100s-12 -77.333 -12 -100c0 -74 26 -131.333 78 -172
c48 -38 109.667 -57 185 -57c214 0 316.333 123.333 307 370l-26 702c-1.33301 38 7.33398 72 26.001 102c20.667 34 49.334 51 86.001 51c64 0 96 -49.333 96 -148v-695z" />
    <glyph glyph-name="u0645" unicode="&#x645;" horiz-adv-x="891" arabic-form="isolated" 
d="M575 50c-16.667 0 -42 1.66602 -76 4.99902s-59.667 5 -77 5c-32.667 0 -54 -12.333 -64 -37c-6 -15.333 -8.66699 -42.666 -8 -81.999l10 -564c0.666992 -26.667 -6.33301 -49.334 -21 -68.001c-16 -20.667 -37 -31 -63 -31c-52 0 -79.333 29.667 -82 89l-30 636
c-8 163.333 52.333 255.333 181 276c-5.33301 23.333 -8 46.333 -8 69c0 76 27.333 143 82 201c48.667 51.333 105.334 77 170.001 77c91.333 0 167.666 -31 228.999 -93c52.667 -54 79 -122.667 79 -206c0 -94 -31 -165 -93 -213
c-56 -43.333 -132.333 -64.666 -229 -63.999zM724 319.999c5.33301 62.667 -35.333 98.333 -122 107c-26.667 2.66699 -49.5 -5.5 -68.5 -24.5s-28.5 -42.167 -28.5 -69.5c0 -48.667 41 -73 123 -73c60.667 0 92.667 20 96 60z" />
    <glyph glyph-name="u0646" unicode="&#x646;" horiz-adv-x="1206" arabic-form="isolated" 
d="M1205 300c0 -161.333 -46.333 -295.001 -139 -401.001c-102 -116 -242 -174 -420 -174c-157.333 0 -280.333 48.333 -369 145c-75.333 82.667 -113 181.667 -113 297c0 70.667 12 142 36 214c30.667 92 72 138 124 138s78 -27.333 78 -82
c0 -24.667 -7.33301 -62.167 -22 -112.5s-22 -88.5 -22 -114.5c0 -81.333 31.333 -144.666 94 -189.999c55.333 -40.667 125.333 -61 210 -61c104 0 185.333 25 244 75c63.333 54 95 132 95 234c0 26.667 -7.66699 67 -23 121s-23 93.667 -23 119
c0 74.667 35.667 112 107 112c50 0 88.333 -43.333 115 -130c18.667 -60.667 28 -124 28 -190zM765 810.999c0 -32 -11 -59.333 -33 -82s-49 -34 -81 -34s-59 11.333 -81 34s-33 50 -33 82s11 59 33 81s49 33 81 33s59 -11 81 -33s33 -49 33 -81z" />
    <glyph glyph-name="u0647" unicode="&#x647;" horiz-adv-x="758" arabic-form="isolated" 
d="M755 294c0 -97.333 -35.332 -175.668 -105.999 -235.001c-62.667 -52.667 -136.667 -79 -222 -79c-174.667 0 -262 75 -262 225c0 48.667 13.667 104.667 41 168c21.333 49.333 43.333 88.333 66 117c-53.333 26.667 -80 60.334 -80 101.001c0 32 10.667 60 32 84
s47.666 36 78.999 36c98 0 196.667 -43 296 -129c104 -90 156 -186 156 -288zM542.001 272.998c0 56.667 -47.333 105.333 -142 146c-38.667 -51.333 -58 -98.333 -58 -141c0 -52 29.667 -78 89 -78c26 0 49.667 5.66699 71 17c26.667 14 40 32.667 40 56z" />
    <glyph glyph-name="u0648" unicode="&#x648;" horiz-adv-x="805" arabic-form="isolated" 
d="M802 276c0 -153.333 -55.002 -293.667 -165.002 -421c-98.667 -114 -224.667 -201 -378 -261c-17.333 -6.66699 -34.666 -10 -51.999 -10c-27.333 0 -50.833 8.83301 -70.5 26.5s-29.5 39.834 -29.5 66.501c0 42 24 73.667 72 95
c88.667 39.333 170.667 89.666 246 150.999c91.333 74.667 150.333 149 177 223c-31.333 -15.333 -69 -23 -113 -23c-74 0 -131.667 21.167 -173 63.5s-62 100.5 -62 174.5c0 75.333 23 146.333 69 213c50.667 73.333 110.334 110 179.001 110c100.667 0 178 -45 232 -135
c45.333 -75.333 68 -166.333 68 -273zM603.998 341.999c-2.66699 32 -12.667 60 -30 84c-20 27.333 -45 41 -75 41c-22 0 -41 -7.5 -57 -22.5s-24 -33.5 -24 -55.5c0 -44 29 -66 87 -66c42.667 0 75.667 6.33301 99 19z" />
    <glyph glyph-name="u0649" unicode="&#x649;" horiz-adv-x="1376" arabic-form="isolated" 
d="M1413 654c0 -48 -16.335 -82.3311 -49.002 -102.998c-19.333 -12.667 -56 -22.667 -110 -30c-73.333 -10.667 -137.666 -30.334 -192.999 -59.001c-74.667 -39.333 -112 -89.333 -112 -150c0 -26 26.667 -43.667 80 -53l136 -24c57.333 -16 97.666 -36 120.999 -60
c27.333 -28.667 41 -70.667 41 -126c0 -127.333 -73.667 -239 -221 -335c-140 -91.333 -292.667 -137 -458 -137c-153.333 0 -271.666 38 -354.999 114c-86 78.667 -129 194 -129 346c0 74 12 148 36 222c31.333 96.667 74 145 128 145c55.333 0 83 -30 83 -90
c0 -23.333 -8 -61 -24 -113s-24 -91 -24 -117c0 -184 103.333 -276 310 -276c132.667 0 246.334 23 341.001 69c81.333 39.333 122 79 122 119c0 22.667 -33.333 39 -100 49c-90.667 13.333 -152.667 29 -186 47c-66.667 36 -100 97 -100 183
c0 123.333 59.667 234.666 179 333.999c114 95.333 233.667 143 359 143c83.333 0 125 -32.667 125 -98z" />
    <glyph glyph-name="u064A" unicode="&#x64a;" horiz-adv-x="1376" arabic-form="isolated" 
d="M1413 654c0 -48 -16.335 -82.3311 -49.002 -102.998c-19.333 -12.667 -56 -22.667 -110 -30c-73.333 -10.667 -137.666 -30.334 -192.999 -59.001c-74.667 -39.333 -112 -89.333 -112 -150c0 -26 26.667 -43.667 80 -53l136 -24c57.333 -16 97.666 -36 120.999 -60
c27.333 -28.667 41 -70.667 41 -126c0 -127.333 -73.667 -239 -221 -335c-140 -91.333 -292.667 -137 -458 -137c-153.333 0 -271.666 38 -354.999 114c-86 78.667 -129 194 -129 346c0 74 12 148 36 222c31.333 96.667 74 145 128 145c55.333 0 83 -30 83 -90
c0 -23.333 -8 -61 -24 -113s-24 -91 -24 -117c0 -184 103.333 -276 310 -276c132.667 0 246.334 23 341.001 69c81.333 39.333 122 79 122 119c0 22.667 -33.333 39 -100 49c-90.667 13.333 -152.667 29 -186 47c-66.667 36 -100 97 -100 183
c0 123.333 59.667 234.666 179 333.999c114 95.333 233.667 143 359 143c83.333 0 125 -32.667 125 -98z" />
    <glyph glyph-name="u067E" unicode="&#x67e;" horiz-adv-x="1669" arabic-form="isolated" 
d="M1668 337c0 -148.667 -90 -254.333 -270 -317c-144 -50 -358 -75 -642 -75c-394.667 0 -592 115.667 -592 347c0 60 8.66699 118 26 174c24.667 79.333 60 119 106 119c48.667 0 73 -24.333 73 -73c0 -16.667 -3.5 -41.167 -10.5 -73.5s-10.5 -56.833 -10.5 -73.5
c0 -56 21.667 -97.667 65 -125c64 -40 182 -60 354 -60h123c118 0 226 7.33301 324 22c172.667 26 259 68.667 259 128c0 26.667 -10.667 64.667 -32 114s-32 84 -32 104c0 74.667 33 112 99 112c54.667 0 97 -42.667 127 -128c22 -62.667 33 -127.667 33 -195z
M1142 -286.999c0 -31.333 -11.168 -58.333 -33.501 -81s-49.166 -34 -80.499 -34c-32 0 -59.167 11.167 -81.5 33.5s-33.5 49.5 -33.5 81.5s11.167 59.167 33.5 81.5s49.5 33.5 81.5 33.5s59 -11.167 81 -33.5s33 -49.5 33 -81.5zM862.999 -286.999
c0 -32 -11.001 -59.167 -33.001 -81.5s-49 -33.5 -81 -33.5c-31.333 0 -58.166 11.333 -80.499 34s-33.5 49.667 -33.5 81c0 32 11 59.167 33 81.5s49 33.5 81 33.5s59 -11.167 81 -33.5s33 -49.5 33 -81.5zM1003 -529.999c0 -32 -11.168 -59.167 -33.501 -81.5
s-49.5 -33.5 -81.5 -33.5c-31.333 0 -58.166 11.333 -80.499 34s-33.5 49.667 -33.5 81c0 32 11 59.167 33 81.5s49 33.5 81 33.5s59.167 -11.167 81.5 -33.5s33.5 -49.5 33.5 -81.5z" />
    <glyph glyph-name="u0686" unicode="&#x686;" horiz-adv-x="1178" arabic-form="isolated" 
d="M1179 -682c-127.333 -42.667 -247.333 -63.9961 -360 -63.9961c-436.667 0 -655 179.333 -655 538c0 138 56.333 266 169 384c90.667 94.667 200.667 169 330 223c-109.333 8.66699 -176 13 -200 13c-32 0 -69 -14.333 -111 -43s-66.333 -43 -73 -43
c-61.333 0 -92 28.667 -92 86c0 44.667 23 92.667 69 144c52 58.667 111.333 88 178 88c53.333 0 133 -7.5 239 -22.5s185.667 -22.5 239 -22.5c37.333 0 76.333 1 117 3c40 2 73.667 -6.33301 101 -25c30.667 -20.667 46 -50.334 46 -89.001
c0 -74.667 -46 -120.334 -138 -137.001c-162 -28.667 -309.333 -90.334 -442 -185.001c-147.333 -104.667 -221 -214.334 -221 -329.001c0 -139.333 46.667 -235.666 140 -288.999c70.667 -40.667 183 -61 337 -61c56.667 0 153.667 13 291 39c10.667 2 19.667 3 27 3
c67.333 0 101 -32.667 101 -98c0 -54.667 -30.667 -92.334 -92 -113.001zM1006 -72.9961c0 -32 -11.167 -59.167 -33.5 -81.5s-49.5 -33.5 -81.5 -33.5s-59 11.167 -81 33.5s-33 49.5 -33 81.5s11 59 33 81s49 33 81 33s59.167 -11 81.5 -33s33.5 -49 33.5 -81z
M727 -72.9961c0 -32 -11.167 -59.167 -33.5 -81.5s-49.5 -33.5 -81.5 -33.5s-59 11.167 -81 33.5s-33 49.5 -33 81.5s11 59 33 81s49 33 81 33s59.167 -11 81.5 -33s33.5 -49 33.5 -81zM866 -315.996c0 -32 -10.999 -59.334 -32.999 -82.001s-49 -34 -81 -34
s-59.167 11.333 -81.5 34s-33.5 50 -33.5 82s11.167 59 33.5 81s49.5 33 81.5 33c31.333 0 58.166 -11.167 80.499 -33.5s33.5 -49.166 33.5 -80.499z" />
    <glyph glyph-name="u0698" unicode="&#x698;" horiz-adv-x="900" arabic-form="isolated" 
d="M411 850c0 32 11 59.167 33 81.5s49 33.5 81 33.5s59 -11.167 81 -33.5s33 -49.5 33 -81.5s-11 -59 -33 -81s-49 -33 -81 -33s-59 11 -81 33s-33 49 -33 81zM689 850c0 32 11.167 59.167 33.5 81.5s49.5 33.5 81.5 33.5s59 -11.167 81 -33.5s33 -49.5 33 -81.5
s-11 -59 -33 -81s-49 -33 -81 -33s-59.167 11 -81.5 33s-33.5 49 -33.5 81zM550 1093c0 32 10.999 59.334 32.999 82.001s49 34 81 34s59.167 -11.333 81.5 -34s33.5 -50 33.5 -82s-11.167 -59 -33.5 -81s-49.5 -33 -81.5 -33c-31.333 0 -58.166 11.167 -80.499 33.5
s-33.5 49.166 -33.5 80.499zM816.999 433.001c2 -26 3 -51.001 3 -75.001c0 -181.333 -53 -335.333 -159 -462c-100.667 -121.333 -240.334 -207.333 -419.001 -258c-14 -4 -29.333 -6 -46 -6c-66 0 -99 30 -99 90c0 50 30.333 88.667 91 116
c154.667 70 260.334 135.333 317.001 196c66 70.667 99 165.334 99 284.001c0 13.333 -1 33.333 -3 60s-3 46.667 -3 60c0 109.333 33 164 99 164c71.333 0 111.333 -56.333 120 -169z" />
    <glyph glyph-name="u06AF" unicode="&#x6af;" horiz-adv-x="1823" arabic-form="isolated" 
d="M1701 1250c-257.333 -65.333 -461.001 -134.333 -611.001 -207c-26 -12.667 -47.667 -14 -65 -4c-15.333 9.33301 -23 24.666 -23 45.999c0 32 16 56.667 48 74c154.667 82.667 358.334 153.334 611.001 212.001c8.66699 2 18 3 28 3c48 0 72 -20 72 -60
c0 -32.667 -20 -54 -60 -64zM1780 968c-243.333 -59.333 -421.333 -113.003 -534 -161.003c-16.667 -7.33301 -25 -18.666 -25 -33.999c0 -14 7 -25.667 21 -35c226.667 -146.667 340 -283.667 340 -411c0 -254.667 -275.333 -382 -826 -382
c-394.667 0 -592 115.667 -592 347c0 60 8.66699 118 26 174c24.667 79.333 60 119 106 119c48.667 0 73 -24.333 73 -73c0 -16.667 -3.5 -41.167 -10.5 -73.5s-10.5 -56.833 -10.5 -73.5c0 -56 21.667 -97.667 65 -125c64 -40 182 -60 354 -60h37c155.333 0 286 10 392 30
c131.333 24.667 197 61.334 197 110.001c0 34.667 -51 89 -153 163c-115.333 83.333 -184.333 146 -207 188c-13.333 24.667 -20 55.334 -20 92.001c0 80 28.667 138 86 174c128 80 331 152 609 216c14.667 3.33301 30 5 46 5c30.667 0 56.667 -8 78 -24
c24 -18 36 -41.667 36 -71c0 -49.333 -29.333 -81 -88 -95z" />
    <glyph glyph-name="uFB57" unicode="&#x67e;" horiz-adv-x="1727" arabic-form="final" 
d="M1756 1h-68.998c-112.667 0 -188.334 40.667 -227.001 122c-90 -118.667 -324.667 -178 -704 -178c-394.667 0 -592 115.667 -592 347c0 60 8.66699 118 26 174c24.667 79.333 60 119 106 119c48.667 0 73 -24.333 73 -73c0 -16.667 -3.5 -41.167 -10.5 -73.5
s-10.5 -56.833 -10.5 -73.5c0 -56 21.667 -97.667 65 -125c64 -40 182 -60 354 -60h123c253.333 0 409.666 37.333 468.999 112c8 10 26 47 54 111c17.333 39.333 41.333 59 72 59c34 0 57 -14.667 69 -44c2 -9.33301 7 -34.333 15 -75c14 -72.667 65.667 -109 155 -109h32
v-233zM1142 -287c0 -31.333 -11.168 -58.333 -33.501 -81s-49.166 -34 -80.499 -34c-32 0 -59.167 11.167 -81.5 33.5s-33.5 49.5 -33.5 81.5s11.167 59.167 33.5 81.5s49.5 33.5 81.5 33.5s59 -11.167 81 -33.5s33 -49.5 33 -81.5zM863.001 -287
c0 -32 -11.001 -59.167 -33.001 -81.5s-49 -33.5 -81 -33.5c-31.333 0 -58.166 11.333 -80.499 34s-33.5 49.667 -33.5 81c0 32 11 59.167 33 81.5s49 33.5 81 33.5s59 -11.167 81 -33.5s33 -49.5 33 -81.5zM1003 -530c0 -32 -11.168 -59.167 -33.501 -81.5
s-49.5 -33.5 -81.5 -33.5c-31.333 0 -58.166 11.333 -80.499 34s-33.5 49.667 -33.5 81c0 32 11 59.167 33 81.5s49 33.5 81 33.5s59.167 -11.167 81.5 -33.5s33.5 -49.5 33.5 -81.5z" />
    <glyph glyph-name="uFB58" unicode="&#x67e;" horiz-adv-x="531" arabic-form="initial" 
d="M405 363c0 -112 -31.333 -200.333 -94 -265s-149.667 -97 -261 -97h-79v233h92c99.333 0 149 34.667 149 104c0 20 -4.83301 49 -14.5 87s-14.5 67 -14.5 87c0 27.333 8.83301 50.833 26.5 70.5s40.167 29.5 67.5 29.5c85.333 0 128 -83 128 -249zM525 -252
c0 -32 -11 -59.167 -33 -81.5s-49 -33.5 -81 -33.5s-59.167 11.167 -81.5 33.5s-33.5 49.5 -33.5 81.5s11.167 59.167 33.5 81.5s49.5 33.5 81.5 33.5s59 -11.167 81 -33.5s33 -49.5 33 -81.5zM246 -252c0 -32 -11 -59.167 -33 -81.5s-49 -33.5 -81 -33.5
s-59.167 11.167 -81.5 33.5s-33.5 49.5 -33.5 81.5s11.167 59.167 33.5 81.5s49.5 33.5 81.5 33.5s59 -11.167 81 -33.5s33 -49.5 33 -81.5zM386 -495c0 -32 -11.166 -59.332 -33.499 -81.999s-49.5 -34 -81.5 -34s-59 11.333 -81 34s-33 50 -33 82
c0 31.333 11.167 58.166 33.5 80.499s49.166 33.5 80.499 33.5c32 0 59.167 -11 81.5 -33s33.5 -49 33.5 -81z" />
    <glyph glyph-name="uFB59" unicode="&#x67e;" horiz-adv-x="573" arabic-form="medial" 
d="M602 1h-67.002c-132 0 -214.667 40.667 -248 122c-50 -81.333 -132 -122 -246 -122h-70v233h72c96.667 0 152.334 44.333 167.001 133c10 63.333 38.333 95 85 95s74 -31.667 82 -95c10.667 -88.667 63.334 -133 158.001 -133h67v-233zM543.998 -252
c0 -32 -11 -59.167 -33 -81.5s-49 -33.5 -81 -33.5s-59.167 11.167 -81.5 33.5s-33.5 49.5 -33.5 81.5s11.167 59.167 33.5 81.5s49.5 33.5 81.5 33.5s59 -11.167 81 -33.5s33 -49.5 33 -81.5zM264.998 -252c0 -32 -11 -59.167 -33 -81.5s-49 -33.5 -81 -33.5
s-59 11.167 -81 33.5s-33 49.5 -33 81.5s11 59.167 33 81.5s49 33.5 81 33.5s59 -11.167 81 -33.5s33 -49.5 33 -81.5zM404.998 -495c0 -32 -11.166 -59.332 -33.499 -81.999s-49.5 -34 -81.5 -34s-59 11.333 -81 34s-33 50 -33 82c0 31.333 11.167 58.166 33.5 80.499
s49.166 33.5 80.499 33.5c32 0 59.167 -11 81.5 -33s33.5 -49 33.5 -81z" />
    <glyph glyph-name="uFB7B" unicode="&#x686;" horiz-adv-x="1274" arabic-form="final" 
d="M1304 1l-241 -0.00195312c-78 0 -137 30.333 -177 91c-34 51.333 -51.333 118 -52 200c-112.667 -44 -211 -101.333 -295 -172c-109.333 -92 -164 -186.333 -164 -283c0 -139.333 46.667 -235.666 140 -288.999c70.667 -40.667 183 -61 337 -61
c50.667 0 147.667 13 291 39c7.33301 1.33301 16 2 26 2c28.667 0 52.834 -9.16699 72.501 -27.5s29.5 -41.833 29.5 -70.5c0 -54 -30.667 -91.333 -92 -112c-127.333 -42.667 -247.333 -64 -360 -64c-436.667 0 -655 179.333 -655 538c0 138 56.333 266 169 384
c90.667 94.667 200.667 169 330 223c-109.333 8.66699 -176 13 -200 13c-32.667 0 -70 -14.333 -112 -43s-66 -43 -72 -43c-61.333 0 -92 28.667 -92 86c0 44.667 23 92.667 69 144c52 58.667 111.333 88 178 88c53.333 0 133 -7.5 239 -22.5s185.667 -22.5 239 -22.5
c38 0 77 1 117 3c38.667 2 71.667 -6.33301 99 -25c30.667 -20.667 46 -49.667 46 -87c0 -73.333 -45.333 -119.666 -136 -138.999c-22 -4.66699 -48 -12 -78 -22c11.333 -63.333 56.666 -95 135.999 -95h208v-233zM962 -104.002c0 -32 -11.167 -59.167 -33.5 -81.5
s-49.5 -33.5 -81.5 -33.5s-59 11.167 -81 33.5s-33 49.5 -33 81.5s11 59.167 33 81.5s49 33.5 81 33.5s59.167 -11.167 81.5 -33.5s33.5 -49.5 33.5 -81.5zM683 -104.002c0 -32 -11.167 -59.167 -33.5 -81.5s-49.5 -33.5 -81.5 -33.5s-59 11.167 -81 33.5s-33 49.5 -33 81.5
s11 59.167 33 81.5s49 33.5 81 33.5s59.167 -11.167 81.5 -33.5s33.5 -49.5 33.5 -81.5zM822 -347.002c0 -32 -10.999 -59.168 -32.999 -81.501s-49 -33.5 -81 -33.5s-59.167 11.167 -81.5 33.5s-33.5 49.5 -33.5 81.5s11.167 59 33.5 81s49.5 33 81.5 33
c31.333 0 58.166 -11.167 80.499 -33.5s33.5 -49.166 33.5 -80.499z" />
    <glyph glyph-name="uFB7C" unicode="&#x686;" horiz-adv-x="1053" arabic-form="initial" 
d="M962 309c-112 -28 -233.002 -78.001 -363.002 -150.001c-113.333 -62.667 -185 -99.667 -215 -111c-84 -31.333 -189.667 -47 -317 -47h-96v233h142c96.667 0 179.334 11.667 248.001 35c16 5.33301 113.667 46.333 293 123c-178.667 55.333 -286 83 -322 83
c-15.333 0 -39.833 -10 -73.5 -30s-59.5 -30 -77.5 -30c-52.667 0 -79 29 -79 87c0 46.667 25.333 91.667 76 135s99.667 65 147 65c58.667 0 149.334 -21.667 272.001 -65c142 -50 261 -80.333 357 -91c66.667 -7.33301 100 -47.666 100 -120.999
c0 -62 -30.667 -100.667 -92 -116zM937.998 -179.001c0 -32 -11 -59.167 -33 -81.5s-49 -33.5 -81 -33.5s-59 11.167 -81 33.5s-33 49.5 -33 81.5s11 59.167 33 81.5s49 33.5 81 33.5s59 -11.167 81 -33.5s33 -49.5 33 -81.5zM659.998 -179.001
c0 -32 -11.167 -59.167 -33.5 -81.5s-49.5 -33.5 -81.5 -33.5s-59 11.167 -81 33.5s-33 49.5 -33 81.5s11 59.167 33 81.5s49 33.5 81 33.5s59.167 -11.167 81.5 -33.5s33.5 -49.5 33.5 -81.5zM798.998 -422.001c0 -32 -10.999 -59.168 -32.999 -81.501s-49 -33.5 -81 -33.5
s-59.167 11.167 -81.5 33.5s-33.5 49.5 -33.5 81.5s11.167 59 33.5 81s49.5 33 81.5 33c31.333 0 58.166 -11.167 80.499 -33.5s33.5 -49.166 33.5 -80.499z" />
    <glyph glyph-name="uFB7D" unicode="&#x686;" horiz-adv-x="1202" arabic-form="medial" 
d="M1233 1h-227.001c-156 0 -235.667 97 -239 291c-38.667 -22 -98.667 -64.333 -180 -127c-70 -54 -129 -92 -177 -114c-72 -33.333 -151 -50 -237 -50h-202v233h171c106 0 197 20.667 273 62l204 111c-144 28.667 -234 43 -270 43c-21.333 0 -48 -10 -80 -30
s-55.667 -30 -71 -30c-52.667 0 -79 29 -79 87c0 47.333 25 92.666 75 135.999s99 65 147 65c72 0 178.333 -16.833 319 -50.5s247.334 -50.5 320.001 -50.5s109 -32.333 109 -97c0 -62.667 -22.667 -98.667 -68 -108c-34 -7.33301 -80 -20.666 -138 -39.999
c15.333 -65.333 67.333 -98 156 -98h194v-233zM870.999 -179c0 -32 -11 -59.167 -33 -81.5s-49 -33.5 -81 -33.5s-59.167 11.167 -81.5 33.5s-33.5 49.5 -33.5 81.5s11.167 59.167 33.5 81.5s49.5 33.5 81.5 33.5s59 -11.167 81 -33.5s33 -49.5 33 -81.5zM591.999 -179
c0 -32 -11 -59.167 -33 -81.5s-49 -33.5 -81 -33.5s-59.167 11.167 -81.5 33.5s-33.5 49.5 -33.5 81.5s11.167 59.167 33.5 81.5s49.5 33.5 81.5 33.5s59 -11.167 81 -33.5s33 -49.5 33 -81.5zM731.999 -422c0 -32 -11.166 -59.166 -33.499 -81.499s-49.5 -33.5 -81.5 -33.5
s-59 11.167 -81 33.5s-33 49.5 -33 81.5c0 31.333 11.167 58.166 33.5 80.499s49.166 33.5 80.499 33.5c32 0 59.167 -11 81.5 -33s33.5 -49 33.5 -81z" />
    <glyph glyph-name="uFB8B" unicode="&#x698;" horiz-adv-x="1046" arabic-form="final" 
d="M425 736c0 31.333 11.168 58.333 33.501 81s49.166 34 80.499 34c32 0 59.167 -11.167 81.5 -33.5s33.5 -49.5 33.5 -81.5s-11.167 -59.167 -33.5 -81.5s-49.5 -33.5 -81.5 -33.5s-59 11.167 -81 33.5s-33 49.5 -33 81.5zM704.001 736c0 31.333 11.168 58.333 33.501 81
s49.166 34 80.499 34c32 0 59.167 -11.167 81.5 -33.5s33.5 -49.5 33.5 -81.5s-11.167 -59.167 -33.5 -81.5s-49.5 -33.5 -81.5 -33.5s-59 11.167 -81 33.5s-33 49.5 -33 81.5zM564.002 979c0 32 11.168 59.167 33.501 81.5s49.5 33.5 81.5 33.5
c31.333 0 58.166 -11.333 80.499 -34s33.5 -49.667 33.5 -81c0 -32 -11 -59.167 -33 -81.5s-49 -33.5 -81 -33.5s-59.167 11.167 -81.5 33.5s-33.5 49.5 -33.5 81.5zM1075 1l-67.001 -0.000976562c-72 0 -128 23.333 -168 70c-47.333 -126 -120 -231.667 -218 -317
c-82.667 -72 -194 -137 -334 -195c-20.667 -8.66699 -40 -13 -58 -13c-26 0 -48.167 8.16699 -66.5 24.5s-27.5 37.5 -27.5 63.5c0 47.333 28 84 84 110c118.667 55.333 209 107 271 155c95.333 73.333 154 156.333 176 249c2.66699 11.333 4 24.333 4 39
c0 52.667 -10.667 109.667 -32 171c-4 11.333 -6 23 -6 35c0 28 9.33301 51.667 28 71s42 30 70 32c42 3.33301 75.333 -21 100 -73c1.33301 -3.33301 20 -43.666 56 -120.999c32.667 -45.333 85.334 -68 158.001 -68h30v-233z" />
    <glyph glyph-name="uFEDA" unicode="&#x6a9;" horiz-adv-x="2006" arabic-form="final" 
d="M2035 1l-67.998 -0.000976562c-164 0 -301.667 78 -413 234c-30.667 -124.667 -144.334 -209 -341.001 -253c-110 -24.667 -262.333 -37 -457 -37c-394.667 0 -592 115.667 -592 347c0 60 8.66699 118 26 174c24.667 79.333 60 119 106 119c48.667 0 73 -24.333 73 -73
c0 -16.667 -3.5 -41.167 -10.5 -73.5s-10.5 -56.833 -10.5 -73.5c0 -56 21.667 -97.667 65 -125c64 -40 182 -60 354 -60h37c155.333 0 286 10 392 30c131.333 24.667 197 61.334 197 110.001c0 34.667 -56 100 -168 196c-125.333 107.333 -199 181.333 -221 222
c-13.333 24.667 -20 56 -20 94c0 80.667 28.667 138 86 172c142 84 345 156 609 216c17.333 4 32.666 6 45.999 6c30.667 0 56.667 -8 78 -24c24 -18 36 -41.667 36 -71c0 -48.667 -29.333 -80.334 -88 -95.001c-220 -54.667 -398 -108.667 -534 -162
c-16 -6 -24 -16.667 -24 -32c0 -13.333 6.66699 -25.333 20 -36c102.667 -81.333 202 -170.666 298 -267.999l188 -188c80 -77.333 165 -116 255 -116h81v-233z" />
    <glyph glyph-name="uFEDB" unicode="&#x6a9;" horiz-adv-x="837" arabic-form="initial" 
d="M789 1036c-188 -42.667 -365.667 -96.667 -533 -162c-16.667 -6.66699 -25 -17 -25 -31s7 -26.333 21 -37c245.333 -186 368 -345.667 368 -479c0 -126 -50.667 -213.667 -152 -263c-86 -42 -228.333 -63 -427 -63h-69v233h46c132.667 0 211 1 235 3
c119.333 10 179 37.667 179 83c0 34.667 -56 100 -168 196c-126 108 -200 182 -222 222c-12.667 23.333 -19 54.333 -19 93c0 80 28.667 137.667 86 173c128.667 79.333 331.334 151.333 608.001 216c17.333 4 32.666 6 45.999 6c76 0 114 -32.333 114 -97
c0 -48.667 -29.333 -79.667 -88 -93z" />
    <glyph glyph-name="uFEDC" unicode="&#x6a9;" horiz-adv-x="1044" arabic-form="medial" 
d="M1073 1l-67 -0.000976562c-164.667 0 -302.667 78 -414 234c-25.333 -102 -91.666 -169.333 -198.999 -202c-70 -21.333 -190.667 -32 -362 -32h-60v233h86c134 0 211.333 1 232 3c95.333 9.33301 143 37 143 83c0 34.667 -56 100 -168 196c-126 108 -200 182 -222 222
c-12.667 23.333 -19 54.333 -19 93c0 80 28.667 137.667 86 173c128.667 79.333 331.334 151.333 608.001 216c17.333 4 32.666 6 45.999 6c76 0 114 -32.333 114 -97c0 -48.667 -29.333 -79.667 -88 -93c-190 -43.333 -367.667 -97.333 -533 -162
c-16.667 -6.66699 -25 -17 -25 -31c0 -13.333 7 -25.666 21 -36.999c83.333 -66.667 182.666 -156 297.999 -268l189 -188c80 -77.333 164.333 -116 253 -116h81v-233z" />
    <glyph glyph-name="uFB93" unicode="&#x6af;" horiz-adv-x="2006" arabic-form="final" 
d="M1701 1250c-257.333 -65.333 -461.001 -134.333 -611.001 -207c-26 -12.667 -47.667 -14 -65 -4c-15.333 9.33301 -23 24.666 -23 45.999c0 32 16 56.667 48 74c154.667 82.667 358.334 153.334 611.001 212.001c8.66699 2 18 3 28 3c48 0 72 -20 72 -60
c0 -32.667 -20 -54 -60 -64zM2035 1l-67.998 -0.00195312c-164 0 -301.667 78 -413 234c-30.667 -124.667 -144.334 -209 -341.001 -253c-110 -24.667 -262.333 -37 -457 -37c-394.667 0 -592 115.667 -592 347c0 60 8.66699 118 26 174c24.667 79.333 60 119 106 119
c48.667 0 73 -24.333 73 -73c0 -16.667 -3.5 -41.167 -10.5 -73.5s-10.5 -56.833 -10.5 -73.5c0 -56 21.667 -97.667 65 -125c64 -40 182 -60 354 -60h37c155.333 0 286 10 392 30c131.333 24.667 197 61.334 197 110.001c0 34.667 -51 89 -153 163
c-115.333 83.333 -184.333 146 -207 188c-13.333 24.667 -20 56 -20 94c0 80.667 28.667 138 86 172c143.333 84.667 346.333 156.667 609 216c14.667 3.33301 29.667 5 45 5c31.333 0 57.666 -8 78.999 -24c24 -17.333 36 -41 36 -71c0 -49.333 -29.333 -81 -88 -95
c-248 -60 -426 -113.667 -534 -161c-16.667 -7.33301 -25 -19 -25 -35c0 -13.333 7 -24.666 21 -33.999l127 -83c50 -32.667 107.333 -81 172 -145l160 -160c80 -77.333 164.333 -116 253 -116h81v-233z" />
    <glyph glyph-name="uFB94" unicode="&#x6af;" horiz-adv-x="913" arabic-form="initial" 
d="M739 1250c-253.333 -63.333 -456.667 -132.334 -610 -207.001c-26.667 -12.667 -48.667 -14 -66 -4c-15.333 9.33301 -23 24.666 -23 45.999c0 32.667 16 57.334 48 74.001c157.333 82.667 361.333 153.334 612 212.001c8.66699 2 18 3 28 3c47.333 0 71 -20 71 -60
c0 -32.667 -20 -54 -60 -64zM817.999 967.999c-240.667 -58 -418.333 -111.666 -533 -160.999c-16 -6.66699 -24 -17.334 -24 -32.001s6.66699 -27 20 -37c124 -95.333 197 -153.666 219 -174.999c80 -78.667 120 -157.334 120 -236.001c0 -126 -50.667 -213.667 -152 -263
c-86 -42 -228.333 -63 -427 -63h-69v233h46c132.667 0 211 1 235 3c119.333 10 179 37.667 179 83c0 34.667 -51.333 89 -154 163c-115.333 83.333 -184.333 146 -207 188c-12.667 23.333 -19 54 -19 92c0 80.667 28.333 138.667 85 174c128 79.333 331 151.333 609 216
c14.667 3.33301 30 5 46 5c76 0 114 -31.667 114 -95c0 -49.333 -29.333 -81 -88 -95z" />
    <glyph glyph-name="uFB95" unicode="&#x6af;" horiz-adv-x="1047" arabic-form="medial" 
d="M739 1250c-253.333 -63.333 -456.667 -132.334 -610 -207.001c-26.667 -12.667 -48.667 -14 -66 -4c-15.333 9.33301 -23 24.666 -23 45.999c0 32.667 16 57.334 48 74.001c157.333 82.667 361.333 153.334 612 212.001c8.66699 2 18 3 28 3c47.333 0 71 -20 71 -60
c0 -32.667 -20 -54 -60 -64zM1073 0.999023l-67 0.000976562c-164.667 0 -302.667 78 -414 234c-25.333 -102 -91.666 -169.333 -198.999 -202c-70 -21.333 -190.667 -32 -362 -32h-60v233h86c134 0 211.333 1 232 3c95.333 9.33301 143 37 143 83
c0 34.667 -51.333 89 -154 163c-115.333 83.333 -184.333 146 -207 188c-12.667 23.333 -19 54 -19 92c0 80.667 28.333 138.667 85 174c128 79.333 331 151.333 609 216c14.667 3.33301 30 5 46 5c76 0 114 -31.667 114 -95c0 -49.333 -29.333 -81 -88 -95
c-240.667 -58 -418.334 -111.667 -533.001 -161c-16 -6.66699 -24 -17.334 -24 -32.001c0 -14 6.66699 -26.333 20 -37c54 -33.333 143.667 -100 269 -200l189 -188c80 -77.333 164.333 -116 253 -116h81v-233z" />
    <glyph glyph-name="uFE94" unicode="&#x6c0;" horiz-adv-x="904" arabic-form="final" 
d="M935 1l-71.9971 -0.000976562c-184.667 0 -283.334 85.667 -296.001 257c-37.333 -20 -82.333 -30 -135 -30c-62.667 0 -119.667 13.333 -171 40c-63.333 32.667 -95 77.667 -95 135c0 98.667 46 178.667 138 240l218 141c23.333 19.333 50.666 53 81.999 101
c19.333 29.333 42.333 44 69 44c54.667 0 82 -39 82 -117c0 -32 -3.5 -80.167 -10.5 -144.5s-10.5 -112.5 -10.5 -144.5c0 -81.333 5.33301 -141.666 16 -180.999c19.333 -72 58.666 -108 117.999 -108h67v-233zM560.003 608.999c-18.667 -16 -62 -43.001 -130 -81.001
c-45.333 -25.333 -68 -49.666 -68 -72.999c0 -22.667 27 -34 81 -34c50.667 0 88 6.33301 112 19c-0.666992 14 -1 29 -1 45c0 36 2 77.333 6 124zM635.003 1098l-337.996 -108c-10.667 -3.33301 -20.334 -5 -29.001 -5c-30 0 -45 13 -45 39
c0 25.333 16.333 44.666 49 57.999l57 23c-36 32.667 -54 71.334 -54 116.001c0 52 18.167 94.833 54.5 128.5s80.5 50.5 132.5 50.5c27.333 0 53.333 -6 78 -18c31.333 -14.667 47 -34 47 -58c0 -24.667 -11.333 -37 -34 -37c-10.667 0 -26.834 2.16699 -48.501 6.5
s-37.834 6.5 -48.501 6.5c-50.667 0 -76 -21.667 -76 -65c0 -49.333 38 -74 114 -74c6 0 45.667 10.667 119 32c11.333 3.33301 21.666 5 30.999 5c35.333 0 53 -13.333 53 -40s-20.667 -46.667 -62 -60z" />
    <glyph glyph-name="uFEF2" unicode="&#x6cc;" horiz-adv-x="1276" arabic-form="final" 
d="M1305 1l-315 0.000976562c-69.333 0 -104 -5 -104 -15c0 -8.66699 25.333 -18.334 76 -29.001c90 -19.333 136.667 -29.666 140 -30.999c57.333 -24 86 -66 86 -126c0 -88.667 -54 -178 -162 -268c-118 -98.667 -251.333 -148 -400 -148c-309.333 0 -464 153 -464 459
c0 76 8.66699 142.333 26 199c24.667 80 64 120 118 120s81 -29.667 81 -89c0 -20.667 -4.66699 -51.167 -14 -91.5s-14 -70.833 -14 -91.5c0 -101.333 17.333 -172 52 -212c42 -48.667 120.667 -73 236 -73c94.667 0 177 18.333 247 55c60.667 32 91 62.333 91 91
c0 8.66699 -24 16 -72 22c-62 7.33301 -106.667 17.666 -134 30.999c-47.333 22.667 -71 59.667 -71 111c0 104.667 46.667 186 140 244c80 50 175.333 75 286 75h171v-233z" />
    <glyph glyph-name="uFEF3" unicode="&#x6cc;" horiz-adv-x="535" arabic-form="initial" 
d="M405 363c0 -112 -31.333 -200.333 -94 -265s-149.667 -97 -261 -97h-79v233h92c99.333 0 149 34.667 149 104c0 20 -4.83301 49 -14.5 87s-14.5 67 -14.5 87c0 27.333 8.83301 50.833 26.5 70.5s40.167 29.5 67.5 29.5c85.333 0 128 -83 128 -249zM529 -313
c0 -32 -11.166 -59.332 -33.499 -81.999s-49.5 -34 -81.5 -34s-59 11.333 -81 34s-33 50 -33 82c0 31.333 11.167 58.166 33.5 80.499s49.166 33.5 80.499 33.5c32 0 59.167 -11 81.5 -33s33.5 -49 33.5 -81zM250.001 -312.999c0 -32 -10.999 -59.334 -32.999 -82.001
s-49 -34 -81 -34s-59.167 11.333 -81.5 34s-33.5 50 -33.5 82s11.167 59 33.5 81s49.5 33 81.5 33c31.333 0 58.166 -11.167 80.499 -33.5s33.5 -49.166 33.5 -80.499z" />
    <glyph glyph-name="uFEF4" unicode="&#x6cc;" horiz-adv-x="573" arabic-form="medial" 
d="M602 1h-67.002c-132 0 -214.667 40.667 -248 122c-50 -81.333 -132 -122 -246 -122h-70v233h72c96.667 0 152.334 44.333 167.001 133c10 63.333 38.333 95 85 95s74 -31.667 82 -95c10.667 -88.667 63.334 -133 158.001 -133h67v-233zM537.998 -313
c0 -32 -11 -59.333 -33 -82s-49 -34 -81 -34s-59 11.333 -81 34s-33 50 -33 82s11 59 33 81s49 33 81 33s59 -11 81 -33s33 -49 33 -81zM259.998 -313c0 -32 -11.166 -59.332 -33.499 -81.999s-49.5 -34 -81.5 -34s-59 11.333 -81 34s-33 50 -33 82
c0 31.333 11.167 58.166 33.5 80.499s49.166 33.5 80.499 33.5c32 0 59.167 -11 81.5 -33s33.5 -49 33.5 -81z" />
    <glyph glyph-name="Hcircumflex" unicode="&#x622;" horiz-adv-x="770" arabic-form="final" 
d="M800 1h-66.999c-132.667 0 -221.334 46.667 -266.001 140c-28 58 -44.667 165.667 -50 323l-22 635c-1.33301 36 6 66.333 22 91c18 28.667 44.333 43 79 43c68 0 102 -44.667 102 -134v-672c0 -128.667 52.333 -193 157 -193h45v-233zM839.001 1547
c0 -59.333 -24.6699 -108.333 -74.0029 -147c-45.333 -36 -98.666 -54 -159.999 -54c-27.333 0 -68.666 2 -123.999 6s-96.666 6 -123.999 6c-50 0 -87.333 -10.333 -112 -31c-7.33301 -6 -20.666 -24.667 -39.999 -56c-12.667 -20 -29.334 -30 -50.001 -30
c-26 0 -39 13 -39 39c0 61.333 20.167 111.833 60.5 151.5s91.5 59.5 153.5 59.5c29.333 0 73.5 -2.16699 132.5 -6.5s103.167 -6.5 132.5 -6.5c43.333 0 87.5 18 132.5 54s70.833 54 77.5 54c22.667 0 34 -13 34 -39z" />
    <glyph glyph-name="uFE84" unicode="&#x623;" horiz-adv-x="659" arabic-form="final" 
d="M689 1l-67 -0.000976562c-132.667 0 -221.334 46.667 -266.001 140c-27.333 56.667 -43.666 164.334 -48.999 323.001l-22 635c-1.33301 36 6 66.333 22 91c18 28.667 44.333 43 79 43c67.333 0 101 -44.667 101 -134v-672c0 -128.667 52.333 -193 157 -193h45v-233z
M550 1385l-337.998 -108c-10.667 -3.33301 -20 -5 -28 -5c-30 0 -45 12.667 -45 38c0 26 16 45.333 48 58l57 23c-36 33.333 -54 72.333 -54 117c0 52 18 94.667 54 128s80.333 50 133 50c28 0 54.333 -5.66699 79 -17c31.333 -14 47 -33.333 47 -58s-11.667 -37 -35 -37
c-10.667 0 -26.834 2 -48.501 6s-37.834 6 -48.501 6c-50.667 0 -76 -21.667 -76 -65c0 -48.667 38.333 -73 115 -73c4.66699 0 44.334 10.667 119.001 32c9.33301 2.66699 19.666 4 30.999 4c34.667 0 52 -13.333 52 -40c0 -26 -20.667 -45.667 -62 -59z" />
    <glyph glyph-name="uFE86" unicode="&#x624;" horiz-adv-x="923" arabic-form="final" 
d="M952 1l-162.999 -0.00292969c-66.667 -226.667 -242.334 -395.667 -527.001 -507c-17.333 -6.66699 -34 -10 -50 -10c-26.667 0 -48.667 8.66699 -66 26s-26 39.333 -26 66c0 46.667 25.333 81.334 76 104.001c209.333 92.667 343 201 401 325
c-108.667 0 -187 12.667 -235 38c-66 34.667 -99 100.334 -99 197.001c0 76 22.667 148 68 216c50 74.667 109 112 177 112c82.667 0 151.667 -36 207 -108c48.667 -63.333 77 -138.666 85 -225.999h152v-233zM604.001 219.997c-2 33.333 -12.334 64 -31.001 92
c-21.333 32.667 -47.666 49 -78.999 49c-19.333 0 -36 -6.83301 -50 -20.5s-21 -30.167 -21 -49.5c0 -35.333 24 -57.333 72 -66c18.667 -3.33301 55 -5 109 -5zM637 852.997l-336.994 -108c-10.667 -3.33301 -20.334 -5 -29.001 -5c-30 0 -45 13 -45 39
c0 25.333 16.333 44.666 49 57.999l57 23c-36 32.667 -54 71.334 -54 116.001c0 51.333 18.167 94 54.5 128s80.166 51 131.499 51c27.333 0 53.666 -6 78.999 -18c31.333 -14.667 47 -34 47 -58c0 -24.667 -11.333 -37 -34 -37c-10.667 0 -26.834 2.16699 -48.501 6.5
s-37.834 6.5 -48.501 6.5c-50.667 0 -76 -22 -76 -66c0 -48.667 38 -73 114 -73c6 0 45.667 10.667 119 32c11.333 3.33301 21.666 5 30.999 5c35.333 0 53 -13.333 53 -40s-21 -46.667 -63 -60z" />
    <glyph glyph-name="uFE88" unicode="&#x625;" horiz-adv-x="698" arabic-form="final" 
d="M728 1h-67c-132 0 -220.667 46.667 -266 140c-28 57.333 -44.667 165 -50 323l-22 635c-1.33301 36 6 66.333 22 91c18 28.667 44.333 43 79 43c68 0 102 -44.667 102 -134v-672c0 -128.667 52.333 -193 157 -193h45v-233zM655 -460l-337.995 -106.999
c-10.667 -3.33301 -20.334 -5 -29.001 -5c-30 0 -45 12.667 -45 38s16.333 44.666 49 57.999l57 23c-36 33.333 -54 72 -54 116c0 52 18 94.833 54 128.5s80.333 50.5 133 50.5c27.333 0 53.666 -6 78.999 -18c31.333 -14.667 47 -34 47 -58s-11.667 -36 -35 -36
c-10.667 0 -26.834 2 -48.501 6s-37.834 6 -48.501 6c-50.667 0 -76 -21.667 -76 -65c0 -48.667 38 -73 114 -73c5.33301 0 45.333 10.667 120 32c9.33301 2.66699 19.666 4 30.999 4c34.667 0 52 -13.333 52 -40s-20.667 -46.667 -62 -60z" />
    <glyph glyph-name="uFE8A" unicode="&#x626;" horiz-adv-x="1276" arabic-form="final" 
d="M1305 1l-315 0.000976562c-69.333 0 -104 -5 -104 -15c0 -8.66699 25.333 -18.334 76 -29.001c90 -19.333 136.667 -29.666 140 -30.999c57.333 -24 86 -66 86 -126c0 -88.667 -54 -178 -162 -268c-118 -98.667 -251.333 -148 -400 -148c-309.333 0 -464 153 -464 459
c0 76 8.66699 142.333 26 199c24.667 80 64 120 118 120s81 -29.667 81 -89c0 -20.667 -4.66699 -51.167 -14 -91.5s-14 -70.833 -14 -91.5c0 -101.333 17.333 -172 52 -212c42 -48.667 120.667 -73 236 -73c94.667 0 177 18.333 247 55c60.667 32 91 62.333 91 91
c0 8.66699 -24 16 -72 22c-62 7.33301 -106.667 17.666 -134 30.999c-47.333 22.667 -71 59.667 -71 111c0 104.667 46.667 186 140 244c80 50 175.333 75 286 75h171v-233zM590 391.001l-336.995 -106.999c-10.667 -3.33301 -20.334 -5 -29.001 -5c-30 0 -45 12.667 -45 38
s16.333 44.666 49 57.999l57 23c-36 33.333 -54 72 -54 116c0 52 18 94.833 54 128.5s80 50.5 132 50.5c27.333 0 53.666 -6 78.999 -18c31.333 -14.667 47 -34 47 -58s-11.333 -36 -34 -36c-10.667 0 -26.834 2 -48.501 6s-37.834 6 -48.501 6
c-50.667 0 -76 -21.667 -76 -65c0 -48.667 38 -73 114 -73c13.333 0 35 5 65 15c33.333 11.333 55.666 18 66.999 20c4 0.666992 10 1 18 1c35.333 0 53 -13.333 53 -40s-21 -46.667 -63 -60z" />
    <glyph glyph-name="uFE8B" unicode="&#x626;" horiz-adv-x="457" arabic-form="initial" 
d="M405 363c0 -112 -31.333 -200.333 -94 -265s-149.667 -97 -261 -97h-79v233h92c99.333 0 149 34.667 149 104c0 20 -4.83301 49 -14.5 87s-14.5 67 -14.5 87c0 27.333 8.83301 50.833 26.5 70.5s40.167 29.5 67.5 29.5c85.333 0 128 -83 128 -249zM436 894
l-337.996 -106.999c-10.667 -3.33301 -20.334 -5 -29.001 -5c-30 0 -45 12.667 -45 38s16.333 44.666 49 57.999l57 23c-36 33.333 -54 72 -54 116c0 50.667 18.167 93.167 54.5 127.5s80.166 51.5 131.499 51.5c27.333 0 53.666 -6 78.999 -18
c31.333 -14.667 47 -34 47 -58s-11.333 -36 -34 -36c-10.667 0 -26.834 2 -48.501 6s-37.834 6 -48.501 6c-50.667 0 -76 -21.667 -76 -65c0 -48.667 38 -73 114 -73c6.66699 0 46.334 10.333 119.001 31c12 3.33301 22.333 5 31 5c35.333 0 53 -13.333 53 -40
s-20.667 -46.667 -62 -60z" />
    <glyph glyph-name="uFE8C" unicode="&#x626;" horiz-adv-x="573" arabic-form="medial" 
d="M602 1h-67.002c-132 0 -214.667 40.667 -248 122c-50 -81.333 -132 -122 -246 -122h-70v233h72c96.667 0 152.334 44.333 167.001 133c10 63.333 38.333 95 85 95s74 -31.667 82 -95c10.667 -88.667 63.334 -133 158.001 -133h67v-233zM461.998 767l-337.997 -106.999
c-10.667 -3.33301 -20.334 -5 -29.001 -5c-30 0 -45 12.667 -45 38s16.333 44.666 49 57.999l57 23c-36 33.333 -54 72 -54 116c0 52 18 94.833 54 128.5s80 50.5 132 50.5c27.333 0 53.666 -6 78.999 -18c31.333 -14.667 47 -34 47 -58s-11.333 -36 -34 -36
c-10.667 0 -26.834 2 -48.501 6s-37.834 6 -48.501 6c-50.667 0 -76 -21.667 -76 -65c0 -48.667 38 -73 114 -73c6.66699 0 46.334 10.333 119.001 31c12 3.33301 22.333 5 31 5c35.333 0 53 -13.333 53 -40s-20.667 -46.667 -62 -60z" />
    <glyph glyph-name="uFE8E" unicode="&#x627;" horiz-adv-x="540" arabic-form="final" 
d="M569 1h-67c-133.333 0 -222 46.667 -266 140c-26.667 57.333 -43 165 -49 323l-23 635c-1.33301 36 6 66.333 22 91c18 28.667 44.333 43 79 43c68 0 102 -44.667 102 -134v-672c0 -128.667 52.333 -193 157 -193h45v-233z" />
    <glyph glyph-name="uFE90" unicode="&#x628;" horiz-adv-x="1727" arabic-form="final" 
d="M1756 1h-68.998c-112.667 0 -188.334 40.667 -227.001 122c-90 -118.667 -324.667 -178 -704 -178c-394.667 0 -592 115.667 -592 347c0 60 8.66699 118 26 174c24.667 79.333 60 119 106 119c48.667 0 73 -24.333 73 -73c0 -16.667 -3.5 -41.167 -10.5 -73.5
s-10.5 -56.833 -10.5 -73.5c0 -56 21.667 -97.667 65 -125c64 -40 182 -60 354 -60h123c253.333 0 409.666 37.333 468.999 112c8 10 26 47 54 111c17.333 39.333 41.333 59 72 59c34 0 57 -14.667 69 -44c2 -9.33301 7 -34.333 15 -75c14 -72.667 65.667 -109 155 -109h32
v-233zM943.002 -360c0 -31.333 -11.168 -58.333 -33.501 -81s-49.166 -34 -80.499 -34c-32 0 -59.167 11.167 -81.5 33.5s-33.5 49.5 -33.5 81.5s11.167 59.167 33.5 81.5s49.5 33.5 81.5 33.5s59 -11.167 81 -33.5s33 -49.5 33 -81.5z" />
    <glyph glyph-name="uFE91" unicode="&#x628;" horiz-adv-x="412" arabic-form="initial" 
d="M405 363c0 -112 -31.333 -200.333 -94 -265s-149.667 -97 -261 -97h-79v233h92c99.333 0 149 34.667 149 104c0 20 -4.83301 49 -14.5 87s-14.5 67 -14.5 87c0 27.333 8.83301 50.833 26.5 70.5s40.167 29.5 67.5 29.5c85.333 0 128 -83 128 -249zM309 -321
c0 -32 -11.166 -59.332 -33.499 -81.999s-49.5 -34 -81.5 -34s-59 11.333 -81 34s-33 50 -33 82c0 31.333 11.167 58.166 33.5 80.499s49.166 33.5 80.499 33.5c32 0 59.167 -11 81.5 -33s33.5 -49 33.5 -81z" />
    <glyph glyph-name="uFE92" unicode="&#x628;" horiz-adv-x="573" arabic-form="medial" 
d="M602 1h-67.002c-132 0 -214.667 40.667 -248 122c-50 -81.333 -132 -122 -246 -122h-70v233h72c96.667 0 152.334 44.333 167.001 133c10 63.333 38.333 95 85 95s74 -31.667 82 -95c10.667 -88.667 63.334 -133 158.001 -133h67v-233zM365.998 -321
c0 -32 -11 -59.333 -33 -82s-49 -34 -81 -34s-59.167 11.333 -81.5 34s-33.5 50 -33.5 82s11.167 59 33.5 81s49.5 33 81.5 33s59 -11 81 -33s33 -49 33 -81z" />
    <glyph glyph-name="uFE96" unicode="&#x62a;" horiz-adv-x="1727" arabic-form="final" 
d="M1756 1h-68.998c-112.667 0 -188.334 40.667 -227.001 122c-90 -118.667 -324.667 -178 -704 -178c-394.667 0 -592 115.667 -592 347c0 60 8.66699 118 26 174c24.667 79.333 60 119 106 119c48.667 0 73 -24.333 73 -73c0 -16.667 -3.5 -41.167 -10.5 -73.5
s-10.5 -56.833 -10.5 -73.5c0 -56 21.667 -97.667 65 -125c64 -40 182 -60 354 -60h123c253.333 0 409.666 37.333 468.999 112c8 10 26 47 54 111c17.333 39.333 41.333 59 72 59c34 0 57 -14.667 69 -44c2 -9.33301 7 -34.333 15 -75c14 -72.667 65.667 -109 155 -109h32
v-233zM1113 806c0 -32 -11 -59.333 -33 -82s-49 -34 -81 -34s-59 11.333 -81 34s-33 50 -33 82s11 59 33 81s49 33 81 33s59 -11 81 -33s33 -49 33 -81zM835.002 806c0 -32 -11.166 -59.332 -33.499 -81.999s-49.5 -34 -81.5 -34s-59 11.333 -81 34s-33 50 -33 82
c0 31.333 11.167 58.166 33.5 80.499s49.166 33.5 80.499 33.5c32 0 59.167 -11 81.5 -33s33.5 -49 33.5 -81z" />
    <glyph glyph-name="uFE97" unicode="&#x62a;" horiz-adv-x="525" arabic-form="initial" 
d="M405 363c0 -112 -31.333 -200.333 -94 -265s-149.667 -97 -261 -97h-79v233h92c99.333 0 149 34.667 149 104c0 20 -4.83301 49 -14.5 87s-14.5 67 -14.5 87c0 27.333 8.83301 50.833 26.5 70.5s40.167 29.5 67.5 29.5c85.333 0 128 -83 128 -249zM519 854
c0 -32 -10.999 -59.334 -32.999 -82.001s-49 -34 -81 -34s-59.167 11.333 -81.5 34s-33.5 50 -33.5 82s11.167 59 33.5 81s49.5 33 81.5 33c31.333 0 58.166 -11.167 80.499 -33.5s33.5 -49.166 33.5 -80.499zM240.001 853.999c0 -32 -11 -59.333 -33 -82s-49 -34 -81 -34
s-59 11.333 -81 34s-33 50 -33 82s11 59 33 81s49 33 81 33s59 -11 81 -33s33 -49 33 -81z" />
    <glyph glyph-name="uFE98" unicode="&#x62a;" horiz-adv-x="573" arabic-form="medial" 
d="M602 1h-67.002c-132 0 -214.667 40.667 -248 122c-50 -81.333 -132 -122 -246 -122h-70v233h72c96.667 0 152.334 44.333 167.001 133c10 63.333 38.333 95 85 95s74 -31.667 82 -95c10.667 -88.667 63.334 -133 158.001 -133h67v-233zM536.998 738
c0 -32 -11.168 -59.167 -33.501 -81.5s-49.5 -33.5 -81.5 -33.5c-31.333 0 -58.166 11.333 -80.499 34s-33.5 49.667 -33.5 81c0 32 11 59.167 33 81.5s49 33.5 81 33.5s59.167 -11.167 81.5 -33.5s33.5 -49.5 33.5 -81.5zM257.997 738c0 -32 -11.168 -59.167 -33.501 -81.5
s-49.5 -33.5 -81.5 -33.5c-31.333 0 -58.166 11.333 -80.499 34s-33.5 49.667 -33.5 81c0 32 11 59.167 33 81.5s49 33.5 81 33.5s59.167 -11.167 81.5 -33.5s33.5 -49.5 33.5 -81.5z" />
    <glyph glyph-name="uFE9A" unicode="&#x62b;" horiz-adv-x="1727" arabic-form="final" 
d="M1756 1h-68.998c-112.667 0 -188.334 40.667 -227.001 122c-90 -118.667 -324.667 -178 -704 -178c-394.667 0 -592 115.667 -592 347c0 60 8.66699 118 26 174c24.667 79.333 60 119 106 119c48.667 0 73 -24.333 73 -73c0 -16.667 -3.5 -41.167 -10.5 -73.5
s-10.5 -56.833 -10.5 -73.5c0 -56 21.667 -97.667 65 -125c64 -40 182 -60 354 -60h123c253.333 0 409.666 37.333 468.999 112c8 10 26 47 54 111c17.333 39.333 41.333 59 72 59c34 0 57 -14.667 69 -44c2 -9.33301 7 -34.333 15 -75c14 -72.667 65.667 -109 155 -109h32
v-233zM635.002 687c0 31.333 11.168 58.333 33.501 81s49.166 34 80.499 34c32 0 59 -11.167 81 -33.5s33 -49.5 33 -81.5s-11 -59.167 -33 -81.5s-49 -33.5 -81 -33.5s-59 11.167 -81 33.5s-33 49.5 -33 81.5zM913.003 687c0 32 11.168 59.167 33.501 81.5
s49.5 33.5 81.5 33.5c31.333 0 58.166 -11.333 80.499 -34s33.5 -49.667 33.5 -81c0 -32 -11 -59.167 -33 -81.5s-49 -33.5 -81 -33.5s-59.167 11.167 -81.5 33.5s-33.5 49.5 -33.5 81.5zM774.004 930c0 31.333 11.168 58.333 33.501 81s49.166 34 80.499 34
c32 0 59.167 -11.167 81.5 -33.5s33.5 -49.5 33.5 -81.5s-11.167 -59.167 -33.5 -81.5s-49.5 -33.5 -81.5 -33.5s-59 11.167 -81 33.5s-33 49.5 -33 81.5z" />
    <glyph glyph-name="uFE9B" unicode="&#x62b;" horiz-adv-x="519" arabic-form="initial" 
d="M405 363c0 -112 -31.333 -200.333 -94 -265s-149.667 -97 -261 -97h-79v233h92c99.333 0 149 34.667 149 104c0 20 -4.83301 49 -14.5 87s-14.5 67 -14.5 87c0 27.333 8.83301 50.833 26.5 70.5s40.167 29.5 67.5 29.5c85.333 0 128 -83 128 -249zM12 848
c0 32 11.167 59.167 33.5 81.5s49.5 33.5 81.5 33.5s59 -11.167 81 -33.5s33 -49.5 33 -81.5s-11 -59 -33 -81s-49 -33 -81 -33s-59.167 11 -81.5 33s-33.5 49 -33.5 81zM291 848c0 32 11.167 59.167 33.5 81.5s49.5 33.5 81.5 33.5s59 -11.167 81 -33.5s33 -49.5 33 -81.5
s-11 -59 -33 -81s-49 -33 -81 -33s-59.167 11 -81.5 33s-33.5 49 -33.5 81zM152 1091c0 32 10.999 59.334 32.999 82.001s49 34 81 34s59.167 -11.333 81.5 -34s33.5 -50 33.5 -82s-11.167 -59 -33.5 -81s-49.5 -33 -81.5 -33c-31.333 0 -58.166 11.167 -80.499 33.5
s-33.5 49.166 -33.5 80.499z" />
    <glyph glyph-name="uFE9C" unicode="&#x62b;" horiz-adv-x="573" arabic-form="medial" 
d="M602 1h-67.002c-132 0 -214.667 40.667 -248 122c-50 -81.333 -132 -122 -246 -122h-70v233h72c96.667 0 152.334 44.333 167.001 133c10 63.333 38.333 95 85 95s74 -31.667 82 -95c10.667 -88.667 63.334 -133 158.001 -133h67v-233zM34.998 735
c0 31.333 11.168 58.333 33.501 81s49.166 34 80.499 34c32 0 59 -11.167 81 -33.5s33 -49.5 33 -81.5s-11 -59.167 -33 -81.5s-49 -33.5 -81 -33.5s-59 11.167 -81 33.5s-33 49.5 -33 81.5zM312.999 735c0 32 11.168 59.167 33.501 81.5s49.5 33.5 81.5 33.5
c31.333 0 58.166 -11.333 80.499 -34s33.5 -49.667 33.5 -81c0 -32 -11 -59.167 -33 -81.5s-49 -33.5 -81 -33.5s-59.167 11.167 -81.5 33.5s-33.5 49.5 -33.5 81.5zM174 978c0 32 11 59.167 33 81.5s49 33.5 81 33.5s59.167 -11.167 81.5 -33.5s33.5 -49.5 33.5 -81.5
s-11.167 -59.167 -33.5 -81.5s-49.5 -33.5 -81.5 -33.5s-59 11.167 -81 33.5s-33 49.5 -33 81.5z" />
    <glyph glyph-name="uFE9E" unicode="&#x62c;" horiz-adv-x="1274" arabic-form="final" 
d="M889 -185c0 -31.333 -11.168 -58.333 -33.501 -81s-49.166 -34 -80.499 -34c-32 0 -59 11.167 -81 33.5s-33 49.5 -33 81.5s11 59.167 33 81.5s49 33.5 81 33.5s59 -11.167 81 -33.5s33 -49.5 33 -81.5zM1304 1l-241 -0.00195312c-78 0 -137 30.333 -177 91
c-34 51.333 -51.333 118 -52 200c-112.667 -44 -211 -101.333 -295 -172c-109.333 -92 -164 -186.333 -164 -283c0 -139.333 46.667 -235.666 140 -288.999c70.667 -40.667 183 -61 337 -61c50.667 0 147.667 13 291 39c7.33301 1.33301 16 2 26 2
c28.667 0 52.834 -9.16699 72.501 -27.5s29.5 -41.833 29.5 -70.5c0 -54 -30.667 -91.333 -92 -112c-127.333 -42.667 -247.333 -64 -360 -64c-436.667 0 -655 179.333 -655 538c0 138 56.333 266 169 384c90.667 94.667 200.667 169 330 223
c-109.333 8.66699 -176 13 -200 13c-32.667 0 -70 -14.333 -112 -43s-66 -43 -72 -43c-61.333 0 -92 28.667 -92 86c0 44.667 23 92.667 69 144c52 58.667 111.333 88 178 88c53.333 0 133 -7.5 239 -22.5s185.667 -22.5 239 -22.5c38 0 77 1 117 3
c38.667 2 71.667 -6.33301 99 -25c30.667 -20.667 46 -49.667 46 -87c0 -73.333 -45.333 -119.666 -136 -138.999c-22 -4.66699 -48 -12 -78 -22c11.333 -63.333 56.666 -95 135.999 -95h208v-233z" />
    <glyph glyph-name="uFE9F" unicode="&#x62c;" horiz-adv-x="1053" arabic-form="initial" 
d="M962 309c-112 -28 -233.002 -78.001 -363.002 -150.001c-113.333 -62.667 -185 -99.667 -215 -111c-84 -31.333 -189.667 -47 -317 -47h-96v233h142c96.667 0 179.334 11.667 248.001 35c16 5.33301 113.667 46.333 293 123c-178.667 55.333 -286 83 -322 83
c-15.333 0 -39.833 -10 -73.5 -30s-59.5 -30 -77.5 -30c-52.667 0 -79 29 -79 87c0 46.667 25.333 91.667 76 135s99.667 65 147 65c58.667 0 149.334 -21.667 272.001 -65c142 -50 261 -80.333 357 -91c66.667 -7.33301 100 -47.666 100 -120.999
c0 -62 -30.667 -100.667 -92 -116zM783.998 -271.001c0 -32 -11.166 -59.332 -33.499 -81.999s-49.5 -34 -81.5 -34s-59 11.333 -81 34s-33 50 -33 82c0 31.333 11.167 58.166 33.5 80.499s49.166 33.5 80.499 33.5c32 0 59.167 -11 81.5 -33s33.5 -49 33.5 -81z" />
    <glyph glyph-name="uFEA0" unicode="&#x62c;" horiz-adv-x="1202" arabic-form="medial" 
d="M1233 1h-227.001c-156 0 -235.667 97 -239 291c-38.667 -22 -98.667 -64.333 -180 -127c-70 -54 -129 -92 -177 -114c-72 -33.333 -151 -50 -237 -50h-202v233h171c106 0 197 20.667 273 62l204 111c-144 28.667 -234 43 -270 43c-21.333 0 -48 -10 -80 -30
s-55.667 -30 -71 -30c-52.667 0 -79 29 -79 87c0 47.333 25 92.666 75 135.999s99 65 147 65c72 0 178.333 -16.833 319 -50.5s247.334 -50.5 320.001 -50.5s109 -32.333 109 -97c0 -62.667 -22.667 -98.667 -68 -108c-34 -7.33301 -80 -20.666 -138 -39.999
c15.333 -65.333 67.333 -98 156 -98h194v-233zM783.999 -271c0 -32 -11.166 -59.332 -33.499 -81.999s-49.5 -34 -81.5 -34s-59 11.333 -81 34s-33 50 -33 82c0 31.333 11.167 58.166 33.5 80.499s49.166 33.5 80.499 33.5c32 0 59.167 -11 81.5 -33s33.5 -49 33.5 -81z" />
    <glyph glyph-name="uFEA2" unicode="&#x62d;" horiz-adv-x="1275" arabic-form="final" 
d="M1304 1l-241 -0.00195312c-78 0 -137 30.333 -177 91c-34 51.333 -51.333 118 -52 200c-112.667 -44 -211 -101.333 -295 -172c-109.333 -92 -164 -186.333 -164 -283c0 -139.333 46.667 -235.666 140 -288.999c70.667 -40.667 183 -61 337 -61
c50.667 0 147.667 13 291 39c7.33301 1.33301 16 2 26 2c28.667 0 52.834 -9.16699 72.501 -27.5s29.5 -41.833 29.5 -70.5c0 -54 -30.667 -91.333 -92 -112c-127.333 -42.667 -247.333 -64 -360 -64c-436.667 0 -655 179.333 -655 538c0 138 56.333 266 169 384
c90.667 94.667 200.667 169 330 223c-109.333 8.66699 -176 13 -200 13c-32.667 0 -70 -14.333 -112 -43s-66 -43 -72 -43c-61.333 0 -92 28.667 -92 86c0 44.667 23 92.667 69 144c52 58.667 111.333 88 178 88c53.333 0 133 -7.5 239 -22.5s185.667 -22.5 239 -22.5
c38 0 77 1 117 3c38.667 2 71.667 -6.33301 99 -25c30.667 -20.667 46 -49.667 46 -87c0 -73.333 -45.333 -119.666 -136 -138.999c-22 -4.66699 -48 -12 -78 -22c11.333 -63.333 56.666 -95 135.999 -95h208v-233z" />
    <glyph glyph-name="uFEA3" unicode="&#x62d;" horiz-adv-x="1053" arabic-form="initial" 
d="M962 309c-112 -28 -233.002 -78.001 -363.002 -150.001c-113.333 -62.667 -185 -99.667 -215 -111c-84 -31.333 -189.667 -47 -317 -47h-96v233h142c96.667 0 179.334 11.667 248.001 35c16 5.33301 113.667 46.333 293 123c-178.667 55.333 -286 83 -322 83
c-15.333 0 -39.833 -10 -73.5 -30s-59.5 -30 -77.5 -30c-52.667 0 -79 29 -79 87c0 46.667 25.333 91.667 76 135s99.667 65 147 65c58.667 0 149.334 -21.667 272.001 -65c142 -50 261 -80.333 357 -91c66.667 -7.33301 100 -47.666 100 -120.999
c0 -62 -30.667 -100.667 -92 -116z" />
    <glyph glyph-name="uFEA4" unicode="&#x62d;" horiz-adv-x="1204" arabic-form="medial" 
d="M1233 1h-227.001c-156 0 -235.667 97 -239 291c-38.667 -22 -98.667 -64.333 -180 -127c-70 -54 -129 -92 -177 -114c-72 -33.333 -151 -50 -237 -50h-202v233h171c106 0 197 20.667 273 62l204 111c-144 28.667 -234 43 -270 43c-21.333 0 -48 -10 -80 -30
s-55.667 -30 -71 -30c-52.667 0 -79 29 -79 87c0 47.333 25 92.666 75 135.999s99 65 147 65c72 0 178.333 -16.833 319 -50.5s247.334 -50.5 320.001 -50.5s109 -32.333 109 -97c0 -62.667 -22.667 -98.667 -68 -108c-34 -7.33301 -80 -20.666 -138 -39.999
c15.333 -65.333 67.333 -98 156 -98h194v-233z" />
    <glyph glyph-name="uFEA6" unicode="&#x62e;" horiz-adv-x="1274" arabic-form="final" 
d="M1304 1l-241 -0.00195312c-78 0 -137 30.333 -177 91c-34 51.333 -51.333 118 -52 200c-112.667 -44 -211 -101.333 -295 -172c-109.333 -92 -164 -186.333 -164 -283c0 -139.333 46.667 -235.666 140 -288.999c70.667 -40.667 183 -61 337 -61
c50.667 0 147.667 13 291 39c7.33301 1.33301 16 2 26 2c28.667 0 52.834 -9.16699 72.501 -27.5s29.5 -41.833 29.5 -70.5c0 -54 -30.667 -91.333 -92 -112c-127.333 -42.667 -247.333 -64 -360 -64c-436.667 0 -655 179.333 -655 538c0 138 56.333 266 169 384
c90.667 94.667 200.667 169 330 223c-109.333 8.66699 -176 13 -200 13c-32.667 0 -70 -14.333 -112 -43s-66 -43 -72 -43c-61.333 0 -92 28.667 -92 86c0 44.667 23 92.667 69 144c52 58.667 111.333 88 178 88c53.333 0 133 -7.5 239 -22.5s185.667 -22.5 239 -22.5
c38 0 77 1 117 3c38.667 2 71.667 -6.33301 99 -25c30.667 -20.667 46 -49.667 46 -87c0 -73.333 -45.333 -119.666 -136 -138.999c-22 -4.66699 -48 -12 -78 -22c11.333 -63.333 56.666 -95 135.999 -95h208v-233zM782 962.998c0 -32 -11.168 -59.167 -33.501 -81.5
s-49.5 -33.5 -81.5 -33.5c-31.333 0 -58.166 11.333 -80.499 34s-33.5 49.667 -33.5 81c0 32 11 59.167 33 81.5s49 33.5 81 33.5s59.167 -11.167 81.5 -33.5s33.5 -49.5 33.5 -81.5z" />
    <glyph glyph-name="uFEA7" unicode="&#x62e;" horiz-adv-x="1054" arabic-form="initial" 
d="M962 309c-112 -28 -233.002 -78.001 -363.002 -150.001c-113.333 -62.667 -185 -99.667 -215 -111c-84 -31.333 -189.667 -47 -317 -47h-96v233h142c96.667 0 179.334 11.667 248.001 35c16 5.33301 113.667 46.333 293 123c-178.667 55.333 -286 83 -322 83
c-15.333 0 -39.833 -10 -73.5 -30s-59.5 -30 -77.5 -30c-52.667 0 -79 29 -79 87c0 46.667 25.333 91.667 76 135s99.667 65 147 65c58.667 0 149.334 -21.667 272.001 -65c142 -50 261 -80.333 357 -91c66.667 -7.33301 100 -47.666 100 -120.999
c0 -62 -30.667 -100.667 -92 -116zM665.998 1012c0 -32 -10.999 -59.334 -32.999 -82.001s-49 -34 -81 -34s-59.167 11.333 -81.5 34s-33.5 50 -33.5 82s11.167 59 33.5 81s49.5 33 81.5 33c31.333 0 58.166 -11.167 80.499 -33.5s33.5 -49.166 33.5 -80.499z" />
    <glyph glyph-name="uFEA8" unicode="&#x62e;" horiz-adv-x="1202" arabic-form="medial" 
d="M1233 1h-227.001c-156 0 -235.667 97 -239 291c-38.667 -22 -98.667 -64.333 -180 -127c-70 -54 -129 -92 -177 -114c-72 -33.333 -151 -50 -237 -50h-202v233h171c106 0 197 20.667 273 62l204 111c-144 28.667 -234 43 -270 43c-21.333 0 -48 -10 -80 -30
s-55.667 -30 -71 -30c-52.667 0 -79 29 -79 87c0 47.333 25 92.666 75 135.999s99 65 147 65c72 0 178.333 -16.833 319 -50.5s247.334 -50.5 320.001 -50.5s109 -32.333 109 -97c0 -62.667 -22.667 -98.667 -68 -108c-34 -7.33301 -80 -20.666 -138 -39.999
c15.333 -65.333 67.333 -98 156 -98h194v-233zM665.999 1012c0 -32 -10.999 -59.334 -32.999 -82.001s-49 -34 -81 -34s-59.167 11.333 -81.5 34s-33.5 50 -33.5 82s11.167 59 33.5 81s49.5 33 81.5 33c31.333 0 58.166 -11.167 80.499 -33.5s33.5 -49.166 33.5 -80.499z
" />
    <glyph glyph-name="uFEAA" unicode="&#x62f;" horiz-adv-x="1073" arabic-form="final" 
d="M1103 1h-67c-112 0 -187 29.333 -225 88c-40 -66 -130.667 -114 -272 -144c-72 -15.333 -134 -23 -186 -23c-117.333 0 -179.333 38.333 -186 115c-6 63.333 38.667 98 134 104c258 16.667 381 60 369 130c-6 36.667 -26.667 81.667 -62 135l-94 146
c-34 54 -51 100.333 -51 139c0 64.667 32.667 97 98 97c10.667 0 21 -1.33301 31 -4c45.333 -12.667 129 -138 251 -376c31.333 -62 58 -103.667 80 -125c33.333 -32.667 78 -49 134 -49h46v-233z" />
    <glyph glyph-name="uFEAC" unicode="&#x630;" horiz-adv-x="1073" arabic-form="final" 
d="M1103 1h-67c-112 0 -187 29.333 -225 88c-40 -66 -130.667 -114 -272 -144c-72 -15.333 -134 -23 -186 -23c-117.333 0 -179.333 38.333 -186 115c-6 63.333 38.667 98 134 104c258 16.667 381 60 369 130c-6 36.667 -26.667 81.667 -62 135l-94 146
c-34 54 -51 100.333 -51 139c0 64.667 32.667 97 98 97c10.667 0 21 -1.33301 31 -4c45.333 -12.667 129 -138 251 -376c31.333 -62 58 -103.667 80 -125c33.333 -32.667 78 -49 134 -49h46v-233zM553 1033c0 -32 -11.166 -59.332 -33.499 -81.999s-49.5 -34 -81.5 -34
s-59 11.333 -81 34s-33 50 -33 82c0 31.333 11.167 58.166 33.5 80.499s49.166 33.5 80.499 33.5c32 0 59.167 -11 81.5 -33s33.5 -49 33.5 -81z" />
    <glyph glyph-name="uFEAE" unicode="&#x631;" horiz-adv-x="1046" arabic-form="final" 
d="M1075 1l-67.001 -0.000976562c-72 0 -128 23.333 -168 70c-47.333 -126 -120 -231.667 -218 -317c-82.667 -72 -194 -137 -334 -195c-20.667 -8.66699 -40 -13 -58 -13c-26 0 -48.167 8.16699 -66.5 24.5s-27.5 37.5 -27.5 63.5c0 47.333 28 84 84 110
c118.667 55.333 209 107 271 155c95.333 73.333 154 156.333 176 249c2.66699 11.333 4 24.333 4 39c0 52.667 -10.667 109.667 -32 171c-4 11.333 -6 23 -6 35c0 28 9.33301 51.667 28 71s42 30 70 32c42 3.33301 75.333 -21 100 -73
c1.33301 -3.33301 20 -43.666 56 -120.999c32.667 -45.333 85.334 -68 158.001 -68h30v-233z" />
    <glyph glyph-name="uFEB0" unicode="&#x632;" horiz-adv-x="1046" arabic-form="final" 
d="M765 769c0 -31.333 -11.168 -58.333 -33.501 -81s-49.166 -34 -80.499 -34c-32 0 -59 11.167 -81 33.5s-33 49.5 -33 81.5s11 59.167 33 81.5s49 33.5 81 33.5s59 -11.167 81 -33.5s33 -49.5 33 -81.5zM1075 1l-67.001 -0.000976562c-72 0 -128 23.333 -168 70
c-47.333 -126 -120 -231.667 -218 -317c-82.667 -72 -194 -137 -334 -195c-20.667 -8.66699 -40 -13 -58 -13c-26 0 -48.167 8.16699 -66.5 24.5s-27.5 37.5 -27.5 63.5c0 47.333 28 84 84 110c118.667 55.333 209 107 271 155c95.333 73.333 154 156.333 176 249
c2.66699 11.333 4 24.333 4 39c0 52.667 -10.667 109.667 -32 171c-4 11.333 -6 23 -6 35c0 28 9.33301 51.667 28 71s42 30 70 32c42 3.33301 75.333 -21 100 -73c1.33301 -3.33301 20 -43.666 56 -120.999c32.667 -45.333 85.334 -68 158.001 -68h30v-233z" />
    <glyph glyph-name="uFEB2" unicode="&#x633;" horiz-adv-x="2177" arabic-form="final" 
d="M2207 1l-58.001 0.00195312c-93.333 0 -160.666 37 -201.999 111c-37.333 -74 -106.333 -111 -207 -111c-102 0 -172.333 40 -211 120c-35.333 -80 -94.333 -120 -177 -120c-63.333 0 -110 10.667 -140 32c0 -172.667 -43 -313.334 -129 -422.001
c-100 -126 -246.333 -189 -439 -189c-170 0 -297 56 -381 168c-66 88 -99 196 -99 324c0 195.333 45.333 293 136 293c49.333 0 74 -29 74 -87c0 -20 -3 -49.667 -9 -89s-9 -69 -9 -89c0 -92.667 28.333 -164 85 -214c54 -48 128 -72 222 -72c116 0 206 30 270 90
c66.667 62 100 150.333 100 265c0 35.333 -13.5 86 -40.5 152s-40.5 111 -40.5 135c0 68 34 102 102 102c26.667 0 51.334 -14.333 74.001 -43c35.333 -44.667 58.333 -71.334 69 -80.001c35.333 -28.667 81.666 -43 138.999 -43c60.667 0 97.667 39.333 111 118
c10.667 64.667 39.667 97 87 97c48 0 76.333 -32.333 85 -97c10.667 -78.667 50 -118 118 -118c73.333 0 115.333 40 126 120c8.66699 60.667 35.334 91 80.001 91c48.667 0 78.667 -33 90 -99c7.33301 -43.333 20.833 -72.833 40.499 -88.5
c19.667 -15.667 51.834 -23.5 96.5 -23.5h37v-233z" />
    </font>
</defs>
</svg>
