<?xml version="1.0" standalone="no"?>
<!DOCTYPE svg PUBLIC "-//W3C//DTD SVG 1.1//EN" "http://www.w3.org/Graphics/SVG/1.1/DTD/svg11.dtd" >
<svg>
<metadata>
Created by FontForge 20090914 at Wed Oct 19 01:33:32 2011
 By www-data
(c) by Abolfazl Seilsepour - +98 912 591 3420  -  seilsepor@yahoo.com
</metadata>
<defs>
<font id="FarKourosh" horiz-adv-x="0" >
  <font-face 
    font-family="Far.Kourosh"
    font-weight="400"
    font-stretch="normal"
    units-per-em="2048"
    panose-1="0 0 4 0 0 0 0 0 0 0"
    ascent="1638"
    descent="-410"
    bbox="-211 -886 1631 1894"
    underline-thickness="100"
    underline-position="-650"
    unicode-range="U+0020-U+FEFC"
  />
<missing-glyph horiz-adv-x="1024" 
d="M128 0v1464h768v-1464h-768zM256 128h512v1208h-512v-1208z" />
    <glyph glyph-name="uE818" unicode="&#x651;&#x64b;" 
d="M304 1521c2 -31.333 -4.00098 -58.667 -18.001 -82c-12.667 -20 -30 -30 -52 -30c-14 0 -28 4.66699 -42 14c-2.66699 -15.333 -11.167 -28.833 -25.5 -40.5s-29.166 -17.5 -44.499 -17.5c-36.667 0 -55 24 -55 72c0 14 2.66699 29 8 45l7 23l15 3
c0 -50 8.66699 -75 26 -75c28 0 48.333 36.333 61 109l12 4c9.33301 -44 22 -66 38 -66c30 0 45 33 45 99l16 6l7 -35zM288.999 1828c0 -29.333 -7.66699 -48.333 -23 -57l-203 -115c0 28 14.667 50.333 44 67zM288.999 1731c0 -29.333 -7.66699 -48.667 -23 -58l-203 -115
c0 28 14.667 50.667 44 68z" />
    <glyph glyph-name="uFC5E" unicode="&#x651;&#x64c;" arabic-form="isolated" 
d="M285 1518c2 -31.333 -4.00098 -58.667 -18.001 -82c-12.667 -20 -30 -30 -52 -30c-14 0 -28 4.66699 -42 14c-2.66699 -15.333 -11.167 -28.833 -25.5 -40.5s-29.166 -17.5 -44.499 -17.5c-36.667 0 -55 24 -55 72c0 14 2.66699 29 8 45l7 23l15 3
c0 -50 8.66699 -75 26 -75c28 0 48.333 36.333 61 109l12 4c9.33301 -44 22 -66 38 -66c30 0 45 33 45 99l16 6l7 -35zM269.999 1684l-1.99805 -39l-29 17l-32 22c-54 -56 -107.667 -88.333 -161 -97c19.333 40 29 69 29 87c0 24.667 -11 37 -33 37
c-18.667 0 -29.334 -17 -32.001 -51l-6 20l-1 14c0 49.333 18.667 74 56 74c31.333 0 46.333 -22.333 45 -67l-1 -19l-3 -42c26 9.33301 53.667 29.333 83 60c-17.333 11.333 -29 21.833 -35 31.5s-9 20.167 -9 31.5c0 21.333 8.16699 43 24.5 65s35.166 33 56.499 33
c11.333 0 21.833 -6 31.5 -18s14.5 -23.667 14.5 -35c0 -14.667 -2.66699 -28 -8 -40l-14 -37c18 -13.333 26.667 -29 26 -47zM219.001 1781c1.33301 23.333 -8 35 -28 35c-9.33301 0 -15 -5 -17 -15c0 -9.33301 5.66699 -19 17 -29l25 -17l2 12z" />
    <glyph glyph-name="uFC5F" unicode="&#x651;&#x64d;" arabic-form="isolated" 
d="M286 1770c2 -31.333 -4.00098 -58.667 -18.001 -82c-12.667 -20 -30 -30 -52 -30c-14 0 -28 4.66699 -42 14c-2.66699 -15.333 -11.167 -28.833 -25.5 -40.5s-29.166 -17.5 -44.499 -17.5c-36.667 0 -55 24 -55 72c0 14 2.66699 29 8 45l7 23l15 3
c0 -50 8.66699 -75 26 -75c28 0 48.333 36.333 61 109l12 4c9.33301 -44 22 -66 38 -66c30 0 45 33 45 99l16 6l7 -35zM285.999 1770c2 -31.333 -4.00098 -58.667 -18.001 -82c-12.667 -20 -30 -30 -52 -30c-14 0 -28 4.66699 -42 14
c-2.66699 -15.333 -11.167 -28.833 -25.5 -40.5s-29.166 -17.5 -44.499 -17.5c-36.667 0 -55 24 -55 72c0 14 2.66699 29 8 45l7 23l15 3c0 -50 8.66699 -75 26 -75c28 0 48.333 36.333 61 109l12 4c9.33301 -44 22 -66 38 -66c30 0 45 33 45 99l16 6l7 -35zM289.998 1641
c0 -29.333 -7.66699 -48.333 -23 -57l-203 -115c0 28 14.667 50.333 44 67zM289.998 1543c0 -29.333 -7.66699 -48.667 -23 -58l-203 -115c0 28 14.667 50.667 44 68z" />
    <glyph glyph-name="uFC60" unicode="&#x651;&#x64e;" arabic-form="isolated" 
d="M304 1547c2 -31.333 -4.00098 -58.667 -18.001 -82c-12.667 -20 -30 -30 -52 -30c-14 0 -28 4.66699 -42 14c-2.66699 -15.333 -11.167 -28.833 -25.5 -40.5s-29.166 -17.5 -44.499 -17.5c-36.667 0 -55 24 -55 72c0 14 2.66699 29 8 45l7 23l15 3
c0 -50 8.66699 -75 26 -75c28 0 48.333 36.333 61 109l12 4c9.33301 -44 22 -66 38 -66c30 0 45 33 45 99l16 6l7 -35zM292.999 1770c0 -29.333 -7.66699 -48.667 -23 -58l-203 -115c0 28 14.667 50.667 44 68z" />
    <glyph glyph-name="uFC61" unicode="&#x651;&#x64f;" arabic-form="isolated" 
d="M295 1540c2 -31.333 -4.00098 -58.667 -18.001 -82c-12.667 -20 -30 -30 -52 -30c-14 0 -28 4.66699 -42 14c-2.66699 -15.333 -11.167 -28.833 -25.5 -40.5s-29.166 -17.5 -44.499 -17.5c-36.667 0 -55 24 -55 72c0 14 2.66699 29 8 45l7 23l15 3
c0 -50 8.66699 -75 26 -75c28 0 48.333 36.333 61 109l12 4c9.33301 -44 22 -66 38 -66c30 0 45 33 45 99l16 6l7 -35zM251.999 1737l-4.99805 -66.002l-25 15l-29 19c-53.333 -64 -97.333 -96 -132 -96c-6.66699 0 -14.334 1 -23.001 3l-16 5c28.667 16 51.667 30 69 42
c14.667 10.667 39 31.667 73 63c-26.667 20.667 -40 40.667 -40 60c0 20.667 8 45.334 24 74.001c14 25.333 31.667 38 53 38c30.667 0 46 -19.667 46 -59c0 -21.333 -7 -47.333 -21 -78l16 -13c5.33301 -3.33301 8.66602 -5.66602 9.99902 -6.99902zM205.001 1796
c0 27.333 -11.667 40.999 -35 40.999c-2.66699 -0.666992 -5.16699 -2 -7.5 -4s-3.83301 -5.33301 -4.5 -10c0 -13.333 14.333 -30 43 -50c2.66699 8.66699 4 16.334 4 23.001z" />
    <glyph glyph-name="uFC62" unicode="&#x651;&#x650;" arabic-form="isolated" 
d="M304 1652c2 -31.333 -4.00098 -58.667 -18.001 -82c-12.667 -20 -30 -30 -52 -30c-14 0 -28 4.66699 -42 14c-2.66699 -15.333 -11.167 -28.833 -25.5 -40.5s-29.166 -17.5 -44.499 -17.5c-36.667 0 -55 24 -55 72c0 14 2.66699 29 8 45l7 23l15 3
c0 -50 8.66699 -75 26 -75c28 0 48.333 36.333 61 109l12 4c9.33301 -44 22 -66 38 -66c30 0 45 33 45 99l16 6l7 -35zM318.999 1520c0 -29.333 -7.66699 -48.333 -23 -57l-203 -115c0 28 14.667 50.333 44 67z" />
    <glyph glyph-name="uFDF2" unicode="&#xfedf;&#xfee0;&#xfeea;" horiz-adv-x="1457" arabic-form="isolated" 
d="M520 290l-244 158l168 44l75 143zM1129 361c-18 0 -34 9.66699 -48 29c-14 14.667 -21 34 -21 58v614l-137 -156v-478c-1.33301 -10 -6.33301 -24.333 -15 -43c-14 -16 -32.667 -24 -56 -24h277zM689 361c-5.33301 0 -10.3311 1.6709 -14.998 5.00391
c-2 1.33301 -6 5.33301 -12 12c-19.333 16.667 -29 47 -29 91v407l-122 -90v-78c-16.667 -2.66699 -32 -6.33398 -46 -11.001c-36.667 -11.333 -57.334 -17.666 -62.001 -18.999c-6.66699 0 -26 -8.66699 -58 -26c-91.333 -50.667 -143.333 -91.334 -156 -122.001l-128 -303
l381 -277l101 246c0 -42.667 17.667 -88.334 53 -137.001c24 -33.333 56.667 -52.333 98 -57l152 -2c46 -0.666992 82 16.666 108 51.999s40.667 74.333 44 117l15 -50c10 -34 20.667 -62 32 -84c9.33301 -18.667 24 -30.334 44 -35.001h84c37.333 0 73.666 30 108.999 90
c30 52 45 91.667 45 119v468l72 77l-46 310l-145 -147v-556h-519zM1091 1275c2 -31.333 -4.00098 -58.667 -18.001 -82c-12.667 -20 -30 -30 -52 -30c-14 0 -28 4.66699 -42 14c-2.66699 -15.333 -11.167 -28.833 -25.5 -40.5s-29.166 -17.5 -44.499 -17.5
c-36.667 0 -55 24 -55 72c0 14 2.66699 29 8 45l7 23l15 3c0 -50 8.66699 -75 26 -75c28 0 48.333 36.333 61 109l12 4c9.33301 -44 22 -66 38 -66c30 0 45 33 45 99l16 6l7 -35z" />
    <glyph glyph-name="uFEF5" unicode="&#xfedf;&#xfe82;" horiz-adv-x="759" arabic-form="isolated" 
d="M413 572c-10 -43.333 -40 -94.001 -90 -152.001c-36 -42 -88 -63 -156 -63h-15v-280c0 -8 1 -15.333 3 -22l10 -20c17.333 -24.667 40.666 -37 69.999 -37l12 2h360v318c0 44.667 -5.33301 85.334 -16 122.001c-8 27.333 -14.5 47.833 -19.5 61.5s-13.5 32.5 -25.5 56.5
l-9 17c10 35.333 20.667 88.666 32 159.999c0.666992 16.667 1 54 1 112l44 37l-42 222l-122 -128c13.333 -62.667 20 -145 20 -247c0 -16 -1.33301 -32.333 -4 -49l-6 7c-39.333 60.667 -77 111 -113 151l-88 93c-24 24.667 -49.333 49.334 -76 74.001l-95 78l-16 14
l-43 -140c-4 -14.667 -5.66699 -26.334 -5 -35.001c0 -6 0.666992 -12.333 2 -19c8 -35.333 34 -71.666 78 -108.999c28 -23.333 49 -44.333 63 -63l13 -16l35 69l7 -7c7.33301 -6 29.333 -27.833 66 -65.5s76.334 -83.167 119.001 -136.5zM509 388.999
c4 -17.333 6 -30.334 6 -39.001h-147c30 16.667 51.333 34.334 64 53.001c12 16 20.667 29 26 39c6.66699 12.667 12 26.667 16 42l3 -7c14 -22 24.667 -51.333 32 -88zM371 1200c-50 -56.667 -112.667 -84.998 -188 -84.998c-16 0 -38.333 3.66699 -67 11
c-59.333 15.333 -96 23 -110 23c-10 0 -20.667 -1.66699 -32 -5c-8 -2.66699 -18 -7.33398 -30 -14.001l-13 9c16.667 29.333 28.667 47.666 36 54.999c17.333 18.667 37.333 28 60 28c25.333 0 62.5 -6.5 111.5 -19.5s86.167 -19.5 111.5 -19.5c16 0 35 3 57 9l54 18z" />
    <glyph glyph-name="uFEF6" unicode="&#xfee0;&#xfe82;" horiz-adv-x="844" arabic-form="final" 
d="M527 310c-13.333 92 -47.668 203.333 -103.001 334c-18 42.667 -31 69.667 -39 81c-63.333 94.667 -116 166.667 -158 216c-44.667 52 -85.667 91 -123 117l-16 11l-108 -264l191 -246l40 103c40 -47.333 70.333 -86.333 91 -117c28 -40 67.667 -114.333 119 -223
c15.333 -32.667 28.333 -64.334 39 -95.001c-30 -44 -52 -75 -66 -93c-34.667 -44 -85.667 -98.667 -153 -164l-95 -88c-35.333 -30 -73 -59 -113 -87l33 6c20.667 2 52 5.33301 94 10c138.667 16.667 241.334 54 308.001 112c46.667 40.667 82 83.667 106 129
c19.333 36.667 38.333 89.667 57 159l15 57c0 -5.33301 -0.666992 -13 -2 -23s-2 -17.667 -2 -23c0 -45.333 19 -96.666 57 -153.999c8.66699 -14 23.667 -28.667 45 -44c23.333 -18 42 -26.667 56 -26l45 1l1 363l-26 -1c-27.333 -1.33301 -53 5.66699 -77 21
c-20 13.333 -32 31.333 -36 54l-2 67c-2.66699 46.667 -4 73.334 -4 80.001v468l-112 -150v-342c0 -16.667 -1.33301 -33 -4 -49c0 -4 -5.33301 -30 -16 -78c-8 -34.667 -22 -75.334 -42 -122.001zM338.998 1200c-50.667 -56.667 -113.668 -84.999 -189.001 -84.999
c-3.33301 0 -48.666 9.33301 -135.999 28c-19.333 4 -32.666 6 -39.999 6c-10.667 0 -21.334 -1.66699 -32.001 -5c-8 -2.66699 -18.333 -7.33398 -31 -14.001l-13 9c15.333 26.667 27.333 45 36 55c17.333 18.667 37.333 28 60 28c25.333 0 62.5 -6.5 111.5 -19.5
s86.167 -19.5 111.5 -19.5c17.333 0 36.333 3 57 9c13.333 3.33301 31.333 9.33301 54 18z" />
    <glyph glyph-name="uFEF7" unicode="&#xfedf;&#xfe84;" horiz-adv-x="844" arabic-form="isolated" 
d="M352 788c77.333 -72.667 142.003 -142.332 194.003 -208.999l4 -7c-6 -30 -16.333 -56.667 -31 -80c-7.33301 -10.667 -27 -34 -59 -70c-36.667 -42 -83.667 -63 -141 -63h-13l-16 2v-281c0 -32.667 14.667 -55.667 44 -69c12.667 -6 26.667 -9 42 -9h371v318
c0 46.667 -5.66699 88 -17 124c-7.33301 24 -15 46.167 -23 66.5s-19 42.5 -33 66.5c11.333 34.667 18.666 61 21.999 79c2.66699 10.667 5.66699 38 9 82c3.33301 29.333 5 66.666 5 111.999l44 38l-44 221l-121 -129c12 -62 18 -144.333 18 -247
c0 -11.333 -1.33301 -27 -4 -47l-3 7c-38.667 58 -76.667 107.667 -114 149l-87 93c-28.667 29.333 -54.334 54 -77.001 74l-95 78l-16 14l-42 -139c-5.33301 -17.333 -8 -31 -8 -41l2 -15c8.66699 -35.333 35 -71.333 79 -108c27.333 -22.667 48.666 -43.667 63.999 -63
l14 -16zM612.003 486.002c16.667 -26 29.999 -63.999 39.999 -113.999c1.33301 -6.66699 2 -12.667 2 -18h-148c28.667 13.333 53.334 34.666 74.001 63.999c6 9.33301 11.333 18.333 16 27c6.66699 12 12 25.667 16 41zM-107.998 735.003
c13.333 -4.66699 26.668 -6.99902 40.001 -6.99902c31.333 0 62 6.33301 92 19c46 14 69 48.333 69 103v100h-168c5.33301 33.333 24 54.666 56 63.999c7.33301 2.66699 14.666 4 21.999 4h12c4 0 8.66699 -1.33301 14 -4l18 66l-5 1c-10 5.33301 -21 8 -33 8
c-45.333 0 -81.666 -35.333 -108.999 -106c-0.666992 -3.33301 -2.83398 -10 -6.50098 -20s-5.5 -17.667 -5.5 -23v-100h170c-16.667 -19.333 -26 -30 -28 -32c-12 -12 -23.667 -21 -35 -27l-53 -27c-18 -9.33301 -35.333 -16.333 -52 -21z" />
    <glyph glyph-name="uFEF8" unicode="&#xfee0;&#xfe84;" horiz-adv-x="1096" arabic-form="final" 
d="M780 310c-12 90 -46.334 201.334 -103.001 334.001c-17.333 42 -30.333 69 -39 81l-56 83c-33.333 49.333 -67 93.666 -101 132.999c-48 56.667 -89 95.667 -123 117l-17 11l-107 -264l192 -246l40 103c42 -51.333 72 -90.333 90 -117c24.667 -36 48.667 -77.667 72 -125
l33 -68c18.667 -38.667 36.667 -80.334 54 -125.001c-27.333 -40 -49.666 -71 -66.999 -93c-63.333 -80 -146.333 -164 -249 -252c-36.667 -31.333 -74.334 -60.333 -113.001 -87l34 6c20.667 2 52 5.33301 94 10c140.667 16.667 243.667 54 309 112
c44.667 39.333 79.334 82.333 104.001 129c17.333 32 36.666 85 57.999 159l16 57c-2.66699 -10 -4 -26 -4 -48c0 -45.333 18.667 -96 56 -152c9.33301 -14 24.333 -28.667 45 -44c22.667 -17.333 41.334 -26 56.001 -26h39v359h-20c-28 0 -53.333 7.66699 -76 23
c-25.333 16.667 -38 38.667 -38 66c0 14.667 -0.5 37.334 -1.5 68.001s-1.5 53.667 -1.5 69v468l-112 -150v-342c0 -22.667 -2 -44 -6 -64l-14 -63c-8 -33.333 -22.667 -74 -44 -122zM9.99902 871.001l167 -0.000976562l-29 -33l-80 -49
c-18 -10.667 -34.333 -17.667 -49 -21l-9 -2c16.667 -4.66699 30.667 -7 42 -7c30 0 60.333 6 91 18c45.333 17.333 68 52.333 68 105v98h-168c5.33301 34 24.333 56 57 66c6.66699 2 14 3 22 3c10 0 18.667 -1 26 -3l18 63l-5 4c-10 4.66699 -21.333 7 -34 7
c-46 0 -82 -35.333 -108 -106c-7.33301 -21.333 -11 -35.666 -11 -42.999z" />
    <glyph glyph-name="uFEF9" unicode="&#xfedf;&#xfe88;" horiz-adv-x="775" arabic-form="isolated" 
d="M114 -497c11.333 -3.33301 23.666 -5.00098 36.999 -5.00098c32.667 0 64.334 5.33301 95.001 16c45.333 16 68 51 68 105v99h-168c5.33301 31.333 24.333 53 57 65c4 1.33301 11.333 2 22 2c2 0.666992 4.66699 1 8 1c2.66699 0 8.66699 -1 18 -3l17 65l-5 1
c-12.667 6.66699 -23.334 10 -32.001 10c-48 0 -86.333 -41.333 -115 -124c-2.66699 -9.33301 -4 -18.333 -4 -27v-100h166c-9.33301 -13.333 -30.333 -32.666 -63 -57.999l-51 -28c-17.333 -8.66699 -34.666 -15 -51.999 -19h2zM469 571.999
c-6 -31.333 -16.667 -58.6709 -32 -82.0039c-19.333 -30 -43 -57.667 -71 -83c-36 -33.333 -83 -50 -141 -50h-16v-280c0 -13.333 4.66699 -27.333 14 -42c15.333 -24.667 38 -37 68 -37l14 2h360v318c0 26.667 -1 47.334 -3 62.001c-2 18 -6.5 38.333 -13.5 61
s-13.833 43 -20.5 61s-14.667 36.667 -24 56l-11 17c21.333 76 32 129.333 32 160c0 12.667 0.5 31.334 1.5 56.001s1.5 43.334 1.5 56.001l44 37l-44 222l-120 -128c11.333 -62 17 -144.333 17 -247c0 -12 -1 -28.333 -3 -49l-3 7c-36.667 56.667 -74.667 107 -114 151
l-88 93c-56.667 59.333 -113.667 110 -171 152l-18 14l-40 -140c-6 -19.333 -8.66699 -31.666 -8 -36.999c-0.666992 -6.66699 0 -12.334 2 -17.001c8 -35.333 34 -71.666 78 -108.999c27.333 -23.333 49 -44.333 65 -63l13 -16l33 69l7 -7c12 -10 25 -22.333 39 -37l27 -29
c50 -52 89.667 -97.333 119 -136zM573 349.994h-149c29.333 16 51 33.667 65 53c20.667 27.333 35 54.333 43 81l3 -7c10 -16 17.333 -31 22 -45c2 -6 5.16699 -20.667 9.5 -44s6.5 -36 6.5 -38z" />
    <glyph glyph-name="uFEFA" unicode="&#xfee0;&#xfe88;" horiz-adv-x="832" arabic-form="final" 
d="M188 -662c-15.333 -8.66699 -32.001 -16.666 -50.001 -23.999c-6.66699 -2.66699 -23.667 -9 -51 -19l-15 -8c11.333 -5.33301 25.333 -8 42 -8c30.667 0 66.334 6.33301 107.001 19c48.667 14.667 73 53 73 115v79c0 14.667 -3.33301 25 -10 31
c-4 4 -13.333 5.66699 -28 5l-145 -5l2 5c12.667 51.333 42.667 75.666 90 72.999l24 -2l19 69l-5 3c-11.333 7.33301 -22 11 -32 11c-26 0 -52 -14.333 -78 -43c-22 -24 -38 -50 -48 -78c-8 -22.667 -12 -37.667 -12 -45l3 -99c0.666992 -6.66699 5 -12.667 13 -18
c2 -1.33301 4.33301 -2 7 -2l17 2l149 3c-25.333 -31.333 -49.333 -53.333 -72 -66v2zM475.999 -74.999l2.00098 -4c45.333 40 80.333 83 105 129c19.333 36.667 38.666 90.334 57.999 161.001l15 55l1 -41c2 -66 19.333 -118.333 52 -157c40 -46.667 73.667 -70 101 -70h38
v359h-18c-28.667 0 -54 7.33301 -76 22c-25.333 17.333 -38 39.666 -38 66.999c0 24 -0.333008 43 -1 57c-2.66699 43.333 -4 70 -4 80v468l-112 -150v-342c0 -24 -2 -45.333 -6 -64c-2 -10 -7 -31 -15 -63c-8 -34 -13 -54.333 -15 -61
c-6.66699 -20.667 -15.334 -40 -26.001 -58l-13 -21l-2 28c-4.66699 61.333 -16.334 119.333 -35.001 174c-16.667 47.333 -51 124.333 -103 231c-5.33301 16 -21.666 44.667 -48.999 86c-79.333 120 -154 202.333 -224 247l-17 11l-88 -209c-4.66699 -10 -7 -20.333 -7 -31
c0 -6 0.666992 -12.667 2 -20c0 -18.667 6.66699 -36 20 -52l23 -27l133 -169l40 101l10 -11c6.66699 -8 20.334 -26 41.001 -54c47.333 -64.667 85.333 -123.667 114 -177c30 -56.667 54.667 -112 74 -166l12 -25l-12 -16c-14 -20.667 -34.667 -49.667 -62 -87
c-48 -58 -109 -120 -183 -186l-147 -123l-24 -20l34 7l93 9c141.333 16.667 244.333 54 309 112z" />
    <glyph glyph-name="uFEFB" unicode="&#xfedf;&#xfe8e;" horiz-adv-x="759" arabic-form="isolated" 
d="M413 572c-10 -43.333 -40 -94.001 -90 -152.001c-36 -42 -88 -63 -156 -63h-15v-280c0 -8 1 -15.333 3 -22l10 -20c17.333 -24.667 40.666 -37 69.999 -37l12 2h360v318c0 44.667 -5.33301 85.334 -16 122.001c-8 27.333 -14.5 47.833 -19.5 61.5s-13.5 32.5 -25.5 56.5
l-9 17c10 35.333 20.667 88.666 32 159.999c0.666992 16.667 1 54 1 112l44 37l-42 222l-122 -128c13.333 -62.667 20 -145 20 -247c0 -16 -1.33301 -32.333 -4 -49l-6 7c-39.333 60.667 -77 111 -113 151l-88 93c-24 24.667 -49.333 49.334 -76 74.001l-95 78l-16 14
l-43 -140c-4 -14.667 -5.66699 -26.334 -5 -35.001c0 -6 0.666992 -12.333 2 -19c8 -35.333 34 -71.666 78 -108.999c28 -23.333 49 -44.333 63 -63l13 -16l35 69l7 -7c7.33301 -6 29.333 -27.833 66 -65.5s76.334 -83.167 119.001 -136.5zM509 388.999
c4 -17.333 6 -30.334 6 -39.001h-147c30 16.667 51.333 34.334 64 53.001c12 16 20.667 29 26 39c6.66699 12.667 12 26.667 16 42l3 -7c14 -22 24.667 -51.333 32 -88z" />
    <glyph glyph-name="uFEFC" unicode="&#xfee0;&#xfe8e;" horiz-adv-x="833" arabic-form="final" 
d="M523 310c-13.333 92 -47.6719 203.331 -103.005 333.998c-18 42.667 -30.667 69.667 -38 81c-62 92.667 -115.167 164.834 -159.5 216.501s-85.166 90.5 -122.499 116.5l-16 11l-107 -264l190 -246l40 103c40.667 -47.333 71.334 -86.333 92.001 -117
c26.667 -38 50.667 -79.667 72 -125c20.667 -42 49.334 -106.333 86.001 -193l-66 -93c-34.667 -44 -85.667 -98.667 -153 -164l-95 -88c-35.333 -30 -73 -59 -113 -87l32 6c20.667 2 52 5.33301 94 10c138.667 16.667 241.334 54 308.001 112c46.667 40 82 83 106 129
c18 34 37 87 57 159l15 57c-2.66699 -26.667 -4 -42 -4 -46c0 -44.667 19 -96 57 -154c10 -14 25 -28.667 45 -44c22.667 -17.333 41.334 -26 56.001 -26h39v363h-18c-28.667 0 -54 6.66699 -76 20c-25.333 16 -38 37.667 -38 65c0 24.667 -0.333008 43.667 -1 57
c-3.33301 46.667 -5 73.334 -5 80.001v468l-112 -150v-342c0 -25.333 -6.66699 -67.666 -20 -126.999c-7.33301 -34.667 -21.333 -75.334 -42 -122.001z" />
    <glyph glyph-name="u0652_u064E.liga" unicode="&#x652;&#x64e;" horiz-adv-x="1" 
d="M90 1070c25.333 -14 38.334 -30 39.001 -48l2 -233c-24.667 13.333 -37.334 37 -38.001 71z" />
    <glyph glyph-name="u0652_u064B.liga" unicode="&#x652;&#x64b;" horiz-adv-x="1" 
d="M244 998l229 229l116 -113l-116 -116l-229 229l-114 -113z" />
    <glyph glyph-name="u0652_u064D.liga" unicode="&#x652;&#x64d;" horiz-adv-x="1" 
d="M256 -846l229 229l115 -113l-115 -116l-229 229l-114 -113z" />
    <glyph glyph-name="u0622" unicode="&#x622;" horiz-adv-x="286" arabic-form="isolated" 
d="M371 1200c-50 -56.667 -112.667 -84.998 -188 -84.998c-16 0 -38.333 3.66699 -67 11c-59.333 15.333 -96 23 -110 23c-10 0 -20.667 -1.66699 -32 -5c-8 -2.66699 -18 -7.33398 -30 -14.001l-13 9c16.667 29.333 28.667 47.666 36 54.999c17.333 18.667 37.333 28 60 28
c25.333 0 62.5 -6.5 111.5 -19.5s86.167 -19.5 111.5 -19.5c16 0 35 3 57 9l54 18zM214 259.002c6 33.333 9 77.667 9 133v38c0 5.33301 -0.333008 13.666 -1 24.999v24v220l56 78l-45 292l-131 -154v-920c28 40.667 49.667 78.334 65 113.001c23.333 54 39 104.333 47 151z
" />
    <glyph glyph-name="u0623" unicode="&#x623;" horiz-adv-x="390" arabic-form="isolated" 
d="M124 -82l2 -2c43.333 64 78.333 144.667 105 242c9.33301 34.667 14 80.667 14 138c0 10 -0.333008 25.667 -1 47v47v63l58 79l-48 291l-130 -154v-751zM26 882h167c-12 -15.333 -33 -34.666 -63 -57.999c-8 -3.33301 -23 -11.333 -45 -24
c-18 -11.333 -34 -18.333 -48 -21l-10 -2c14.667 -4.66699 28.334 -7 41.001 -7c28.667 0 59 6 91 18c46.667 18 70 53 70 105v97h-168c5.33301 35.333 24 57.333 56 66c2.66699 1.33301 7 2.66602 13 3.99902h22c3.33301 0 7.66602 -1.33301 12.999 -4l18 64l-5 3
c-8.66699 5.33301 -19 8 -31 8c-47.333 0 -84 -35.333 -110 -106c-7.33301 -19.333 -11 -33.333 -11 -42v-101z" />
    <glyph glyph-name="u0624" unicode="&#x624;" horiz-adv-x="684" arabic-form="isolated" 
d="M486 677c-46.667 70.667 -91.332 105.999 -133.999 105.999c-18 0 -36.333 -9.33301 -55 -28c-15.333 -14.667 -27 -31.334 -35 -50.001l-106 -245c-10.667 -24.667 -16 -52 -16 -82c0 -62 22.333 -120.333 67 -175c31.333 -37.333 75.333 -56 132 -56h10
c9.33301 0 19 0.666992 29 2l106 157l4 -22c1.33301 -9.33301 2 -14.666 2 -15.999c0 -66 -24.333 -149 -73 -249c-42.667 -90.667 -103.667 -171 -183 -241c-31.333 -28 -68 -54.667 -110 -80l285 -124l7 11c80 128 132 269.333 156 424c16 102.667 24 188.334 24 257.001
c0 35.333 -2 71.333 -6 108c-12.667 117.333 -47.334 218.333 -104.001 303zM464.002 396.999l2.00098 -7c0 -15.333 -6 -22 -18 -20c-26.667 0 -58.334 19.333 -95.001 58c-39.333 41.333 -59 82 -59 122c0 12 1 21.667 3 29c5.33301 18.667 14.666 26.667 27.999 24
c24.667 0 53.334 -26 86.001 -78c29.333 -46.667 46.333 -84.667 51 -114zM9.00293 822.999h167.999c-12 -15.333 -33.667 -34.666 -65 -57.999c-6 -2.66699 -20.667 -10.667 -44 -24c-17.333 -10 -33.666 -16.667 -48.999 -20l-10 -4c9.33301 -3.33301 22.333 -5 39 -5
c30.667 0 61.667 5.33301 93 16c46.667 16 70 50.667 70 104v99h-169c6.66699 33.333 25.334 55.666 56.001 66.999c4 0.666992 8.33301 1 13 1h10c2.66699 0.666992 5.66699 1 9 1c2 0 4.83301 -0.333008 8.5 -1s6.5 -1 8.5 -1l18 64l-6 2c-11.333 6 -22.333 9 -33 9
c-42.667 0 -80.334 -41.333 -113.001 -124c-4 -8.66699 -6 -17.667 -6 -27z" />
    <glyph glyph-name="u0625" unicode="&#x625;" horiz-adv-x="304" arabic-form="isolated" 
d="M77 -271l167.002 0.000976562l-28 -34c-10.667 -11.333 -22.334 -20 -35.001 -26s-27.667 -13.833 -45 -23.5s-33.333 -15.834 -48 -18.501l-9 -5c11.333 -3.33301 24 -5 38 -5c31.333 0 62.666 5.66699 93.999 17c46 17.333 69 52 69 104v99h-168
c5.33301 32.667 24.333 54.667 57 66c6.66699 1.33301 14 2 22 2c2 0.666992 4.33301 1 7 1s9 -1 19 -3l18 64l-6 2c-16 6 -27 9 -33 9c-45.333 0 -81.333 -36 -108 -108c-7.33301 -18.667 -11 -33 -11 -43v-98zM68.002 26.001c27.333 40 48.667 78.333 64 115
c12 28 25.667 70.333 41 127c10 38 15 85.667 15 143v9v25c-0.666992 10.667 -1 19 -1 25v214l57 77l-48 292l-130 -154z" />
    <glyph glyph-name="u0626" unicode="&#x626;" horiz-adv-x="1006" arabic-form="isolated" 
d="M577 757v4.00293c-83.333 -108 -136 -203 -158 -285c-13.333 -48 -20 -102.667 -20 -164v-20l8 -14c24 -38.667 55.333 -64 94 -76c34.667 -10.667 81 -17.334 139 -20.001h14c13.333 0 33.333 1.5 60 4.5s46.334 4.5 59.001 4.5c14 0 21 -3 21 -9
c0 -2.66699 -0.666992 -4.33398 -2 -5.00098l-8 -12c-92 -138 -218.333 -207 -379 -207c-60 0 -105.333 7 -136 21c-38.667 17.333 -69.334 50.666 -92.001 99.999c-25.333 56.667 -37.666 120.334 -36.999 191.001l1 159l-73 -90l-7 -40c-20 -107.333 -30 -194 -30 -260
c0 -182 68 -303.333 204 -364c28.667 -13.333 60.667 -20 96 -20c92.667 0 199 41.333 319 124c44 29.333 77 55.333 99 78c66.667 68 110 120.667 130 158c12 22.667 18 50.334 18 83.001v14c0 -0.666992 0.666992 4.66602 2 15.999l12 164
c2.66699 31.333 -16.333 54.333 -57 69c-30 11.333 -73 17 -129 17c-8.66699 0 -24.667 1 -48 3c-90.667 8.66699 -141.334 20 -152.001 34c-8 12 -12 20 -12 24c0 21.333 16 53.666 48 96.999c26.667 36.667 51.334 65 74.001 85c39.333 34 76.666 51 111.999 51
c7.33301 0 14 -0.666992 20 -2s11.667 -3.33301 17 -6l21 -10l-32 160c-4.66699 24 -19 36 -43 36c-56 0 -107 -31 -153 -93zM97 652.003c18.667 0 40 2.33105 64 6.99805c34.667 6.66699 59.667 13 75 19c25.333 10.667 44.5 27.334 57.5 50.001s19.5 51.334 19.5 86.001
v96c0 18 -4 29.667 -12 35c-4.66699 3.33301 -9 5 -13 5l-20 -2h-173l2 3c9.33301 43.333 33.333 71 72 83c12 4 23.333 6 34 6c6.66699 0 16.667 -1.33301 30 -4l24 84l-6 3c-14.667 10.667 -31.334 16 -50.001 16c-55.333 0 -102 -48.333 -140 -145
c-3.33301 -8 -5.66602 -15 -6.99902 -21c-4 -12 -6 -24 -6 -36v-118c0 -8 5.33301 -15 16 -21l10 -2l19 2l178 2c-28 -34.667 -56.667 -59.667 -86 -75l-67 -38c-20 -10.667 -43.667 -19 -71 -25c17.333 -6.66699 34 -10 50 -10z" />
    <glyph glyph-name="u0627" unicode="&#x627;" horiz-adv-x="389" arabic-form="isolated" 
d="M102 -5c59.333 88 96.667 176.002 112 264.002c6 33.333 9 77.666 9 132.999v38c0 5.33301 -0.333008 13.666 -1 24.999v24v220l56 78l-45 292l-131 -154v-920z" />
    <glyph glyph-name="u0628" unicode="&#x628;" horiz-adv-x="1139" arabic-form="isolated" 
d="M739 -339l-136 136l-135 -136l135 -135zM327 361l0.000976562 -4.00098c-6 -1.33301 -13.667 -2 -23 -2c-58.667 0 -101.667 16.667 -129 50c-24 28.667 -40.333 68.334 -49 119.001l-9 59l-73 -77v-275c0 -9.33301 3 -25 9 -47
c15.333 -56.667 35.666 -97.667 60.999 -123c14 -14 35 -27.667 63 -41c32.667 -15.333 63.667 -23 93 -23h803v328c0 30.667 -0.333008 54 -1 70l-3 109c0 46.667 -15.333 112.667 -46 198l-97 -152l24 -97l7 -49c2 -16 3.66699 -30.333 5 -43h-635z" />
    <glyph glyph-name="u0629" unicode="&#x629;" horiz-adv-x="614" arabic-form="isolated" 
d="M528 260l-0.00195312 235c0 25.333 -20 65 -60 119c-11.333 16 -32.666 38.333 -63.999 67c-101.333 93.333 -194.666 149.666 -279.999 168.999l-50 -215l42 -23c-8 -14 -13.667 -24.167 -17 -30.5s-7.66602 -17.5 -12.999 -33.5c-32.667 -88 -49 -174.667 -49 -260
c0 -67.333 9.66699 -128.666 29 -183.999c25.333 -70.667 76.666 -106 153.999 -106c70.667 0 143.334 39 218.001 117c35.333 37.333 58.666 69.333 69.999 96zM431.998 416c-8 -28.667 -27.667 -51.667 -59 -69c-28 -16 -58.333 -24 -91 -24c-26 0 -47.667 6 -65 18
c-37.333 26 -56 66.333 -56 121c0 44.667 14 79.667 42 105zM39.998 971c19.333 0 41 2.33301 65 7c35.333 6.66699 60 13 74 19c24.667 10.667 43.667 27.5 57 50.5s20 51.5 20 85.5v96c0 18 -4 29.667 -12 35c-4 3.33301 -8.33301 5 -13 5l-20 -2h-172l1 3
c9.33301 43.333 33.333 71 72 83c11.333 4 23 6 35 6c-4 0 6 -1.33301 30 -4l23 84l-5 3c-13.333 10.667 -30 16 -50 16c-54.667 0 -101.667 -48.667 -141 -146c-2.66699 -6 -5 -12.667 -7 -20c-4 -12 -6 -24 -6 -36v-118c0 -9.33301 5.66699 -16.666 17 -21.999l8 -1l21 1
l177 2c-28 -34.667 -56.333 -59.334 -85 -74.001l-69 -38c-20 -10.667 -43.667 -19 -71 -25c16.667 -6.66699 33.667 -10 51 -10z" />
    <glyph glyph-name="u062A" unicode="&#x62a;" horiz-adv-x="1139" arabic-form="isolated" 
d="M327 361l-2 -4c-6.66699 -1.33301 -14.334 -2 -23.001 -2c-60.667 0 -103.667 16.333 -129 49s-41.666 72.667 -48.999 120l-8 59l-74 -77v-275c0 -15.333 5.66699 -39.333 17 -72c14.667 -43.333 33 -76 55 -98c42 -42.667 93.333 -64 154 -64h805v374
c0 20.667 -2 65 -6 133c-1.33301 32.667 -5.33301 62 -12 88c-8 34 -19 70.667 -33 110l-98 -152c9.33301 -30 14.333 -46.333 15 -49c14.667 -54 22 -100.667 22 -140h-634zM387 845l229 230l114 -116l-114 -114l-229 230l-116 -116z" />
    <glyph glyph-name="u062B" unicode="&#x62b;" horiz-adv-x="1139" arabic-form="isolated" 
d="M327 361l-2 -4c-6.66699 -1.33301 -14.334 -2 -23.001 -2c-60.667 0 -103.667 16.333 -129 49s-41.666 72.667 -48.999 120l-8 59l-74 -77v-275c0 -15.333 5.66699 -39.333 17 -72c14.667 -43.333 33 -76 55 -98c42 -42.667 93.333 -64 154 -64h805v374
c0 20.667 -2 65 -6 133c-1.33301 32.667 -5.33301 62 -12 88c-8 34 -19 70.667 -33 110l-98 -152c9.33301 -30 14.333 -46.333 15 -49c14.667 -54 22 -100.667 22 -140h-634zM432 656l208 206l103 -103l-103 -103l-208 206l-101 -103zM647 983l-102 102l-101 -102l101 -101z
" />
    <glyph glyph-name="u062C" unicode="&#x62c;" horiz-adv-x="926" arabic-form="isolated" 
d="M429 -583l-3.00195 4c36 -9.33301 70 -14 102 -14c38.667 0 76 7.33301 112 22c27.333 11.333 63.666 32.333 108.999 63v321l-23 -26c-37.333 -41.333 -89.333 -62 -156 -62c-118 0 -190.667 72.333 -218 217c-3.33301 19.333 -5 41 -5 65c0 59.333 16.333 114 49 164
s76.334 85 131.001 105c60.667 22.667 128.667 34 204 34c17.333 0 33.333 -1.33301 48 -4l26 -4l40 273c-90.667 0 -150 10.5 -178 31.5s-55.333 51.5 -82 91.5l-81 121c-31.333 48.667 -80.333 73 -147 73c-88 0 -137.333 -49 -148 -147l-13 -125c54 28 105 42 153 42
c50.667 0 93.334 -16 128.001 -48c26.667 -20 60.667 -51.667 102 -95l-24 -4c-83.333 -14 -166.666 -59.833 -249.999 -137.5s-139 -157.5 -167 -239.5c-24 -68.667 -36 -137.334 -36 -206.001c0 -108.667 28.333 -213 85 -313c63.333 -111.333 144 -178.666 242 -201.999z
M698.998 5l-104 103l-105 -103l105 -103z" />
    <glyph glyph-name="u062D" unicode="&#x62d;" horiz-adv-x="926" arabic-form="isolated" 
d="M427 -583l-1.00195 4c36 -9.33301 69.667 -14 101 -14c39.333 0 76.333 7.33301 111 22c26 11.333 62.333 32.333 109 63v321l-21 -26c-34 -41.333 -86 -62 -156 -62c-71.333 0 -128 30 -170 90c-36.667 53.333 -55 116.666 -55 189.999c0 62 16.667 118.167 50 168.5
s76.333 84.5 129 102.5c22.667 8 58 16 106 24c40 6.66699 73.333 10 100 10c16.667 0 32.334 -1.33301 47.001 -4l26 -4l41 273c-92 0 -151.667 10.667 -179 32c-22.667 17.333 -42.167 36.833 -58.5 58.5s-51.166 72.834 -104.499 153.501
c-31.333 48.667 -80.333 73 -147 73c-88.667 0 -138 -49 -148 -147l-13 -125c56 28 107.667 42 155 42c49.333 0 91.666 -16 126.999 -48c26 -20 59.667 -51.667 101 -95l-24 -4c-83.333 -14 -166.666 -59.833 -249.999 -137.5s-139 -157.5 -167 -239.5
c-24 -68.667 -36 -137.334 -36 -206.001c0 -108.667 28.333 -213 85 -313c63.333 -111.333 144 -178.666 242 -201.999z" />
    <glyph glyph-name="u062E" unicode="&#x62e;" horiz-adv-x="926" arabic-form="isolated" 
d="M427 -583l-1 3.99805c36 -9.33301 70 -14 102 -14c38 0 75 7.33301 111 22c28 12 64 32.667 108 62v320l-21 -26c-32 -40 -83.333 -60 -154 -60c-72 0 -129 29.667 -171 89c-37.333 52 -56 115 -56 189c0 60 16 115.167 48 165.5s75.667 85.833 131 106.5
c18 6.66699 44.333 13.667 79 21c46 9.33301 88.333 14 127 14c16.667 0 32.334 -1.33301 47.001 -4l26 -4l41 273h-24c-10.667 -0.666992 -18.667 -1 -24 -1c-58 0 -101.667 11 -131 33c-26 19.333 -51 46 -75 80l-88 131c-31.333 48 -80.333 72 -147 72
c-88.667 0 -138 -49 -148 -147l-13 -125c56 28 107.667 42 155 42c49.333 0 91.666 -16 126.999 -48c22 -19.333 44 -37.666 66 -54.999c11.333 -8.66699 23 -22 35 -40l-24 -4c-82.667 -11.333 -166.667 -57.333 -252 -138c-81.333 -76 -136.333 -155.667 -165 -239
c-24 -68.667 -36 -136.667 -36 -204c0 -108.667 28 -213 84 -313c63.333 -113.333 144.333 -180.666 243 -201.999zM379 1030l-104 105l-104 -105l104 -103z" />
    <glyph glyph-name="u062F" unicode="&#x62f;" horiz-adv-x="548" arabic-form="isolated" 
d="M327 541c29.333 -37.333 44.001 -88.668 44.001 -154.001v-19c-0.666992 -4 -1 -7 -1 -9l-343 2v-363h445v368c0 75.333 -1.33301 126 -4 152c-9.33301 106 -47 189.333 -113 250c-28.667 26.667 -71.334 40 -128.001 40c-18.667 0 -28 -2.66699 -28 -8l-19 -174
c58 -7.33301 107 -35.666 147 -84.999z" />
    <glyph glyph-name="u0630" unicode="&#x630;" horiz-adv-x="528" arabic-form="isolated" 
d="M327 541c29.333 -37.333 44.001 -88.668 44.001 -154.001v-19c-0.666992 -4 -1 -7 -1 -9l-343 2v-363h445v368c0 75.333 -1.33301 126 -4 152c-9.33301 106 -47 189.333 -113 250c-28.667 26.667 -71.334 40 -128.001 40c-18.667 0 -28 -2.66699 -28 -8l-19 -174
c58 -7.33301 107 -35.666 147 -84.999zM334.001 1006l-123 124l-123 -124l123 -118z" />
    <glyph glyph-name="u0631" unicode="&#x631;" horiz-adv-x="607" arabic-form="isolated" 
d="M24 -312l318.999 -104.002l4 7c29.333 44.667 55 90.334 77 137.001c10 22.667 21.333 51 34 85c49.333 128.667 74 243 74 343c0 96.667 -21.333 202.667 -64 318c-18.667 50.667 -58 134.334 -118 251.001l-7 8l-92 -203l103 -138c26.667 -36 40 -74 40 -114
c0 -36 -12.333 -81.667 -37 -137c-33.333 -73.333 -66.666 -136 -99.999 -188c-66 -101.333 -137.667 -185.333 -215 -252z" />
    <glyph glyph-name="u0632" unicode="&#x632;" horiz-adv-x="607" arabic-form="isolated" 
d="M24 -312l318.999 -104.002l4 7c29.333 44.667 55 90.334 77 137.001c10 22.667 21.333 51 34 85c49.333 128.667 74 243 74 343c0 96.667 -21.333 202.667 -64 318c-18.667 50.667 -58 134.334 -118 251.001l-7 8l-92 -203l103 -138c26.667 -36 40 -74 40 -114
c0 -36 -12.333 -81.667 -37 -137c-33.333 -73.333 -66.666 -136 -99.999 -188c-66 -101.333 -137.667 -185.333 -215 -252zM438.999 974.998l-119 118l-121 -118l121 -119z" />
    <glyph glyph-name="u0633" unicode="&#x633;" horiz-adv-x="1374" arabic-form="isolated" 
d="M1239 361h-143.003v232l-78 -82l-14 -85c0 -18 -10.333 -35.667 -31 -53c-13.333 -8 -36 -12 -68 -12h-140l-114 226l-92 -176c18 -24 38.333 -64.333 61 -121c20.667 -52 31 -110 31 -174c0 -83.333 -16.667 -153 -50 -209c-40.667 -67.333 -99.667 -101 -177 -101
c-27.333 0 -54.333 3.66699 -81 11c-68 18 -124.667 67.333 -170 148c-34 60 -55.667 145 -65 255l-4 55l-69 -163v-83c0 -143.333 36.333 -265 109 -365c81.333 -112 191.333 -168 330 -168c104.667 0 188.334 49 251.001 147c46 70.667 74.333 175.667 85 315l4 42h187
c15.333 0 31 9.66699 47 29c8.66699 10 15.334 22 20.001 36c0.666992 0 3.33398 8.66699 8.00098 26l5 13c-2 -5.33301 -3 -14.333 -3 -27c0 -19.333 7 -36.333 21 -51c10.667 -14 24.667 -22.667 42 -26h174v337c0 14.667 -0.333008 31.667 -1 51l-1 32
c0 48 -9.66699 110.333 -29 187l-78 -96z" />
    <glyph glyph-name="u0634" unicode="&#x634;" horiz-adv-x="1374" arabic-form="isolated" 
d="M1239 359h-143.001v232l-78 -82l-14 -85c0 -19.333 -10.333 -36.333 -31 -51c-12.667 -9.33301 -30.667 -14 -54 -14h-14l-140 2l-114 226l-92 -178c12.667 -16.667 23.334 -33.667 32.001 -51l20 -48l9 -22c20.667 -52 31 -110 31 -174c0 -82.667 -16.667 -152 -50 -208
c-40 -68 -98.333 -102 -175 -102c-25.333 0 -53 4.33301 -83 13c-68.667 19.333 -125.334 68.333 -170.001 147c-34 60 -55.667 145 -65 255l-4 56l-69 -165v-81c0 -144 36.333 -266.333 109 -367c80.667 -112 190.667 -168 330 -168c104 0 187.667 49.333 251 148
c46 71.333 74.333 176 85 314l4 42h187c14.667 0 30.667 10.333 48 31c8.66699 10 15 21.667 19 35c0.666992 3.33301 3.33398 12 8.00098 26l5 14c-2 -5.33301 -3 -15 -3 -29c0 -18 7 -35 21 -51c11.333 -13.333 25.333 -22 42 -26h174v338c0 14 -0.333008 31 -1 51l-1 31
c0 33.333 -2.66699 65 -8 95c-3.33301 18.667 -10.333 50 -21 94l-78 -98zM918.999 705l206 208l103 -103l-103 -105l-206 208l-103 -103zM1130 1006l-101 103l-103 -103l103 -101z" />
    <glyph glyph-name="u0635" unicode="&#x635;" horiz-adv-x="1639" arabic-form="isolated" 
d="M1602 -2l3.99902 381.001c0.666992 43.333 -0.666016 79 -3.99902 107c-16.667 128 -76 198 -178 210c-10.667 2 -18 3 -22 3h-9c-82 0 -168.667 -31 -260 -93c-64 -42.667 -140.667 -114.667 -230 -216l-27 -29l-131 267l-80 -158l24 -69
c26 -74.667 39 -155.334 39 -242.001c0 -233.333 -107 -350 -321 -350c-116.667 0 -194 91 -232 273c-14 69.333 -21 145.333 -21 228v44l-68 -116l-9 -40c-10.667 -49.333 -16 -97.333 -16 -144c0 -142 36.667 -266.333 110 -373c78.667 -115.333 179 -173 301 -173
c21.333 0 44.333 2.66699 69 8c145.333 28.667 242.333 134 291 316c14.667 55.333 22 105 22 149c0 4 -0.666992 9.66699 -2 17h750zM1390 495.001c44 -24.667 66 -69.333 66 -134h-427l112 83c67.333 46 126 69 176 69c26.667 0 51 -6 73 -18z" />
    <glyph glyph-name="u0636" unicode="&#x636;" horiz-adv-x="1639" arabic-form="isolated" 
d="M1604 -2l1.99902 380.999c0.666992 47.333 -0.666016 83 -3.99902 107c-15.333 128 -74.666 198 -177.999 210c-10.667 2 -18 3 -22 3h-9c-158.667 0 -322 -103 -490 -309l-25 -29l-131 267l-80 -158l22 -69c27.333 -86 41 -166.667 41 -242
c0 -233.333 -107 -350 -321 -350c-116.667 0 -194 91 -232 273c-14 69.333 -21 145.333 -21 228v44l-68 -116l-11 -40c-10.667 -42.667 -16 -90.667 -16 -144c0 -142.667 36.667 -267 110 -373c80 -115.333 181 -173 303 -173c21.333 0 44.333 2.66699 69 8
c146 28.667 243 134 291 316c17.333 64.667 24.666 114.334 21.999 149.001l-2 17h750zM1390 494.999l1 -2c44 -22.667 66 -66.667 66 -132h-427l34 24l79 59c67.333 46 125.333 69 174 69c26 0 50.333 -6 73 -18zM1067 949.999l-136 131l-135 -131l135 -134z" />
    <glyph glyph-name="u0637" unicode="&#x637;" horiz-adv-x="958" arabic-form="isolated" 
d="M136 -2h780.999v393v12v14c0.666992 42.667 -1.33301 81 -6 115c-14.667 114 -53 177 -115 189c-14 2.66699 -26.333 4 -37 4c-76.667 0 -164 -48 -262 -144c-49.333 -48 -91.666 -95.333 -126.999 -142l-33 -44v317l62 65l-50 292l-129 -152v-558l-194 2v-242
c0 -15.333 2.33301 -30.333 7 -45c16.667 -50.667 51 -76 103 -76zM785.999 427c4 -11.333 6 -26.333 6 -45v-21h-379l33 36c20 23.333 50.667 48.333 92 75c56 37.333 104 56 144 56c53.333 0 88 -33.667 104 -101z" />
    <glyph glyph-name="u0638" unicode="&#x638;" horiz-adv-x="968" arabic-form="isolated" 
d="M89 11c14 -7.33301 29.666 -11 46.999 -11h781v396v12v12c0.666992 41.333 -1.33301 79 -6 113c-14.667 114.667 -53 178 -115 190c-12 2 -21 3 -27 3h-10c-77.333 0 -164.666 -47.667 -261.999 -143c-48 -47.333 -90.333 -95 -127 -143l-33 -43v316l62 64l-50 293
l-129 -151v-558h-194v-240c0 -16 2.33301 -31.333 7 -46c9.33301 -28.667 28 -50 56 -64zM785.999 429c4 -16 5.99902 -31.667 5.99902 -47v-21h-379l33 36c20 23.333 50.667 48.333 92 75c56 37.333 104 56 144 56c52.667 0 87.334 -33 104.001 -99zM809.998 978l-136 135
l-135 -135l135 -134z" />
    <glyph glyph-name="u0639" unicode="&#x639;" horiz-adv-x="840" arabic-form="isolated" 
d="M259 -488l0.999023 -3.99902c64 -52 136 -78 216 -78c75.333 0 154 24.333 236 73v330l-28 -32c-35.333 -40.667 -81.333 -61 -138 -61c-68 0 -125.667 24 -173 72s-71 106.333 -71 175c0 72 27.667 127.333 83 166c48.667 33.333 110.334 50 185.001 50
c48 0 92 -6.66699 132 -20l36 -12l50 228h-170c-68 0 -129 23 -183 69s-84 94 -90 144l-2 11c0 30.667 27 46 81 46c30.667 0 57.334 -6.66699 80.001 -20l134 -79v198l-68 42c-34 21.333 -65 32 -93 32c-52 0 -105.667 -35 -161 -105c-22 -29.333 -46.667 -66.333 -74 -111
c-18 -30 -27 -62 -27 -96c0 -91.333 44 -167.333 132 -228l-45 -22c-30 -14.667 -61 -38.334 -93 -71.001c-58.667 -58 -96.334 -115.333 -113.001 -172c-11.333 -38.667 -17 -80.334 -17 -125.001c0 -163.333 60 -296.666 180 -399.999z" />
    <glyph glyph-name="u063A" unicode="&#x63a;" horiz-adv-x="840" arabic-form="isolated" 
d="M259 -488l1.00195 -3.99805c63.333 -53.333 135.666 -80 216.999 -80c74 0 152.333 24.667 235 74v329l-28 -32c-35.333 -40.667 -81.333 -61 -138 -61c-68.667 0 -126.5 24.167 -173.5 72.5s-70.5 107.166 -70.5 176.499c0 71.333 28 126.333 84 165
c48.667 34 110 51 184 51c47.333 0 91.333 -7 132 -21l36 -13l50 228h-170c-68.667 0 -129.834 23.167 -183.501 69.5s-83.5 94.5 -89.5 144.5l-2 11c0 30 27 45 81 45c30 0 56.667 -6.66699 80 -20l134 -78v197l-68 42c-34 21.333 -65 32 -93 32
c-53.333 0 -107 -35 -161 -105c-20 -26 -44.667 -63.333 -74 -112c-18 -28.667 -27 -60.334 -27 -95.001c0 -90 44 -165.333 132 -226l-45 -24c-36 -19.333 -67 -42.333 -93 -69c-12 -12 -32 -35 -60 -69c-46.667 -56 -70 -132.667 -70 -230c0 -164 60 -296.667 180 -398z
M658.002 1011l-112 109l-109 -109l109 -108z" />
    <glyph glyph-name="u0641" unicode="&#x641;" horiz-adv-x="1135" arabic-form="isolated" 
d="M257 0l805.005 2v405c-8.66699 91.333 -14.334 146.666 -17.001 165.999c-20.667 144.667 -64 226.667 -130 246c-2.66699 1.33301 -6.66699 2 -12 2c-36.667 0 -76 -26 -118 -78c-46.667 -58.667 -76.334 -128 -89.001 -208c-1.33301 -8.66699 -2 -16.667 -2 -24
c0 -48 29.667 -98 89 -150h-470c-74.667 0 -125.334 16 -152.001 48c-22.667 28.667 -38.334 68.334 -47.001 119.001l-10 59l-73 -78v-274c0 -16 5.66699 -40.667 17 -74c13.333 -42.667 30.666 -75 51.999 -97c42.667 -42.667 95 -64 157 -64zM860.005 579l2 2
c6.66699 4 12.667 6 18 6c29.333 -2.66699 47 -20 53 -52l38 -217l-133 161c-10 8 -15 19.333 -15 34c0 32 12.333 54 37 66zM741.005 988l-130 130l-130 -130l130 -128z" />
    <glyph glyph-name="u0642" unicode="&#x642;" horiz-adv-x="1003" arabic-form="isolated" 
d="M603 -484l3.00098 2c218 70 327 242.333 327 517c0 112.667 -25 237 -75 373c-62.667 171.333 -140 257 -232 257c-39.333 0 -73.333 -22.333 -102 -67l-139 -217c-32.667 -50.667 -49 -101.334 -49 -152.001c0 -46.667 14 -87 42 -121c22.667 -27.333 54 -53 94 -77
c51.333 -32 100 -48 146 -48c5.33301 0 16.333 1.33301 33 4l138 206c6 -18.667 9 -41 9 -67c0 -95.333 -37.5 -177.666 -112.5 -246.999s-160.5 -104 -256.5 -104c-92.667 0 -164.334 53.333 -215.001 160c-44 93.333 -65 201.666 -63 324.999l1 101l-66 -144l-14 -65
c-8.66699 -39.333 -13 -79.666 -13 -120.999c0 -136 38.667 -257.333 116 -364c82.667 -114 185 -171 307 -171c38 0 78.333 6.66699 121 20zM572.001 446c46 0 84.999 -25.001 116.999 -75.001l26 -36c13.333 -21.333 21 -42.666 23 -63.999c-22 -18 -48 -27 -78 -27
c-37.333 0 -73.666 14 -108.999 42c-22.667 19.333 -34 45 -34 77c0 55.333 18.333 83 55 83zM244 839.999l230 229l115 -116l-115 -113l-230 229l-114 -116z" />
    <glyph glyph-name="u0643" unicode="&#x643;" horiz-adv-x="1101" arabic-form="isolated" 
d="M286 2c-59.333 0 -110.667 21.3311 -154 63.998c-22.667 22 -41 55 -55 99c-10.667 32.667 -16 57 -16 73v273l72 80l10 -59c9.33301 -53.333 25 -93.333 47 -120c11.333 -13.333 33 -24.666 65 -33.999c28 -8 57.333 -12.333 88 -13l294 -10l303 6l-204 209l-30 -72
l-216 219l64 273l504 106l-41 -172l-330 -72l63 -31l-11 -40c72.667 -53.333 141.667 -122.666 207 -207.999c44 -58 74 -103.667 90 -137c4 -8.66699 14.667 -33.667 32 -75v-244c0 -29.333 -6.33301 -54.333 -19 -75c-16 -26.667 -37.333 -40 -64 -40h-699z" />
    <glyph glyph-name="u0644" unicode="&#x644;" horiz-adv-x="871" arabic-form="isolated" 
d="M759 0l-1.99902 678l66 79l-39 305l-158 -159v-779c0 -80 -14.333 -149.333 -43 -208c-23.333 -50 -55 -81 -95 -93c-32 -9.33301 -61 -14 -87 -14c-112.667 0 -188.334 78 -227.001 234c-14.667 59.333 -22 123.333 -22 192v31l-75 -93l-11 -59
c-6.66699 -39.333 -10 -78 -10 -116c0 -126 31.667 -234 95 -324c70 -98.667 161.667 -148 275 -148c96.667 0 176.667 41.667 240 125c53.333 69.333 83 161 89 275z" />
    <glyph glyph-name="u0645" unicode="&#x645;" horiz-adv-x="814" arabic-form="isolated" 
d="M539 331l3.99902 -3.99902c-63.333 38.667 -126.666 58 -189.999 58c-68 0 -126.833 -22.667 -176.5 -68s-76.834 -104 -81.501 -176c-2 -30 -3 -74 -3 -132v-600l132 87v376c0 58.667 18 100.334 54 125.001c26 18 55 27 87 27c56 0 117 -27.333 183 -82
c10.667 -10 27 -24 49 -42l18 -14l170 321l-123 161l-83 138c-77.333 125.333 -139.333 188 -186 188c-22.667 0 -42.667 -12 -60 -36c-20.667 -28.667 -36 -51.334 -46 -68.001c-17.333 -29.333 -27.666 -54.333 -30.999 -75v-4l-3 -13l15 13c12.667 10.667 29 16 49 16
c36 0 78.333 -19 127 -57c36 -28.667 60.333 -52.334 73 -71.001c13.333 -16 31.333 -42 54 -78l10 -19z" />
    <glyph glyph-name="u0646" unicode="&#x646;" horiz-adv-x="905" arabic-form="isolated" 
d="M559 -472c101.333 30 175.668 115.998 223.001 257.998c34.667 104 52 222.333 52 355c0 82 -6.66699 163.667 -20 245c-15.333 90.667 -35.333 167.334 -60 230.001l-21 53l-86 -165l15 -36c24.667 -58.667 37 -136 37 -232c0 -93.333 -15.333 -178.666 -46 -255.999
c-40.667 -104.667 -100.334 -157 -179.001 -157c-8.66699 0 -20 1.33301 -34 4c-118 22.667 -194.667 108 -230 256c-14 59.333 -21 126.333 -21 201v94l-89 -124l-9 -30c-5.33301 -16.667 -10 -42.667 -14 -78c-3.33301 -26.667 -5 -52.667 -5 -78
c0 -88 15 -172.667 45 -254c33.333 -89.333 80.333 -161 141 -215c63.333 -56.667 133.333 -85 210 -85c28 0 58.333 4.66699 91 14zM321.002 216.998l137 -140l137 136l-135 136z" />
    <glyph glyph-name="u0647" unicode="&#x647;" horiz-adv-x="601" arabic-form="isolated" 
d="M546 479c-9.33301 34 -15 53.665 -17 58.998c-17.333 44.667 -52.333 95.334 -105 152.001c-99.333 108 -191 162 -275 162h-4l-52 -217l43 -21l-6 -7c-53.333 -80 -80 -178.333 -80 -295c0 -84.667 11.333 -154 34 -208c30 -70.667 82 -106 156 -106
c72 0 146.333 41.667 223 125c36 38.667 60 73.334 72 104.001l13 33zM448 404.998c-4 -12 -20.333 -29 -49 -51c-36 -28 -69.333 -42 -100 -42c-44.667 0 -76 26.333 -94 79c-8 24.667 -12 51 -12 79c0 30.667 3.33301 56.667 10 78l8 24l240 -157z" />
    <glyph glyph-name="u0648" unicode="&#x648;" horiz-adv-x="658" arabic-form="isolated" 
d="M511 484l0.00195312 3.99805c-14 63.333 -41.667 126 -83 188c-46 70 -90 105 -132 105c-26.667 0 -52.334 -16.667 -77.001 -50c-6 -8.66699 -11.333 -17.667 -16 -27l-106 -244c-11.333 -25.333 -17 -52.666 -17 -81.999c0 -62 23 -121 69 -177
c19.333 -23.333 43.666 -38.666 72.999 -45.999c21.333 -5.33301 53.333 -8 96 -8l108 159l3 -24v-12c0 -67.333 -24 -151 -72 -251c-42 -89.333 -103 -170 -183 -242c-31.333 -28.667 -67.333 -55 -108 -79l284 -125l7 11c38.667 55.333 73.667 127 105 215
c22 60 39 129.333 51 208c16 105.333 24 190.333 24 255c0 76 -8.66699 150 -26 222zM405.002 394.998l-29 -3c-40.667 0 -75 11 -103 33c-30.667 24 -46 55.667 -46 95c0 16.667 3.66699 35.667 11 57c6 18.667 14.667 26.667 26 24c25.333 0 54 -26 86 -78
c28.667 -45.333 45.667 -83.333 51 -114z" />
    <glyph glyph-name="u0649" unicode="&#x649;" horiz-adv-x="1006" arabic-form="isolated" 
d="M577 757v4.00293c-83.333 -108 -136 -203 -158 -285c-13.333 -48 -20 -102.667 -20 -164v-20l8 -14c24 -38.667 55.333 -64 94 -76c34.667 -10.667 81 -17.334 139 -20.001h14c13.333 0 33.333 1.5 60 4.5s46.334 4.5 59.001 4.5c14 0 21 -3 21 -9
c0 -2.66699 -0.666992 -4.33398 -2 -5.00098l-8 -12c-92 -138 -218.333 -207 -379 -207c-60 0 -105.333 7 -136 21c-38.667 17.333 -69.334 50.666 -92.001 99.999c-25.333 56.667 -37.666 120.334 -36.999 191.001l1 159l-73 -90l-7 -40c-20 -107.333 -30 -194 -30 -260
c0 -182 68 -303.333 204 -364c28.667 -13.333 60.667 -20 96 -20c92.667 0 199 41.333 319 124c44 29.333 77 55.333 99 78c66.667 68 110 120.667 130 158c12 22.667 18 50.334 18 83.001v14c0 -0.666992 0.666992 4.66602 2 15.999l12 164
c2.66699 31.333 -16.333 54.333 -57 69c-30 11.333 -73 17 -129 17c-8.66699 0 -24.667 1 -48 3c-90.667 8.66699 -141.334 20 -152.001 34c-8 12 -12 20 -12 24c0 21.333 16 53.666 48 96.999c26.667 36.667 51.334 65 74.001 85c39.333 34 76.666 51 111.999 51
c7.33301 0 14 -0.666992 20 -2s11.667 -3.33301 17 -6l21 -10l-32 160c-4.66699 24 -19 36 -43 36c-56 0 -107 -31 -153 -93z" />
    <glyph glyph-name="u064A" unicode="&#x64a;" horiz-adv-x="1006" arabic-form="isolated" 
d="M577 757v4.00293c-83.333 -108 -136 -203 -158 -285c-13.333 -48 -20 -102.667 -20 -164v-20l8 -14c24 -38.667 55.333 -64 94 -76c34.667 -10.667 81 -17.334 139 -20.001h14c13.333 0 33.333 1.5 60 4.5s46.334 4.5 59.001 4.5c14 0 21 -3 21 -9
c0 -2.66699 -0.666992 -4.33398 -2 -5.00098l-8 -12c-92 -138 -218.333 -207 -379 -207c-60 0 -105.333 7 -136 21c-38.667 17.333 -69.334 50.666 -92.001 99.999c-25.333 56.667 -37.666 120.334 -36.999 191.001l1 159l-73 -90l-7 -40c-20 -107.333 -30 -194 -30 -260
c0 -182 68 -303.333 204 -364c28.667 -13.333 60.667 -20 96 -20c92.667 0 199 41.333 319 124c44 29.333 77 55.333 99 78c66.667 68 110 120.667 130 158c12 22.667 18 50.334 18 83.001v14c0 -0.666992 0.666992 4.66602 2 15.999l12 164
c2.66699 31.333 -16.333 54.333 -57 69c-30 11.333 -73 17 -129 17c-8.66699 0 -24.667 1 -48 3c-90.667 8.66699 -141.334 20 -152.001 34c-8 12 -12 20 -12 24c0 21.333 16 53.666 48 96.999c26.667 36.667 51.334 65 74.001 85c39.333 34 76.666 51 111.999 51
c7.33301 0 14 -0.666992 20 -2s11.667 -3.33301 17 -6l21 -10l-32 160c-4.66699 24 -19 36 -43 36c-56 0 -107 -31 -153 -93z" />
    <glyph glyph-name="u067E" unicode="&#x67e;" horiz-adv-x="1139" arabic-form="isolated" 
d="M327 361l-2 -4c-6.66699 -1.33301 -14.334 -2 -23.001 -2c-60.667 0 -103.667 16.333 -129 49s-41.666 72.667 -48.999 120l-8 59l-74 -77v-275c0 -15.333 5.66699 -39.333 17 -72c14.667 -43.333 33 -76 55 -98c42 -42.667 93.333 -64 154 -64h805v374
c0 20.667 -2 65 -6 133c-1.33301 32.667 -5.33301 62 -12 88c-8 34 -19 70.667 -33 110l-98 -152c9.33301 -30 14.333 -46.333 15 -49c14.667 -54 22 -100.667 22 -140h-634zM710 -107l-208 -206l-103 103l103 103l208 -206l102 103zM496 -434l102 -102l100 102l-100 101z
" />
    <glyph glyph-name="u0686" unicode="&#x686;" horiz-adv-x="926" arabic-form="isolated" 
d="M429 -583l-3.00195 4c36 -9.33301 70 -14 102 -14c38.667 0 76 7.33301 112 22c27.333 11.333 63.666 32.333 108.999 63v321l-23 -26c-37.333 -41.333 -89.333 -62 -156 -62c-118 0 -190.667 72.333 -218 217c-3.33301 19.333 -5 41 -5 65c0 59.333 16.333 114 49 164
s76.334 85 131.001 105c60.667 22.667 128.667 34 204 34c17.333 0 33.333 -1.33301 48 -4l26 -4l40 273c-90.667 0 -150 10.5 -178 31.5s-55.333 51.5 -82 91.5l-81 121c-31.333 48.667 -80.333 73 -147 73c-88 0 -137.333 -49 -148 -147l-13 -125c54 28 105 42 153 42
c50.667 0 93.334 -16 128.001 -48c26.667 -20 60.667 -51.667 102 -95l-24 -4c-83.333 -14 -166.666 -59.833 -249.999 -137.5s-139 -157.5 -167 -239.5c-24 -68.667 -36 -137.334 -36 -206.001c0 -108.667 28.333 -213 85 -313c63.333 -111.333 144 -178.666 242 -201.999z
M716.998 158l-208 -206l-103 103l103 103l208 -206l102 103zM512.998 -109l102 -102l100 102l-100 101z" />
    <glyph glyph-name="u0698" unicode="&#x698;" horiz-adv-x="607" arabic-form="isolated" 
d="M24 -312l318.999 -104.002l4 7c29.333 44.667 55 90.334 77 137.001c10 22.667 21.333 51 34 85c49.333 128.667 74 243 74 343c0 96.667 -21.333 202.667 -64 318c-18.667 50.667 -58 134.334 -118 251.001l-7 8l-92 -203l103 -138c26.667 -36 40 -74 40 -114
c0 -36 -12.333 -81.667 -37 -137c-33.333 -73.333 -66.666 -136 -99.999 -188c-66 -101.333 -137.667 -185.333 -215 -252zM234.999 859.998l205 205l103 -103l-103 -102l-205 205l-105 -103zM439.999 1153l-104 105l-106 -105l106 -104z" />
    <glyph glyph-name="u06AF" unicode="&#x6af;" horiz-adv-x="1101" arabic-form="isolated" 
d="M286 2c-59.333 0 -110.667 21.3311 -154 63.998c-22.667 22 -41 55 -55 99c-10.667 32.667 -16 57 -16 73v273l72 80l10 -59c9.33301 -53.333 25 -93.333 47 -120c11.333 -13.333 33 -24.666 65 -33.999c28 -8 57.333 -12.333 88 -13l294 -10l303 6l-204 209l-30 -72
l-216 219l64 273l504 106l-41 -172l-330 -72l63 -31l-11 -40c72.667 -53.333 141.667 -122.666 207 -207.999c44 -58 74 -103.667 90 -137c4 -8.66699 14.667 -33.667 32 -75v-244c0 -29.333 -6.33301 -54.333 -19 -75c-16 -26.667 -37.333 -40 -64 -40h-699zM976.999 1138
l25 110.999l-387 -82c-6 -21.333 -16.333 -60.666 -31 -117.999c47.333 11.333 178.333 41 393 89z" />
    <glyph glyph-name="uFB57" unicode="&#x67e;" horiz-adv-x="1139" arabic-form="final" 
d="M259 0l633 2.00098c50 0 87.333 14 112 42c13.333 15.333 23.666 34 30.999 56l3 17c0 -25.333 3.66699 -45 11 -59c18.667 -37.333 45 -56 79 -56h24v361c-6 -0.666992 -10.667 -1 -14 -1c-10.667 0 -19.667 4.66699 -27 14c-13.333 17.333 -21 43.666 -23 78.999
l-10 165l-104 -81l-35 -113c-10 -33.333 -32.667 -54 -68 -62c-11.333 -2 -23.666 -3 -36.999 -3h-518c-73.333 0 -124 16 -152 48c-24 28 -40 67.667 -48 119l-10 59l-73 -78v-274c0 -16 5.66699 -40.667 17 -74c14 -44 31.667 -76.333 53 -97
c14.667 -14 35.667 -27.667 63 -41c33.333 -15.333 64.333 -23 93 -23zM700 -106.999l-208 -206l-103 103l103 103l208 -206l102 103zM486 -433.999l102 -102l100 102l-100 101z" />
    <glyph glyph-name="uFB58" unicode="&#x67e;" horiz-adv-x="451" arabic-form="initial" 
d="M-13 0l412 0.000976562v405c0 101.333 -15 206.666 -45 315.999l-94 -163c20.667 -44.667 32.667 -82 36 -112c2.66699 -17.333 4 -33 4 -47c0 -4 -0.333008 -10.333 -1 -19v-19h-312v-361zM330 -96.999l-208 -206l-103 103l103 103l208 -206l102 103zM116 -423.999
l102 -102l100 102l-100 101z" />
    <glyph glyph-name="uFB59" unicode="&#x67e;" horiz-adv-x="484" arabic-form="medial" 
d="M-23 359l-2.00195 -359.001h228c12.667 0 24.334 4.33301 35.001 13c4 3.33301 13 13 27 29c13.333 18.667 21.333 39.334 24 62.001c0 2 0.666992 3.66699 2 5c1.33301 0 3.33301 -8 6 -24s4.33398 -24.667 5.00098 -26c20 -39.333 43 -59 69 -59h134v361h-11
c-20.667 0 -42.334 2.33301 -65.001 7c-26 5.33301 -42.667 12 -50 20s-13 25 -17 51c-3.33301 19.333 -5 37 -5 53v170l-87 -85l-32 -117c-7.33301 -24 -16.666 -43.667 -27.999 -59c-24.667 -28 -50.667 -42 -78 -42h-155zM359.998 -97.001l-208 -206l-103 103l103 103
l208 -206l102 103zM145.998 -424.001l102 -102l100 102l-100 101z" />
    <glyph glyph-name="uFB7B" unicode="&#x686;" horiz-adv-x="834" arabic-form="final" 
d="M843 -2l-0.00390625 364.999h-153l37 212c-91.333 0 -151 10.833 -179 32.5s-55 51.834 -81 90.501l-81 121c-32 48.667 -80.667 73 -146 73c-89.333 0 -139 -49 -149 -147l-13 -125l20 11c54.667 30.667 99.334 46 134.001 46c27.333 0 53 -8 77 -24l115 -94
c12 -8.66699 24 -22 36 -40l-24 -4c-85.333 -14.667 -169.166 -60.167 -251.499 -136.5s-138.166 -155.833 -167.499 -238.5c-22.667 -66 -34 -134.667 -34 -206c0 -108.667 28 -213 84 -313c63.333 -112 144 -179.333 242 -202c40.667 -9.33301 77.667 -14 111 -14
c38.667 0 74.167 6 106.5 18s59.166 27 80.499 45l24 21v320l-21 -26c-32.667 -40.667 -84.667 -61 -156 -61c-65.333 0 -118.666 25.667 -159.999 77c-36.667 45.333 -58 102.333 -64 171c-0.666992 10 -1 20.667 -1 32c0 60 16.333 115 49 165s76.334 85.333 131.001 106
c52.667 19.333 102 29 148 29h13l114 -304h159zM562.996 149.999l-208 -206l-103 103l103 103l208 -206l102 103zM348.996 -117.001l102 -102l100 102l-100 101z" />
    <glyph glyph-name="uFB7C" unicode="&#x686;" horiz-adv-x="938" arabic-form="initial" 
d="M-24 361l-2.99902 -358.999h887l106 359c-36.667 0 -81.334 6.66699 -134.001 20c-60.667 15.333 -102.334 34 -125.001 56c-48 46 -107 121 -177 225c-44 64.667 -110.333 97 -199 97c-74 0 -122.667 -31.333 -146 -94l-55 -152l55 19c42.667 14 81.334 21 116.001 21
c68 0 141 -34.333 219 -103c25.333 -22.667 57.666 -47 96.999 -73c10.667 -6.66699 16.334 -11.334 17.001 -14.001c-1.33301 -1.33301 -7.33301 -2 -18 -2h-640zM540.001 -136.999l-208 -206l-103 103l103 103l208 -206l102 103zM326.001 -463.999l102 -102l100 102
l-100 101z" />
    <glyph glyph-name="uFB7D" unicode="&#x686;" horiz-adv-x="955" arabic-form="medial" 
d="M-30 362l1 -362h1016v362h-53c-107.333 0 -202 48 -284 144c-24.667 28.667 -61 78 -109 148c-44 65.333 -109.333 98 -196 98c-75.333 0 -124.333 -32 -147 -96l-54 -152l53 20c39.333 14.667 77 22 113 22c69.333 0 144 -34.667 224 -104c27.333 -24 49 -41 65 -51
l47 -28c-2 -0.666992 -8.33301 -1 -19 -1h-657zM540 -127l-208 -206l-103 103l103 103l208 -206l102 103zM326 -454l102 -102l100 102l-100 101z" />
    <glyph glyph-name="uFB8B" unicode="&#x698;" horiz-adv-x="559" arabic-form="final" 
d="M567 0v360.999h-121c-3.33301 42 -15 93.333 -35 154c-22.667 72 -54.334 139.333 -95.001 202l-119 -187l103 -138c26.667 -36 40 -74 40 -114c0 -36 -12.667 -81.667 -38 -137c-5.33301 -13.333 -18 -40.666 -38 -81.999c-36.667 -76 -88.667 -154 -156 -234
c-46 -56 -86 -97.333 -120 -124l-16 -13l318 -104l6 7c52.667 80 89.334 154 110.001 222c18 59.333 35.667 113 53 161l5 26h103zM215 799.999l205 205l103 -103l-103 -102l-205 205l-105 -103zM420 1093l-104 105l-106 -105l106 -104z" />
    <glyph glyph-name="uFEDA" unicode="&#x6a9;" horiz-adv-x="1085" arabic-form="final" 
d="M268 2c-62.667 0.666992 -114.667 22.002 -156 64.002c-21.333 22 -39.333 54.333 -54 97c-10.667 32.667 -16 57 -16 73v275l72 78l10 -59c6 -32.667 12.5 -56.834 19.5 -72.501s16.833 -31.834 29.5 -48.501c24 -30.667 74 -46 150 -46l591 -2l-204 209l-30 -72
l-129 120l-21 18c-37.333 32 -56 71.667 -56 119c0 12 2 24.333 6 37l55 204l497 100l-41 -174l-330 -72l63 -31l-11 -40c74 -56.667 142.667 -126 206 -208c42 -54 72.333 -99 91 -135c6.66699 -13.333 18 -39 34 -77h71v-361z" />
    <glyph glyph-name="uFEDB" unicode="&#x6a9;" horiz-adv-x="733" arabic-form="initial" 
d="M-37 361v-358.999h582c26.667 0 48 13.333 64 40c12.667 20.667 19 45.667 19 75v244c-17.333 41.333 -28 66.333 -32 75c-16 33.333 -46 79 -90 137c-65.333 85.333 -134.333 154.666 -207 207.999l11 40l-63 31l330 72l41 172l-504 -106l-64 -273l216 -219l30 72
l204 -209h-537z" />
    <glyph glyph-name="uFEDC" unicode="&#x6a9;" horiz-adv-x="693" arabic-form="medial" 
d="M-37 361v-363h762v361h-71c-16 38 -27.333 63.667 -34 77c-18.667 36 -49 81 -91 135c-63.333 82 -132 151.333 -206 208l11 40l-63 31l330 72l41 174l-497 -100l-55 -204c-4 -12.667 -6 -25 -6 -37c0 -25.333 9.33301 -54 28 -86c6.66699 -11.333 16 -22.333 28 -33
l21 -18l129 -120l30 72l204 -209h-561z" />
    <glyph glyph-name="uFB93" unicode="&#x6af;" horiz-adv-x="1085" arabic-form="final" 
d="M268 2c-62.667 0.666992 -114.667 22.002 -156 64.002c-21.333 22 -39.333 54.333 -54 97c-10.667 32.667 -16 57 -16 73v275l72 78l10 -59c6 -32.667 12.5 -56.834 19.5 -72.501s16.833 -31.834 29.5 -48.501c24 -30.667 74 -46 150 -46l591 -2l-204 209l-30 -72
l-129 120l-21 18c-37.333 32 -56 71.667 -56 119c0 12 2 24.333 6 37l55 204l497 100l-41 -174l-330 -72l63 -31l-11 -40c74 -56.667 142.667 -126 206 -208c42 -54 72.333 -99 91 -135c6.66699 -13.333 18 -39 34 -77h71v-361zM957 1138l25 110.999l-387 -82
c-6 -21.333 -16.333 -60.666 -31 -117.999c47.333 11.333 178.333 41 393 89z" />
    <glyph glyph-name="uFB94" unicode="&#x6af;" horiz-adv-x="733" arabic-form="initial" 
d="M-37 361v-358.999h582c26.667 0 48 13.333 64 40c12.667 20.667 19 45.667 19 75v244c-17.333 41.333 -28 66.333 -32 75c-16 33.333 -46 79 -90 137c-65.333 85.333 -134.333 154.666 -207 207.999l11 40l-63 31l330 72l41 172l-504 -106l-64 -273l216 -219l30 72
l204 -209h-537zM547 1138l25 110.999l-387 -82c-6 -21.333 -16.333 -60.666 -31 -117.999c47.333 11.333 178.333 41 393 89z" />
    <glyph glyph-name="uFB95" unicode="&#x6af;" horiz-adv-x="693" arabic-form="medial" 
d="M-37 361v-363h762v361h-71c-16 38 -27.333 63.667 -34 77c-18.667 36 -49 81 -91 135c-63.333 82 -132 151.333 -206 208l11 40l-63 31l330 72l41 174l-497 -100l-55 -204c-4 -12.667 -6 -25 -6 -37c0 -25.333 9.33301 -54 28 -86c6.66699 -11.333 16 -22.333 28 -33
l21 -18l129 -120l30 72l204 -209h-561zM587 1138l25 110.999l-387 -82c-6 -21.333 -16.333 -60.666 -31 -117.999c47.333 11.333 178.333 41 393 89z" />
    <glyph glyph-name="uFE94" unicode="&#x6c0;" horiz-adv-x="772" arabic-form="final" 
d="M800 2l0.000976562 359.001h-111c-5.33301 0 -10.333 1.66699 -15 5c-2 1.33301 -6 5.33301 -12 12c-19.333 16.667 -29 51 -29 103v395l-122 -90v-78c-16.667 -2.66699 -32 -6.33398 -46 -11.001c-36.667 -11.333 -57.334 -17.666 -62.001 -18.999
c-6.66699 0 -26 -8.66699 -58 -26c-91.333 -50.667 -143.333 -91.334 -156 -122.001l-128 -303l381 -277l101 246c0 -42 17.667 -87.667 53 -137c27.333 -38 60 -57 98 -57h106zM519.001 635.001l1 -345l-244 158l168 44zM264.001 821.001
c18.667 0 40.001 2.00195 64.001 6.00195c35.333 6.66699 60 13 74 19c25.333 10.667 44.666 27.667 57.999 51s20 51.666 20 84.999v96c0 18.667 -4.33301 30.667 -13 36c-4 3.33301 -8.33301 5 -13 5l-20 -3h-172l2 4c9.33301 43.333 33 71 71 83
c11.333 3.33301 23.333 5 36 5c-4.66699 0 5 -1.33301 29 -4l24 84l-6 4c-13.333 10 -29.666 15 -48.999 15c-55.333 0 -102.666 -48.333 -141.999 -145l-7 -21c-3.33301 -11.333 -5 -23.333 -5 -36v-118c0 -8.66699 5.33301 -15.667 16 -21l9 -1l20 1l178 2
c-28.667 -34.667 -57.334 -59.667 -86.001 -75l-68 -37c-20.667 -10.667 -44.334 -19.334 -71.001 -26.001c16 -6 33 -9 51 -9z" />
    <glyph glyph-name="uFEF2" unicode="&#x6cc;" horiz-adv-x="992" arabic-form="final" 
d="M960 0l34.998 4.99805v356h-356l-85 -179c-14 -30 -24.333 -53.667 -31 -71c-9.33301 -26 -14 -48.333 -14 -67c0 -24 5.66699 -45 17 -63c16.667 -26.667 36.334 -45 59.001 -55l156 -67l-12 -18c-10.667 -6.66699 -27 -16 -49 -28c-99.333 -54 -200.333 -81 -303 -81
c-22.667 0 -45.667 2 -69 6c-47.333 6.66699 -89.666 43.334 -126.999 110.001c-38 69.333 -56.333 139.333 -55 210l3 157l-77 -103l-23 -171c-4 -26.667 -6 -53.667 -6 -81c0 -84.667 14.667 -162 44 -232c36.667 -87.333 89.334 -141.666 158.001 -162.999
c31.333 -10 62.666 -15 93.999 -15c134.667 0 270.334 55.333 407.001 166c58 48 95.667 91.333 113 130c7.33301 16.667 15.333 54.334 24 113.001c8.66699 55.333 13 95 13 119c0 22 -12.667 38.667 -38 50l-72 31c-40 22 -60 46.333 -60 73c0 -1.33301 1 3.66699 3 15
c18 44 45.667 66 83 66c29.333 0 58.666 -16.667 87.999 -50c22 -24.667 38.333 -45.334 49 -62.001c20.667 -32 31 -61.333 31 -88v-13z" />
    <glyph glyph-name="uFEF3" unicode="&#x6cc;" horiz-adv-x="506" arabic-form="initial" 
d="M131 -490l230 230l115 -113l-115 -117l-230 230l-114 -113zM-40 361v-363h451v409c0 101.333 -15 206 -45 314l-94 -162c26.667 -56 40 -109 40 -159c0 -4 -0.333008 -9.66699 -1 -17v-17v-5h-351z" />
    <glyph glyph-name="uFEF4" unicode="&#x6cc;" horiz-adv-x="569" arabic-form="medial" 
d="M184 -468l229 230l114 -116l-114 -114l-229 230l-116 -116zM-33 361l-2.00098 -361.002h368c16.667 0 35.334 12.5 56.001 37.5s31 59.167 31 102.5l2 -4c5.33301 -40.667 10 -64.667 14 -72c2.66699 -17.333 10 -32.666 22 -45.999s26.333 -20 43 -20h85v363h-56
c-10 0 -23.333 9.33301 -40 28c-13.333 21.333 -20 57.333 -20 108v104l-87 -66l-8 -27l-15 -62.5c-6 -24.333 -16.333 -42.166 -31 -53.499c-26 -20.667 -55.667 -31 -89 -31h-273z" />
    <glyph glyph-name="Hcircumflex" unicode="&#x622;" horiz-adv-x="270" arabic-form="final" 
d="M161 454c-2.66699 13.333 -3.99902 35.333 -3.99902 66v569l-128 -160v-609c0 -78 21.667 -148.667 65 -212c17.333 -25.333 41 -49 71 -71c34 -24.667 64.333 -37 91 -37h36v361c-24.667 1.33301 -43.334 4 -56.001 8c-41.333 14 -66.333 42.333 -75 85zM367.001 1210
c-48 -56.667 -111.001 -84.999 -189.001 -84.999c-16 0 -38 3.66699 -66 11c-55.333 14 -92 21 -110 21h-13c-4.66699 0 -14 -2.33301 -28 -7c-7.33301 -2.66699 -15 -6.33398 -23 -11.001l-12 10c16 28 28.333 46.333 37 55c16.667 18.667 36.334 28 59.001 28
c24 0 53.667 -4.33301 89 -13c54.667 -14 83.667 -21.333 87 -22c18.667 -3.33301 34.334 -5 47.001 -5c27.333 0 56.666 6.33301 87.999 19c10 4 18 7 24 9z" />
    <glyph glyph-name="uFE84" unicode="&#x623;" horiz-adv-x="620" arabic-form="final" 
d="M639 361c-38.667 5.33301 -69.333 20.667 -92 46c-19.333 22.667 -32 46.334 -38 71.001c-4.66699 18.667 -7 46.667 -7 84v482l-125 -154v-572c0 -77.333 21.333 -148 64 -212c18 -26.667 41.667 -50.334 71 -71.001c34 -24.667 64.667 -37 92 -37h35v363z
M81.001 812.001l168.999 -0.000976562c-12 -15.333 -33.333 -34.666 -64 -57.999c-20 -12 -51.333 -26.667 -94 -44l-9 -5c12 -3.33301 25 -5 39 -5c70.667 0 118.667 19 144 57c12.667 18.667 19 40.667 19 66v98h-169c9.33301 44.667 32.333 67 69 67h10
c2.66699 0.666992 5.66699 1 9 1c2 0 4.83301 -0.333008 8.5 -1s6.5 -1 8.5 -1l18 64l-5 2c-12 6 -23 9 -33 9c-45.333 0 -83.666 -41.333 -114.999 -124c-3.33301 -9.33301 -5 -18.333 -5 -27v-99z" />
    <glyph glyph-name="uFE86" unicode="&#x624;" horiz-adv-x="587" arabic-form="final" 
d="M380 302c0 -85.333 -12.666 -160.997 -37.999 -226.997c-22 -60 -60.5 -126.333 -115.5 -199s-123.5 -133.334 -205.5 -182.001l284 -125l5 9c32 56 52.333 92.333 61 109c32.667 60.667 57.667 129.667 75 207c6 25.333 12.667 57.666 20 96.999v7h145v363h-125l-3 28
c-10 83.333 -38.667 167 -86 251c-51.333 92.667 -101 139 -149 139c-32 0 -62 -25.667 -90 -77l-106 -246c-11.333 -24.667 -17 -52.334 -17 -83.001c0 -60 23 -118 69 -174c19.333 -24 43.666 -39.333 72.999 -46c20 -5.33301 51.667 -8 95 -8zM359.001 394.003h3.00098
v-7c0 -16 -6.33301 -23 -19 -21c-25.333 0 -56.333 19.333 -93 58c-40.667 42 -61 82.667 -61 122v14c0 4.66699 1.33301 9.66699 4 15c5.33301 18.667 14.666 27 27.999 25c22 0 49 -23.333 81 -70c34 -50 52.667 -91 56 -123zM-34.998 871.003h168.003
c-20 -23.333 -32.333 -37 -37 -41l-72 -42c-16.667 -10 -32.334 -16.667 -47.001 -20l-10 -3c10.667 -4 24 -6 40 -6c71.333 0 119.666 19 144.999 57c12 18.667 18 40 18 64v100h-169c4 32 22 54 54 66c5.33301 0 13 0.666992 23 2h8c2.66699 0 8.66699 -0.666992 18 -2
l18 63l-4 2c-14 6 -25.333 9 -34 9c-46.667 0 -83 -36 -109 -108c-0.666992 -1.33301 -3.33398 -8 -8.00098 -20c-2 -7.33301 -3 -15 -3 -23z" />
    <glyph glyph-name="uFE88" unicode="&#x625;" horiz-adv-x="373" arabic-form="final" 
d="M80 -343h167.001l-21 -26c-12.667 -14.667 -26.334 -25.334 -41.001 -32.001c-8 -3.33301 -23 -11.666 -45 -24.999c-18 -10 -34.333 -16.667 -49 -20l-9 -4c12 -3.33301 25 -5 39 -5c32.667 0 64 5.33301 94 16c46 16.667 69 51.667 69 105v99h-168
c5.33301 32.667 24.333 54.667 57 66c6.66699 1.33301 13.667 2 21 2c3.33301 0.666992 6.33301 1 9 1c4 0 9.66699 -1 17 -3l18 65l-5 2c-12.667 6 -24 9 -34 9c-44.667 0 -81 -36 -109 -108c-1.33301 -2.66699 -3.33301 -9.66699 -6 -21c-2.66699 -8.66699 -4 -16 -4 -22
v-99zM357.001 0l35.002 2.00195v359h-16c-14.667 0 -28.334 4.66699 -41.001 14c-38.667 28.667 -62.334 65.667 -71.001 111c-4.66699 22 -7 53.333 -7 94v476l-125 -164v-572c0 -80.667 20.667 -151.334 62 -212.001c16.667 -24.667 40.667 -48.334 72 -71.001
c36 -26 66.333 -38.333 91 -37z" />
    <glyph glyph-name="uFE8A" unicode="&#x626;" horiz-adv-x="987" arabic-form="final" 
d="M989 5l-0.00585938 355.996h-356l-86 -179c-14 -29.333 -24 -53 -30 -71c-10 -26 -15 -48.333 -15 -67c0 -23.333 6 -44.333 18 -63c16.667 -26.667 36.334 -45 59.001 -55l156 -67l-12 -18c-10.667 -6.66699 -27 -16 -49 -28c-99.333 -54 -200.333 -81 -303 -81
c-23.333 0 -46.666 2 -69.999 6c-47.333 6.66699 -89.666 44.167 -126.999 112.5s-55.333 137.5 -54 207.5l3 157l-78 -103l-22 -171c-4 -26.667 -6 -53.667 -6 -81c0 -84 14.667 -161.333 44 -232c36.667 -87.333 89.334 -141.666 158.001 -162.999
c30.667 -10 62 -15 94 -15c134.667 0 270.334 55.667 407.001 167c58 47.333 95.667 90.333 113 129c7.33301 16.667 15.333 54.334 24 113.001c8.66699 55.333 13 95 13 119c0 22 -12.667 38.667 -38 50l-73 31c-39.333 22 -59 46.333 -59 73
c0 16.667 10.333 35.334 31 56.001c17.333 16.667 35.333 25 54 25c30 0 59.333 -16.667 88 -50c24.667 -28 41.334 -48.667 50.001 -62c20.667 -31.333 31 -60.666 31 -87.999v-13zM73.9941 400.996c18.667 0 40.001 2.00195 64.001 6.00195c35.333 6.66699 60 13 74 19
c25.333 10.667 44.666 27.667 57.999 51s20 51.666 20 84.999v96c0 18.667 -4.33301 30.667 -13 36c-4 3.33301 -8.33301 5 -13 5l-20 -3h-172l2 4c9.33301 43.333 33 71 71 83c11.333 3.33301 23.333 5 36 5c-4.66699 0 5 -1.33301 29 -4l24 84l-6 4
c-13.333 10 -29.666 15 -48.999 15c-55.333 0 -102.666 -48.333 -141.999 -145l-7 -21c-3.33301 -11.333 -5 -23.333 -5 -36v-118c0 -8.66699 5.33301 -15.667 16 -21l9 -1l20 1l178 2c-28.667 -34.667 -57.334 -59.667 -86.001 -75l-68 -37
c-20.667 -10.667 -44.334 -19.334 -71.001 -26.001c16 -6 33 -9 51 -9z" />
    <glyph glyph-name="uFE8B" unicode="&#x626;" horiz-adv-x="522" arabic-form="initial" 
d="M-18 359l-3.99902 -361h429l-2 392c0 26 -1.66699 63 -5 111c-3.33301 34.667 -8.33301 69.667 -15 105c-2 7.33301 -10 44.333 -24 111l-87 -182c19.333 -42 30.666 -80.333 33.999 -115c2.66699 -20 4 -40.333 4 -61h-330zM33.001 662
c17.333 -6.66699 34.332 -10.002 50.999 -10.002c18.667 0 40.334 2.33301 65.001 7c68 12.667 111.667 35.334 131 68.001c13.333 24 20 53 20 87v96c0 18.667 -4 30.334 -12 35.001c-4 3.33301 -8.33301 5 -13 5l-20 -2h-173l2 3c10 43.333 34.333 71 73 83
c10.667 4 21.667 6 33 6c2 0 12 -1.33301 30 -4l24 84l-6 3c-14 10.667 -30.333 16 -49 16c-56 0 -103 -48.333 -141 -145l-7 -21c-4 -12 -6 -24 -6 -36v-118c0 -8.66699 5.66699 -15.667 17 -21l8 -2l20 2l178 2c-28 -34.667 -56.333 -59.667 -85 -75
c-30 -17.333 -76.667 -38.333 -140 -63z" />
    <glyph glyph-name="uFE8C" unicode="&#x626;" horiz-adv-x="397" arabic-form="medial" 
d="M-2 357v-359h176c28.667 0 58 18.667 88 56c8.66699 11.333 17.167 34.5 25.5 69.5s13.166 53.167 14.499 54.5c0 -6.66699 -0.333008 -16 -1 -28s-1 -20.667 -1 -26c-0.666992 -28.667 1.33301 -49 6 -61c14.667 -44 37.667 -66 69 -66h56v360
c-7.33301 0 -18.166 3.83301 -32.499 11.5s-23.5 14.5 -27.5 20.5s-9.33301 23 -16 51c-6.66699 26 -10 44.333 -10 55v105l-85 -68l-7 -28c-3.33301 -16 -9.33301 -37.667 -18 -65c-16 -39.333 -39.333 -64.333 -70 -75c-13.333 -4.66699 -30 -7 -50 -7h-117zM115 812
h168.998c-12.667 -16 -34 -35.333 -64 -58c-19.333 -12 -50.666 -26.667 -93.999 -44l-9 -5c12 -3.33301 25.333 -5 40 -5c70 0 117.667 19 143 57c12.667 18.667 19 40.667 19 66v98h-169c9.33301 44.667 32.333 67 69 67h10c3.33301 0.666992 6.33301 1 9 1
c2 0 4.83301 -0.333008 8.5 -1s6.5 -1 8.5 -1l17 64l-5 2c-11.333 6 -22 9 -32 9c-45.333 0 -83.666 -41.333 -114.999 -124c-3.33301 -9.33301 -5 -18.333 -5 -27v-99z" />
    <glyph glyph-name="uFE8E" unicode="&#x627;" horiz-adv-x="270" arabic-form="final" 
d="M289 361c-45.333 2 -79.667 15 -103 39c-14.667 14 -24.334 32 -29.001 54c-2.66699 13.333 -4 35.333 -4 66v569l-127 -160v-609c0 -78 21.667 -148.667 65 -212c17.333 -25.333 41 -49 71 -71c34.667 -24.667 65.334 -37 92.001 -37h35v361z" />
    <glyph glyph-name="uFE90" unicode="&#x628;" horiz-adv-x="1139" arabic-form="final" 
d="M731 -318l-138 136l-134 -136l134 -133zM259 0l633 2.00098c50 0 87.333 14 112 42c13.333 15.333 23.666 34 30.999 56l3 17c0 -25.333 3.66699 -45 11 -59c18.667 -37.333 45 -56 79 -56h24v361c-6 -0.666992 -10.667 -1 -14 -1c-10.667 0 -19.667 4.66699 -27 14
c-13.333 17.333 -21 43.666 -23 78.999l-10 165l-104 -81l-35 -113c-10 -33.333 -32.667 -54 -68 -62c-11.333 -2 -23.666 -3 -36.999 -3h-518c-73.333 0 -124 16 -152 48c-24 28 -40 67.667 -48 119l-10 59l-73 -78v-274c0 -16 5.66699 -40.667 17 -74
c14 -44 31.667 -76.333 53 -97c14.667 -14 35.667 -27.667 63 -41c33.333 -15.333 64.333 -23 93 -23z" />
    <glyph glyph-name="uFE91" unicode="&#x628;" horiz-adv-x="470" arabic-form="initial" 
d="M381 -349l-115 114l-114 -114l114 -113zM-14 361l1 -363h411v409c0 96 -14.333 200.667 -43 314l-96 -162c20 -43.333 32.333 -83 37 -119c2 -18 3 -44.333 3 -79h-313z" />
    <glyph glyph-name="uFE92" unicode="&#x628;" horiz-adv-x="456" arabic-form="medial" 
d="M422 -329l-138 140l-139 -140l139 -137zM-11 361l-2.00195 -361.001h281c19.333 0 39 12.833 59 38.5s30 59.5 30 101.5l2 -4c5.33301 -41.333 9 -65.333 11 -72c14 -44 37 -66 69 -66h35v361h-18c-7.33301 0 -17.666 10.333 -30.999 31s-20 56.334 -20 107.001v104
l-85 -66l-10 -27c-0.666992 -2 -4.66699 -18.167 -12 -48.5s-18.666 -52.833 -33.999 -67.5c-21.333 -20.667 -50.333 -31 -87 -31h-188z" />
    <glyph glyph-name="uFE96" unicode="&#x62a;" horiz-adv-x="1139" arabic-form="final" 
d="M256 0l632.998 1.99902c50.667 0 88.334 14 113.001 42c12.667 15.333 23 34 31 56l3 17c0 -25.333 3.66699 -45 11 -59c18.667 -37.333 45 -56 79 -56h24v361c-6 -0.666992 -10.667 -1 -14 -1c-11.333 0 -20.333 4.66699 -27 14c-14 18.667 -22 45 -24 79l-9 165
l-104 -81l-35 -113c-10.667 -33.333 -33.334 -54 -68.001 -62c-11.333 -2 -23.666 -3 -36.999 -3h-518c-73.333 0 -124 16 -152 48c-25.333 30 -41.666 69.667 -48.999 119l-9 59l-73 -78v-274c0 -17.333 5.33301 -42 16 -74c14.667 -43.333 32.667 -75.666 54 -96.999
c44 -42.667 95.667 -64 155 -64zM432.998 848.999l228 229l116 -116l-116 -113l-228 229l-114 -116z" />
    <glyph glyph-name="uFE97" unicode="&#x62a;" horiz-adv-x="528" arabic-form="initial" 
d="M-2 361l-5 -363.001h394v409c0 100 -15 204.667 -45 314l-94 -162c20.667 -45.333 33 -85 37 -119c1.33301 -11.333 2 -23.666 2 -36.999v-18c-0.666992 -8 -1 -14 -1 -18v-6h-288zM157 848.999l228 229l115 -116l-115 -113l-228 229l-116 -116z" />
    <glyph glyph-name="uFE98" unicode="&#x62a;" horiz-adv-x="415" arabic-form="medial" 
d="M-43 361l-4.00098 -359h233c12.667 0 24.334 4.33301 35.001 13c7.33301 6 16.333 15.667 27 29c13.333 16 22 36.667 26 62h3c3.33301 -26.667 6 -41.667 8 -45c19.333 -39.333 43.333 -59 72 -59h79v359c-40.667 0 -66.667 11.167 -78 33.5s-17 55.166 -17 98.499v169
l-85 -83l-33 -117c-4 -13.333 -13.333 -33.666 -28 -60.999c-25.333 -26.667 -51.333 -40 -78 -40h-160zM86.999 842l229 228l114 -115l-114 -113l-229 228l-115 -115z" />
    <glyph glyph-name="uFE9A" unicode="&#x62b;" horiz-adv-x="1139" arabic-form="final" 
d="M259 0l633 2.00098c50 0 87.333 14 112 42c13.333 15.333 23.666 34 30.999 56l3 17c0 -25.333 3.66699 -45 11 -59c18.667 -37.333 45 -56 79 -56h24v361c-6 -0.666992 -10.667 -1 -14 -1c-10.667 0 -19.667 4.66699 -27 14c-13.333 17.333 -21 43.666 -23 78.999
l-10 165l-104 -81l-35 -113c-10 -33.333 -32.667 -54 -68 -62c-11.333 -2 -23.666 -3 -36.999 -3h-518c-73.333 0 -124 16 -152 48c-24 28 -40 67.667 -48 119l-10 59l-73 -78v-274c0 -16 5.66699 -40.667 17 -74c14 -44 31.667 -76.333 53 -97
c14.667 -14 35.667 -27.667 63 -41c33.333 -15.333 64.333 -23 93 -23zM411 658.001l206 206l104 -103l-104 -103l-206 206l-102 -103zM617 990.001l-104 103l-100 -103l100 -102z" />
    <glyph glyph-name="uFE9B" unicode="&#x62b;" horiz-adv-x="451" arabic-form="initial" 
d="M-13 0l412 0.000976562v405c0 101.333 -15 206.666 -45 315.999l-94 -163c20.667 -44.667 32.667 -82 36 -112c2.66699 -17.333 4 -33 4 -47c0 -4 -0.333008 -10.333 -1 -19v-19h-312v-361zM104 757.001l206 205l103 -102l-103 -103l-206 205l-104 -102zM299 1044l-98 98
l-97 -98l97 -99z" />
    <glyph glyph-name="uFE9C" unicode="&#x62b;" horiz-adv-x="484" arabic-form="medial" 
d="M-23 359l-2.00195 -359.001h228c12.667 0 24.334 4.33301 35.001 13c4 3.33301 13 13 27 29c13.333 18.667 21.333 39.334 24 62.001c0 2 0.666992 3.66699 2 5c1.33301 0 3.33301 -8 6 -24s4.33398 -24.667 5.00098 -26c20 -39.333 43 -59 69 -59h134v361h-11
c-20.667 0 -42.334 2.33301 -65.001 7c-26 5.33301 -42.667 12 -50 20s-13 25 -17 51c-3.33301 19.333 -5 37 -5 53v170l-87 -85l-32 -117c-7.33301 -24 -16.666 -43.667 -27.999 -59c-24.667 -28 -50.667 -42 -78 -42h-155zM156.998 729.999l205 205l104 -103l-104 -102
l-205 205l-104 -103zM361.998 1027l-100 103l-105 -103l105 -101z" />
    <glyph glyph-name="uFE9E" unicode="&#x62c;" horiz-adv-x="834" arabic-form="final" 
d="M843 -2l-0.00390625 364.999h-153l37 212c-91.333 0 -151 10.833 -179 32.5s-55 51.834 -81 90.501l-81 121c-32 48.667 -80.667 73 -146 73c-89.333 0 -139 -49 -149 -147l-13 -125l20 11c54.667 30.667 99.334 46 134.001 46c28 0 54.333 -8.66699 79 -26l113 -92
c12 -8.66699 24 -22 36 -40l-24 -4c-85.333 -14.667 -169.166 -60.167 -251.499 -136.5s-138.166 -155.833 -167.499 -238.5c-22.667 -66 -34 -134.667 -34 -206c0 -108.667 28 -213 84 -313c63.333 -112 144 -179.333 242 -202c40.667 -9.33301 77.667 -14 111 -14
c38.667 0 74.167 6 106.5 18s59.166 27 80.499 45l24 21v320l-21 -26c-32.667 -40.667 -84.667 -61 -156 -61c-65.333 0 -118.666 25.667 -159.999 77c-36.667 45.333 -58 102.333 -64 171c-0.666992 10 -1 20.667 -1 32c0 60 16.333 115 49 165s76.334 85.333 131.001 106
c52.667 19.333 102 29 148 29h13l114 -304h159zM545.996 -33.001l-105 105l-104 -105l104 -103z" />
    <glyph glyph-name="uFE9F" unicode="&#x62c;" horiz-adv-x="938" arabic-form="initial" 
d="M556 -337l-129 126l-126 -126l126 -127zM-24 361l-2.99902 -358.999h887l106 359c-36.667 0 -81.334 6.66699 -134.001 20c-60.667 15.333 -102.334 34 -125.001 56c-48 46 -107 121 -177 225c-44 64.667 -110.333 97 -199 97c-74 0 -122.667 -31.333 -146 -94l-55 -152
l55 19c42.667 14 81.334 21 116.001 21c68 0 141 -34.333 219 -103c25.333 -22.667 57.666 -47 96.999 -73c10.667 -6.66699 16.334 -11.334 17.001 -14.001c-1.33301 -1.33301 -7.33301 -2 -18 -2h-640z" />
    <glyph glyph-name="uFEA0" unicode="&#x62c;" horiz-adv-x="955" arabic-form="medial" 
d="M562 -280l-128 128l-128 -128l128 -127zM-30 362l0.999023 -362h1016v362h-53c-107.333 0 -202 48 -284 144c-24.667 28.667 -61 78 -109 148c-44 65.333 -109.333 98 -196 98c-75.333 0 -124.333 -32 -147 -96l-54 -152l53 20c38.667 14.667 76.334 22 113.001 22
c69.333 0 144 -34.667 224 -104c27.333 -24 49 -41 65 -51l47 -28c-2 -0.666992 -8.33301 -1 -19 -1h-657z" />
    <glyph glyph-name="uFEA2" unicode="&#x62d;" horiz-adv-x="799" arabic-form="final" 
d="M630 -196c-33.333 -22 -73.334 -33.002 -120.001 -33.002c-55.333 0 -109.666 14.667 -162.999 44c-60.667 34 -95.334 76 -104.001 126c-2 13.333 -3 31.333 -3 54c0 59.333 15.833 114.166 47.5 164.499s74.5 87.5 128.5 111.5c10 4.66699 23.333 10.334 40 17.001
c26.667 8.66699 55.334 16 86.001 22l17 3c-6 -26.667 -9 -48.667 -9 -66v-13c0 -1.33301 0.666992 -7 2 -17c19.333 -143.333 73 -215 161 -215h105v359h-126l34 206c-20 -2.66699 -37.667 -4 -53 -4c-53.333 0 -93.666 10.5 -120.999 31.5s-54 50.833 -80 89.5l-81 118
c-30.667 46 -77.667 69 -141 69c-86.667 0 -135.334 -47.667 -146.001 -143l-13 -121l35 16c16.667 8 39.667 18 69 30c19.333 6 37.666 9 54.999 9c20 0 39 -5.33301 57 -16c12 -7.33301 55.667 -43.666 131 -108.999c2 -2 7.33301 -10.667 16 -26l-23 -5
c-75.333 -17.333 -155.166 -64.833 -239.499 -142.5s-139.833 -153.5 -166.5 -227.5c-22.667 -66 -34 -131.667 -34 -197c0 -119.333 35 -227.666 105 -324.999c65.333 -90 138.666 -144.667 219.999 -164c46.667 -11.333 89.334 -17 128.001 -17
c56 0 118.667 18.667 188 56z" />
    <glyph glyph-name="uFEA3" unicode="&#x62d;" horiz-adv-x="964" arabic-form="initial" 
d="M-17 361l-2.00098 -359h888l106 359c-38 0 -83 6.66699 -135 20c-60 15.333 -101.667 34 -125 56c-48.667 46.667 -108 121.667 -178 225c-44 64.667 -109.333 97 -196 97c-74.667 0 -123.667 -31.333 -147 -94l-56 -152l55 19c41.333 14 79.666 21 114.999 21
c69.333 0 143 -34.333 221 -103c24.667 -22 56.334 -46 95.001 -72c11.333 -8 17.333 -13 18 -15c-1.33301 -1.33301 -7.66602 -2 -18.999 -2h-640z" />
    <glyph glyph-name="uFEA4" unicode="&#x62d;" horiz-adv-x="961" arabic-form="medial" 
d="M-26 361l2.00098 -359h1016v359h-54c-106.667 0 -201.334 48.667 -284.001 146c-28 32.667 -64 81.667 -108 147s-109.333 98 -196 98c-75.333 0 -124.333 -31.333 -147 -94l-54 -152l52 18c43.333 14.667 82 22 116 22c72 0 146 -34 222 -102
c26 -22.667 63.333 -50 112 -82c-2 -0.666992 -8.33301 -1 -19 -1h-658z" />
    <glyph glyph-name="uFEA6" unicode="&#x62e;" horiz-adv-x="819" arabic-form="final" 
d="M652 -196c-34 -22 -73.6689 -33.001 -119.002 -33.001c-55.333 0 -109.666 14.667 -162.999 44c-61.333 34 -96 76 -104 126c-2.66699 16.667 -4 34.667 -4 54c0 59.333 15.833 114.166 47.5 164.499s74.5 87.5 128.5 111.5c10 4.66699 23 10.334 39 17.001
c20.667 6.66699 50 14 88 22l16 3c-6.66699 -26.667 -10 -48.667 -10 -66v-13c0 -1.33301 0.666992 -7 2 -17c19.333 -143.333 73.333 -215 162 -215h104v359h-124l32 206c-20 -2.66699 -37.667 -4 -53 -4c-53.333 0 -93.666 10.667 -120.999 32
c-25.333 19.333 -51.666 49 -78.999 89l-80 118c-30.667 46 -78.334 69 -143.001 69c-86.667 0 -135 -47.667 -145 -143l-13 -121l35 16c16 8 38.667 18 68 30c20 6 38.333 9 55 9c20 0 39.333 -5.33301 58 -16c10 -6 53.667 -42.333 131 -109
c2.66699 -3.33301 8 -12 16 -26l-24 -5c-77.333 -18 -159.333 -68 -246 -150c-80.667 -76.667 -133.667 -150 -159 -220c-23.333 -64 -35 -129.667 -35 -197c0 -119.333 35.333 -227.666 106 -324.999c66 -90 139.667 -144.667 221 -164c46.667 -11.333 88.667 -17 126 -17
c54.667 0 117.667 18.667 189 56zM400.998 1034l-103 103l-101 -103l101 -103z" />
    <glyph glyph-name="uFEA7" unicode="&#x62e;" horiz-adv-x="1012" arabic-form="initial" 
d="M-22 361l-2 -359h888l105 359c-38 0 -83 6.66699 -135 20c-60 15.333 -101.333 34 -124 56c-50 48 -109.333 123 -178 225c-44 64.667 -109.333 97 -196 97c-75.333 0 -124.333 -31.333 -147 -94l-56 -152l54 19c41.333 14 79.666 21 114.999 21
c70 0 144 -34.333 222 -103c24.667 -22 56.334 -46 95.001 -72c11.333 -8 17.333 -13 18 -15c-2 -1.33301 -8.33301 -2 -19 -2h-640zM479 973l-129 128l-126 -128l126 -126z" />
    <glyph glyph-name="uFEA8" unicode="&#x62e;" horiz-adv-x="978" arabic-form="medial" 
d="M-13 361l1.99805 -359h1017v359h-55c-104.667 0 -199 48.667 -283 146c-29.333 34 -65.666 83.333 -108.999 148s-108.666 97 -195.999 97c-74 0 -122.667 -31.333 -146 -94l-55 -152l53 18c44 14.667 82.667 22 116 22c71.333 0 145.333 -34 222 -102
c25.333 -22.667 62.333 -50 111 -82c-1.33301 -0.666992 -7.33301 -1 -18 -1h-659zM402.998 994l-125 126l-129 -126l129 -126z" />
    <glyph glyph-name="uFEAA" unicode="&#x62f;" horiz-adv-x="474" arabic-form="final" 
d="M492 -2l0.000976562 363.002c-24.667 0 -43.334 12.667 -56.001 38c-3.33301 6.66699 -5.66602 12.334 -6.99902 17.001c-13.333 26 -23.333 58.333 -30 97l-15 90c-14.667 59.333 -46 107.666 -94 144.999c-19.333 14.667 -33 22 -41 22c-3.33301 -0.666992 -5 -2 -5 -4
l-37 -196c30 -8.66699 54.333 -24 73 -46c32.667 -30.667 49 -76.334 49 -137.001v-16c-1.33301 -4.66699 -2 -8 -2 -10h-282v-361h312c5.33301 0 11.333 1 18 3c3.33301 1.33301 9.66602 4 18.999 8c6.66699 3.33301 14.167 13 22.5 29s12.5 27.667 12.5 35
c-0.666992 -4 -0.666992 -7 0 -9c0 -24.667 8 -42.334 24 -53.001c11.333 -10 24.333 -15 39 -15z" />
    <glyph glyph-name="uFEAC" unicode="&#x630;" horiz-adv-x="476" arabic-form="final" 
d="M486 -2v363.002c-24 0 -42.667 12.667 -56 38c-2.66699 6.66699 -4.66699 12.334 -6 17.001c-13.333 26 -23.333 58.333 -30 97l-15 90c-14.667 59.333 -46 107.666 -94 144.999c-19.333 14.667 -33 22 -41 22c-4 -0.666992 -6 -2 -6 -4l-37 -196
c30 -8.66699 54.667 -24 74 -46c32 -30.667 48 -76.334 48 -137.001v-16c-0.666992 -4.66699 -1.33398 -8 -2.00098 -10h-281v-361h312c5.33301 0 11.333 1 18 3c2.66699 1.33301 9 4 19 8c6 3.33301 13.333 13 22 29s13 27.667 13 35c-1.33301 -4 -1.33301 -7 0 -9
c0 -24.667 8 -42.334 24 -53.001c10.667 -10 23.334 -15 38.001 -15zM341 1004l-116 116l-113 -116l113 -112z" />
    <glyph glyph-name="uFEAE" unicode="&#x631;" horiz-adv-x="559" arabic-form="final" 
d="M567 0v360.999h-121c-3.33301 42 -15 93.333 -35 154c-22.667 72 -54.334 139.333 -95.001 202l-119 -187l103 -138c26.667 -36 40 -74 40 -114c0 -36 -12.667 -81.667 -38 -137c-5.33301 -13.333 -18 -40.666 -38 -81.999c-36.667 -76 -88.667 -154 -156 -234
c-46 -56 -86 -97.333 -120 -124l-16 -13l318 -104l6 7c52.667 80 89.334 154 110.001 222c18 59.333 35.667 113 53 161l5 26h103z" />
    <glyph glyph-name="uFEB0" unicode="&#x632;" horiz-adv-x="559" arabic-form="final" 
d="M569 0l0.000976562 360.999h-95c-4 42 -15.667 93.333 -35 154c-23.333 72 -55.333 139.333 -96 202l-119 -187l103 -138c26.667 -36.667 40 -74.667 40 -114c0 -37.333 -11 -80.333 -33 -129l-43 -90c-36 -74.667 -87.667 -152.667 -155 -234
c-46.667 -56 -87 -97.333 -121 -124l-16 -13l319 -104l5 7c30.667 46 56.667 91.667 78 137c14 30 25 58.333 33 85c19.333 64.667 36.666 118.334 51.999 161.001l6 26h77zM410.001 991.999l-119 117l-122 -117l122 -118z" />
    <glyph glyph-name="uFEB2" unicode="&#x633;" horiz-adv-x="1326" arabic-form="final" 
d="M1310 362l-0.000976562 57.999c0 52.667 -9.66699 115 -29 187l-77 -96l33 -150h-144v232l-77 -82l-15 -85c0 -12 -2.66699 -22 -8 -30c-3.33301 -5.33301 -11 -12.5 -23 -21.5s-34.333 -13.5 -67 -13.5h-142l-114 226l-89 -176c12 -18 21.667 -35.333 29 -52
c28 -59.333 46 -110.333 54 -153c5.33301 -29.333 8 -60 8 -92c0 -82 -17.333 -151 -52 -207c-41.333 -67.333 -100.333 -101 -177 -101c-27.333 0 -54.333 3.66699 -81 11c-66.667 18 -122.334 66.667 -167.001 146c-40 70 -62.333 155.667 -67 257l-3 55l-71 -163v-83
c0 -144 36.667 -266 110 -366c81.333 -111.333 191.666 -167 330.999 -167c104.667 0 188.334 49 251.001 147c44.667 70.667 72.667 175.667 84 315l3 42h189c10.667 0 21.334 4.33301 32.001 13c2.66699 2.66699 8.33398 8 17.001 16c10.667 15.333 19.667 36 27 62l3 13
c-2 -9.33301 -3 -17.666 -3 -24.999c0 -22 6.66699 -39.833 20 -53.5s28 -22.167 44 -25.5h188v362h-17z" />
    <glyph glyph-name="uFEB3" unicode="&#x633;" horiz-adv-x="1117" arabic-form="initial" 
d="M-11 361l-1.99902 -361h1096l-2 446c-0.666992 42 -8.33398 94.333 -23.001 157l-90 -103l17 -50c3.33301 -11.333 5 -22.666 5 -33.999c0 -36.667 -19.667 -55 -59 -55h-112c-5.33301 0 -13 4.16699 -23 12.5s-15 20.166 -15 35.499c0 4 0.5 9.83301 1.5 17.5
s1.5 13.5 1.5 17.5l18 167l-106 -63l-29 -98c-10.667 -34.667 -26 -58.167 -46 -70.5s-41 -18.5 -63 -18.5h-182v242l-92 -62l-22 -88c-14.667 -61.333 -45.667 -92 -93 -92h-180z" />
    <glyph glyph-name="uFEB4" unicode="&#x633;" horiz-adv-x="1101" arabic-form="medial" 
d="M-15 361l-1.99902 -358.998h1138v360h-103c0 -8.66699 0.666992 3.66602 2 36.999c0 4 -0.333008 8 -1 12c0 47.333 -2 82 -6 104c-3.33301 16.667 -13.333 47 -30 91l-79 -87l38 -158h-192v250l-76 -66l-16 -108c-4 -26.667 -13.333 -46.334 -28 -59.001
s-31.667 -19 -51 -19c-2.66699 1.33301 -6.33398 2 -11.001 2h-191v242l-75 -62l-18 -88c-6.66699 -33.333 -19 -57.333 -37 -72c-13.333 -13.333 -29.333 -20 -48 -20h-214z" />
    <glyph glyph-name="uFEB6" unicode="&#x634;" horiz-adv-x="1326" arabic-form="final" 
d="M1329 359l-1.99902 59.0029c-2 62 -12 125 -30 189l-76 -98l33 -150h-145v232l-76 -82l-15 -85c0 -18.667 -10 -35.667 -30 -51c-12 -9.33301 -30 -14 -54 -14h-15l-141 2l-114 226l-89 -178c12.667 -17.333 22.667 -34.333 30 -51l28 -70
c22 -54.667 33 -113.334 33 -176.001c0 -82 -17 -151 -51 -207c-40.667 -67.333 -99.334 -101 -176.001 -101c-25.333 0 -52.666 4.33301 -81.999 13c-68.667 19.333 -125 67.666 -169 144.999c-39.333 70 -61.333 155.667 -66 257l-3 56l-71 -165v-81
c0 -144.667 36.667 -267 110 -367c81.333 -112 191.666 -168 330.999 -168c104.667 0 188.334 49.333 251.001 148c44.667 70 72.667 174.667 84 314l3 42h189c11.333 0 22 4.66699 32 14c1.33301 1.33301 6.66602 7 15.999 17c10.667 13.333 19.667 33.666 27 60.999l4 14
c-2.66699 -10 -4 -19 -4 -27c0 -22 6.83301 -39.833 20.5 -53.5s28.5 -22.167 44.5 -25.5h189v361h-16zM868.001 699.003l205 206l103 -103l-103 -103l-205 206l-105 -103zM1079 998.003l-103 103l-100 -103l100 -101z" />
    <glyph glyph-name="uFEB7" unicode="&#x634;" horiz-adv-x="1049" arabic-form="initial" 
d="M-11 359l-6 -361.003h1041v352v36c-2 34 -3 53.333 -3 58c0 25.333 -2 51.333 -6 78c-2 14 -7.33301 40 -16 78l-84 -80l34 -163h-153v254l-79 -79c2.66699 -24 4 -37 4 -39c0 -19.333 -6 -39.666 -18 -60.999c-20.667 -37.333 -50.334 -61.666 -89.001 -72.999h-205v242
l-72 -62l-16 -88c-5.33301 -19.333 -9.66602 -32.666 -12.999 -39.999c-16 -34.667 -41.667 -52 -77 -52h-242zM533 714.997l206 206l104 -103l-104 -103l-206 206l-105 -103zM745 1014l-100 99l-101 -99l101 -101z" />
    <glyph glyph-name="uFEB8" unicode="&#x634;" horiz-adv-x="1085" arabic-form="medial" 
d="M-43 361l-1.99902 -359h1142v359h-103v95c-4 46 -15.667 95 -35 147l-79 -84l39 -158h-194l2 250l-76 -68l-19 -106c-2 -14 -10 -33.667 -24 -59c-16 -12.667 -37.667 -19 -65 -19h-190v242l-76 -62l-18 -88c-6.66699 -31.333 -19.334 -55.333 -38.001 -72
c-13.333 -12 -29 -18 -47 -18h-217zM565.001 730l205 205l103 -103l-103 -102l-205 205l-105 -103zM770.001 1023l-104 105l-106 -105l106 -104z" />
    <glyph glyph-name="uFEBA" unicode="&#x635;" horiz-adv-x="1617" arabic-form="final" 
d="M133 306l2 48l-68 -116l-9 -42c-11.333 -54 -17 -102 -17 -144c0 -142 36.667 -266 110 -372c78.667 -115.333 179 -173 301 -173c111.333 0 201.333 43.333 270 130c40 51.333 70.333 115.666 91 192.999c17.333 65.333 24.666 115 21.999 149l-1 19h797l-2 363h-45
l2 17c2 30.667 0.666992 66 -4 106c-16 128.667 -75.333 198.334 -178 209.001c-8.66699 0.666992 -17.667 1 -27 1h-8c-80.667 0 -166.667 -30.333 -258 -91c-85.333 -58 -162 -129.333 -230 -214l-23 -30l-135 264l-79 -155l24 -71c26 -79.333 39 -159 39 -239
c0 -234 -107 -351 -321 -351c-116 0 -193 91 -231 273c-17.333 82.667 -24.666 158 -21.999 226zM1419 440c12 -24.667 18 -51 18 -79h-427l33 24l80 59c68 46 126 69 174 69c58 0 98.667 -24.333 122 -73z" />
    <glyph glyph-name="uFEBB" unicode="&#x635;" horiz-adv-x="1099" arabic-form="initial" 
d="M-14 361l-23.001 -362.999h1059v386v21v19c0.666992 49.333 -6 91.666 -20 126.999c-16.667 40.667 -32.334 70.334 -47.001 89.001c-29.333 36.667 -69.666 55 -120.999 55c-5.33301 0 -9.33301 -0.333008 -12 -1c-127.333 0 -260 -82 -398 -246l-50 -59
c-12.667 -15.333 -26 -23 -40 -23c-4.66699 0 -7.66699 0.666992 -9 2c-17.333 13.333 -27.666 41.666 -30.999 84.999l-9 112l-98 -72l-23 -86c-8.66699 -30.667 -26 -46 -52 -46h-126zM819.999 504.001c46.667 -34.667 70.001 -82.333 70.001 -143h-411l40 38
c50 48 98.333 83.333 145 106c31.333 15.333 59.666 23 84.999 23c26 0 49.667 -8 71 -24z" />
    <glyph glyph-name="uFEBC" unicode="&#x635;" horiz-adv-x="1093" arabic-form="medial" 
d="M-13 361l-9 -361h1129l2 361h-75v12c0 118.667 -18 203 -54 253c-24 34 -57.333 55 -100 63c-14 2.66699 -26.333 4 -37 4c-65.333 0 -141.833 -30.5 -229.5 -91.5s-163.5 -130.833 -227.5 -209.5l-25 -31h-45l-24 204l-100 -72l-23 -86c-1.33301 -10.667 -6 -21 -14 -31
s-20.667 -15 -38 -15h-130zM876 442c12.667 -24 19 -51 19 -81h-411l42 38c57.333 53.333 105 89 143 107c32 16 60.667 24 86 24c50.667 0 91 -29.333 121 -88z" />
    <glyph glyph-name="uFEBE" unicode="&#x636;" horiz-adv-x="1592" arabic-form="final" 
d="M109 306l0.999023 47.999l-67 -116l-10 -42c-10.667 -50 -16 -98 -16 -144c0 -142 36.333 -266 109 -372c79.333 -115.333 180 -173 302 -173c110.667 0 200.334 43.333 269.001 130c40.667 52 71.334 116.333 92.001 193c14.667 55.333 22 105 22 149
c-1.33301 10 -2 16.333 -2 19h797l-1 363h-45l1 17c1.33301 38 0 73.333 -4 106c-16 128.667 -75.333 198.334 -178 209.001c-8.66699 0.666992 -17.667 1 -27 1h-8c-80.667 0 -166.334 -30.333 -257.001 -91c-86 -58 -163 -129.333 -231 -214l-23 -30l-134 264l-79 -155
l23 -71c26 -82 39 -161.667 39 -239c0 -234 -107 -351 -321 -351c-116 0 -193 91 -231 273c-16 78.667 -23 154 -21 226zM1395 439.999c11.333 -24.667 17 -51 17 -79h-426l112 83c68.667 46 127 69 175 69c58 0 98.667 -24.333 122 -73zM1022 949.999l-136 131l-136 -131
l136 -134z" />
    <glyph glyph-name="uFEBF" unicode="&#x636;" horiz-adv-x="1064" arabic-form="initial" 
d="M-11 362l-8.00098 -360h1044v347c0 65.333 -2.33301 114.333 -7 147c-15.333 114.667 -63.333 179.667 -144 195c-13.333 2.66699 -25.333 4 -36 4c-5.33301 0 -9.33301 -0.333008 -12 -1c-124 0 -257 -82 -399 -246l-51 -59c-13.333 -15.333 -26.666 -23 -39.999 -23
c-4 0.666992 -6.33301 1.33398 -7 2.00098c-18.667 12.667 -29.667 41 -33 85l-10 112l-97 -72l-23 -86c-2 -10.667 -6.66699 -20.834 -14 -30.501s-20 -14.5 -38 -14.5h-125zM481.999 361l40.999 38.001c52.667 51.333 101.334 88.333 146.001 111c32 16 60.333 24 85 24
c46 0 85.667 -33 119 -99c13.333 -26.667 20 -46.334 20 -59.001v-15h-411zM564.998 973.001l-130 131l-131 -131l131 -128z" />
    <glyph glyph-name="uFEC0" unicode="&#x636;" horiz-adv-x="1093" arabic-form="medial" 
d="M-21 0h1129l2 361h-76v12c0 119.333 -17.667 203.666 -53 252.999c-24.667 34 -58 55 -100 63c-14 2.66699 -26.333 4 -37 4c-65.333 0 -142 -30.667 -230 -92c-83.333 -58 -159 -127.667 -227 -209l-26 -31h-45l-24 204l-99 -72l-23 -86
c-5.33301 -31.333 -22.666 -46.666 -51.999 -45.999l-129 1zM876.999 442c12.667 -24.667 18.998 -51.667 18.998 -81h-411l42 38c54.667 52 102.334 87.667 143.001 107c32.667 16 61.334 24 86.001 24c50 0 90.333 -29.333 121 -88zM524.997 950l-138 135l-133 -135
l133 -134z" />
    <glyph glyph-name="uFEC2" unicode="&#x637;" horiz-adv-x="971" arabic-form="final" 
d="M915 396c0 2.66699 0.333984 6.66504 1.00098 11.998v12c0.666992 103.333 -12.333 181 -39 233c-19.333 38.667 -46.333 61.334 -81 68.001c-14 2.66699 -26.333 4 -37 4c-76.667 0 -164 -48 -262 -144c-52.667 -51.333 -95.334 -98.666 -128.001 -141.999l-33 -44v317
l62 65l-51 292l-128 -152v-558l-194 2v-242c0 -34 8.66699 -60.667 26 -80c22.667 -26 51 -39 85 -39h851v361h-72v35zM785.001 426.998c3.33301 -15.333 5 -28 5 -38v-14l-2 -14h-379l35 36c25.333 26.667 56 51.667 92 75c56 37.333 104.333 56 145 56
c53.333 0 88 -33.667 104 -101z" />
    <glyph glyph-name="uFEC3" unicode="&#x637;" horiz-adv-x="990" arabic-form="initial" 
d="M-13 361l-3 -363.001h967v366c0 80.667 -6.33301 149.334 -19 206.001c-21.333 92.667 -59.333 143.667 -114 153c-6.66699 0.666992 -14.667 1.66699 -24 3h-14c-86 0 -184.667 -48.667 -296 -146c-55.333 -48.667 -102 -95.667 -140 -141l-35 -42v299l69 67l-57 291
l-143 -151v-542h-191zM808 425.999c4.66699 -16 7 -38.333 7 -67h-425l40 38c15.333 16 33.333 31.667 54 47c78.667 58.667 146.667 88 204 88c60 0 100 -35.333 120 -106z" />
    <glyph glyph-name="uFEC4" unicode="&#x637;" horiz-adv-x="980" arabic-form="medial" 
d="M-21 359l-2.00098 -360.999h1011v361h-126v11c0 14 0.666992 38.333 2 73l1 56c0 63.333 -6.33301 111 -19 143c-17.333 43.333 -48.666 69.666 -93.999 78.999c-14 2.66699 -26.333 4 -37 4c-60 0 -126 -28.333 -198 -85c-64.667 -52 -128 -119 -190 -201l-33 -44v317
l63 65l-51 292l-128 -152v-558h-199zM742.999 427.001c4 -13.333 6.00098 -29.666 6.00098 -48.999v-17l-404 4c20 15.333 50.667 37.666 92 66.999c84 56.667 151.667 85 203 85c53.333 0 87.666 -30 102.999 -90z" />
    <glyph glyph-name="uFEC6" unicode="&#x638;" horiz-adv-x="962" arabic-form="final" 
d="M911 393c0 2.66699 0.334961 6.99902 1.00195 12.999v14c0.666992 104 -12.333 182 -39 234c-20 40 -50.333 63.333 -91 70c-6.66699 1.33301 -12.334 2 -17.001 2h-10c-76.667 0 -164 -47.667 -262 -143c-50.667 -49.333 -93.334 -97 -128.001 -143l-33 -43v316l62 64
l-51 293l-128 -151v-558h-194v-240c0 -35.333 8.66699 -62.666 26 -81.999c22 -24.667 50.333 -37 85 -37h851v361h-72v30zM781.002 428.999c3.33301 -14.667 4.99902 -28 4.99902 -40v-14l-2 -14h-379l35 36c25.333 26.667 56 51.667 92 75c56 37.333 104.333 56 145 56
c52.667 0 87.334 -33 104.001 -99zM805.001 977.999l-136 135l-135 -135l135 -134z" />
    <glyph glyph-name="uFEC7" unicode="&#x638;" horiz-adv-x="972" arabic-form="initial" 
d="M-11 359l-7 -360.999h964v367c0 81.333 -6.33301 150.333 -19 207c-20.667 90 -58.667 141 -114 153c-29.333 2 -41.666 3 -36.999 3c-86.667 0 -185.334 -48.333 -296.001 -145c-60 -52.667 -107 -100.334 -141 -143.001l-35 -43v302l69 66l-57 291l-143 -151v-546h-184
zM803 427.001c4.66699 -15.333 6.99902 -37.334 6.99902 -66.001h-425l39 36c32.667 30.667 66 56.334 100 77.001c62 38.667 115.333 58 160 58c58.667 0 98.334 -35 119.001 -105zM775.999 969l-126 130l-129 -130l129 -125z" />
    <glyph glyph-name="uFEC8" unicode="&#x638;" horiz-adv-x="980" arabic-form="medial" 
d="M-17 359l-2.00098 -360.999h1011v361h-126v11c0 14 0.666992 38.333 2 73l1 56c0 63.333 -6.33301 111 -19 143c-17.333 43.333 -48.666 69.666 -93.999 78.999c-14 2.66699 -26.333 4 -37 4c-60 0 -126 -28.333 -198 -85c-64.667 -52 -128 -119 -190 -201l-33 -44v317
l63 65l-51 292l-128 -152v-558h-199zM746.999 427.001c4 -13.333 6.00098 -29.666 6.00098 -48.999v-17l-404 4c20 15.333 50.667 37.666 92 66.999c84 56.667 151.667 85 203 85c53.333 0 87.666 -30 102.999 -90zM767 935.001l-128 127l-129 -127l129 -127z" />
    <glyph glyph-name="uFECA" unicode="&#x639;" horiz-adv-x="759" arabic-form="final" 
d="M301 -577c38.667 -14 78.667 -21 120 -21c74 0 152.667 23.333 236 70l-1 337c-8 -11.333 -14.667 -20.333 -20 -27c-27.333 -30.667 -69.333 -52 -126 -64c-6.66699 -1.33301 -14.667 -2 -24 -2h-10c-61.333 0 -112 24.333 -152 73c-37.333 46 -56 100.333 -56 163
c0 60 12.667 116.667 38 170c30.667 64.667 72 102.334 124 113.001h5c39.333 0 84.666 -28.667 135.999 -86c34 -37.333 61 -78.333 81 -123l10 -24h103v361h-240l-6 10c-4 8 -5 14.333 -3 19c0 13.333 9.66699 27 29 41l50 35c30.667 23.333 58.334 39 83.001 47l19 132
l-20 7l-136 52c-47.333 18 -93.333 27 -138 27c-39.333 0 -85 -9 -137 -27l-132 -52l-20 -7l18 -132c29.333 -9.33301 58.333 -24.333 87 -45l55 -36c20 -14 30 -29.667 30 -47c0 -3.33301 -1.33301 -9 -4 -17l-2 -7l-5 -4c-58 -36 -104 -72.667 -138 -110
c-83.333 -92 -125 -209.667 -125 -353c0 -82.667 13.333 -159.334 40 -230.001c45.333 -122 122.333 -203 231 -243zM405 603c39.333 0 75.002 -10.332 107.002 -30.999c-9.33301 -7.33301 -16 -14.333 -20 -21c-24 -26 -41 -45 -51 -57
c-17.333 -20 -29.333 -41.667 -36 -65l-3 -20l-4 20c-6.66699 31.333 -20.334 57.666 -41.001 78.999l-43 43c-3.33301 4.66699 -9.33301 11.667 -18 21c31.333 20.667 67.666 31 108.999 31z" />
    <glyph glyph-name="uFECB" unicode="&#x639;" horiz-adv-x="922" arabic-form="initial" 
d="M-17 361l-5.99902 -362.998h802l107 361h-235c-133.333 0 -227 64.667 -281 194c-2 5.33301 -3 11.666 -3 18.999c0 26 26.667 39 80 39c46.667 0 95.667 -9.33301 147 -28l75 -28l-38 110l-66 52c-29.333 23.333 -60.333 35 -93 35
c-74.667 0 -145.334 -61.667 -212.001 -185c-19.333 -36 -29 -69 -29 -99c0 -22.667 11.667 -58.334 35 -107.001h-283z" />
    <glyph glyph-name="uFECC" unicode="&#x639;" horiz-adv-x="766" arabic-form="medial" 
d="M-37 361l4 -361.002h442c8.66699 6 19 17 31 33l15 29c4 9.33301 7 19 9 29c0 -16.667 9.33301 -36.667 28 -60c11.333 -14 24.666 -24.333 39.999 -31h273v361h-238c4.66699 32.667 19.334 64 44.001 94c28 34.667 64.667 57 110 67l17 130l-114 56
c-60 27.333 -118.667 41 -176 41c-38 0 -73 -5 -105 -15l-158 -69l-29 -13l17 -130c33.333 -9.33301 64 -26.666 92 -51.999c32 -29.333 53.333 -65.666 64 -108.999h-366zM375 547.998c-12 10.667 -26.332 21 -42.999 31c32 27.333 68 41 108 41
c43.333 0 81.666 -13 114.999 -39c-32 -18.667 -56.667 -42.834 -74 -72.501s-29 -58.5 -35 -86.5c-2.66699 16.667 -6.66699 31.334 -12 44.001c-14 32 -33.667 59.333 -59 82z" />
    <glyph glyph-name="uFECE" unicode="&#x63a;" horiz-adv-x="759" arabic-form="final" 
d="M288 -569c34 -12 69.667 -18 107 -18c82 0 169 31.333 261 94v302c-29.333 -46 -78 -76.333 -146 -91c-6.66699 -1.33301 -14.667 -2 -24 -2h-10c-62 0 -112.667 24.333 -152 73c-37.333 45.333 -56 99.666 -56 162.999c0 60.667 12.333 117.334 37 170.001
c30 64.667 71 102.334 123 113.001h6c30.667 0 67 -19.333 109 -58c33.333 -31.333 60.333 -64.333 81 -99c10 -16.667 19.333 -34 28 -52l10 -24h101v361h-240l-6 10c-2 4.66699 -3 10.334 -3 17.001c0 15.333 9.66699 29.666 29 42.999l52 35c26 22 53.667 37.667 83 47
l18 132l-21 7l-135 52c-48 18 -94 27 -138 27c-50.667 0 -140.667 -26.333 -270 -79l-18 -7l18 -132c23.333 -7.33301 51.666 -22.333 84.999 -45c56.667 -27.333 85 -56.333 85 -87c0 -4.66699 -0.666992 -9 -2 -13l-2 -7l-5 -4c-58 -36 -104 -72.667 -138 -110
c-83.333 -92 -125 -209.667 -125 -353c0 -82.667 13.333 -159.334 40 -230.001c44.667 -120.667 117.334 -199 218.001 -235zM405 603c39.333 0 75.002 -10.332 107.002 -30.999c-9.33301 -7.33301 -16 -14.333 -20 -21c-24 -26 -41 -45 -51 -57
c-17.333 -20 -29.333 -41.667 -36 -65l-3 -20l-4 20c-6.66699 31.333 -20.334 57.666 -41.001 78.999l-43 43c-3.33301 4.66699 -9.33301 11.667 -18 21c31.333 20.667 67.666 31 108.999 31zM549.002 992.001l-136 136l-135 -136l135 -134z" />
    <glyph glyph-name="uFECF" unicode="&#x63a;" horiz-adv-x="1025" arabic-form="initial" 
d="M-15 361l-7 -363h803l106 361h-235c-62 0 -121.667 20 -179 60c-61.333 42.667 -96.333 93.667 -105 153c0 26 26.667 39 80 39c46 0 95 -9.33301 147 -28l77 -28l-40 110l-66 52c-29.333 23.333 -60.333 35 -93 35c-76.667 0 -147 -61.667 -211 -185
c-19.333 -36.667 -29 -69 -29 -97c0 -20 11.667 -56.333 35 -109h-283zM592 998l-123 122l-120 -122l120 -122z" />
    <glyph glyph-name="uFED0" unicode="&#x63a;" horiz-adv-x="798" arabic-form="medial" 
d="M-34 361l3.99902 -361.003h472c7.33301 6 17.666 17 30.999 33c6.66699 12.667 14.334 32 23.001 58c0 -18.667 9.33301 -38.667 28 -60c10 -13.333 23.333 -23.666 40 -30.999h268v361h-233c9.33301 59.333 40 105.333 92 138c16.667 10 37.334 17.667 62.001 23l17 130
l-114 56c-60 27.333 -118.667 41 -176 41c-38 0 -73 -5 -105 -15l-158 -69l-29 -13l17 -130c33.333 -9.33301 64 -26.666 92 -51.999c32.667 -29.333 54 -65.666 64 -108.999h-395zM406.999 547.997c-11.333 10.667 -25.3311 21 -41.998 31c32 27.333 68 41 108 41
c42.667 0 80.667 -13 114 -39c-31.333 -18.667 -56 -43 -74 -73c-10 -18 -18 -34.333 -24 -49c-4.66699 -12 -8.33398 -24.333 -11.001 -37c-2.66699 16.667 -6.33398 30.667 -11.001 42c-14.667 32.667 -34.667 60.667 -60 84zM599.001 993.997l-126 126l-129 -126
l129 -126z" />
    <glyph glyph-name="uFED2" unicode="&#x641;" horiz-adv-x="1043" arabic-form="final" 
d="M722 361l-418 1.99902c-76.667 0 -127.5 15.167 -152.5 45.5s-41.167 70.833 -48.5 121.5l-9 59l-73 -78v-275c0 -23.333 8.66699 -56 26 -98c20.667 -51.333 56 -89 106 -113c33.333 -15.333 64.333 -23 93 -23h812v361h-62v21c-0.666992 9.33301 -1 16.333 -1 21l-5 59
c-6.66699 72.667 -12.667 123.334 -18 152.001c-20.667 122.667 -62 190.334 -124 203.001h-9c-54 0 -111.667 -59.333 -173 -178c-24 -46.667 -36 -82.334 -36 -107.001c0 -65.333 30.667 -123 92 -173zM792 578.999c5.33301 5.33301 11.667 8.00098 19 8.00098
c30.667 -2.66699 48.667 -20 54 -52l38 -217l-134 161c-10 7.33301 -15 18.666 -15 33.999c0 33.333 12.667 55.333 38 66zM750.001 973l-130 131l-128 -131l128 -128z" />
    <glyph glyph-name="uFED3" unicode="&#x641;" horiz-adv-x="614" arabic-form="initial" 
d="M-17 361l0.00390625 -363h538v359c0 59.333 -5.33301 128.333 -16 207c-12.667 95.333 -34.334 165 -65.001 209c-20.667 30 -44.334 45 -71.001 45c-8.66699 0 -18 -2 -28 -6c-46.667 -16.667 -87.334 -52.667 -122.001 -108c-30.667 -46.667 -51.334 -98 -62.001 -154
c-3.33301 -15.333 -5 -26.333 -5 -33c0 -54 33.667 -106 101 -156h-270zM447.004 276l-133 164c-10.667 12.667 -16 28.667 -16 48c0 29.333 7.66699 50.333 23 63c6.66699 8 16.667 12 30 12c28 0 45.333 -18.333 52 -55zM341.004 975l-127 129l-128 -129l128 -125z" />
    <glyph glyph-name="uFED4" unicode="&#x641;" horiz-adv-x="567" arabic-form="medial" 
d="M-15 361l-8 -363.001h606v361h-50v6c0 58.667 -5.33301 126 -16 202c-13.333 94.667 -35 163.334 -65 206.001c-20.667 30 -44.334 45 -71.001 45c-8 0 -17.333 -2 -28 -6c-93.333 -32.667 -154.666 -119.667 -183.999 -261l-3 -20c-0.666992 -5.33301 -1 -10 -1 -14
c0 -48 28.667 -100 86 -156h-266zM459 275.999l-135.001 164c-9.33301 11.333 -14 27.333 -14 48c0 30 7.33301 51 22 63c6.66699 8 16.334 12 29.001 12c28 0 45.667 -18.333 53 -55zM352.999 1012l-117 118l-116 -118l116 -115z" />
    <glyph glyph-name="uFED6" unicode="&#x642;" horiz-adv-x="940" arabic-form="final" 
d="M549 393c8 4 16.6689 6 26.002 6c28.667 0 62.167 -18.667 100.5 -56s57.5 -69.666 57.5 -96.999c0 -6.66699 -1 -10.334 -3 -11.001c-18.667 -13.333 -40.334 -20 -65.001 -20c-32 0 -68.667 14 -110 42c-26.667 18.667 -40 43.667 -40 75
c0.666992 7.33301 1.66699 14 3 20c5.33301 19.333 15.666 33 30.999 41zM450.002 765l228 204l114 -101l-114 -103l-228 204l-116 -101zM492.002 -502l2.99707 2c124 0 226.333 49.333 307 148c75.333 92.667 113 202 113 328v26h42v357h-91l-42 55
c-84.667 106.667 -147.667 168 -189 184c-9.33301 3.33301 -20.666 5 -33.999 5c-41.333 0 -81.666 -32.333 -120.999 -97l-95 -163c-32 -51.333 -48 -97.333 -48 -138c0 -43.333 13.667 -79.333 41 -108c23.333 -24.667 53.666 -48 90.999 -70
c50.667 -30.667 97.334 -46 140.001 -46c13.333 0 27.333 2 42 6l138 186v-35c0 -103.333 -33.833 -188.333 -101.5 -255s-153.167 -100 -256.5 -100c-126 0 -210.667 81 -254 243c-16.667 64 -25 133.667 -25 209v90l-64 -100l-14 -64
c-10 -44.667 -15 -89.334 -15 -134.001c0 -139.333 38.667 -260.666 116 -363.999c82.667 -110 188.334 -165 317.001 -165z" />
    <glyph glyph-name="uFED7" unicode="&#x642;" horiz-adv-x="607" arabic-form="initial" 
d="M-37 361l0.000976562 -362.998h539v361c0 59.333 -5 128 -15 206c-12.667 94.667 -34.334 164 -65.001 208c-20.667 30 -44.667 45 -72 45c-8 0 -17 -2 -27 -6c-46.667 -16 -87.667 -51.667 -123 -107c-30 -46.667 -50.667 -98 -62 -154
c-3.33301 -14.667 -5 -25.334 -5 -32.001c0 -52.667 34 -105.334 102 -158.001h-272zM429.001 276.002l-133 164c-10.667 12.667 -16 28.667 -16 48c0 29.333 7.33301 50.333 22 63c8 8 18 12 30 12c19.333 0 34 -9.33301 44 -28c4 -7.33301 7 -16.333 9 -27z
M180.001 885.002l229 230l115 -114l-115 -116l-229 230l-114 -114z" />
    <glyph glyph-name="uFED8" unicode="&#x642;" horiz-adv-x="572" arabic-form="medial" 
d="M-8 361l-6.99902 -363.002h607v361h-50v6c0 62.667 -5.33301 129.334 -16 200.001c-14.667 96 -36.667 165.333 -66 208c-20.667 30 -44.334 45 -71.001 45c-7.33301 0 -16.333 -2 -27 -6c-46.667 -15.333 -87.667 -50.666 -123 -105.999
c-30 -47.333 -50.667 -99 -62 -155c-2 -10.667 -3 -22 -3 -34c0 -48 28.667 -100 86 -156h-268zM468.001 275.998l-135 164c-10 12 -15 28 -15 48c0 50 17 75 51 75c28.667 0 46.667 -18.333 54 -55zM146.001 896.998l205 207l105 -103l-105 -104l-205 207l-102 -103z" />
    <glyph glyph-name="uFEDE" unicode="&#x644;" horiz-adv-x="823" arabic-form="final" 
d="M488 -177v-2.99902c-30.667 -8.66699 -59 -13 -85 -13c-114 0 -190.333 78 -229 234c-14.667 59.333 -22 123.333 -22 192v29l-75 -91l-11 -59c-6.66699 -40 -10 -78.333 -10 -115c0 -126.667 31.667 -235.334 95 -326.001c70 -98.667 161.667 -148 275 -148
c96.667 0 176.667 41.667 240 125c53.333 70 83 162.333 89 277l4 73h85l-2 363h-83v709l-133 -167v-779c0 -80 -14.333 -149.333 -43 -208c-23.333 -50 -55 -81 -95 -93z" />
    <glyph glyph-name="uFEDF" unicode="&#x644;" horiz-adv-x="470" arabic-form="initial" 
d="M-37 361l-2 -363h216c42 0 76 25.333 102 76c22 42 33 86.333 33 133c0 20.667 0.5 51.5 1.5 92.5s1.5 71.833 1.5 92.5v278l72 79l-46 309l-145 -147v-550h-233z" />
    <glyph glyph-name="uFEE0" unicode="&#x644;" horiz-adv-x="460" arabic-form="medial" 
d="M-29 361l-0.000976562 -362.999h188c44 0 79.333 18 106 54c10 13.333 19 33.666 27 60.999c11.333 36 17 54.667 17 56v-11c0 -31.333 16 -70.666 48 -117.999c18.667 -28 55 -42 109 -42l18 2v361h-44c-18 0 -34.333 9.66699 -49 29c-13.333 12 -20 31.333 -20 58v614
l-137 -156v-456c2.66699 -10.667 4 -17.667 4 -21c-3.33301 -18.667 -9.66602 -33.334 -18.999 -44.001c-14 -16 -33 -24 -57 -24h-191z" />
    </font>
</defs>
</svg>
