<?xml version="1.0" standalone="no"?>
<!DOCTYPE svg PUBLIC "-//W3C//DTD SVG 1.1//EN" "http://www.w3.org/Graphics/SVG/1.1/DTD/svg11.dtd" >
<svg>
<metadata>
Created by FontForge 20090914 at Wed Oct 19 01:34:04 2011
 By www-data
(c) by Abolfazl Seilsepour - +98 912 591 3420  -  seilsepor@yahoo.com
</metadata>
<defs>
<font id="FarLotusBold" horiz-adv-x="0" >
  <font-face 
    font-family="Far.Lotus"
    font-weight="700"
    font-stretch="normal"
    units-per-em="2048"
    panose-1="0 0 7 0 0 0 0 0 0 0"
    ascent="1638"
    descent="-410"
    bbox="-166 -1497 2338 1982"
    underline-thickness="100"
    underline-position="-950"
    unicode-range="U+0020-U+FEFC"
  />
<missing-glyph horiz-adv-x="1024" 
d="M128 0v1205h768v-1205h-768zM256 128h512v949h-512v-949z" />
    <glyph glyph-name="uE818" unicode="&#x651;&#x64b;" 
d="M450 1358c0 -30 -10.332 -61.666 -30.999 -94.999c-24.667 -39.333 -55 -59 -91 -59c-14.667 0 -29.667 3.33301 -45 10c-40 -72 -88.667 -108 -146 -108c-22.667 0 -40.667 11.333 -54 34c-11.333 19.333 -17 41.333 -17 66c0 38.667 13.667 83 41 133
c5.33301 9.33301 11 14 17 14c7.33301 0 10.333 -4 9 -12c-4.66699 -36.667 -7 -60.334 -7 -71.001c0 -39.333 12.333 -59 37 -59c32.667 0 60.667 36.167 84 108.5s36 108.5 38 108.5c6 0 12 -19.333 18 -58s19 -58 39 -58c23.333 0 40.666 29.833 51.999 89.5
s19.333 89.5 24 89.5c21.333 0 32 -44.333 32 -133zM482.001 1697l-41 -104l-400 -197l40 96zM492.001 1866l-39 -104l-402 -195l41 96z" />
    <glyph glyph-name="uFC5E" unicode="&#x651;&#x64c;" arabic-form="isolated" 
d="M455 1364c0 -30.667 -10.332 -62.332 -30.999 -94.999c-24.667 -39.333 -55 -59 -91 -59c-14.667 0 -29.667 3.33301 -45 10c-40 -72 -88.667 -108 -146 -108c-22.667 0 -40.667 11.333 -54 34c-11.333 19.333 -17 41.333 -17 66c0 38.667 13.667 83 41 133
c5.33301 9.33301 11 14 17 14c7.33301 0 10.333 -4 9 -12c-4.66699 -36.667 -7 -60.334 -7 -71.001c0 -39.333 12.333 -59 37 -59c32.667 0 60.667 36.167 84 108.5s36 108.5 38 108.5c6 0 12 -19.333 18 -58s19 -58 39 -58c23.333 0 40.666 29.833 51.999 89.5
s19.333 89.5 24 89.5c21.333 0 32 -44.333 32 -133zM505.001 1829c0 -26.667 -7.16797 -57.5 -21.501 -92.5s-31.166 -62.167 -50.499 -81.5c6.66699 -4 25.667 -13 57 -27l-10 -95c-42.667 8 -80.667 28.667 -114 62c-94 -74 -185.333 -118.667 -274 -134l-57 39
c50 30.667 77.333 69.334 82 116.001c2.66699 26 0 41.667 -8 47c-16 11.333 -45 5.33301 -87 -18l-1 33c39.333 42.667 74 64 104 64c18 0 33.5 -6.5 46.5 -19.5s19.5 -28.833 19.5 -47.5c0 -33.333 -4 -59 -12 -77l-30 -51c85.333 35.333 136 65.666 152 90.999
c-30 32 -45 68 -45 108c0 32 21 69.667 63 113s78.667 65 110 65c50.667 0 76 -31.667 76 -95zM409 1835c-14 0 -30.833 -7.16797 -50.5 -21.501s-29.5 -28.166 -29.5 -41.499c0 -12.667 5.66699 -27.667 17 -45c12.667 -19.333 25 -29 37 -29c14.667 0 27 14 37 42
c8 22.667 12 43 12 61c0 22.667 -7.66699 34 -23 34z" />
    <glyph glyph-name="uFC5F" unicode="&#x651;&#x64d;" arabic-form="isolated" 
d="M476 1849c0 -30.667 -10.334 -62.332 -31.001 -94.999c-24.667 -39.333 -55 -59 -91 -59c-14.667 0 -29.667 3.33301 -45 10c-40 -72 -88.667 -108 -146 -108c-23.333 0 -41.666 11.333 -54.999 34c-10.667 19.333 -16 41.333 -16 66c0 38.667 13.667 83 41 133
c4.66699 9.33301 10.334 14 17.001 14s9.66699 -4 9 -12c-4.66699 -36.667 -7 -60.334 -7 -71.001c0 -39.333 12.333 -59 37 -59c32 0 59.667 36.167 83 108.5s36.333 108.5 39 108.5c5.33301 0 11 -19.333 17 -58s19.333 -58 40 -58c23.333 0 40.666 29.833 51.999 89.5
s19.333 89.5 24 89.5c21.333 0 32 -44.333 32 -133zM471.999 1465l-41 -104l-400 -197l40 97zM480.999 1634l-40 -104l-400 -196l40 96z" />
    <glyph glyph-name="uFC60" unicode="&#x651;&#x64e;" arabic-form="isolated" 
d="M437 1330c0 -30 -10.333 -61.666 -31 -94.999c-24.667 -39.333 -55 -59 -91 -59c-14.667 0 -29.667 3.33301 -45 10c-40 -72 -88.667 -108 -146 -108c-23.333 0 -41.666 11.333 -54.999 34c-10.667 19.333 -16 41.333 -16 66c0 38.667 13.667 83 41 133
c5.33301 9.33301 11 14 17 14c6.66699 0 9.66699 -4 9 -12c-4.66699 -36.667 -7 -60.334 -7 -71.001c0 -39.333 12.333 -59 37 -59c32 0 59.667 36.167 83 108.5s36.333 108.5 39 108.5c5.33301 0 11 -19.333 17 -58s19.333 -58 40 -58c23.333 0 40.666 29.833 51.999 89.5
s19.333 89.5 24 89.5c21.333 0 32 -44.333 32 -133zM477 1685l-41 -104l-400 -196l40 96z" />
    <glyph glyph-name="uFC61" unicode="&#x651;&#x64f;" arabic-form="isolated" 
d="M478 1342c0 -30 -10.332 -61.665 -30.999 -94.998c-24.667 -39.333 -55 -59 -91 -59c-14.667 0 -29.667 3.33301 -45 10c-40 -72 -88.667 -108 -146 -108c-22.667 0 -40.667 11.333 -54 34c-11.333 19.333 -17 41.333 -17 66c0 39.333 13.667 83.666 41 132.999
c5.33301 9.33301 11 14 17 14c7.33301 0 10.333 -4 9 -12c-4.66699 -36.667 -7 -60.334 -7 -71.001c0 -39.333 12.333 -59 37 -59c32.667 0 60.667 36.167 84 108.5s36 108.5 38 108.5c6 0 12 -19.333 18 -58s19 -58 39 -58c23.333 0 40.666 29.833 51.999 89.5
s19.333 89.5 24 89.5c21.333 0 32 -44.333 32 -133zM511.001 1807c0 -66.667 -22.667 -122.668 -68 -168.001c12 -10 30.333 -20.333 55 -31l-8 -91c-50.667 15.333 -91.667 37 -123 65c-92 -77.333 -186 -123.666 -282 -138.999c-32 4 -48.667 18 -50 42
c133.333 46 226 91.667 278 137c-32.667 32.667 -49 67 -49 103c0 32.667 20.667 70.5 62 113.5s78 64.5 110 64.5c50 0 75 -32 75 -96zM425.001 1814c-2.66699 0.666992 -5.66797 1.00098 -9.00098 1.00098c-14 0 -30.333 -6.66699 -49 -20
c-20.667 -14.667 -31 -29 -31 -43c0 -13.333 5.83301 -29 17.5 -47s23.834 -27 36.501 -27c14.667 0 26.667 14 36 42c8 23.333 12 43.333 12 60c0 19.333 -4.33301 30.666 -13 33.999z" />
    <glyph glyph-name="uFC62" unicode="&#x651;&#x650;" arabic-form="isolated" 
d="M452 1612c0 -30.667 -10.333 -62.332 -31 -94.999c-24.667 -39.333 -55 -59 -91 -59c-14.667 0 -29.667 3.33301 -45 10c-40 -72 -88.667 -108 -146 -108c-23.333 0 -41.333 11.333 -54 34c-11.333 19.333 -17 41.333 -17 66c0 38.667 13.667 83 41 133
c5.33301 9.33301 11 14 17 14c6.66699 0 9.66699 -4 9 -12c-4.66699 -36.667 -7 -60.334 -7 -71.001c0 -39.333 12.333 -59 37 -59c32 0 59.667 36.167 83 108.5s36.333 108.5 39 108.5c6 0 11.833 -19.333 17.5 -58s18.834 -58 39.501 -58
c23.333 0 40.666 29.833 51.999 89.5s19.333 89.5 24 89.5c21.333 0 32 -44.333 32 -133zM473 1411l-41 -103l-400 -196l40 95z" />
    <glyph glyph-name="uFDF2" unicode="&#xfedf;&#xfee0;&#xfeea;" horiz-adv-x="1218" arabic-form="isolated" 
d="M897 1343c0 -59.333 -19 -102 -57 -128c0 78 -10.333 152.667 -31 224l58 87c20 -31.333 30 -92.333 30 -183zM1024 1062c0 -33.333 -10.667 -65 -32 -95c-23.333 -32.667 -51 -49 -83 -49c-30 0 -55 9 -75 27c-28 -35.333 -65.333 -53 -112 -53
c-45.333 0 -68 34.667 -68 104c0 15.333 7.66699 40.666 23 75.999c16 38 29.667 57 41 57c16 0 24 -10 24 -30c0 -1.33301 -3.66699 -10.666 -11 -27.999s-11 -30 -11 -38c0 -22 17.333 -33 52 -33c20 0 39.333 24.5 58 73.5s33.667 73.5 45 73.5c12 0 18 -12 18 -36
c0 -14.667 -2.33301 -34 -7 -58c21.333 -15.333 35 -23 41 -23c21.333 0 34.333 9.33301 39 28c2.66699 10.667 4 29 4 55c0 40 9.33301 60 28 60c17.333 0 26 -37 26 -111zM1201 295c0 -194 -52.333 -290.997 -157 -290.997c-69.333 0 -128 40.333 -176 121
c-30 -56 -47.667 -87 -53 -93c-27.333 -30 -70.333 -45 -129 -45c-96 0 -150.667 52.333 -164 157l-12 96c-16 -17.333 -36.667 -37.333 -62 -60c-20.667 -10.667 -58 -16 -112 -16c-26 0 -52.333 3.66699 -79 11c-36 10 -54 23.333 -54 40c0 68 34.333 136.667 103 206
c60.667 61.333 129 105.666 205 132.999v16c22 37.333 51 82.666 87 135.999c6 6.66699 10.333 10.334 13 11.001c0.666992 0 1.33398 -0.333008 2.00098 -1c1.33301 -2.66699 2 -10.667 2 -24v-351c0 -80.667 27 -121 81 -121c80.667 0 121 24.333 121 73
c0 39.333 -13.333 163.666 -40 372.999c22 29.333 44.333 61 67 95c11.333 17.333 18.666 26.333 21.999 27c4.66699 0 8 -8.33301 10 -25c6 -54.667 18.667 -160.667 38 -318c19.333 -142.667 66 -214 140 -214c27.333 0 41 18.333 41 55c0 44 -12.833 109.5 -38.5 196.5
s-38.5 152.5 -38.5 196.5c0 18 22.333 60.667 67 128c7.33301 11.333 13 17 17 17c4.66699 0 7 -7.66699 7 -23c0 -56.667 15.333 -140.834 46 -252.501s46 -196.167 46 -253.5zM514 352.003l0.000976562 87.999c-34 0 -70 -13.333 -108 -40
c-30.667 -21.333 -49.334 -38.666 -56.001 -51.999c13.333 -10 37 -15 71 -15c36 0 67 6.33301 93 19z" />
    <glyph glyph-name="uFEF5" unicode="&#xfedf;&#xfe82;" horiz-adv-x="1085" arabic-form="isolated" 
d="M1083 1157c-50.667 -38 -75.998 -81.666 -75.998 -130.999c0 -148 -3.33301 -255.333 -10 -322c-11.333 -113.333 -35.666 -217.333 -72.999 -312c40 -83.333 60 -165.333 60 -246c0 -24 -12 -55.833 -36 -95.5s-46.667 -64.5 -68 -74.5
c-38.667 -17.333 -104.334 -26 -197.001 -26c-80 0 -146 5.66699 -198 17c-10 0 -15 9.33301 -15 28v184h54c45.333 0 97.666 29.333 156.999 88c50 49.333 78.333 86.666 85 111.999c-88 168 -228 345.667 -420 533l-27 -45c-4 -6.66699 -9 -7.66699 -15 -3
c-22.667 18 -60 54 -112 108c-59.333 61.333 -89 98.333 -89 111c0 13.333 10 45 30 95c23.333 58.667 45.333 92 66 100c115.333 -61.333 243.666 -188.666 384.999 -381.999c116 -158.667 200 -289.334 252 -392.001c34.667 68.667 52 181 52 337
c0 147.333 -13.667 258 -41 332l123 150zM871.002 184.001c-4.66699 24.667 -17.333 53.999 -38 87.999c-25.333 -37.333 -53.333 -69.666 -84 -96.999c15.333 -2 30 -3 44 -3c28.667 0 54.667 4 78 12zM530.003 1653c-31.333 -84 -83.9971 -137.002 -157.997 -159.002
c-34.667 -10.667 -75.334 -17 -122.001 -19c-33.333 -1.33301 -67 -3 -101 -5c-37.333 -4.66699 -67 -18 -89 -40c-10 -10 -17.333 -16 -22 -18c-5.33301 -2 -8 0 -8 6c-0.666992 6.66699 0.666016 16.334 3.99902 29.001c22 82.667 62.667 124 122 124
c8.66699 0 21.5 -0.5 38.5 -1.5s29.833 -1.5 38.5 -1.5c135.333 0 231 35 287 105c5.33301 6.66699 9.66602 10.334 12.999 11.001c6 0 5 -10.333 -3 -31z" />
    <glyph glyph-name="uFEF6" unicode="&#xfee0;&#xfe82;" horiz-adv-x="1304" arabic-form="final" 
d="M1334 1l-94.002 0.000976562c-81.333 0 -140 46.333 -176 139c-20 51.333 -55.333 207.333 -106 468c-25.333 -163.333 -50.666 -280.666 -75.999 -351.999c-52 -146 -132 -249 -240 -309c-33.333 -18.667 -91.666 -35.334 -174.999 -50.001
c-77.333 -14 -138.666 -20 -183.999 -18c-39.333 1.33301 -59 7 -59 17c0 8.66699 17 20.667 51 36c99.333 44.667 206 111.334 320 200.001c102 79.333 153 137.666 153 174.999c0 44.667 -51.333 120.167 -154 226.5s-176.334 159.5 -221.001 159.5l-18.5 -17.5
c-12.333 -11.667 -21.166 -17.5 -26.499 -17.5c-12.667 0 -51 20.667 -115 62c-70 45.333 -106.667 79.333 -110 102c-2.66699 19.333 -2.33398 62.666 0.999023 129.999c4 74.667 11 112 21 112c54 0 143.333 -43 268 -129c104 -72 184.333 -137.333 241 -196
c94.667 -98.667 156 -198 184 -298c48.667 113.333 71 321 67 623c22 32 52 82.667 90 152c10 18.667 16.667 29 20 31c3.33301 0 6.66602 -10 9.99902 -30l99 -638c14.667 -94.667 30 -163.667 46 -207c32.667 -90 78.334 -135 137.001 -135h47v-236zM529.998 1470
c-31.333 -84 -83.9971 -137.001 -157.997 -159.001c-34.667 -10.667 -75.334 -17 -122.001 -19c-33.333 -1.33301 -67 -3 -101 -5c-37.333 -4.66699 -67 -18 -89 -40c-10 -10 -17.333 -16 -22 -18c-5.33301 -2 -8 0 -8 6c-0.666992 6 0.666016 15.333 3.99902 28
c22 83.333 62.667 125 122 125c8.66699 0 21.5 -0.5 38.5 -1.5s29.833 -1.5 38.5 -1.5c135.333 0 231 35 287 105c5.33301 6.66699 9.66602 10.334 12.999 11.001c6 0 5 -10.333 -3 -31z" />
    <glyph glyph-name="uFEF7" unicode="&#xfedf;&#xfe84;" horiz-adv-x="1085" arabic-form="isolated" 
d="M1083 1157c-50.667 -38 -75.998 -81.666 -75.998 -130.999c0 -148 -3.33301 -255.333 -10 -322c-11.333 -113.333 -35.666 -217.333 -72.999 -312c40 -83.333 60 -165.333 60 -246c0 -24 -12 -55.833 -36 -95.5s-46.667 -64.5 -68 -74.5
c-38.667 -17.333 -104.334 -26 -197.001 -26c-80 0 -146 5.66699 -198 17c-10 0 -15 9.33301 -15 28v184h54c45.333 0 97.666 29.333 156.999 88c50 49.333 78.333 86.666 85 111.999c-88 168 -228 345.667 -420 533l-27 -45c-4 -6.66699 -9 -7.66699 -15 -3
c-22.667 18 -60 54 -112 108c-59.333 61.333 -89 98.333 -89 111c0 13.333 10 45 30 95c23.333 58.667 45.333 92 66 100c115.333 -61.333 243.666 -188.666 384.999 -381.999c116 -158.667 200 -289.334 252 -392.001c34.667 68.667 52 181 52 337
c0 147.333 -13.667 258 -41 332l123 150zM871.002 184.001c-4.66699 24.667 -17.333 53.999 -38 87.999c-25.333 -37.333 -53.333 -69.666 -84 -96.999c15.333 -2 30 -3 44 -3c28.667 0 54.667 4 78 12zM474.003 1592c-18.667 -44.667 -32.668 -76.332 -42.001 -94.999
c-128.667 -20.667 -233.667 -46.667 -315 -78c2.66699 9.33301 6.66699 20.666 12 33.999c33.333 38 66 62.333 98 73l-58 36c-15.333 12.667 -23 30.334 -23 53.001c0 36.667 18.833 76.667 56.5 120s74.5 65 110.5 65c42.667 0 64 -18.333 64 -55
c0 -38.667 -7 -66.667 -21 -84c-5.33301 -6.66699 -10.666 -4.33398 -15.999 6.99902c-14 30.667 -39.667 46 -77 46c-27.333 0 -41 -13 -41 -39c0 -24 15.667 -47.333 47 -70c28.667 -21.333 55.667 -32 81 -32c18 0 59.333 6.33301 124 19z" />
    <glyph glyph-name="uFEF8" unicode="&#xfee0;&#xfe84;" horiz-adv-x="1304" arabic-form="final" 
d="M1334 1l-94.002 0.000976562c-81.333 0 -140 46.333 -176 139c-20 51.333 -55.333 207.333 -106 468c-25.333 -163.333 -50.666 -280.666 -75.999 -351.999c-52 -146 -132 -249 -240 -309c-33.333 -18.667 -91.666 -35.334 -174.999 -50.001
c-77.333 -14 -138.666 -20 -183.999 -18c-39.333 1.33301 -59 7 -59 17c0 8.66699 17 20.667 51 36c99.333 44.667 206 111.334 320 200.001c102 79.333 153 137.666 153 174.999c0 44.667 -51.333 120.167 -154 226.5s-176.334 159.5 -221.001 159.5l-18.5 -17.5
c-12.333 -11.667 -21.166 -17.5 -26.499 -17.5c-12.667 0 -51 20.667 -115 62c-70 45.333 -106.667 79.333 -110 102c-2.66699 19.333 -2.33398 62.666 0.999023 129.999c4 74.667 11 112 21 112c54 0 143.333 -43 268 -129c104 -72 184.333 -137.333 241 -196
c94.667 -98.667 156 -198 184 -298c48.667 113.333 71 321 67 623c22 32 52 82.667 90 152c10 18.667 16.667 29 20 31c3.33301 0 6.66602 -10 9.99902 -30l99 -638c14.667 -94.667 30 -163.667 46 -207c32.667 -90 78.334 -135 137.001 -135h47v-236zM484.998 1420
c-18.667 -44.667 -32.668 -76.333 -42.001 -95l-131 -24c-54 -10 -115.333 -28.333 -184 -55c2.66699 10 6.66699 21.667 12 35c33.333 37.333 66 61.666 98 72.999l-58 36c-16 12.667 -24 30 -24 52c0 36.667 18.833 76.834 56.5 120.501s74.5 65.5 110.5 65.5
c43.333 0 65 -18.333 65 -55s-7.33301 -64.667 -22 -84c-5.33301 -7.33301 -10.666 -5.33301 -15.999 6c-14 30.667 -39.333 46 -76 46c-27.333 0 -41 -12.667 -41 -38c0 -24 15.667 -47.333 47 -70c29.333 -22 56.333 -33 81 -33c18 0 59.333 6.66699 124 20z" />
    <glyph glyph-name="uFEF9" unicode="&#xfedf;&#xfe88;" horiz-adv-x="1085" arabic-form="isolated" 
d="M1083 1157c-50.667 -38 -75.998 -81.666 -75.998 -130.999c0 -148 -3.33301 -255.333 -10 -322c-11.333 -113.333 -35.666 -217.333 -72.999 -312c40 -83.333 60 -165.333 60 -246c0 -24 -12 -55.833 -36 -95.5s-46.667 -64.5 -68 -74.5
c-38.667 -17.333 -104.334 -26 -197.001 -26c-80 0 -146 5.66699 -198 17c-10 0 -15 9.33301 -15 28v184h54c45.333 0 97.666 29.333 156.999 88c50 49.333 78.333 86.666 85 111.999c-88 168 -228 345.667 -420 533l-27 -45c-4 -6.66699 -9 -7.66699 -15 -3
c-22.667 18 -60 54 -112 108c-59.333 61.333 -89 98.333 -89 111c0 13.333 10 45 30 95c23.333 58.667 45.333 92 66 100c115.333 -61.333 243.666 -188.666 384.999 -381.999c116 -158.667 200 -289.334 252 -392.001c34.667 68.667 52 181 52 337
c0 147.333 -13.667 258 -41 332l123 150zM871.002 184.001c-4.66699 24.667 -17.333 53.999 -38 87.999c-25.333 -37.333 -53.333 -69.666 -84 -96.999c15.333 -2 30 -3 44 -3c28.667 0 54.667 4 78 12zM604.003 -370c-18.667 -44.667 -32.667 -76.332 -42 -94.999
c-132 -21.333 -237 -47.333 -315 -78c2.66699 10 6.66699 21.333 12 34c32.667 38 65.334 62.667 98.001 74l-58 35c-16 13.333 -24 31 -24 53c0 37.333 18.667 77.5 56 120.5s74.333 64.5 111 64.5c43.333 0 65 -18.333 65 -55c0 -38 -7.33301 -66 -22 -84
c-5.33301 -6.66699 -10.666 -4.33398 -15.999 6.99902c-14.667 30.667 -40.334 46 -77.001 46c-27.333 0 -41 -13 -41 -39c0 -24.667 15.667 -48 47 -70c29.333 -21.333 56.666 -32 81.999 -32c18 0 59.333 6.33301 124 19z" />
    <glyph glyph-name="uFEFA" unicode="&#xfee0;&#xfe88;" horiz-adv-x="1304" arabic-form="final" 
d="M1334 1l-94.002 0.000976562c-81.333 0 -140 46.333 -176 139c-20 51.333 -55.333 207.333 -106 468c-25.333 -163.333 -50.666 -280.666 -75.999 -351.999c-52 -146 -132 -249 -240 -309c-33.333 -18.667 -91.666 -35.334 -174.999 -50.001
c-77.333 -14 -138.666 -20 -183.999 -18c-39.333 1.33301 -59 7 -59 17c0 8.66699 17 20.667 51 36c99.333 44.667 206 111.334 320 200.001c102 79.333 153 137.666 153 174.999c0 44.667 -51.333 120.167 -154 226.5s-176.334 159.5 -221.001 159.5l-18.5 -17.5
c-12.333 -11.667 -21.166 -17.5 -26.499 -17.5c-12.667 0 -51 20.667 -115 62c-70 45.333 -106.667 79.333 -110 102c-2.66699 19.333 -2.33398 62.666 0.999023 129.999c4 74.667 11 112 21 112c54 0 143.333 -43 268 -129c104 -72 184.333 -137.333 241 -196
c94.667 -98.667 156 -198 184 -298c48.667 113.333 71 321 67 623c22 32 52 82.667 90 152c10 18.667 16.667 29 20 31c3.33301 0 6.66602 -10 9.99902 -30l99 -638c14.667 -94.667 30 -163.667 46 -207c32.667 -90 78.334 -135 137.001 -135h47v-236zM603.998 -444.999
c-18.667 -44.667 -32.668 -76.3301 -42.001 -94.9971c-129.333 -20.667 -234.333 -47 -315 -79c2.66699 10 6.66699 21.667 12 35c32.667 37.333 65.334 61.666 98.001 72.999l-58 36c-16 12.667 -24 30 -24 52c0 37.333 18.667 77.666 56 120.999s74.333 65 111 65
c43.333 0 65 -18.333 65 -55c0 -37.333 -7.33301 -65.333 -22 -84c-5.33301 -6.66699 -10.666 -4.66699 -15.999 6c-14.667 31.333 -40.334 47 -77.001 47c-27.333 0 -41 -13 -41 -39c0 -24.667 15.667 -48.334 47 -71.001c28.667 -21.333 56 -32 82 -32
c18 0 59.333 6.66699 124 20z" />
    <glyph glyph-name="uFEFB" unicode="&#xfedf;&#xfe8e;" horiz-adv-x="1085" arabic-form="isolated" 
d="M1083 1157c-50.667 -38 -75.998 -81.666 -75.998 -130.999c0 -148 -3.33301 -255.333 -10 -322c-11.333 -113.333 -35.666 -217.333 -72.999 -312c40 -83.333 60 -165.333 60 -246c0 -24 -12 -55.833 -36 -95.5s-46.667 -64.5 -68 -74.5
c-38.667 -17.333 -104.334 -26 -197.001 -26c-80 0 -146 5.66699 -198 17c-10 0 -15 9.33301 -15 28v184h54c45.333 0 97.666 29.333 156.999 88c50 49.333 78.333 86.666 85 111.999c-88 168 -228 345.667 -420 533l-27 -45c-4 -6.66699 -9 -7.66699 -15 -3
c-22.667 18 -60 54 -112 108c-59.333 61.333 -89 98.333 -89 111c0 13.333 10 45 30 95c23.333 58.667 45.333 92 66 100c115.333 -61.333 243.666 -188.666 384.999 -381.999c116 -158.667 200 -289.334 252 -392.001c34.667 68.667 52 181 52 337
c0 147.333 -13.667 258 -41 332l123 150zM871.002 184.001c-4.66699 24.667 -17.333 53.999 -38 87.999c-25.333 -37.333 -53.333 -69.666 -84 -96.999c15.333 -2 30 -3 44 -3c28.667 0 54.667 4 78 12z" />
    <glyph glyph-name="uFEFC" unicode="&#xfee0;&#xfe8e;" horiz-adv-x="1304" arabic-form="final" 
d="M1334 1l-94.002 0.000976562c-81.333 0 -140 46.333 -176 139c-20 51.333 -55.333 207.333 -106 468c-25.333 -163.333 -50.666 -280.666 -75.999 -351.999c-52 -146 -132 -249 -240 -309c-33.333 -18.667 -91.666 -35.334 -174.999 -50.001
c-77.333 -14 -138.666 -20 -183.999 -18c-39.333 1.33301 -59 7 -59 17c0 8.66699 17 20.667 51 36c99.333 44.667 206 111.334 320 200.001c102 79.333 153 137.666 153 174.999c0 44.667 -51.333 120.167 -154 226.5s-176.334 159.5 -221.001 159.5l-18.5 -17.5
c-12.333 -11.667 -21.166 -17.5 -26.499 -17.5c-12.667 0 -51 20.667 -115 62c-70 45.333 -106.667 79.333 -110 102c-2.66699 19.333 -2.33398 62.666 0.999023 129.999c4 74.667 11 112 21 112c54 0 143.333 -43 268 -129c104 -72 184.333 -137.333 241 -196
c94.667 -98.667 156 -198 184 -298c48.667 113.333 71 321 67 623c22 32 52 82.667 90 152c10 18.667 16.667 29 20 31c3.33301 0 6.66602 -10 9.99902 -30l99 -638c14.667 -94.667 30 -163.667 46 -207c32.667 -90 78.334 -135 137.001 -135h47v-236z" />
    <glyph glyph-name="u0622" unicode="&#x622;" horiz-adv-x="593" arabic-form="isolated" 
d="M614 1577c-32 -88.667 -84.6689 -143.999 -158.002 -165.999c-32.667 -10 -73.334 -16 -122.001 -18c-33.333 -1.33301 -66.666 -3 -99.999 -5c-36 -4.66699 -66 -18 -90 -40c-10 -11.333 -17.667 -17 -23 -17c-7.33301 0 -7.66602 13 -0.999023 39
c19.333 73.333 52.333 114 99 122c18.667 3.33301 62 5.66602 130 6.99902c122.667 2.66699 208 34.667 256 96c6 8 10.333 12 13 12c4.66699 0 3.33398 -10 -3.99902 -30zM482.998 323.001c6 -108.667 -20.332 -205.001 -78.999 -289.001c-18 -25.333 -30.333 -38 -37 -38
c-8 0 -10.667 17 -8 51c6.66699 88 0.666992 218 -18 390c-25.333 232.667 -39.333 424 -42 574c17.333 32 56.666 90 117.999 174c15.333 21.333 25 32 29 32c6 0 8 -30.667 6 -92c-3.33301 -107.333 7 -374.666 31 -801.999z" />
    <glyph glyph-name="u0623" unicode="&#x623;" horiz-adv-x="478" arabic-form="isolated" 
d="M515 1450c-18.667 -44.667 -32.668 -76.3311 -42.001 -94.998c-130 -20.667 -235 -47 -315 -79c2.66699 10 6.66699 21.667 12 35c33.333 37.333 66 61.666 98 72.999l-58 36c-16 12.667 -24 30 -24 52c0 37.333 18.833 77.666 56.5 120.999s74.834 65 111.501 65
c42.667 0 64 -18.333 64 -55c0 -38 -7 -66 -21 -84c-6 -7.33301 -11.667 -5.33301 -17 6c-14 31.333 -39.333 47 -76 47c-27.333 0 -41 -13 -41 -39c0 -24 15.667 -47.333 47 -70c29.333 -22 56.333 -33 81 -33c18 0 59.333 6.66699 124 20zM428.999 323.003
c6 -108 -20.333 -204.333 -79 -289c-17.333 -25.333 -29.666 -38 -36.999 -38c-8 0 -10.667 17 -8 51c6.66699 86.667 0.666992 216.667 -18 390c-24.667 229.333 -38.667 420.666 -42 573.999c17.333 32 56.666 90 117.999 174c15.333 21.333 25 32 29 32
c6 0 8 -30.667 6 -92c-3.33301 -107.333 7 -374.666 31 -801.999z" />
    <glyph glyph-name="u0624" unicode="&#x624;" horiz-adv-x="855" arabic-form="isolated" 
d="M853 235c0 -163.333 -52.998 -316.334 -158.998 -459.001c-92.667 -124.667 -192.334 -187 -299.001 -187c-43.333 0 -95 20.667 -155 62c-56 39.333 -96.333 79.333 -121 120c-14 23.333 -21 40 -21 50c0 8.66699 5 13 15 13c7.33301 0 14.333 -1 21 -3
c56.667 -16.667 117.334 -25 182.001 -25c84.667 0 172 32.333 262 97c79.333 56.667 136 117.334 170 182.001c9.33301 18 8.66602 35 -2.00098 51c-42 -35.333 -81.667 -53 -119 -53c-94.667 0 -142 61.333 -142 184c0 55.333 21 120.333 63 195
c46.667 83.333 95 125 145 125c57.333 0 100.666 -47.667 129.999 -143c20 -66 30 -135.667 30 -209zM736.002 282.999c0 24 -7 48 -21 72c-16 28 -35 42 -57 42c-38 0 -57 -20.667 -57 -62c0 -44.667 15.333 -68 46 -70c59.333 -4 89 2 89 18zM817.002 909.999
l-42.001 -96.001c-130 -20.667 -235.333 -46.667 -316 -78c2.66699 10 7.33398 21.333 14.001 34c30.667 38 63 62.333 97 73c-54.667 34 -82 63.667 -82 89c0 36.667 19 76.667 57 120s75 65 111 65c42.667 0 64 -18 64 -54c0 -37.333 -7.33301 -65.333 -22 -84
c-6 -7.33301 -11.333 -5.66602 -16 5.00098c-14.667 30.667 -39.667 46 -75 46c-28 0 -42 -12.667 -42 -38c0 -24 15.667 -47.333 47 -70c28.667 -21.333 55.667 -32 81 -32c26 0 67.333 6.66699 124 20z" />
    <glyph glyph-name="u0625" unicode="&#x625;" horiz-adv-x="525" arabic-form="isolated" 
d="M461 323c6 -108.667 -20.001 -204.999 -78.001 -288.999c-17.333 -25.333 -29.666 -38 -36.999 -38c-8.66699 0 -11.667 17 -9 51c6.66699 86.667 0.666992 216.667 -18 390c-24.667 229.333 -38.667 420.666 -42 573.999c17.333 31.333 57 89.333 119 174
c14.667 20 24 30.667 28 32c6 0 8 -30.667 6 -92c-3.33301 -102.667 7 -370 31 -802zM527.999 -326.999c-18.667 -44 -32.668 -75.332 -42.001 -93.999l-131 -24c-57.333 -10.667 -118.666 -29 -183.999 -55c2.66699 10 6.66699 21.333 12 34c33.333 38 66 62.667 98 74
l-58 35c-16 13.333 -24 31 -24 53c0 36.667 18.833 76.667 56.5 120s74.5 65 110.5 65c43.333 0 65 -18.333 65 -55c0 -37.333 -7 -65.333 -21 -84c-6 -6.66699 -11.667 -4.33398 -17 6.99902c-14 30.667 -39.333 46 -76 46c-27.333 0 -41 -13 -41 -39
c0 -24 15.667 -47.333 47 -70c28.667 -21.333 55.667 -32 81 -32c18 0 59.333 6.33301 124 19z" />
    <glyph glyph-name="u0626" unicode="&#x626;" horiz-adv-x="1332" arabic-form="isolated" 
d="M1332 598c0 -12 -7.66699 -42 -23 -90c-16.667 -52 -28 -78 -34 -78l-30 9c-20 6 -43.667 9 -71 9c-36.667 0 -91 -20 -163 -60c-76.667 -42.667 -115 -80 -115 -112c0 -30 35 -50.333 105 -61l194 -30c70 -18.667 105 -51.667 105 -99c0 -34 -5 -80 -15 -138
c-12 -69.333 -25 -113.333 -39 -132c-41.333 -55.333 -121.333 -113.333 -240 -174c-142 -72.667 -275.667 -109 -401 -109c-136 0 -236.333 29 -301 87c-67.333 60.667 -101 158.334 -101 293.001c0 116.667 48.667 248 146 394c11.333 16.667 22.333 25 33 25
c8 0 12 -4.33301 12 -13c0 -4 -1.33301 -8.66699 -4 -14c-62 -123.333 -93 -219 -93 -287c0 -166.667 119.333 -250 358 -250c148 0 295 32 441 96c56 24.667 84 53.667 84 87c0 16.667 -56.333 32 -169 46c-81.333 10 -139 27 -173 51c-46 32 -69 84 -69 156
c0 40 22.667 94.333 68 163c34 51.333 72 98.666 114 141.999c107.333 110.667 200.333 166 279 166c25.333 0 48 -6.33301 68 -19c22.667 -14.667 34 -34 34 -58zM589 682c-18.667 -44.667 -33 -76.332 -43 -94.999c-133.333 -21.333 -238 -47.333 -314 -78
c2.66699 10 6.66699 21.333 12 34c32.667 38 65.334 62.667 98.001 74l-58 35c-16 13.333 -24 31 -24 53c0 37.333 18.667 77.5 56 120.5s74.333 64.5 111 64.5c43.333 0 65 -18.333 65 -55c0 -38 -7.33301 -66 -22 -84c-5.33301 -6.66699 -10.666 -4.33398 -15.999 6.99902
c-14.667 30.667 -40.334 46 -77.001 46c-27.333 0 -41 -13 -41 -39c0 -24.667 15.667 -48 47 -70c29.333 -21.333 56.666 -32 81.999 -32c18 0 59.333 6.33301 124 19z" />
    <glyph glyph-name="u0627" unicode="&#x627;" horiz-adv-x="390" arabic-form="isolated" 
d="M386 323c6 -108.667 -20.332 -205.001 -78.999 -289.001c-18 -25.333 -30.333 -38 -37 -38c-8 0 -10.667 17 -8 51c6.66699 88 0.666992 218 -18 390c-25.333 232.667 -39.333 424 -42 574c17.333 32 56.666 90 117.999 174c15.333 21.333 25 32 29 32
c6 0 8 -30.667 6 -92c-3.33301 -107.333 7 -374.666 31 -801.999z" />
    <glyph glyph-name="u0628" unicode="&#x628;" horiz-adv-x="1643" arabic-form="isolated" 
d="M1641 420c0 -55.333 -14 -115.001 -42 -179.001c-22 -50 -41.333 -83 -58 -99c-44 -41.333 -136.667 -81.666 -278 -120.999c-170.667 -47.333 -349.334 -71 -536.001 -71c-135.333 0 -247.333 17.667 -336 53c-125.333 50 -188 133 -188 249c0 46 10.5 96.5 31.5 151.5
s47.167 99.833 78.5 134.5c18 20 27 19.333 27 -2c0 -8 -3.33301 -18 -10 -30c-20 -35.333 -30 -76 -30 -122c0 -52.667 41 -99.334 123 -140.001c94 -46.667 216.333 -70 367 -70c160.667 0 300.334 12.333 419.001 37c230.667 48 346 88.667 346 122
c0 28.667 -27.667 75.667 -83 141l59 148c9.33301 24 18 36 26 36c6 0 13.333 -8 22 -24c41.333 -75.333 62 -146.666 62 -213.999zM1048 -341.001c-51.333 -80.667 -89 -145.667 -113 -195c-28 20 -86.667 54 -176 102c36.667 53.333 72.667 119.333 108 198
c62.667 -44 123 -79 181 -105z" />
    <glyph glyph-name="u0629" unicode="&#x629;" horiz-adv-x="617" arabic-form="isolated" 
d="M608 337c15.333 -126 9.99805 -210.333 -16.002 -253c-16.667 -27.333 -49 -50.333 -97 -69c-41.333 -16 -80.666 -24 -117.999 -24c-54.667 0 -98 21.333 -130 64c-29.333 38.667 -44 86 -44 142s18 132 54 228c42 112 85 168 129 168c52.667 0 102.334 -30 149.001 -90
c42 -54 66.333 -109.333 73 -166zM516.998 248c0 26.667 -20.667 52.334 -62 77.001c-37.333 22 -70.333 33 -99 33c-14 0 -26.333 -14.667 -37 -44c-8.66699 -24.667 -13 -45.334 -13 -62.001c0 -24.667 40.333 -37 121 -37c60 0 90 11 90 33zM552.998 915l-43 -96
c-136.667 -22 -242 -48 -316 -78c3.33301 9.33301 8 21 14 35c33.333 38 65.666 62 96.999 72c-54.667 36 -82 66 -82 90c0 36.667 19 76.5 57 119.5s75 64.5 111 64.5c42.667 0 64 -18 64 -54c0 -36.667 -7.33301 -64.667 -22 -84
c-5.33301 -7.33301 -10.666 -5.33301 -15.999 6c-14.667 30.667 -39.667 46 -75 46c-28 0 -42 -13 -42 -39c0 -24 15.667 -47.333 47 -70c28.667 -21.333 55.667 -32 81 -32c13.333 0 55 6.66699 125 20z" />
    <glyph glyph-name="u062A" unicode="&#x62a;" horiz-adv-x="1643" arabic-form="isolated" 
d="M1641 420c0 -55.333 -14 -115.001 -42 -179.001c-22 -50 -41.333 -83 -58 -99c-44 -41.333 -136.667 -81.666 -278 -120.999c-170.667 -47.333 -349.334 -71 -536.001 -71c-135.333 0 -247.333 17.667 -336 53c-125.333 50 -188 133 -188 249c0 46 10.5 96.5 31.5 151.5
s47.167 99.833 78.5 134.5c18 20 27 19.333 27 -2c0 -8 -3.33301 -18 -10 -30c-20 -35.333 -30 -76 -30 -122c0 -52.667 41 -99.334 123 -140.001c94 -46.667 216.333 -70 367 -70c160.667 0 300.334 12.333 419.001 37c230.667 48 346 88.667 346 122
c0 28.667 -27.667 75.667 -83 141l59 148c9.33301 24 18 36 26 36c6 0 13.333 -8 22 -24c41.333 -75.333 62 -146.666 62 -213.999zM1087 774.999c-31.333 -38 -66.667 -85.0029 -106 -141.003l-109 74l-67 -95l-152 112c22 30.667 53.667 78.334 95 143.001
c30 -25.333 68.667 -53.666 116 -84.999c15.333 20.667 37 54.334 65 101.001z" />
    <glyph glyph-name="u062B" unicode="&#x62b;" horiz-adv-x="1643" arabic-form="isolated" 
d="M1641 420c0 -55.333 -14 -115.001 -42 -179.001c-22 -50 -41.333 -83 -58 -99c-44 -41.333 -136.667 -81.666 -278 -120.999c-170.667 -47.333 -349.334 -71 -536.001 -71c-135.333 0 -247.333 17.667 -336 53c-125.333 50 -188 133 -188 249c0 46 10.5 96.5 31.5 151.5
s47.167 99.833 78.5 134.5c18 20 27 19.333 27 -2c0 -8 -3.33301 -18 -10 -30c-20 -35.333 -30 -76 -30 -122c0 -52.667 41 -99.334 123 -140.001c94 -46.667 216.333 -70 367 -70c160.667 0 300.334 12.333 419.001 37c230.667 48 346 88.667 346 122
c0 28.667 -27.667 75.667 -83 141l59 148c9.33301 24 18 36 26 36c6 0 13.333 -8 22 -24c41.333 -75.333 62 -146.666 62 -213.999zM923 928.999l-85 -150.001l-152 101c21.333 32.667 51 82.334 89 149.001zM1075 709.998c-30 -37.333 -61.999 -84.666 -95.999 -141.999
c-48.667 32.667 -88.667 57.334 -120 74.001c-18.667 -23.333 -43.334 -56 -74.001 -98l-152 114c38 50 68 95.333 90 136c28.667 -24 71 -54.667 127 -92c17.333 19.333 43.666 57.666 78.999 114.999c26.667 -22.667 75.334 -58.334 146.001 -107.001z" />
    <glyph glyph-name="u062C" unicode="&#x62c;" horiz-adv-x="1292" arabic-form="isolated" 
d="M1477 -711c-176.667 -92.667 -296.668 -148.333 -360.001 -167c-75.333 -22 -151.666 -33 -228.999 -33c-194.667 0 -352.334 39.667 -473.001 119c-141.333 93.333 -212 232.333 -212 417c0 165.333 51 316.333 153 453c82 110.667 177 191 285 241
c-70.667 12 -133.667 18 -189 18c-64 0 -110.667 -12 -140 -36c-23.333 -18.667 -40.333 -28 -51 -28c-8 0 -12 5.33301 -12 16c0 7.33301 2.66699 18.333 8 33c61.333 166.667 148 250 260 250c58.667 0 147.667 -9.33301 267 -28c116.667 -18.667 205.667 -27.667 267 -27
c36.667 0.666992 86.667 3.66699 150 9c22.667 2 34 -0.666992 34 -8c0 -5.33301 -2.33301 -13 -7 -23l-82 -178c-93.333 -8 -190.333 -25.667 -291 -53c-135.333 -36.667 -252.666 -99 -351.999 -187c-116 -103.333 -174 -218 -174 -344c0 -145.333 74.667 -253 224 -323
c113.333 -53.333 251.333 -80 414 -80c175.333 0 342.333 10.333 501 31c5.33301 0.666992 11.333 1 18 1c26.667 0 40 -7.33301 40 -22c0 -16.667 -16.333 -33.667 -49 -51zM929.999 -233.999c-55.333 -88.667 -92.667 -153.999 -112 -195.999c-35.333 24 -94 58 -176 102
c36.667 52.667 72.667 118.667 108 198c63.333 -44.667 123.333 -79.334 180 -104.001z" />
    <glyph glyph-name="u062D" unicode="&#x62d;" horiz-adv-x="1292" arabic-form="isolated" 
d="M1477 -711c-176.667 -92.667 -296.668 -148.333 -360.001 -167c-75.333 -22 -151.666 -33 -228.999 -33c-194.667 0 -352.334 39.667 -473.001 119c-141.333 93.333 -212 232.333 -212 417c0 165.333 51 316.333 153 453c82 110.667 177 191 285 241
c-70.667 12 -133.667 18 -189 18c-64 0 -110.667 -12 -140 -36c-23.333 -18.667 -40.333 -28 -51 -28c-8 0 -12 5.33301 -12 16c0 7.33301 2.66699 18.333 8 33c61.333 166.667 148 250 260 250c58.667 0 147.667 -9.33301 267 -28c116.667 -18.667 205.667 -27.667 267 -27
c36.667 0.666992 86.667 3.66699 150 9c22.667 2 34 -0.666992 34 -8c0 -5.33301 -2.33301 -13 -7 -23l-82 -178c-93.333 -8 -190.333 -25.667 -291 -53c-135.333 -36.667 -252.666 -99 -351.999 -187c-116 -103.333 -174 -218 -174 -344c0 -145.333 74.667 -253 224 -323
c113.333 -53.333 251.333 -80 414 -80c175.333 0 342.333 10.333 501 31c5.33301 0.666992 11.333 1 18 1c26.667 0 40 -7.33301 40 -22c0 -16.667 -16.333 -33.667 -49 -51z" />
    <glyph glyph-name="u062E" unicode="&#x62e;" horiz-adv-x="1292" arabic-form="isolated" 
d="M1477 -711c-176.667 -92.667 -296.668 -148.333 -360.001 -167c-75.333 -22 -151.666 -33 -228.999 -33c-194.667 0 -352.334 39.667 -473.001 119c-141.333 93.333 -212 232.333 -212 417c0 165.333 51 316.333 153 453c82 110.667 177 191 285 241
c-70.667 12 -133.667 18 -189 18c-64 0 -110.667 -12 -140 -36c-23.333 -18.667 -40.333 -28 -51 -28c-8 0 -12 5.33301 -12 16c0 7.33301 2.66699 18.333 8 33c61.333 166.667 148 250 260 250c58.667 0 147.667 -9.33301 267 -28c116.667 -18.667 205.667 -27.667 267 -27
c36.667 0.666992 86.667 3.66699 150 9c22.667 2 34 -0.666992 34 -8c0 -5.33301 -2.33301 -13 -7 -23l-82 -178c-93.333 -8 -190.333 -25.667 -291 -53c-135.333 -36.667 -252.666 -99 -351.999 -187c-116 -103.333 -174 -218 -174 -344c0 -145.333 74.667 -253 224 -323
c113.333 -53.333 251.333 -80 414 -80c175.333 0 342.333 10.333 501 31c5.33301 0.666992 11.333 1 18 1c26.667 0 40 -7.33301 40 -22c0 -16.667 -16.333 -33.667 -49 -51zM804.999 971.001c-50.667 -78.667 -88 -143.667 -112 -195c-28 19.333 -86.667 53 -176 101
c33.333 48.667 69.333 114.667 108 198c59.333 -41.333 119.333 -76 180 -104z" />
    <glyph glyph-name="u062F" unicode="&#x62f;" horiz-adv-x="774" arabic-form="isolated" 
d="M769 259c0 -71.333 -10.833 -122 -32.5 -152s-66.5 -56.333 -134.5 -79c-82 -27.333 -171.333 -41 -268 -41c-66.667 0 -110.334 12 -131.001 36c0 61.333 6.66699 127 20 197c4 21.333 10.667 32 20 32l32 -17c22.667 -12 59 -18 109 -18c56.667 0 115.334 5 176.001 15
c76.667 12.667 115 29 115 49c0 40.667 -40.333 87.334 -121 140.001c-69.333 45.333 -129.333 73.666 -180 84.999c-8.66699 2 -11.667 9 -9 21c30 131.333 50.667 197 62 197c54.667 0 121.667 -43.333 201 -130c94 -102 141 -213.667 141 -335z" />
    <glyph glyph-name="u0630" unicode="&#x630;" horiz-adv-x="774" arabic-form="isolated" 
d="M769 259c0 -71.333 -10.833 -122 -32.5 -152s-66.5 -56.333 -134.5 -79c-82 -27.333 -171.333 -41 -268 -41c-66.667 0 -110.334 12 -131.001 36c0 61.333 6.66699 127 20 197c4 21.333 10.667 32 20 32l32 -17c22.667 -12 59 -18 109 -18c56.667 0 115.334 5 176.001 15
c76.667 12.667 115 29 115 49c0 40.667 -40.333 87.334 -121 140.001c-69.333 45.333 -129.333 73.666 -180 84.999c-8.66699 2 -11.667 9 -9 21c30 131.333 50.667 197 62 197c54.667 0 121.667 -43.333 201 -130c94 -102 141 -213.667 141 -335zM527 1082
c-54.667 -88 -92.3311 -153.334 -112.998 -196.001c-40.667 28.667 -99.334 62.334 -176.001 101.001c37.333 56 73.666 122.333 108.999 199c60.667 -43.333 120.667 -78 180 -104z" />
    <glyph glyph-name="u0631" unicode="&#x631;" horiz-adv-x="809" arabic-form="isolated" 
d="M806 134c0 -138.667 -39.666 -258.333 -118.999 -359c-38 -48.667 -82 -90 -132 -124c-60 -41.333 -115.667 -62 -167 -62c-75.333 0 -161.333 33.667 -258 101c-21.333 14.667 -32 26.667 -32 36c0 8.66699 9.33301 13 28 13c5.33301 0 12.666 -0.666992 21.999 -2
c22 -3.33301 43.667 -5 65 -5c140.667 0 269 66.667 385 200c63.333 72.667 95 130.334 95 173.001c0 37.333 -47.333 99.333 -142 186l99 181c4 7.33301 9 8.66602 15 3.99902c94 -72.667 141 -186.667 141 -342z" />
    <glyph glyph-name="u0632" unicode="&#x632;" horiz-adv-x="809" arabic-form="isolated" 
d="M806 134c0 -138.667 -39.666 -258.333 -118.999 -359c-38 -48.667 -82 -90 -132 -124c-60 -41.333 -115.667 -62 -167 -62c-75.333 0 -161.333 33.667 -258 101c-21.333 14.667 -32 26.667 -32 36c0 8.66699 9.33301 13 28 13c5.33301 0 12.666 -0.666992 21.999 -2
c22 -3.33301 43.667 -5 65 -5c140.667 0 269 66.667 385 200c63.333 72.667 95 130.334 95 173.001c0 37.333 -47.333 99.333 -142 186l99 181c4 7.33301 9 8.66602 15 3.99902c94 -72.667 141 -186.667 141 -342zM689.001 876.001
c-54 -87.333 -91.332 -152.666 -111.999 -195.999c-26.667 18.667 -85.334 53 -176.001 103c37.333 55.333 73.333 121 108 197c63.333 -44.667 123.333 -79.334 180 -104.001z" />
    <glyph glyph-name="u0633" unicode="&#x633;" horiz-adv-x="1872" arabic-form="isolated" 
d="M1870 329c0 -64.667 -14.332 -122 -42.999 -172c-34 -59.333 -81.333 -89 -142 -89c-80 0 -141.667 26.667 -185 80c-64.667 -98 -144.334 -147 -239.001 -147c-42 0 -86.667 3.66699 -134 11c0 -188 -45 -332.333 -135 -433c-94.667 -106 -235 -159 -421 -159
c-105.333 0 -191 24 -257 72c-74 54.667 -111 133 -111 235c0 51.333 13 109.333 39 174c24 60.667 53.333 112.667 88 156c10.667 13.333 19.667 20 27 20c8.66699 0 13 -6 13 -18c0 -6 -2 -12.667 -6 -20c-43.333 -78 -65 -146.333 -65 -205c0 -120 104.333 -180 313 -180
c68 0 137 8.66699 207 26c88 22 147.333 54.333 178 97c28.667 40 43 106.333 43 199c0 43.333 -15 82.333 -45 117c-42.667 49.333 -69 86.333 -79 111l90 137c8.66699 13.333 14.667 20 18 20s8.66602 -5.33301 15.999 -16c26 -37.333 49.667 -63 71 -77
c31.333 -20.667 73.333 -31 126 -31c78.667 0 141.334 17 188.001 51c29.333 21.333 55.333 53 78 95c18.667 34 32.667 51 42 51c12.667 0 21.334 -10.333 26.001 -31c19.333 -84.667 73.666 -127 162.999 -127c12.667 0 19 8.33301 19 25c0 16 -20.667 46.667 -62 92
l91 123c8.66699 12 14.334 18.333 17.001 19c3.33301 0 8.66602 -6.33301 15.999 -19c36.667 -62 55 -124.333 55 -187z" />
    <glyph glyph-name="u0634" unicode="&#x634;" horiz-adv-x="1872" arabic-form="isolated" 
d="M1870 329c0 -64.667 -14.332 -122 -42.999 -172c-34 -59.333 -81.333 -89 -142 -89c-80 0 -141.667 26.667 -185 80c-64.667 -98 -144.334 -147 -239.001 -147c-42 0 -86.667 3.66699 -134 11c0 -188 -45 -332.333 -135 -433c-94.667 -106 -235 -159 -421 -159
c-105.333 0 -191 24 -257 72c-74 54.667 -111 133 -111 235c0 51.333 13 109.333 39 174c24 60.667 53.333 112.667 88 156c10.667 13.333 19.667 20 27 20c8.66699 0 13 -6 13 -18c0 -6 -2 -12.667 -6 -20c-43.333 -78 -65 -146.333 -65 -205c0 -120 104.333 -180 313 -180
c68 0 137 8.66699 207 26c88 22 147.333 54.333 178 97c28.667 40 43 106.333 43 199c0 43.333 -15 82.333 -45 117c-42.667 49.333 -69 86.333 -79 111l90 137c8.66699 13.333 14.667 20 18 20s8.66602 -5.33301 15.999 -16c26 -37.333 49.667 -63 71 -77
c31.333 -20.667 73.333 -31 126 -31c78.667 0 141.334 17 188.001 51c29.333 21.333 55.333 53 78 95c18.667 34 32.667 51 42 51c12.667 0 21.334 -10.333 26.001 -31c19.333 -84.667 73.666 -127 162.999 -127c12.667 0 19 8.33301 19 25c0 16 -20.667 46.667 -62 92
l91 123c8.66699 12 14.334 18.333 17.001 19c3.33301 0 8.66602 -6.33301 15.999 -19c36.667 -62 55 -124.333 55 -187zM1574 1006l-87 -151c-30.667 21.333 -81.667 55 -153 101c22.667 32.667 53 82.667 91 150zM1726 787c-30 -38 -62.002 -85.334 -96.002 -142.001
c-57.333 36.667 -97.333 61 -120 73c-31.333 -36 -56.333 -68.333 -75 -97l-152 113c38 48.667 68.333 94.334 91 137.001c28.667 -24 71.334 -55 128.001 -93c17.333 18.667 43.333 56.667 78 114c26.667 -22.667 75.334 -57.667 146.001 -105z" />
    <glyph glyph-name="u0635" unicode="&#x635;" horiz-adv-x="2196" arabic-form="isolated" 
d="M2194 471c0 -170 -105.999 -296.334 -317.999 -379.001c-136.667 -53.333 -292 -83.333 -466 -90c-20 -40.667 -48 -88.667 -84 -144c-22.667 10.667 -34 25 -34 43c0 16 10.333 51 31 105c-46 -3.33301 -77.333 -5 -94 -5c-38.667 0 -72.667 3.66699 -102 11
c0 -188 -45 -332.333 -135 -433c-94.667 -106 -235 -159 -421 -159c-105.333 0 -191 24 -257 72c-74 54.667 -111 133 -111 235c0 50.667 13 108.667 39 174c24 61.333 53.333 113.333 88 156c11.333 14 20.666 21 27.999 21c8 0 12 -5.66699 12 -17
c0 -6.66699 -2 -14 -6 -22c-43.333 -86 -65 -154.333 -65 -205c0 -120 104.333 -180 313 -180c68 0 137 8.66699 207 26c88 22 147.333 54.333 178 97c28.667 40 43 106.333 43 199c0 43.333 -15 82.333 -45 117c-42.667 49.333 -69 86.333 -79 111l90 137
c8.66699 13.333 14.667 20 18 20s8.66602 -5.33301 15.999 -16c26.667 -38.667 50.334 -65 71.001 -79c32 -22 74 -33 126 -33c105.333 0 172 14.333 200 43l235 236c109.333 104.667 217.333 157 324 157c59.333 0 107.166 -18.167 143.5 -54.5
c36.333 -36.333 54.5 -84.166 54.5 -143.499zM2064 398.999c0 22 -22.001 40.6689 -66.001 56.002c-34.667 12 -65.667 18 -93 18c-69.333 0 -144 -28.667 -224 -86c-59.333 -42.667 -112.666 -93.334 -159.999 -152.001c129.333 0 256 22.333 380 67
c108.667 39.333 163 71.666 163 96.999z" />
    <glyph glyph-name="u0636" unicode="&#x636;" horiz-adv-x="2196" arabic-form="isolated" 
d="M2194 471c0 -170 -105.999 -296.334 -317.999 -379.001c-136.667 -53.333 -292 -83.333 -466 -90c-20 -40.667 -48 -88.667 -84 -144c-22.667 10.667 -34 25 -34 43c0 16 10.333 51 31 105c-46 -3.33301 -77.333 -5 -94 -5c-38.667 0 -72.667 3.66699 -102 11
c0 -188 -45 -332.333 -135 -433c-94.667 -106 -235 -159 -421 -159c-105.333 0 -191 24 -257 72c-74 54.667 -111 133 -111 235c0 50.667 13 108.667 39 174c24 61.333 53.333 113.333 88 156c11.333 14 20.666 21 27.999 21c8 0 12 -5.66699 12 -17
c0 -6.66699 -2 -14 -6 -22c-43.333 -86 -65 -154.333 -65 -205c0 -120 104.333 -180 313 -180c68 0 137 8.66699 207 26c88 22 147.333 54.333 178 97c28.667 40 43 106.333 43 199c0 43.333 -15 82.333 -45 117c-42.667 49.333 -69 86.333 -79 111l90 137
c8.66699 13.333 14.667 20 18 20s8.66602 -5.33301 15.999 -16c26.667 -38.667 50.334 -65 71.001 -79c32 -22 74 -33 126 -33c105.333 0 172 14.333 200 43l235 236c109.333 104.667 217.333 157 324 157c59.333 0 107.166 -18.167 143.5 -54.5
c36.333 -36.333 54.5 -84.166 54.5 -143.499zM2064 398.999c0 22 -22.001 40.6689 -66.001 56.002c-34.667 12 -65.667 18 -93 18c-69.333 0 -144 -28.667 -224 -86c-59.333 -42.667 -112.666 -93.334 -159.999 -152.001c129.333 0 256 22.333 380 67
c108.667 39.333 163 71.666 163 96.999zM1892 951.001c-55.333 -88.667 -92.998 -154.001 -112.998 -196.001c-36.667 26 -95.334 59.667 -176.001 101c33.333 49.333 69.666 115.333 108.999 198c64.667 -45.333 124.667 -79.666 180 -102.999z" />
    <glyph glyph-name="u0637" unicode="&#x637;" horiz-adv-x="1327" arabic-form="isolated" 
d="M1321 467c0 -43.333 -8.00098 -89.001 -24.001 -137.001c-17.333 -53.333 -40 -93.333 -68 -120c-56.667 -54 -136.667 -99.667 -240 -137c-132.667 -48 -282 -72 -448 -72h-93c-50 0 -100.333 24.333 -151 73c-42.667 40.667 -72.667 83.667 -90 129
c-2 5.33301 -3 10 -3 14c0 13.333 11 20 33 20h169c84.667 0 140.667 17 168 51c24 30 36 89.333 36 178c0 110.667 -9.66699 231.667 -29 363c-22 149.333 -49.333 252 -82 308l126 138c8.66699 9.33301 14.334 14.333 17.001 15c2.66699 -1.33301 6 -6.33301 10 -15
c14.667 -32 49 -79.333 103 -142c-46 -52.667 -69 -102 -69 -148c0 18 0.666992 27.333 2 28c2 -4.66699 5 -22 9 -52c22 -170 33 -303.333 33 -400c0 -41.333 -1 -83.666 -3 -126.999c162 150.667 288 226 378 226c70 0 125.333 -22.667 166 -68
c33.333 -37.333 50 -79 50 -125zM1187 379.999c0 24.667 -20.999 44.667 -62.999 60c-34 12.667 -65.333 19 -94 19c-102.667 0 -229.667 -75.667 -381 -227c151.333 0 284.666 21.333 399.999 64c92 34 138 62 138 84z" />
    <glyph glyph-name="u0638" unicode="&#x638;" horiz-adv-x="1327" arabic-form="isolated" 
d="M1321 467c0 -43.333 -8.00098 -89.001 -24.001 -137.001c-17.333 -53.333 -40 -93.333 -68 -120c-56.667 -54 -136.667 -99.667 -240 -137c-132.667 -48 -282 -72 -448 -72h-93c-50 0 -100.333 24.333 -151 73c-42.667 40.667 -72.667 83.667 -90 129
c-2 5.33301 -3 10 -3 14c0 13.333 11 20 33 20h169c84.667 0 140.667 17 168 51c24 30 36 89.333 36 178c0 110.667 -9.66699 231.667 -29 363c-22 149.333 -49.333 252 -82 308l126 138c8.66699 9.33301 14.334 14.333 17.001 15c2.66699 -1.33301 6 -6.33301 10 -15
c14.667 -32 49 -79.333 103 -142c-46 -52.667 -69 -102 -69 -148c0 18 0.666992 27.333 2 28c2 -4.66699 5 -22 9 -52c22 -170 33 -303.333 33 -400c0 -41.333 -1 -83.666 -3 -126.999c162 150.667 288 226 378 226c70 0 125.333 -22.667 166 -68
c33.333 -37.333 50 -79 50 -125zM1187 379.999c0 24.667 -20.999 44.667 -62.999 60c-34 12.667 -65.333 19 -94 19c-102.667 0 -229.667 -75.667 -381 -227c151.333 0 284.666 21.333 399.999 64c92 34 138 62 138 84zM1141 1008c-51.333 -81.333 -89 -146.667 -113 -196
c-36.667 25.333 -95 59.333 -175 102c33.333 47.333 69.333 113 108 197c64 -44 124 -78.333 180 -103z" />
    <glyph glyph-name="u0639" unicode="&#x639;" horiz-adv-x="991" arabic-form="isolated" 
d="M1314 -790l-202.999 -97.0059c-56.667 -26.667 -123 -40 -199 -40c-208 0 -371.667 38 -491 114c-145.333 92.667 -218 237.334 -218 434.001c0 204.667 72.667 395.667 218 573c-106 44.667 -159 106.334 -159 185.001c0 44 12 96 36 156
c21.333 56.667 46.666 104.334 75.999 143.001c42.667 57.333 94.667 86 156 86c26.667 0 58.167 -8.16699 94.5 -24.5s63.833 -34.166 82.5 -53.499c22 -23.333 33 -41.666 33 -54.999c0 -16 -18 -24 -54 -24c-90.667 0 -171 -21.667 -241 -65c-54.667 -34 -82 -59 -82 -75
c0 -13.333 22.667 -32 68 -56c50 -26.667 98.333 -40 145 -40c110.667 63.333 212 117 304 161c14 6.66699 25 10 33 10c16 0 24 -8.33301 24 -25c0 -14 -5.33301 -28.333 -16 -43c-35.333 -47.333 -76 -114.333 -122 -201c-108.667 -37.333 -210.667 -104.333 -306 -201
c-114 -115.333 -171 -234.666 -171 -357.999c0 -108 56.333 -201 169 -279c123.333 -85.333 286 -128 488 -128c194 0 299.333 0.666992 316 2c57.333 4.66699 86 -6.33301 86 -33c0 -22 -22.333 -44 -67 -66z" />
    <glyph glyph-name="u063A" unicode="&#x63a;" horiz-adv-x="991" arabic-form="isolated" 
d="M1314 -790l-202.999 -97.0059c-56.667 -26.667 -123 -40 -199 -40c-208 0 -371.667 38 -491 114c-145.333 92.667 -218 237.334 -218 434.001c0 204.667 72.667 395.667 218 573c-106 44.667 -159 106.334 -159 185.001c0 44 12 96 36 156
c21.333 56.667 46.666 104.334 75.999 143.001c42.667 57.333 94.667 86 156 86c26.667 0 58.167 -8.16699 94.5 -24.5s63.833 -34.166 82.5 -53.499c22 -23.333 33 -41.666 33 -54.999c0 -16 -18 -24 -54 -24c-90.667 0 -171 -21.667 -241 -65c-54.667 -34 -82 -59 -82 -75
c0 -13.333 22.667 -32 68 -56c50 -26.667 98.333 -40 145 -40c110.667 63.333 212 117 304 161c14 6.66699 25 10 33 10c16 0 24 -8.33301 24 -25c0 -14 -5.33301 -28.333 -16 -43c-35.333 -47.333 -76 -114.333 -122 -201c-108.667 -37.333 -210.667 -104.333 -306 -201
c-114 -115.333 -171 -234.666 -171 -357.999c0 -108 56.333 -201 169 -279c123.333 -85.333 286 -128 488 -128c194 0 299.333 0.666992 316 2c57.333 4.66699 86 -6.33301 86 -33c0 -22 -22.333 -44 -67 -66zM495.001 1049.99
c-51.333 -79.333 -88.666 -144.668 -111.999 -196.001c-28.667 20 -87.334 54 -176.001 102c33.333 48.667 69.333 114.334 108 197.001c63.333 -44 123.333 -78.333 180 -103z" />
    <glyph glyph-name="u0641" unicode="&#x641;" horiz-adv-x="1632" arabic-form="isolated" 
d="M1630 349c0 -172 -86.666 -279.664 -259.999 -322.997c-66.667 -16.667 -165.334 -25 -296.001 -25h-372c-146 0 -257 17.333 -333 52c-110.667 50.667 -166 139.667 -166 267c0 30.667 11 79.334 33 146.001c24.667 75.333 48 113 70 113c9.33301 0 14 -6.66699 14 -20
c0 -10.667 -4.83301 -31.834 -14.5 -63.501s-14.5 -55.834 -14.5 -72.501c0 -124 110 -186 330 -186h516c210.667 0 346.667 32.667 408 98c4.66699 4.66699 7 11.667 7 21c0 25.333 -11.667 50.666 -35 75.999c-47.333 -58.667 -99.666 -88 -156.999 -88
c-82 0 -123 42.333 -123 127c0 49.333 19 113.666 57 192.999c41.333 86.667 81.666 130 120.999 130c32.667 0 72.667 -34 120 -102c63.333 -90.667 95 -205 95 -343zM1447 532.003c-4.66699 13.333 -13.333 28.667 -26 46c-14.667 20.667 -27.334 31 -38.001 31
c-11.333 0 -22.666 -12.667 -33.999 -38c-10 -22 -15 -40 -15 -54c0 -11.333 14.667 -17 44 -17c32.667 0 55.667 10.667 69 32zM1502 1101c-50.667 -78.667 -88.666 -144.334 -113.999 -197.001c-32 24 -90.333 58.333 -175 103c33.333 47.333 69.333 113 108 197
c59.333 -41.333 119.666 -75.666 180.999 -102.999z" />
    <glyph glyph-name="u0642" unicode="&#x642;" horiz-adv-x="1226" arabic-form="isolated" 
d="M1222 283c0 -186.667 -62.332 -331 -186.999 -433c-115.333 -95.333 -268 -143 -458 -143c-116.667 0 -207.667 31 -273 93c-67.333 63.333 -101 153 -101 269c0 46 10.667 99.667 32 161c28 80 69 149.667 123 209c12.667 14 23.667 21 33 21
c7.33301 0 11 -4.33301 11 -13c0 -7.33301 -2.33301 -15 -7 -23c-60 -102 -90 -188.667 -90 -260c0 -147.333 110 -221 330 -221c102 0 204.667 19 308 57c135.333 49.333 203 116 203 200c0 44 -12.667 77.667 -38 101c-36.667 -45.333 -86.667 -68 -150 -68
c-54.667 0 -98.667 14.5 -132 43.5s-50 70.5 -50 124.5c0 45.333 19.333 106 58 182c46.667 91.333 97.667 137 153 137c49.333 0 99.666 -43 150.999 -129c56 -93.333 84 -196 84 -308zM1028 452c-21.333 50.667 -51.334 76.001 -90.001 76.001
c-12.667 0 -26.667 -7.33301 -42 -22s-23 -28.334 -23 -41.001c0 -26.667 22 -40 66 -40c38.667 0 68.334 9 89.001 27zM1154 1108c-30 -37.333 -64.667 -83.667 -104 -139l-109 73c-16.667 -22.667 -39 -54.667 -67 -96l-153 114c22.667 30 54.667 77.333 96 142
c30.667 -26 69 -54.667 115 -86c15.333 21.333 37.333 55.333 66 102c39.333 -29.333 91.333 -66 156 -110z" />
    <glyph glyph-name="u0643" unicode="&#x643;" horiz-adv-x="1630" arabic-form="isolated" 
d="M1645 1229c-46 -129.333 -76.666 -203.998 -91.999 -223.998c-120 -41.333 -209 -73 -267 -95c-100.667 -38 -194.334 -79.667 -281.001 -125c-12 -6 -18.333 -10.667 -19 -14c1.33301 -3.33301 6.66602 -7.33301 15.999 -12c255.333 -118.667 383 -274.667 383 -468
c0 -204.667 -156.667 -307 -470 -307h-163c-159.333 0 -280.666 17.667 -363.999 53c-123.333 52 -185 146.333 -185 283c0 30.667 11 79.334 33 146.001c24.667 75.333 48 113 70 113c9.33301 0 14 -6.66699 14 -20c0 -10.667 -4.83301 -31.834 -14.5 -63.501
s-14.5 -55.834 -14.5 -72.501c0 -74.667 40.667 -130 122 -166c60.667 -26.667 133.667 -40 219 -40h363c207.333 0 311 30 311 90c0 40 -58.333 97 -175 171c-84 53.333 -161.667 95.666 -233 126.999c-25.333 28 -38 84.333 -38 169c0 28 3 45.667 9 53
c84.667 80 207 159.333 367 238c134.667 66 271 120.667 409 164z" />
    <glyph glyph-name="u0644" unicode="&#x644;" horiz-adv-x="1041" arabic-form="isolated" 
d="M1040 1123c-50 -52.667 -75.001 -96.999 -75.001 -132.999c0 -80 12.333 -199 37 -357s37 -277 37 -357c0 -144 -53.667 -257.667 -161 -341c-88.667 -68.667 -197 -103 -325 -103c-102.667 0 -185.667 27 -249 81c-67.333 56.667 -101 135.667 -101 237
c0 56 15 119.333 45 190c27.333 65.333 60.666 121.666 99.999 168.999c10 12 19.333 18 28 18c6.66699 0 10 -4 10 -12c0 -7.33301 -3 -16 -9 -26c-54.667 -92.667 -82 -177 -82 -253c0 -56 33.667 -99.333 101 -130c52.667 -24 110.334 -36 173.001 -36
c104 0 193.667 21.333 269 64c62 35.333 92 65 90 89c-35.333 461.333 -81.666 765 -138.999 911c42.667 44 81 90.333 115 139c10.667 12 18 14.667 22 8c22.667 -42 60.667 -94.667 114 -158z" />
    <glyph glyph-name="u0645" unicode="&#x645;" horiz-adv-x="789" arabic-form="isolated" 
d="M789 351c0 -23.333 -6.49902 -60.167 -19.499 -110.5s-25.167 -87.5 -36.5 -111.5c-28.667 3.33301 -57 5 -85 5c-66.667 0 -134 -10.333 -202 -31c-94 -28.667 -141 -68.667 -141 -120c0 -5.33301 0.333008 -9.66602 1 -12.999l78 -357c38.667 -176.667 58 -334 58 -472
c0 -73.333 -7.33301 -110 -22 -110c-19.333 0 -36 44.833 -50 134.5s-41.667 218.167 -83 385.5c-42.667 171.333 -70 299.666 -82 384.999c-1.33301 9.33301 -2 22.333 -2 39c0 144 32.333 236.333 97 277c-2.66699 19.333 -4 38 -4 56c0 90.667 27.667 165.667 83 225
c43.333 46.667 84 70 122 70c53.333 0 111.666 -29.333 174.999 -88c60 -55.333 97.667 -110 113 -164zM593.001 311.999c-48.667 53.333 -89 80 -121 80c-24 0 -45.333 -14.333 -64 -43c-16 -24 -25.333 -49.333 -28 -76c66 28 137 41 213 39z" />
    <glyph glyph-name="u0646" unicode="&#x646;" horiz-adv-x="1002" arabic-form="isolated" 
d="M999 322c0 -142 -37.668 -256.666 -113.001 -343.999c-80 -92.667 -190 -139 -330 -139c-235.333 0 -353 110.333 -353 331c0 98.667 34 199 102 301c11.333 16.667 21 25 29 25c5.33301 0 8 -4 8 -12c0 -6 -2 -14.333 -6 -25c-32 -84 -48 -154.333 -48 -211
c0 -68.667 25.333 -115 76 -139c36.667 -17.333 97.334 -26 182.001 -26c102 0 191 18.667 267 56c67.333 33.333 101 66 101 98c0 76.667 -53.667 197 -161 361l61 168c6.66699 18.667 11.667 28 15 28s12.333 -9.33301 27 -28c42.667 -54.667 78 -129.334 106 -224.001
c24.667 -84 37 -157.333 37 -220zM647.999 993.001c-52 -82 -89.666 -147.332 -112.999 -195.999c-32.667 23.333 -91.334 57 -176.001 101c34 50 70.333 116.333 109 199c59.333 -42.667 119.333 -77.334 180 -104.001z" />
    <glyph glyph-name="u0647" unicode="&#x647;" horiz-adv-x="617" arabic-form="isolated" 
d="M608 337c15.333 -126 9.99805 -210.333 -16.002 -253c-16.667 -27.333 -49 -50.333 -97 -69c-41.333 -16 -80.666 -24 -117.999 -24c-54.667 0 -98 21.333 -130 64c-29.333 38.667 -44 86 -44 142s18 132 54 228c42 112 85 168 129 168c52.667 0 102.334 -30 149.001 -90
c42 -54 66.333 -109.333 73 -166zM516.998 248c0 26.667 -20.667 52.334 -62 77.001c-37.333 22 -70.333 33 -99 33c-14 0 -26.333 -14.667 -37 -44c-8.66699 -24.667 -13 -45.334 -13 -62.001c0 -24.667 40.333 -37 121 -37c60 0 90 11 90 33z" />
    <glyph glyph-name="u0648" unicode="&#x648;" horiz-adv-x="855" arabic-form="isolated" 
d="M853 235c0 -163.333 -52.998 -316.334 -158.998 -459.001c-92.667 -124.667 -192.334 -187 -299.001 -187c-43.333 0 -95 20.667 -155 62c-56 39.333 -96.333 79.333 -121 120c-14 23.333 -21 40 -21 50c0 8.66699 5 13 15 13c7.33301 0 14.333 -1 21 -3
c56.667 -16.667 117.334 -25 182.001 -25c84.667 0 172 32.333 262 97c79.333 56.667 136 117.334 170 182.001c9.33301 18 8.66602 35 -2.00098 51c-42 -35.333 -81.667 -53 -119 -53c-94.667 0 -142 61.333 -142 184c0 55.333 21 120.333 63 195
c46.667 83.333 95 125 145 125c57.333 0 100.666 -47.667 129.999 -143c20 -66 30 -135.667 30 -209zM736.002 282.999c0 24 -7 48 -21 72c-16 28 -35 42 -57 42c-38 0 -57 -20.667 -57 -62c0 -44.667 15.333 -68 46 -70c59.333 -4 89 2 89 18z" />
    <glyph glyph-name="u0649" unicode="&#x649;" horiz-adv-x="1332" arabic-form="isolated" 
d="M1332 598c0 -12 -7.66699 -42 -23 -90c-16.667 -52 -28 -78 -34 -78l-30 9c-20 6 -43.667 9 -71 9c-36.667 0 -91 -20 -163 -60c-76.667 -42.667 -115 -80 -115 -112c0 -30 35 -50.333 105 -61l194 -30c70 -18.667 105 -51.667 105 -99c0 -34 -5 -80 -15 -138
c-12 -69.333 -25 -113.333 -39 -132c-41.333 -55.333 -121.333 -113.333 -240 -174c-142 -72.667 -275.667 -109 -401 -109c-136 0 -236.333 29 -301 87c-67.333 60.667 -101 158.334 -101 293.001c0 116.667 48.667 248 146 394c11.333 16.667 22.333 25 33 25
c8 0 12 -4.33301 12 -13c0 -4 -1.33301 -8.66699 -4 -14c-62 -123.333 -93 -219 -93 -287c0 -166.667 119.333 -250 358 -250c148 0 295 32 441 96c56 24.667 84 53.667 84 87c0 16.667 -56.333 32 -169 46c-81.333 10 -139 27 -173 51c-46 32 -69 84 -69 156
c0 40 22.667 94.333 68 163c34 51.333 72 98.666 114 141.999c107.333 110.667 200.333 166 279 166c25.333 0 48 -6.33301 68 -19c22.667 -14.667 34 -34 34 -58z" />
    <glyph glyph-name="u064A" unicode="&#x64a;" horiz-adv-x="1332" arabic-form="isolated" 
d="M1332 598c0 -12 -7.66699 -42 -23 -90c-16.667 -52 -28 -78 -34 -78l-30 9c-20 6 -43.667 9 -71 9c-36.667 0 -91 -20 -163 -60c-76.667 -42.667 -115 -80 -115 -112c0 -30 35 -50.333 105 -61l194 -30c70 -18.667 105 -51.667 105 -99c0 -34 -5 -80 -15 -138
c-12 -69.333 -25 -113.333 -39 -132c-41.333 -55.333 -121.333 -113.333 -240 -174c-142 -72.667 -275.667 -109 -401 -109c-136 0 -236.333 29 -301 87c-67.333 60.667 -101 158.334 -101 293.001c0 116.667 48.667 248 146 394c11.333 16.667 22.333 25 33 25
c8 0 12 -4.33301 12 -13c0 -4 -1.33301 -8.66699 -4 -14c-62 -123.333 -93 -219 -93 -287c0 -166.667 119.333 -250 358 -250c148 0 295 32 441 96c56 24.667 84 53.667 84 87c0 16.667 -56.333 32 -169 46c-81.333 10 -139 27 -173 51c-46 32 -69 84 -69 156
c0 40 22.667 94.333 68 163c34 51.333 72 98.666 114 141.999c107.333 110.667 200.333 166 279 166c25.333 0 48 -6.33301 68 -19c22.667 -14.667 34 -34 34 -58z" />
    <glyph glyph-name="u067E" unicode="&#x67e;" horiz-adv-x="1643" arabic-form="isolated" 
d="M1641 420c0 -55.333 -14 -115.001 -42 -179.001c-22 -50 -41.333 -83 -58 -99c-44 -41.333 -136.667 -81.666 -278 -120.999c-170.667 -47.333 -349.334 -71 -536.001 -71c-135.333 0 -247.333 17.667 -336 53c-125.333 50 -188 133 -188 249c0 46 10.5 96.5 31.5 151.5
s47.167 99.833 78.5 134.5c18 20 27 19.333 27 -2c0 -8 -3.33301 -18 -10 -30c-20 -35.333 -30 -76 -30 -122c0 -52.667 41 -99.334 123 -140.001c94 -46.667 216.333 -70 367 -70c160.667 0 300.334 12.333 419.001 37c230.667 48 346 88.667 346 122
c0 28.667 -27.667 75.667 -83 141l59 148c9.33301 24 18 36 26 36c6 0 13.333 -8 22 -24c41.333 -75.333 62 -146.666 62 -213.999zM822 -581.001l87 150.999l152 -100c-22 -33.333 -52.333 -83.666 -91 -150.999zM669 -361.002c30 37.333 62.001 84.333 96.001 141l121 -74
c32 38 57 71 75 99l151 -113c-34.667 -44.667 -64.667 -90.667 -90 -138c-29.333 24.667 -72 56 -128 94c-16.667 -19.333 -43 -58.333 -79 -117c-26.667 23.333 -75.334 59.333 -146.001 108z" />
    <glyph glyph-name="u0686" unicode="&#x686;" horiz-adv-x="1292" arabic-form="isolated" 
d="M1477 -711c-176.667 -92.667 -296.668 -148.333 -360.001 -167c-75.333 -22 -151.666 -33 -228.999 -33c-194.667 0 -352.334 39.667 -473.001 119c-141.333 93.333 -212 232.333 -212 417c0 165.333 51 316.333 153 453c82 110.667 177 191 285 241
c-70.667 12 -133.667 18 -189 18c-64 0 -110.667 -12 -140 -36c-23.333 -18.667 -40.333 -28 -51 -28c-8 0 -12 5.33301 -12 16c0 7.33301 2.66699 18.333 8 33c61.333 166.667 148 250 260 250c58.667 0 147.667 -9.33301 267 -28c116.667 -18.667 205.667 -27.667 267 -27
c36.667 0.666992 86.667 3.66699 150 9c22.667 2 34 -0.666992 34 -8c0 -5.33301 -2.33301 -13 -7 -23l-82 -178c-93.333 -8 -190.333 -25.667 -291 -53c-135.333 -36.667 -252.666 -99 -351.999 -187c-116 -103.333 -174 -218 -174 -344c0 -145.333 74.667 -253 224 -323
c113.333 -53.333 251.333 -80 414 -80c175.333 0 342.333 10.333 501 31c5.33301 0.666992 11.333 1 18 1c26.667 0 40 -7.33301 40 -22c0 -16.667 -16.333 -33.667 -49 -51zM734.999 -439.999l85 150l152 -100c-22 -32.667 -51.667 -82.667 -89 -150zM581.999 -219.999
c30 36.667 61.999 83.667 95.999 141l120 -73c31.333 36 56.333 68.333 75 97l151 -113c-35.333 -46 -65.666 -91.667 -90.999 -137c-28.667 24 -71 55 -127 93c-16.667 -18.667 -42.667 -57 -78 -115c-26 22 -74.667 57.667 -146 107z" />
    <glyph glyph-name="u0698" unicode="&#x698;" horiz-adv-x="809" arabic-form="isolated" 
d="M806 134c0 -138.667 -39.666 -258.333 -118.999 -359c-38 -48.667 -82 -90 -132 -124c-60 -41.333 -115.667 -62 -167 -62c-75.333 0 -161.333 33.667 -258 101c-21.333 14.667 -32 26.667 -32 36c0 8.66699 9.33301 13 28 13c5.33301 0 12.666 -0.666992 21.999 -2
c22 -3.33301 43.667 -5 65 -5c140.667 0 269 66.667 385 200c63.333 72.667 95 130.334 95 173.001c0 37.333 -47.333 99.333 -142 186l99 181c4 7.33301 9 8.66602 15 3.99902c94 -72.667 141 -186.667 141 -342zM611.001 982.001l-85 -150l-153 100
c22 32.667 51.667 83 89 151zM763.001 763.001c-30 -37.333 -61.998 -84.667 -95.998 -142c-48.667 32 -88.334 56.667 -119.001 74c-19.333 -23.333 -44.333 -55.666 -75 -96.999l-152 112c38.667 50.667 69 96.334 91 137.001c28.667 -24 71 -54.667 127 -92
c17.333 19.333 43.666 57.666 78.999 114.999c26.667 -22.667 75 -58.334 145 -107.001z" />
    <glyph glyph-name="u06AF" unicode="&#x6af;" horiz-adv-x="1648" arabic-form="isolated" 
d="M1676 1454c-19.333 -74.667 -37 -121.332 -53 -139.999c-173.333 -52.667 -397 -163.334 -671 -332.001v119c256.667 173.333 498 291 724 353zM1648 1200c-20.667 -64 -48.666 -137.666 -83.999 -220.999c-264 -86 -442.333 -158 -535 -216
c-10.667 -6.66699 -16.334 -11.667 -17.001 -15c1.33301 -3.33301 6.33301 -7 15 -11c238.667 -114 358 -266.667 358 -458c0 -196.667 -156.667 -295 -470 -295h-163c-159.333 0 -280.666 17.667 -363.999 53c-123.333 52 -185 146.333 -185 283
c0 30.667 11 79.334 33 146.001c24.667 75.333 48 113 70 113c9.33301 0 14 -6.66699 14 -20c0 -10.667 -4.83301 -31.834 -14.5 -63.501s-14.5 -55.834 -14.5 -72.501c0 -74.667 40.667 -130 122 -166c60.667 -26.667 133.667 -40 219 -40h363
c88.667 0 147.667 1.33301 177 4c88.667 8 133 28.333 133 61c0 44 -53.333 102.333 -160 175c-79.333 54 -153 95.667 -221 125c-26 29.333 -39 86.666 -39 171.999c0 27.333 3 44.333 9 51c133.333 148.667 384.666 280.334 753.999 395.001z" />
    <glyph glyph-name="uFB57" unicode="&#x67e;" horiz-adv-x="1717" arabic-form="final" 
d="M1747 1h-67.0029c-109.333 0 -177 38.667 -203 116c-17.333 -33.333 -85.666 -70.333 -204.999 -111c-143.333 -48.667 -292.666 -73 -447.999 -73c-414 0 -621 121.333 -621 364c0 32 10.667 80.667 32 146c24.667 75.333 48.334 113 71.001 113c8 0 12 -7 12 -21
c0 -12 -4.83301 -33.333 -14.5 -64s-14.5 -54 -14.5 -70c0 -98.667 80.667 -169 242 -211c100 -26 218 -39 354 -39c281.333 0 464.333 34 549 102c10 8 18.667 26.333 26 55c6 23.333 13.667 35 23 35c8 0 15 -8.33301 21 -25c8 -22 14.667 -36.333 20 -43
c20.667 -25.333 66 -38 136 -38h87v-236zM821.997 -581l87 150.999l152 -100c-22 -33.333 -52.333 -83.666 -91 -150.999zM668.997 -361.001c30 37.333 62.001 84.333 96.001 141l121 -74c32 38 57 71 75 99l151 -113c-34.667 -44.667 -64.667 -90.667 -90 -138
c-29.333 24.667 -72 56 -128 94c-16.667 -19.333 -43 -58.333 -79 -117c-26.667 23.333 -75.334 59.333 -146.001 108z" />
    <glyph glyph-name="uFB58" unicode="&#x67e;" horiz-adv-x="461" arabic-form="initial" 
d="M346 269c0 -78 -24.333 -147.334 -73 -208.001c-32 -40 -95.667 -60 -191 -60h-114v236h84c130.667 0 196 7.33301 196 22c0 26.667 -36 74.334 -108 143.001l75 155c8 17.333 13.667 26.333 17 27c3.33301 0 9.33301 -6.66699 18 -20c64 -96 96 -194.333 96 -295z
M166 -528.001l85 151.001l152 -102c-22 -32.667 -51.667 -82.334 -89 -149.001zM13 -308c30 37.333 62 84.332 96 140.999l120 -73c29.333 34 54.333 66.667 75 98l151 -113c-37.333 -50 -67.666 -96 -90.999 -138c-28.667 24.667 -71 55.667 -127 93
c-16.667 -18.667 -42.334 -57 -77.001 -115c-27.333 22.667 -76.333 58.334 -147 107.001z" />
    <glyph glyph-name="uFB59" unicode="&#x67e;" horiz-adv-x="461" arabic-form="medial" 
d="M494 1h-77.001c-38 0 -75.167 12.5 -111.5 37.5s-61.166 55.167 -74.499 90.5c-19.333 -33.333 -46.333 -62.333 -81 -87c-38 -27.333 -74.667 -41 -110 -41h-72v236h95c47.333 0 85.666 11.667 114.999 35c16.667 13.333 34 35.333 52 66
c13.333 23.333 24.666 35 33.999 35c8.66699 0 20.334 -26 35.001 -78c8.66699 -20.667 19.334 -34.667 32.001 -42c18 -10.667 49.667 -16 95 -16h68v-236zM160.999 -528l85 151.001l153 -102c-22.667 -32.667 -53 -82.334 -91 -149.001zM7.99902 -307.999
c30 37.333 61.667 84.332 95 140.999l120 -73c30 34 55.333 66.667 76 98l152 -113c-34 -43.333 -64.667 -89.333 -92 -138c-28.667 24.667 -71 55.667 -127 93c-16.667 -18.667 -43 -57 -79 -115c-26.667 22.667 -75 58.334 -145 107.001z" />
    <glyph glyph-name="uFB7B" unicode="&#x686;" horiz-adv-x="1292" arabic-form="final" 
d="M1471 -711c-181.333 -95.333 -299.332 -151.001 -353.999 -167.001c-74 -22 -150.333 -33 -229 -33c-194.667 0 -352.334 39.667 -473.001 119c-141.333 93.333 -212 232.333 -212 417c0 165.333 51 316.333 153 453c82 110.667 177 191 285 241
c-70.667 12 -133.667 18 -189 18c-63.333 0 -110 -12 -140 -36c-22.667 -18 -39.667 -27 -51 -27c-8 0 -12 5 -12 15c0 7.33301 2.66699 18.333 8 33c61.333 166.667 148 250 260 250c58.667 0 147.667 -9.33301 267 -28c116.667 -18.667 205.667 -27.667 267 -27
c36.667 0.666992 86.667 3.66699 150 9c22.667 2 34 -0.666992 34 -8c0 -5.33301 -2.33301 -13 -7 -23l-82 -178c-51.333 2.66699 -111 -2.66602 -179 -15.999c0 -36.667 22 -58 66 -64h292v-236h-268c-135.333 0 -203 55.667 -203 167c0 30 5 67 15 111
c-141.333 -34.667 -265 -103 -371 -205c-112.667 -108 -169 -221.667 -169 -341c0 -145.333 74.667 -253 224 -323c113.333 -53.333 251.333 -80 414 -80c189.333 0 354.333 9.33301 495 28c5.33301 0.666992 11 1 17 1c27.333 0 41 -7.66699 41 -23
c0 -14 -16.333 -29.667 -49 -47zM703.001 -451.001l86 151l152 -101c-22 -32.667 -52.333 -82.667 -91 -150c-28.667 20.667 -77.667 54 -147 100zM550.001 -231.001c30.667 37.333 63.001 84.667 97.001 142l118 -75c32 36.667 57.333 69.667 76 99l152 -113
c-36.667 -47.333 -67.334 -93.333 -92.001 -138c-28.667 24.667 -70.667 56 -126 94c-17.333 -19.333 -43.666 -58 -78.999 -116c-26.667 23.333 -75.334 59 -146.001 107z" />
    <glyph glyph-name="uFB7C" unicode="&#x686;" horiz-adv-x="1122" arabic-form="initial" 
d="M1110 427l-55 -166.002c-92.667 10 -182.334 7.33301 -269.001 -8c-140.667 -24.667 -287 -75.667 -439 -153c-130 -66 -230.667 -99 -302 -99h-77v236h74c98.667 0 190 13.667 274 41l212 70c14.667 4.66699 22.334 8.33398 23.001 11.001
c-1.33301 2.66699 -57 22.334 -167 59.001c-42 14 -73 21 -93 21c-60 0 -106.333 -9.33301 -139 -28c-19.333 -11.333 -34.333 -17 -45 -17c-11.333 0 -17 6.33301 -17 19c0 10.667 3 23.334 9 38.001c19.333 48 46 89.333 80 124c41.333 42 84.333 63 129 63
c40.667 0 135.5 -28.667 284.5 -86s266.167 -86 351.5 -86h140c23.333 0 35 -3.33301 35 -10c-1.33301 -4.66699 -4.33301 -14.334 -9 -29.001zM494 -528.002l86 151.001l153 -102c-22.667 -32.667 -53 -82.334 -91 -149.001c-28.667 20.667 -78 54 -148 100zM342 -308.001
c30 37.333 61.999 84.332 95.999 140.999l119 -73c30 34 55.333 66.667 76 98l152 -113c-37.333 -47.333 -68 -93.333 -92 -138c-28.667 24.667 -71 55.667 -127 93c-17.333 -18.667 -43.666 -57 -78.999 -115c-26.667 22.667 -75 58.334 -145 107.001z" />
    <glyph glyph-name="uFB7D" unicode="&#x686;" horiz-adv-x="1185" arabic-form="medial" 
d="M1216 1l-237.999 0.00488281c-62 0 -113 13 -153 39c-47.333 30 -71 74.333 -71 133c0 37.333 10.667 74.666 32 111.999c-92 -16.667 -225.333 -70.334 -400 -161.001c-158 -82 -274.667 -123 -350 -123h-68v236h74c97.333 0 188.666 14.333 273.999 43l212 71
c15.333 5.33301 23 9.33301 23 12c0 3.33301 -5.66699 6.66602 -17 9.99902c-160 44 -251.667 66 -275 66c-58.667 0 -104.667 -9.33301 -138 -28c-20 -11.333 -35.333 -17 -46 -17c-11.333 0 -17 6.33301 -17 19c0 9.33301 3.33301 22 10 38
c52.667 124.667 122 187 208 187c51.333 0 153.833 -23.5 307.5 -70.5s273.834 -70.5 360.501 -70.5c-12 0 34 3.33301 138 10c17.333 1.33301 27.666 0.666016 30.999 -2.00098c2.66699 -2.66699 1 -11.667 -5 -27l-53 -184h-163c3.33301 -28.667 20 -46.334 50 -53.001
c12 -2.66699 47.667 -4 107 -4h167v-236zM494.001 -527.995l86 151.001l153 -102c-22.667 -32.667 -53 -82.334 -91 -149.001c-28.667 20.667 -78 54 -148 100zM342.001 -307.994c30 37.333 61.999 84.332 95.999 140.999l119 -73c30 34 55.333 66.667 76 98l152 -113
c-37.333 -47.333 -68 -93.333 -92 -138c-28.667 24.667 -71 55.667 -127 93c-17.333 -18.667 -43.666 -57 -78.999 -115c-26.667 22.667 -75 58.334 -145 107.001z" />
    <glyph glyph-name="uFB8B" unicode="&#x698;" horiz-adv-x="870" arabic-form="final" 
d="M872 1h-50c-33.333 0 -53 -18 -59 -54c-19.333 -120.667 -63.333 -227.667 -132 -321c-76.667 -104 -160.667 -156 -252 -156c-82 0 -160.667 27 -236 81c-24.667 18 -37 30.333 -37 37c0 9.33301 16.667 13.333 50 12c129.333 -4.66699 254 49 374 161
c46 42.667 83.667 92.667 113 150c23.333 45.333 35 78 35 98c0 17.333 -40 65.333 -120 144l100 168c2 4.66699 5 5 9 1c61.333 -56.667 112.333 -85 153 -85h52v-236zM622 834l-85.999 -151l-152 102c22 32.667 52 82.667 90 150c29.333 -21.333 78.666 -55 147.999 -101z
M775.001 614c-30.667 -36.667 -63.001 -83.667 -97.001 -141c-57.333 36.667 -97.333 61 -120 73c-31.333 -36 -56.333 -68.333 -75 -97l-151 113c36.667 47.333 67.334 93.333 92.001 138c28.667 -24.667 70.667 -55.667 126 -93c17.333 18 43.333 56 78 114
c26.667 -22 75.667 -57.667 147 -107z" />
    <glyph glyph-name="uFEDA" unicode="&#x6a9;" horiz-adv-x="1850" arabic-form="final" 
d="M1881 1l-72.002 0.00292969c-62 0 -141.333 45.667 -238 137c-129.333 122 -205.333 190 -228 204c1.33301 -16 2 -31.333 2 -46c0 -208 -143.333 -312 -430 -312h-163c-159.333 0 -280.666 17.667 -363.999 53c-123.333 52 -185 146.333 -185 283
c0 30.667 11 79.334 33 146.001c24.667 75.333 48 113 70 113c9.33301 0 14 -6.66699 14 -20c0 -10.667 -4.83301 -31.834 -14.5 -63.501s-14.5 -55.834 -14.5 -72.501c0 -74.667 40.667 -130 122 -166c60.667 -26.667 133.667 -40 219 -40h363
c178.667 0 268 42.333 268 127c0 56 -92.667 118 -278 186c-26.667 20.667 -49.667 57 -69 109c-18 47.333 -27 90 -27 128c0 7.33301 0.333008 13.666 1 18.999c28.667 67.333 148.667 158.333 360 273c176.667 96 352 176.333 526 241c-50 -136 -82.667 -215.333 -98 -238
c-253.333 -82.667 -473.333 -182.334 -660 -299.001c-16.667 -10.667 -17.667 -19 -3 -25c144 -58.667 276.333 -132 397 -220c16 -12 96 -77.333 240 -196c68.667 -56.667 122.334 -85 161.001 -85h68v-236z" />
    <glyph glyph-name="uFEDB" unicode="&#x6a9;" horiz-adv-x="841" arabic-form="initial" 
d="M855 1229c-46.667 -129.333 -77.3311 -204.001 -91.998 -224.001c-120 -41.333 -209 -73 -267 -95c-100.667 -38 -194.334 -79.667 -281.001 -125c-12 -6 -18.333 -10.667 -19 -14c1.33301 -3.33301 6.66602 -7.33301 15.999 -12c255.333 -118.667 383 -273 383 -463
c0 -123.333 -53 -207.666 -159 -252.999c-65.333 -28 -160.333 -42 -285 -42h-182v236h209c224.667 0 337 23.333 337 70c0 40 -58.333 97 -175 171c-84.667 54 -162 96.333 -232 127c-25.333 27.333 -38 83.333 -38 168c0 28.667 3 46.667 9 54
c86 80.667 208.333 160 367 238c134.667 66 271 120.667 409 164z" />
    <glyph glyph-name="uFEDC" unicode="&#x6a9;" horiz-adv-x="1033" arabic-form="medial" 
d="M1065 1l-72 -0.000976562c-62 0 -141.333 46.333 -238 139c-129.333 123.333 -205 192 -227 206c0.666992 -12.667 1 -24.667 1 -36c0 -135.333 -51.333 -225.666 -154 -270.999c-57.333 -25.333 -149.666 -38 -276.999 -38h-130v236h214
c57.333 0 109.666 6.66699 156.999 20c71.333 20 107 51.667 107 95c0 47.333 -92.333 106.666 -277 177.999c-26.667 20.667 -49.667 57 -69 109c-18 47.333 -27 90 -27 128c0 7.33301 0.333008 13.666 1 18.999c28.667 67.333 148.667 158.333 360 273
c177.333 96 353 176.333 527 241c-25.333 -69.333 -58 -148.666 -98 -237.999c-96 -32 -213 -79 -351 -141c-132 -59.333 -235.333 -112 -310 -158c-17.333 -10.667 -18.333 -19 -3 -25c143.333 -58 276 -131.333 398 -220c16 -11.333 95.667 -76.666 239 -195.999
c68 -56.667 121.667 -85 161 -85h68v-236z" />
    <glyph glyph-name="uFB93" unicode="&#x6af;" horiz-adv-x="1850" arabic-form="final" 
d="M1796 1521c-11.333 -44.667 -27.333 -93.999 -48 -147.999c-193.333 -58.667 -454.333 -189.334 -783 -392.001v123c322.667 216.667 599.667 355.667 831 417zM1881 1.00098l-71.999 0.000976562c-62 0 -138.333 41.333 -229 124
c-129.333 118 -206.666 185 -231.999 201c1.33301 -15.333 2 -30 2 -44c0 -125.333 -52.333 -211 -157 -257c-62.667 -27.333 -155.334 -41 -278.001 -41h-163c-159.333 0 -280.666 17.667 -363.999 53c-123.333 52 -185 146.333 -185 283c0 30.667 11 79.334 33 146.001
c24.667 75.333 48 113 70 113c9.33301 0 14 -6.66699 14 -20c0 -10.667 -4.83301 -31.834 -14.5 -63.501s-14.5 -55.834 -14.5 -72.501c0 -74.667 40.667 -130 122 -166c60.667 -26.667 133.667 -40 219 -40h363c185.333 0 278 40 278 120c0 44.667 -96 104.667 -288 180
c-26 20.667 -48.667 57 -68 109c-18.667 48 -28 90.333 -28 127c0 7.33301 0.333008 13.666 1 18.999c28.667 67.333 148.667 158 360 272c177.333 96 352.666 176 525.999 240c-49.333 -136 -82 -215 -98 -237c-100.667 -34 -217.334 -79.667 -350.001 -137
c-144 -62.667 -247.333 -113.667 -310 -153c-16.667 -10.667 -17.667 -19 -3 -25c142 -58 274.333 -131 397 -219c12.667 -9.33301 92.667 -73.666 240 -192.999c68 -55.333 121.667 -83 161 -83h68v-236z" />
    <glyph glyph-name="uFB94" unicode="&#x6af;" horiz-adv-x="828" arabic-form="initial" 
d="M860 1464c-20.667 -77.333 -38.332 -123.667 -52.999 -139c-172.667 -52.667 -396.334 -163.334 -671.001 -332.001v118c262 176.667 503.333 294.334 724 353.001zM833.002 1209c-21.333 -62.667 -49.665 -135.666 -84.998 -218.999
c-123.333 -40.667 -215 -72.334 -275 -95.001c-108 -41.333 -195.333 -82.666 -262 -123.999c-10 -6 -15 -10 -15 -12c1.33301 -2.66699 6.66602 -6.33398 15.999 -11.001c238.667 -111.333 358 -262.666 358 -453.999c0 -123.333 -48.667 -207.333 -146 -252
c-60 -27.333 -151 -41 -273 -41h-182v236h209c92 0 153 1.33301 183 4c88.667 8 133 27.333 133 58c0 39.333 -55 95.666 -165 168.999c-81.333 54 -155 95.667 -221 125c-26 28.667 -39 85 -39 169c0 28 3.33301 45.667 10 53c135.333 150.667 386.666 282 753.999 394z
" />
    <glyph glyph-name="uFB95" unicode="&#x6af;" horiz-adv-x="1033" arabic-form="medial" 
d="M979 1521c-12 -44.667 -27.667 -93.999 -47 -147.999c-192 -58.667 -453.333 -189.334 -784 -392.001v123c322 216 599 355 831 417zM1065 1.00098h-72.002c-62 0 -141.333 46.333 -238 139c-129.333 123.333 -205 192 -227 206c0.666992 -12.667 1 -24.667 1 -36
c0 -135.333 -51.333 -225.666 -154 -270.999c-57.333 -25.333 -149.666 -38 -276.999 -38h-130v236h214c57.333 0 109.666 6.66699 156.999 20c71.333 20 107 51.667 107 95c0 38.667 -92.333 93.667 -277 165c-26 20.667 -48.667 57 -68 109c-18.667 48 -28 90.333 -28 127
c0 7.33301 0.333008 13.666 1 18.999c28.667 67.333 148.667 158 360 272c175.333 94.667 351 174.667 527 240c-25.333 -70 -58 -149 -98 -237c-102 -34 -219 -79.667 -351 -137c-143.333 -62.667 -246.666 -113.667 -309.999 -153c-16.667 -10.667 -17.667 -19 -3 -25
c142.667 -58 275.334 -131 398.001 -219c12 -8.66699 91.667 -73 239 -193c68 -55.333 121.667 -83 161 -83h68v-236z" />
    <glyph glyph-name="uFE94" unicode="&#x6c0;" horiz-adv-x="826" arabic-form="final" 
d="M857 1l-82.999 -0.000976562c-74.667 0 -129.334 23 -164.001 69c-24.667 32.667 -46.667 91.334 -66 176.001l-56 -72c-16 -20.667 -34.667 -31 -56 -31c-44 0 -88.667 5 -134 15c-63.333 14 -95 34.667 -95 62c0 76 32.333 149.333 97 220
c56 61.333 121.333 107 196 137l-15 88l73 98c13.333 18 21.333 27.333 24 28c8 0 16.333 -33.667 25 -101l32 -243c10.667 -76.667 22 -127.667 34 -153c18 -38 49.667 -57 95 -57h93v-236zM532.001 342.999l-19 117.999c-69.333 -15.333 -123.333 -49.666 -162 -102.999
c36 -11.333 77.667 -17 125 -17c18 0 36.667 0.666992 56 2zM589.001 998.998c-16 -39.333 -30.3311 -71.333 -42.998 -96l-130 -21c-50 -8 -111.333 -26.667 -184 -56c2.66699 10 7.33398 21.333 14.001 34c29.333 36.667 61.666 61 96.999 73l-58 37
c-16 12.667 -24 30 -24 52c0 36.667 18.667 76.5 56 119.5s74.333 64.5 111 64.5c43.333 0 65 -18 65 -54c0 -37.333 -7.33301 -65 -22 -83c-6.66699 -8 -12.334 -6.33301 -17.001 5c-14 31.333 -39.333 47 -76 47c-27.333 0 -41 -13 -41 -39c0 -24 15.667 -47.333 47 -70
c29.333 -21.333 56.666 -32 81.999 -32c17.333 0 58.333 6.33301 123 19z" />
    <glyph glyph-name="uFEF2" unicode="&#x6cc;" horiz-adv-x="1320" arabic-form="final" 
d="M1353 1l-148 0.000976562c-77.333 0 -129.333 -10 -156 -30c-14 -10.667 -21 -18 -21 -22c0 -4.66699 9 -10.334 27 -17.001l157 -39c69.333 -18 104 -37.667 104 -59c0 -118.667 -102.667 -221.334 -308 -308.001c-170 -72 -324 -108 -462 -108
c-228.667 0 -343 99.667 -343 299c0 126 49.333 250 148 372c16 20 29.333 31.667 40 35c9.33301 3.33301 14 0 14 -10c0 -7.33301 -2.66699 -15.666 -8 -24.999c-46 -82 -69 -156.333 -69 -223c0 -152 112.333 -228 337 -228c52 0 136.333 11 253 33
c131.333 24.667 197 47.334 197 68.001c0 16.667 -41.5 36 -124.5 58s-124.5 36.333 -124.5 43c0 63.333 29.333 139.666 88 228.999c73.333 112 160.333 168 261 168h138v-236z" />
    <glyph glyph-name="uFEF3" unicode="&#x6cc;" horiz-adv-x="460" arabic-form="initial" 
d="M346 269c0 -78 -24.333 -147.334 -73 -208.001c-32 -40 -95.667 -60 -191 -60h-114v236h84c130.667 0 196 7.33301 196 22c0 26.667 -36 74.334 -108 143.001l75 155c8 17.333 13.667 26.333 17 27c3.33301 0 9.33301 -6.66699 18 -20c64 -96 96 -194.333 96 -295z
M455 -264.001c-30 -36.667 -65 -83.001 -105 -139.001l-109 73c-16.667 -22.667 -38.667 -54.667 -66 -96l-152 113c22 30.667 53.333 78.334 94 143.001c31.333 -26 70 -55 116 -87l66 102z" />
    <glyph glyph-name="uFEF4" unicode="&#x6cc;" horiz-adv-x="461" arabic-form="medial" 
d="M494 1h-77.001c-38 0 -75.167 12.5 -111.5 37.5s-61.166 55.167 -74.499 90.5c-19.333 -33.333 -46.333 -62.333 -81 -87c-38 -27.333 -74.667 -41 -110 -41h-72v236h95c47.333 0 85.666 11.667 114.999 35c16.667 13.333 34 35.333 52 66
c13.333 23.333 24.666 35 33.999 35c8.66699 0 20.334 -26 35.001 -78c8.66699 -20.667 19.334 -34.667 32.001 -42c18 -10.667 49.667 -16 95 -16h68v-236zM444.999 -264c-30 -36.667 -64.666 -83.002 -103.999 -139.002l-110 73c-17.333 -22.667 -39.333 -54.667 -66 -96
l-153 113c22 30.667 53.667 78.334 95 143.001c30.667 -26 69 -55 115 -87c15.333 22 37.666 56 66.999 102c71.333 -51.333 123.333 -87.666 156 -108.999z" />
    <glyph glyph-name="Hcircumflex" unicode="&#x622;" horiz-adv-x="680" arabic-form="final" 
d="M614 1577c-32 -88.667 -84.6689 -143.999 -158.002 -165.999c-32.667 -10 -73.334 -16 -122.001 -18c-33.333 -1.33301 -66.666 -3 -99.999 -5c-36 -4.66699 -66 -18 -90 -40c-10 -11.333 -17.667 -17 -23 -17c-7.33301 0 -7.66602 13 -0.999023 39
c19.333 73.333 52.333 114 99 122c18.667 3.33301 62 5.66602 130 6.99902c122.667 2.66699 208 34.667 256 96c6 8 10.333 12 13 12c4.66699 0 3.33398 -10 -3.99902 -30zM709.998 1.00098l-106.001 -0.000976562c-129.333 0 -203 97.333 -221 292
c-3.33301 44 -10 123.333 -20 238c-12 130.667 -31.333 309.334 -58 536.001c25.333 24.667 63.333 67 114 127c10.667 15.333 18.334 23 23.001 23s8 -11 10 -33l55 -725c6 -80.667 15.667 -133.667 29 -159c22 -42 66.333 -63 133 -63h41v-236z" />
    <glyph glyph-name="uFE84" unicode="&#x623;" horiz-adv-x="627" arabic-form="final" 
d="M515 1450c-18.667 -44.667 -32.668 -76.3311 -42.001 -94.998c-130 -20.667 -235 -47 -315 -79c2.66699 10 6.66699 21.667 12 35c33.333 37.333 66 61.666 98 72.999l-58 36c-16 12.667 -24 30 -24 52c0 37.333 18.833 77.666 56.5 120.999s74.834 65 111.501 65
c42.667 0 64 -18.333 64 -55c0 -38 -7 -66 -21 -84c-6 -7.33301 -11.667 -5.33301 -17 6c-14 31.333 -39.333 47 -76 47c-27.333 0 -41 -13 -41 -39c0 -24 15.667 -47.333 47 -70c29.333 -22 56.333 -33 81 -33c18 0 59.333 6.66699 124 20zM660.999 1.00293h-107
c-128.667 0 -202 97.333 -220 292c-3.33301 44 -10 123.333 -20 238c-10 107.333 -29.667 286 -59 536c25.333 24.667 63.666 67 114.999 127c10.667 15.333 18 23 22 23c4.66699 0 8 -11 10 -33l55 -725c6 -80 15.667 -132.667 29 -158
c22.667 -42.667 67.334 -64 134.001 -64h41v-236z" />
    <glyph glyph-name="uFE86" unicode="&#x624;" horiz-adv-x="950" arabic-form="final" 
d="M981 1l-123.001 0.000976562c-16 -110 -62 -215.667 -138 -317c-97.333 -130 -212 -195 -344 -195c-47.333 0 -99.666 25.333 -156.999 76c-52 46 -88.333 93.333 -109 142c-5.33301 12.667 -8 22 -8 28c0 14 13.667 16.667 41 8l61 -21c35.333 -11.333 79 -17 131 -17
c125.333 0 229.666 33.333 312.999 100c64.667 52 102.334 107.333 113.001 166c1.33301 7.33301 2 18 2 32c-81.333 0 -138.666 5 -171.999 15c-64 19.333 -96 59.333 -96 120s27.333 134.667 82 222c59.333 94.667 116.666 142 171.999 142c37.333 0 70 -36.667 98 -110
c20.667 -54.667 33 -106.334 37 -155.001h97v-236zM778.999 239.001c-2.66699 26 -10.665 50.6689 -23.998 74.002c-16.667 28 -36.334 42 -59.001 42c-15.333 0 -29.333 -15 -42 -45c-10.667 -24.667 -16 -46.334 -16 -65.001c0 -2.66699 0.333008 -5 1 -7
c4.66699 -7.33301 23 -11.333 55 -12c33.333 -0.666992 61.666 3.66602 84.999 12.999zM848.001 825.003c-12 -32 -25.998 -63.667 -41.998 -95c-132.667 -21.333 -237.334 -47.666 -314.001 -78.999c2 10 6 21.667 12 35c32 37.333 65 61.666 99 72.999l-58 36
c-16 12.667 -24 30 -24 52c0 37.333 18.667 77.5 56 120.5s74.333 64.5 111 64.5c42.667 0 64 -18 64 -54c0 -37.333 -7 -65.333 -21 -84c-6.66699 -6.66699 -12.334 -5 -17.001 5c-13.333 30.667 -39 46 -77 46c-26.667 0 -40 -12.333 -40 -37c0 -24 15.333 -47.667 46 -71
c28.667 -21.333 55.667 -32 81 -32c18 0 59.333 6.66699 124 20z" />
    <glyph glyph-name="uFE88" unicode="&#x625;" horiz-adv-x="649" arabic-form="final" 
d="M682 1l-106 -0.000976562c-129.333 0 -203 97.333 -221 292c-3.33301 44 -10 123.333 -20 238c-12 130.667 -31.333 309.334 -58 536.001c26.667 30 61 72.333 103 127c12 15.333 19.667 23 23 23c4.66699 0 8 -11 10 -33l55 -725c6 -77.333 17.333 -130.333 34 -159
c24.667 -42 71 -63 139 -63h41v-236zM604 -327.001c-18.667 -44 -32.667 -75.332 -42 -93.999l-131 -24c-56.667 -10.667 -118 -29 -184 -55c2.66699 10 6.66699 21.333 12 34c32.667 38 65.334 62.667 98.001 74l-58 35c-16 13.333 -24 31 -24 53
c0 37.333 18.667 77.5 56 120.5s74.333 64.5 111 64.5c43.333 0 65 -18.333 65 -55c0 -37.333 -7.33301 -65.333 -22 -84c-5.33301 -6.66699 -10.666 -4.33398 -15.999 6.99902c-14.667 30.667 -40.334 46 -77.001 46c-27.333 0 -41 -13 -41 -39
c0 -24.667 15.667 -48 47 -70c29.333 -21.333 56.666 -32 81.999 -32c18 0 59.333 6.33301 124 19z" />
    <glyph glyph-name="uFE8A" unicode="&#x626;" horiz-adv-x="1320" arabic-form="final" 
d="M1353 1l-148 0.000976562c-77.333 0 -129.333 -10 -156 -30c-14 -10.667 -21 -18 -21 -22c0 -4.66699 9 -10.334 27 -17.001l157 -39c69.333 -18 104 -37.667 104 -59c0 -118.667 -102.667 -221.334 -308 -308.001c-170 -72 -324 -108 -462 -108
c-228.667 0 -343 99.667 -343 299c0 126 49.333 250 148 372c16 20 29.333 31.667 40 35c9.33301 3.33301 14 0 14 -10c0 -7.33301 -2.66699 -15.666 -8 -24.999c-46 -82 -69 -156.333 -69 -223c0 -152 112.333 -228 337 -228c52 0 136.333 11 253 33
c131.333 24.667 197 47.334 197 68.001c0 16.667 -41.5 36 -124.5 58s-124.5 36.333 -124.5 43c0 63.333 29.333 139.666 88 228.999c73.333 112 160.333 168 261 168h138v-236zM589 488.001c-18.667 -44.667 -33 -76.332 -43 -94.999
c-133.333 -21.333 -238 -47.333 -314 -78c2.66699 10 6.66699 21.333 12 34c32.667 38 65.334 62.667 98.001 74l-58 35c-16 13.333 -24 31 -24 53c0 37.333 18.667 77.5 56 120.5s74.333 64.5 111 64.5c43.333 0 65 -18.333 65 -55c0 -38 -7.33301 -66 -22 -84
c-5.33301 -6.66699 -10.666 -4.33398 -15.999 6.99902c-14.667 30.667 -40.334 46 -77.001 46c-27.333 0 -41 -13 -41 -39c0 -24.667 15.667 -48 47 -70c29.333 -21.333 56.666 -32 81.999 -32c18 0 59.333 6.33301 124 19z" />
    <glyph glyph-name="uFE8B" unicode="&#x626;" horiz-adv-x="349" arabic-form="initial" 
d="M346 269c0 -78 -24.333 -147.334 -73 -208.001c-32 -40 -95.667 -60 -191 -60h-114v236h84c130.667 0 196 7.33301 196 22c0 26.667 -36 74.334 -108 143.001l75 155c8 17.333 13.667 26.333 17 27c3.33301 0 9.33301 -6.66699 18 -20c64 -96 96 -194.333 96 -295z
M388 844.999l-41.999 -95c-136.667 -22 -241.667 -48 -315 -78c2.66699 10 6.66699 21.667 12 35c34 37.333 66.667 61.666 98 72.999l-58 36c-16 13.333 -24 31 -24 53c0 36.667 18.833 76.5 56.5 119.5s74.5 64.5 110.5 64.5c44 0 66 -18 66 -54s-7.66699 -63.667 -23 -83
c-6 -7.33301 -11.333 -5.66602 -16 5.00098c-14.667 31.333 -40 47 -76 47c-27.333 0 -41 -13.333 -41 -40c0 -24 15.667 -47 47 -69c29.333 -21.333 56.333 -32 81 -32c9.33301 0 50.666 6 123.999 18z" />
    <glyph glyph-name="uFE8C" unicode="&#x626;" horiz-adv-x="461" arabic-form="medial" 
d="M494 1h-77.001c-38 0 -75.167 12.5 -111.5 37.5s-61.166 55.167 -74.499 90.5c-19.333 -33.333 -46.333 -62.333 -81 -87c-38 -27.333 -74.667 -41 -110 -41h-72v236h95c47.333 0 85.666 11.667 114.999 35c16.667 13.333 34 35.333 52 66
c13.333 23.333 24.666 35 33.999 35c8.66699 0 20.334 -26 35.001 -78c8.66699 -20.667 19.334 -34.667 32.001 -42c18 -10.667 49.667 -16 95 -16h68v-236zM413.999 730c-6 -16 -20.001 -48 -42.001 -96c-130 -20.667 -235 -46.667 -315 -78c2.66699 10 7 21.333 13 34
c32.667 38.667 65.334 63 98.001 73l-58 37c-16 12.667 -24 30 -24 52c0 36.667 18.833 76.667 56.5 120s74.5 65 110.5 65c43.333 0 65 -18 65 -54c0 -37.333 -7.33301 -65.333 -22 -84c-6 -8 -11.667 -6.33301 -17 5c-13.333 30.667 -38.333 46 -75 46
c-27.333 0 -41 -12.667 -41 -38c0 -24 15.667 -47.333 47 -70c28.667 -21.333 55.667 -32 81 -32s66.333 6.66699 123 20z" />
    <glyph glyph-name="uFE8E" unicode="&#x627;" horiz-adv-x="575" arabic-form="final" 
d="M607 1l-107.001 -0.000976562c-128.667 0 -202 97.333 -220 292c-3.33301 44 -10 123.333 -20 238c-8.66699 92.667 -28 271.334 -58 536.001c24.667 24.667 62.667 67 114 127c10.667 15.333 18 23 22 23c4.66699 0 8 -11 10 -33l55 -725c6 -80 15.667 -132.667 29 -158
c22.667 -42.667 67.334 -64 134.001 -64h41v-236z" />
    <glyph glyph-name="uFE90" unicode="&#x628;" horiz-adv-x="1717" arabic-form="final" 
d="M1747 1h-67.0029c-109.333 0 -177 38.667 -203 116c-17.333 -33.333 -85.666 -70.333 -204.999 -111c-143.333 -48.667 -292.666 -73 -447.999 -73c-414 0 -621 121.333 -621 364c0 32 10.667 80.667 32 146c24.667 75.333 48.334 113 71.001 113c8 0 12 -7 12 -21
c0 -12 -4.83301 -33.333 -14.5 -64s-14.5 -54 -14.5 -70c0 -98.667 80.667 -169 242 -211c100 -26 218 -39 354 -39c281.333 0 464.333 34 549 102c10 8 18.667 26.333 26 55c6 23.333 13.667 35 23 35c8 0 15 -8.33301 21 -25c8 -22 14.667 -36.333 20 -43
c20.667 -25.333 66 -38 136 -38h87v-236zM1048 -341c-51.333 -80.667 -89 -145.667 -113 -195c-28 20 -86.667 54 -176 102c36.667 53.333 72.667 119.333 108 198c62.667 -44 123 -79 181 -105z" />
    <glyph glyph-name="uFE91" unicode="&#x628;" horiz-adv-x="347" arabic-form="initial" 
d="M346 269c0 -78 -24.333 -147.334 -73 -208.001c-32 -40 -95.667 -60 -191 -60h-114v236h84c130.667 0 196 7.33301 196 22c0 26.667 -36 74.334 -108 143.001l75 155c8 17.333 13.667 26.333 17 27c3.33301 0 9.33301 -6.66699 18 -20c64 -96 96 -194.333 96 -295z
M337 -288.001c-51.333 -80.667 -89 -145.666 -113 -194.999c-36.667 26 -95 59.667 -175 101c34.667 51.333 70.667 117.666 108 198.999c64.667 -44.667 124.667 -79.667 180 -105z" />
    <glyph glyph-name="uFE92" unicode="&#x628;" horiz-adv-x="461" arabic-form="medial" 
d="M494 1h-77.001c-38 0 -75.167 12.5 -111.5 37.5s-61.166 55.167 -74.499 90.5c-19.333 -33.333 -46.333 -62.333 -81 -87c-38 -27.333 -74.667 -41 -110 -41h-72v236h95c47.333 0 85.666 11.667 114.999 35c16.667 13.333 34 35.333 52 66
c13.333 23.333 24.666 35 33.999 35c8.66699 0 20.334 -26 35.001 -78c8.66699 -20.667 19.334 -34.667 32.001 -42c18 -10.667 49.667 -16 95 -16h68v-236zM368.999 -288c-28.667 -46 -65.999 -111 -111.999 -195c-36.667 26 -95.334 59.667 -176.001 101
c34.667 52.667 70.667 119 108 199c62 -43.333 122 -78.333 180 -105z" />
    <glyph glyph-name="uFE96" unicode="&#x62a;" horiz-adv-x="1717" arabic-form="final" 
d="M1747 1h-67.0029c-109.333 0 -177 38.667 -203 116c-17.333 -33.333 -85.666 -70.333 -204.999 -111c-143.333 -48.667 -292.666 -73 -447.999 -73c-414 0 -621 121.333 -621 364c0 32 10.667 80.667 32 146c24.667 75.333 48.334 113 71.001 113c8 0 12 -7 12 -21
c0 -12 -4.83301 -33.333 -14.5 -64s-14.5 -54 -14.5 -70c0 -98.667 80.667 -169 242 -211c100 -26 218 -39 354 -39c281.333 0 464.333 34 549 102c10 8 18.667 26.333 26 55c6 23.333 13.667 35 23 35c8 0 15 -8.33301 21 -25c8 -22 14.667 -36.333 20 -43
c20.667 -25.333 66 -38 136 -38h87v-236zM1087 775c-31.333 -38 -66.667 -85.0029 -106 -141.003l-109 74l-67 -95l-152 112c22 30.667 53.667 78.334 95 143.001c30 -25.333 68.667 -53.666 116 -84.999c15.333 20.667 37 54.334 65 101.001z" />
    <glyph glyph-name="uFE97" unicode="&#x62a;" horiz-adv-x="461" arabic-form="initial" 
d="M346 269c0 -78 -24.333 -147.334 -73 -208.001c-32 -40 -95.667 -60 -191 -60h-114v236h84c130.667 0 196 7.33301 196 22c0 26.667 -36 74.334 -108 143.001l75 155c8 17.333 13.667 26.333 17 27c3.33301 0 9.33301 -6.66699 18 -20c64 -96 96 -194.333 96 -295z
M460 874.999c-30 -37.333 -64.668 -83.667 -104.001 -139l-109 72c-17.333 -22.667 -39.666 -54 -66.999 -94l-152 113c22 30.667 53.667 78 95 142c30 -26 68.333 -54.667 115 -86c15.333 21.333 37.333 55 66 101z" />
    <glyph glyph-name="uFE98" unicode="&#x62a;" horiz-adv-x="461" arabic-form="medial" 
d="M494 1h-77.001c-38 0 -75.167 12.5 -111.5 37.5s-61.166 55.167 -74.499 90.5c-19.333 -33.333 -46.333 -62.333 -81 -87c-38 -27.333 -74.667 -41 -110 -41h-72v236h95c47.333 0 85.666 11.667 114.999 35c16.667 13.333 34 35.333 52 66
c13.333 23.333 24.666 35 33.999 35c8.66699 0 20.334 -26 35.001 -78c8.66699 -20.667 19.334 -34.667 32.001 -42c18 -10.667 49.667 -16 95 -16h68v-236zM447.999 758c-30 -37.333 -64.666 -84.001 -103.999 -140.001l-110 73l-66 -94l-154 112
c22.667 30.667 54.667 77.667 96 141c30.667 -25.333 69 -54 115 -86c15.333 22 37.666 56.333 66.999 103c44 -33.333 96 -69.666 156 -108.999z" />
    <glyph glyph-name="uFE9A" unicode="&#x62b;" horiz-adv-x="1717" arabic-form="final" 
d="M1747 1h-67.0029c-109.333 0 -177 38.667 -203 116c-17.333 -33.333 -85.666 -70.333 -204.999 -111c-143.333 -48.667 -292.666 -73 -447.999 -73c-414 0 -621 121.333 -621 364c0 32 10.667 80.667 32 146c24.667 75.333 48.334 113 71.001 113c8 0 12 -7 12 -21
c0 -12 -4.83301 -33.333 -14.5 -64s-14.5 -54 -14.5 -70c0 -98.667 80.667 -169 242 -211c100 -26 218 -39 354 -39c281.333 0 464.333 34 549 102c10 8 18.667 26.333 26 55c6 23.333 13.667 35 23 35c8 0 15 -8.33301 21 -25c8 -22 14.667 -36.333 20 -43
c20.667 -25.333 66 -38 136 -38h87v-236zM922.997 929l-85 -150.001l-152 101c21.333 32.667 51 82.334 89 149.001zM1075 709.999c-30 -37.333 -61.999 -84.666 -95.999 -141.999c-48.667 32.667 -88.667 57.334 -120 74.001c-18.667 -23.333 -43.334 -56 -74.001 -98
l-152 114c38 50 68 95.333 90 136c28.667 -24 71 -54.667 127 -92c17.333 19.333 43.666 57.666 78.999 114.999c26.667 -22.667 75.334 -58.334 146.001 -107.001z" />
    <glyph glyph-name="uFE9B" unicode="&#x62b;" horiz-adv-x="461" arabic-form="initial" 
d="M346 269c0 -78 -24.333 -147.334 -73 -208.001c-32 -40 -95.667 -60 -191 -60h-114v236h84c130.667 0 196 7.33301 196 22c0 26.667 -36 74.334 -108 143.001l75 155c8 17.333 13.667 26.333 17 27c3.33301 0 9.33301 -6.66699 18 -20c64 -96 96 -194.333 96 -295z
M306 1084l-85.999 -151l-152 101c22 32.667 52 83 90 151c29.333 -21.333 78.666 -55 147.999 -101zM458.001 865.999c-30 -38.667 -62 -86.667 -96 -144c-52 35.333 -91.667 60.333 -119 75c-34.667 -41.333 -59.667 -73.666 -75 -96.999l-153 112
c38.667 48.667 69.334 94.667 92.001 138c28.667 -24 71 -55.333 127 -94c17.333 19.333 43.666 57.666 78.999 114.999c26.667 -22.667 75 -57.667 145 -105z" />
    <glyph glyph-name="uFE9C" unicode="&#x62b;" horiz-adv-x="461" arabic-form="medial" 
d="M494 1h-77.001c-38 0 -75.167 12.5 -111.5 37.5s-61.166 55.167 -74.499 90.5c-19.333 -33.333 -46.333 -62.333 -81 -87c-38 -27.333 -74.667 -41 -110 -41h-72v236h95c47.333 0 85.666 11.667 114.999 35c16.667 13.333 34 35.333 52 66
c13.333 23.333 24.666 35 33.999 35c8.66699 0 20.334 -26 35.001 -78c8.66699 -20.667 19.334 -34.667 32.001 -42c18 -10.667 49.667 -16 95 -16h68v-236zM302.999 897l-85 -150l-153 100c22 32.667 52 83 90 151zM454.999 678c-30 -37.333 -62.001 -84.667 -96.001 -142
c-48.667 32 -88.667 56.667 -120 74l-74 -97l-152 112c38.667 50.667 68.667 96.667 90 138c29.333 -24.667 72 -56 128 -94c17.333 19.333 43.333 58.333 78 117c26.667 -23.333 75.334 -59.333 146.001 -108z" />
    <glyph glyph-name="uFE9E" unicode="&#x62c;" horiz-adv-x="1292" arabic-form="final" 
d="M1471 -711c-181.333 -95.333 -299.332 -151.001 -353.999 -167.001c-74 -22 -150.333 -33 -229 -33c-194.667 0 -352.334 39.667 -473.001 119c-141.333 93.333 -212 232.333 -212 417c0 165.333 51 316.333 153 453c82 110.667 177 191 285 241
c-70.667 12 -133.667 18 -189 18c-63.333 0 -110 -12 -140 -36c-22.667 -18 -39.667 -27 -51 -27c-8 0 -12 5 -12 15c0 7.33301 2.66699 18.333 8 33c61.333 166.667 148 250 260 250c58.667 0 147.667 -9.33301 267 -28c116.667 -18.667 205.667 -27.667 267 -27
c36.667 0.666992 86.667 3.66699 150 9c22.667 2 34 -0.666992 34 -8c0 -5.33301 -2.33301 -13 -7 -23l-82 -178c-51.333 2.66699 -111 -2.66602 -179 -15.999c0 -36.667 22 -58 66 -64h292v-236h-268c-135.333 0 -203 55.667 -203 167c0 30 5 67 15 111
c-141.333 -34.667 -265 -103 -371 -205c-112.667 -108 -169 -221.667 -169 -341c0 -145.333 74.667 -253 224 -323c113.333 -53.333 251.333 -80 414 -80c189.333 0 354.333 9.33301 495 28c5.33301 0.666992 11 1 17 1c27.333 0 41 -7.66699 41 -23
c0 -14 -16.333 -29.667 -49 -47zM972.001 -234.001c-28 -46 -65.333 -111.333 -112 -196c-28.667 20.667 -86.667 54.667 -174 102c36 54 71.333 120 106 198c62 -43.333 122 -78 180 -104z" />
    <glyph glyph-name="uFE9F" unicode="&#x62c;" horiz-adv-x="1122" arabic-form="initial" 
d="M1110 427l-55 -166.002c-92.667 10 -182.334 7.33301 -269.001 -8c-140.667 -24.667 -287 -75.667 -439 -153c-130 -66 -230.667 -99 -302 -99h-77v236h74c98.667 0 190 13.667 274 41l212 70c14.667 4.66699 22.334 8.33398 23.001 11.001
c-1.33301 2.66699 -57 22.334 -167 59.001c-42 14 -73 21 -93 21c-60 0 -106.333 -9.33301 -139 -28c-19.333 -11.333 -34.333 -17 -45 -17c-11.333 0 -17 6.33301 -17 19c0 10.667 3 23.334 9 38.001c19.333 48 46 89.333 80 124c41.333 42 84.333 63 129 63
c40.667 0 135.5 -28.667 284.5 -86s266.167 -86 351.5 -86h140c23.333 0 35 -3.33301 35 -10c-1.33301 -4.66699 -4.33301 -14.334 -9 -29.001zM771 -266.002c-28 -46 -65 -111 -111 -195c-28 19.333 -87 53 -177 101c37.333 53.333 73.333 119 108 197
c62.667 -42.667 122.667 -77 180 -103z" />
    <glyph glyph-name="uFEA0" unicode="&#x62c;" horiz-adv-x="1185" arabic-form="medial" 
d="M1216 1l-237.999 0.00488281c-62 0 -113 13 -153 39c-47.333 30 -71 74.333 -71 133c0 37.333 10.667 74.666 32 111.999c-92 -16.667 -225.333 -70.334 -400 -161.001c-158 -82 -274.667 -123 -350 -123h-68v236h74c97.333 0 188.666 14.333 273.999 43l212 71
c15.333 5.33301 23 9.33301 23 12c0 3.33301 -5.66699 6.66602 -17 9.99902c-160 44 -251.667 66 -275 66c-58.667 0 -104.667 -9.33301 -138 -28c-20 -11.333 -35.333 -17 -46 -17c-11.333 0 -17 6.33301 -17 19c0 9.33301 3.33301 22 10 38
c52.667 124.667 122 187 208 187c51.333 0 153.833 -23.5 307.5 -70.5s273.834 -70.5 360.501 -70.5c-12 0 34 3.33301 138 10c17.333 1.33301 27.666 0.666016 30.999 -2.00098c2.66699 -2.66699 1 -11.667 -5 -27l-53 -184h-163c3.33301 -28.667 20 -46.334 50 -53.001
c12 -2.66699 47.667 -4 107 -4h167v-236zM771.001 -265.995c-28 -46 -65 -111 -111 -195c-28 19.333 -87 53 -177 101c37.333 53.333 73.333 119 108 197c62.667 -42.667 122.667 -77 180 -103z" />
    <glyph glyph-name="uFEA2" unicode="&#x62d;" horiz-adv-x="1292" arabic-form="final" 
d="M1471 -711c-181.333 -95.333 -299.332 -151.001 -353.999 -167.001c-74 -22 -150.333 -33 -229 -33c-194.667 0 -352.334 39.667 -473.001 119c-141.333 93.333 -212 232.333 -212 417c0 165.333 51 316.333 153 453c82 110.667 177 191 285 241
c-70.667 12 -133.667 18 -189 18c-63.333 0 -110 -12 -140 -36c-22.667 -18 -39.667 -27 -51 -27c-8 0 -12 5 -12 15c0 7.33301 2.66699 18.333 8 33c61.333 166.667 148 250 260 250c58.667 0 147.667 -9.33301 267 -28c116.667 -18.667 205.667 -27.667 267 -27
c36.667 0.666992 86.667 3.66699 150 9c22.667 2 34 -0.666992 34 -8c0 -5.33301 -2.33301 -13 -7 -23l-82 -178c-51.333 2.66699 -111 -2.66602 -179 -15.999c0 -36.667 22 -58 66 -64h292v-236h-268c-135.333 0 -203 55.667 -203 167c0 30 5 67 15 111
c-141.333 -34.667 -265 -103 -371 -205c-112.667 -108 -169 -221.667 -169 -341c0 -145.333 74.667 -253 224 -323c113.333 -53.333 251.333 -80 414 -80c189.333 0 354.333 9.33301 495 28c5.33301 0.666992 11 1 17 1c27.333 0 41 -7.66699 41 -23
c0 -14 -16.333 -29.667 -49 -47z" />
    <glyph glyph-name="uFEA3" unicode="&#x62d;" horiz-adv-x="1122" arabic-form="initial" 
d="M1110 427l-55 -166.002c-92.667 10 -182.334 7.33301 -269.001 -8c-140.667 -24.667 -287 -75.667 -439 -153c-130 -66 -230.667 -99 -302 -99h-77v236h74c98.667 0 190 13.667 274 41l212 70c14.667 4.66699 22.334 8.33398 23.001 11.001
c-1.33301 2.66699 -57 22.334 -167 59.001c-42 14 -73 21 -93 21c-60 0 -106.333 -9.33301 -139 -28c-19.333 -11.333 -34.333 -17 -45 -17c-11.333 0 -17 6.33301 -17 19c0 10.667 3 23.334 9 38.001c19.333 48 46 89.333 80 124c41.333 42 84.333 63 129 63
c40.667 0 135.5 -28.667 284.5 -86s266.167 -86 351.5 -86h140c23.333 0 35 -3.33301 35 -10c-1.33301 -4.66699 -4.33301 -14.334 -9 -29.001z" />
    <glyph glyph-name="uFEA4" unicode="&#x62d;" horiz-adv-x="1185" arabic-form="medial" 
d="M1216 1l-237.999 0.00488281c-62 0 -113 13 -153 39c-47.333 30 -71 74.333 -71 133c0 37.333 10.667 74.666 32 111.999c-92 -16.667 -225.333 -70.334 -400 -161.001c-158 -82 -274.667 -123 -350 -123h-68v236h74c97.333 0 188.666 14.333 273.999 43l212 71
c15.333 5.33301 23 9.33301 23 12c0 3.33301 -5.66699 6.66602 -17 9.99902c-160 44 -251.667 66 -275 66c-58.667 0 -104.667 -9.33301 -138 -28c-20 -11.333 -35.333 -17 -46 -17c-11.333 0 -17 6.33301 -17 19c0 9.33301 3.33301 22 10 38
c52.667 124.667 122 187 208 187c51.333 0 153.833 -23.5 307.5 -70.5s273.834 -70.5 360.501 -70.5c-12 0 34 3.33301 138 10c17.333 1.33301 27.666 0.666016 30.999 -2.00098c2.66699 -2.66699 1 -11.667 -5 -27l-53 -184h-163c3.33301 -28.667 20 -46.334 50 -53.001
c12 -2.66699 47.667 -4 107 -4h167v-236z" />
    <glyph glyph-name="uFEA6" unicode="&#x62e;" horiz-adv-x="1292" arabic-form="final" 
d="M1471 -711c-181.333 -95.333 -299.332 -151.001 -353.999 -167.001c-74 -22 -150.333 -33 -229 -33c-194.667 0 -352.334 39.667 -473.001 119c-141.333 93.333 -212 232.333 -212 417c0 165.333 51 316.333 153 453c82 110.667 177 191 285 241
c-70.667 12 -133.667 18 -189 18c-63.333 0 -110 -12 -140 -36c-22.667 -18 -39.667 -27 -51 -27c-8 0 -12 5 -12 15c0 7.33301 2.66699 18.333 8 33c61.333 166.667 148 250 260 250c58.667 0 147.667 -9.33301 267 -28c116.667 -18.667 205.667 -27.667 267 -27
c36.667 0.666992 86.667 3.66699 150 9c22.667 2 34 -0.666992 34 -8c0 -5.33301 -2.33301 -13 -7 -23l-82 -178c-51.333 2.66699 -111 -2.66602 -179 -15.999c0 -36.667 22 -58 66 -64h292v-236h-268c-135.333 0 -203 55.667 -203 167c0 30 5 67 15 111
c-141.333 -34.667 -265 -103 -371 -205c-112.667 -108 -169 -221.667 -169 -341c0 -145.333 74.667 -253 224 -323c113.333 -53.333 251.333 -80 414 -80c189.333 0 354.333 9.33301 495 28c5.33301 0.666992 11 1 17 1c27.333 0 41 -7.66699 41 -23
c0 -14 -16.333 -29.667 -49 -47zM805.001 970.999c-50.667 -78.667 -88 -143.667 -112 -195c-28 19.333 -86.667 53 -176 101c33.333 48.667 69.333 114.667 108 198c59.333 -41.333 119.333 -76 180 -104z" />
    <glyph glyph-name="uFEA7" unicode="&#x62e;" horiz-adv-x="1120" arabic-form="initial" 
d="M1110 427l-55 -166.002c-92.667 10 -182.334 7.33301 -269.001 -8c-140.667 -24.667 -287 -75.667 -439 -153c-130 -66 -230.667 -99 -302 -99h-77v236h74c98.667 0 190 13.667 274 41l212 70c14.667 4.66699 22.334 8.33398 23.001 11.001
c-1.33301 2.66699 -57 22.334 -167 59.001c-42 14 -73 21 -93 21c-60 0 -106.333 -9.33301 -139 -28c-19.333 -11.333 -34.333 -17 -45 -17c-11.333 0 -17 6.33301 -17 19c0 10.667 3 23.334 9 38.001c19.333 48 46 89.333 80 124c41.333 42 84.333 63 129 63
c40.667 0 135.5 -28.667 284.5 -86s266.167 -86 351.5 -86h140c23.333 0 35 -3.33301 35 -10c-1.33301 -4.66699 -4.33301 -14.334 -9 -29.001zM732 970.998c-50 -77.333 -87.667 -142.333 -113 -195c-28 19.333 -86.667 53 -176 101c36 53.333 72 119.333 108 198
c60 -42 120.333 -76.667 181 -104z" />
    <glyph glyph-name="uFEA8" unicode="&#x62e;" horiz-adv-x="1185" arabic-form="medial" 
d="M1216 1l-237.999 0.00488281c-62 0 -113 13 -153 39c-47.333 30 -71 74.333 -71 133c0 37.333 10.667 74.666 32 111.999c-92 -16.667 -225.333 -70.334 -400 -161.001c-158 -82 -274.667 -123 -350 -123h-68v236h74c97.333 0 188.666 14.333 273.999 43l212 71
c15.333 5.33301 23 9.33301 23 12c0 3.33301 -5.66699 6.66602 -17 9.99902c-160 44 -251.667 66 -275 66c-58.667 0 -104.667 -9.33301 -138 -28c-20 -11.333 -35.333 -17 -46 -17c-11.333 0 -17 6.33301 -17 19c0 9.33301 3.33301 22 10 38
c52.667 124.667 122 187 208 187c51.333 0 153.833 -23.5 307.5 -70.5s273.834 -70.5 360.501 -70.5c-12 0 34 3.33301 138 10c17.333 1.33301 27.666 0.666016 30.999 -2.00098c2.66699 -2.66699 1 -11.667 -5 -27l-53 -184h-163c3.33301 -28.667 20 -46.334 50 -53.001
c12 -2.66699 47.667 -4 107 -4h167v-236zM732.001 971.005c-50 -77.333 -87.667 -142.333 -113 -195c-28 19.333 -86.667 53 -176 101c36 53.333 72 119.333 108 198c60 -42 120.333 -76.667 181 -104z" />
    <glyph glyph-name="uFEAA" unicode="&#x62f;" horiz-adv-x="1034" arabic-form="final" 
d="M1066 1h-88c-100 0 -171.333 76.667 -214 230c-60.667 -145.333 -169.667 -218 -327 -218c-156 0 -234 28.667 -234 86c0 51.333 16.333 116 49 194c10.667 25.333 20 38 28 38c6 0 11 -8 15 -24c13.333 -52 73.333 -78 180 -78c160.667 0 241 56.333 241 169
c0 88.667 -24.667 227.334 -74 416.001l110 115c8 8.66699 13.333 13 16 13c2.66699 -0.666992 5.66699 -6.66699 9 -18c22.667 -78.667 42.667 -187.334 60 -326.001c16.667 -134 31.334 -219.667 44.001 -257c23.333 -69.333 61.666 -104 114.999 -104h70v-236z" />
    <glyph glyph-name="uFEAC" unicode="&#x630;" horiz-adv-x="1034" arabic-form="final" 
d="M1066 1h-88c-100 0 -171.333 76.667 -214 230c-60.667 -145.333 -169.667 -218 -327 -218c-156 0 -234 28.667 -234 86c0 51.333 16.333 116 49 194c10.667 25.333 20 38 28 38c6 0 11 -8 15 -24c13.333 -52 73.333 -78 180 -78c160.667 0 241 56.333 241 169
c0 88.667 -24.667 227.334 -74 416.001l110 115c8 8.66699 13.333 13 16 13c2.66699 -0.666992 5.66699 -6.66699 9 -18c22.667 -78.667 42.667 -187.334 60 -326.001c16.667 -134 31.334 -219.667 44.001 -257c23.333 -69.333 61.666 -104 114.999 -104h70v-236zM779 1216
c-53.333 -85.333 -90.999 -150.668 -112.999 -196.001c-36.667 25.333 -95.334 59 -176.001 101c34 48.667 70.333 114.667 109 198c65.333 -45.333 125.333 -79.666 180 -102.999z" />
    <glyph glyph-name="uFEAE" unicode="&#x631;" horiz-adv-x="841" arabic-form="final" 
d="M872 1h-50c-33.333 0 -53 -18 -59 -54c-19.333 -120.667 -63.333 -227.667 -132 -321c-76.667 -104 -160.667 -156 -252 -156c-82 0 -160.667 27 -236 81c-24.667 18 -37 30.333 -37 37c0 9.33301 16.667 13.333 50 12c129.333 -4.66699 254 49 374 161
c46 42.667 83.667 92.667 113 150c23.333 45.333 35 78 35 98c0 17.333 -40 65.333 -120 144l100 168c2 4.66699 5 5 9 1c61.333 -56.667 112.333 -85 153 -85h52v-236z" />
    <glyph glyph-name="uFEB0" unicode="&#x632;" horiz-adv-x="870" arabic-form="final" 
d="M872 1h-50c-33.333 0 -53 -18 -59 -54c-19.333 -120.667 -63.333 -227.667 -132 -321c-76.667 -104 -160.667 -156 -252 -156c-82 0 -160.667 27 -236 81c-24.667 18 -37 30.333 -37 37c0 9.33301 16.667 13.333 50 12c129.333 -4.66699 254 49 374 161
c46 42.667 83.667 92.667 113 150c23.333 45.333 35 78 35 98c0 17.333 -40 65.333 -120 144l100 168c2 4.66699 5 5 9 1c61.333 -56.667 112.333 -85 153 -85h52v-236zM689 717c-56 -90.667 -93.333 -155.667 -112 -195c-19.333 14 -78 47.667 -176 101
c35.333 52 71.333 118 108 198c62 -43.333 122 -78 180 -104z" />
    <glyph glyph-name="uFEB2" unicode="&#x633;" horiz-adv-x="1942" arabic-form="final" 
d="M1975 1l-65.998 -0.00195312c-64.667 0 -116.667 40 -156 120c-42 -76.667 -92.333 -115 -151 -115c-38.667 0 -69.334 15.333 -92.001 46l-54 75l-66 -68c-46 -38.667 -99.333 -58 -160 -58c-34.667 0 -69 3.66699 -103 11c0 -188 -45 -332.333 -135 -433
c-94.667 -106 -235 -159 -421 -159c-105.333 0 -191 24 -257 72c-74 54.667 -111 133 -111 235c0 112.667 42.333 222.667 127 330c11.333 14 20.666 21 27.999 21s11 -6 11 -18c0 -6.66699 -1.66699 -13.667 -5 -21c-43.333 -93.333 -65 -161.666 -65 -204.999
c0 -120 104.333 -180 313 -180c68 0 137 8.66699 207 26c88 22 147.333 54.333 178 97c28.667 40 43 106.333 43 199c0 43.333 -15 82.333 -45 117c-42.667 49.333 -69 86.333 -79 111l90 137c8.66699 13.333 14.667 20 18 20s8.66602 -5.33301 15.999 -16
c26.667 -38.667 50.334 -65 71.001 -79c32 -22 74 -33 126 -33c118 0 193.333 33.333 226 100c12 24 22 36 30 36c8.66699 0 16.334 -12 23.001 -36c8 -30 17 -51.667 27 -65c17.333 -23.333 44 -35 80 -35s62.667 11.667 80 35c6.66699 8.66699 16 30.334 28 65.001
c8.66699 24 18.667 36 30 36s20.333 -11.333 27 -34c9.33301 -32.667 17.666 -54 24.999 -64c16 -22.667 42 -34 78 -34h84v-236z" />
    <glyph glyph-name="uFEB3" unicode="&#x633;" horiz-adv-x="1043" arabic-form="initial" 
d="M1041 326c0 -65.333 -14.333 -122.666 -43 -171.999c-34.667 -59.333 -82.334 -89 -143.001 -89c-79.333 0 -141 26.333 -185 79c-28.667 -48.667 -56.334 -82.667 -83.001 -102c-36.667 -26.667 -84.667 -40 -144 -40c-100 0 -175.333 44.667 -226 134
c-12.667 -34 -37.667 -65 -75 -93s-74 -42 -110 -42h-64v236h74c48 0 88 11.667 120 35c18 13.333 37.333 35.333 58 66c15.333 23.333 26.666 35 33.999 35c8.66699 0 16.334 -12.333 23.001 -37c8.66699 -30.667 20.667 -53.334 36 -68.001c26.667 -24.667 68 -37 124 -37
c62.667 0 115.667 17.333 159 52c26.667 21.333 52.334 53.333 77.001 96c20 34.667 34 52 42 52c12.667 0 21.667 -10.333 27 -31c20.667 -84.667 74.667 -127 162 -127c12.667 0 19 8 19 24c0 15.333 -20.333 46.333 -61 93l91 123c8.66699 12 14.334 18.333 17.001 19
c4 -2 9 -8.33301 15 -19c37.333 -64.667 56 -127 56 -187z" />
    </font>
</defs>
</svg>
