<?xml version="1.0" standalone="no"?>
<!DOCTYPE svg PUBLIC "-//W3C//DTD SVG 1.1//EN" "http://www.w3.org/Graphics/SVG/1.1/DTD/svg11.dtd" >
<svg>
<metadata>
Created by FontForge 20090914 at Wed Oct 19 01:34:40 2011
 By www-data
(c) by Abolfazl Seilsepour - +98 912 591 3420  -  seilsepor@yahoo.com
</metadata>
<defs>
<font id="Far.MajidShadow" horiz-adv-x="0" >
  <font-face 
    font-family="Far.Majid Shadow"
    font-weight="400"
    font-stretch="normal"
    units-per-em="2048"
    panose-1="0 0 4 0 0 0 0 0 0 0"
    ascent="1638"
    descent="-410"
    bbox="-179 -1043 2186 1871"
    underline-thickness="100"
    underline-position="-700"
    unicode-range="U+0020-U+FEFC"
  />
<missing-glyph horiz-adv-x="1024" 
d="M128 0v1314h768v-1314h-768zM256 128h512v1058h-512v-1058z" />
    <glyph glyph-name="uE818" unicode="&#x651;&#x64b;" 
d="M555 1466c-26.667 -6 -86.668 -32.668 -180.001 -80.001c-87.333 -44 -137.666 -66 -150.999 -66c-22.667 0 -50 20 -82 60l-68 89h59c15.333 0 35.833 -10.667 61.5 -32s40.5 -32 44.5 -32c32 0 48 13 48 39c0 44 -21.333 79 -64 105h61c16 0 35.333 -14.167 58 -42.5
s35.667 -42.5 39 -42.5c30 0 45 16 45 48c0 34.667 -17.333 61.334 -52 80.001c34.667 2.66699 53.667 4 57 4c26 0 48.667 -17 68 -51c25.333 -44 44 -70.333 56 -79zM428.999 1824c-22.667 -7.33301 -94 -39 -214 -95c-102.667 -48 -169 -72 -199 -72h-100
c240.667 111.333 378 167 412 167h101zM466.999 1713c-22.667 -7.33301 -94 -39 -214 -95c-102.667 -48 -169 -72 -199 -72h-100c240.667 111.333 378 167 412 167h101z" />
    <glyph glyph-name="uFC5E" unicode="&#x651;&#x64c;" arabic-form="isolated" 
d="M579 1420c-27.333 -6 -87.3359 -32.668 -180.003 -80.001c-87.333 -44 -137.666 -66 -150.999 -66c-23.333 0 -50.666 20 -81.999 60c-5.33301 6 -28 35.667 -68 89h59c15.333 0 35.833 -10.667 61.5 -32s40.5 -32 44.5 -32c32 0 48 13 48 39c0 44 -21.333 79 -64 105h61
c16 0 35.333 -14.167 58 -42.5s35.667 -42.5 39 -42.5c30 0 45 16 45 48c0 34.667 -17.333 61.334 -52 80.001c34.667 2.66699 53.667 4 57 4c25.333 0 48 -17 68 -51c24.667 -44 43.334 -70.333 56.001 -79zM411.997 1652c0 -30 -24.666 -55.999 -73.999 -77.999l58 -52
h-44c-22 0 -45 8.33301 -69 25c-98 -54.667 -169 -82 -213 -82v83c-30.667 -13.333 -63.334 -20 -98.001 -20h-66c67.333 29.333 145.333 67.666 234 114.999v-96c21.333 8 51.333 21.333 90 40c-42.667 38 -64 68.333 -64 91c0 27.333 21.667 58.333 65 93
c16.667 14 47.667 37 93 69c0 -14 14.667 -45.333 44 -94s44 -80 44 -94zM342.998 1662c0 37.333 -18.667 55.999 -56 55.999c-34 0 -51 -13.667 -51 -41c0 -10 18 -29.667 54 -59c35.333 20.667 53 35.334 53 44.001z" />
    <glyph glyph-name="uFC5F" unicode="&#x651;&#x64d;" arabic-form="isolated" 
d="M497 1717c-26.667 -6 -86.6689 -32.668 -180.002 -80.001c-86.667 -44 -137 -66 -151 -66c-22.667 0 -50 20 -82 60l-68 89h59c16 0 36.667 -10.667 62 -32s40 -32 44 -32c32 0 48 13 48 39c0 44 -21.333 79 -64 105h61c16.667 0 36.334 -14.167 59.001 -42.5
s35.334 -42.5 38.001 -42.5c30 0 45 16 45 48c0 34.667 -17.333 61.334 -52 80.001c34.667 2.66699 53.667 4 57 4c26 0 48.667 -17 68 -51c25.333 -44 44 -70.333 56 -79zM617.998 1570c-22 -6.66699 -90.667 -37 -206 -91c-98 -46 -161.667 -69 -191 -69h-96
c231.333 106.667 363.333 160 396 160h97zM653.998 1464c-22 -7.33301 -90.333 -37.667 -205 -91c-98.667 -46.667 -162.334 -70 -191.001 -70h-96c230.667 107.333 362.334 161 395.001 161h97z" />
    <glyph glyph-name="uFC60" unicode="&#x651;&#x64e;" arabic-form="isolated" 
d="M571 1484c-26.667 -6 -86.6699 -32.335 -180.003 -79.002c-87.333 -44 -137.666 -66 -150.999 -66c-23.333 0 -50.666 20 -81.999 60c-5.33301 6 -28 35.333 -68 88h59c15.333 0 35.833 -10.667 61.5 -32s40.5 -32 44.5 -32c32 0 48 13 48 39c0 44 -21.333 79 -64 105h61
c16 0 35.333 -14.167 58 -42.5s35.667 -42.5 39 -42.5c30 0 45 16 45 48c0 34.667 -17.333 61.334 -52 80.001c34.667 2.66699 53.667 4 57 4c25.333 0 48 -17 68 -51c24.667 -43.333 43.334 -69.666 56.001 -78.999zM492.997 1770c-22.667 -6.66699 -94 -38.333 -214 -95
c-102.667 -48 -169 -72 -199 -72h-100c240.667 111.333 378 167 412 167h101z" />
    <glyph glyph-name="uFC61" unicode="&#x651;&#x64f;" arabic-form="isolated" 
d="M586 1442c-26.667 -6 -86.6689 -32.6689 -180.002 -80.002c-86.667 -44 -137 -66 -151 -66c-22.667 0 -50 20 -82 60l-68 89h59c16 0 36.833 -10.667 62.5 -32s40.167 -32 43.5 -32c32 0 48 13 48 39c0 44 -21.333 79 -64 105h61c16.667 0 36.334 -14.167 59.001 -42.5
s35.334 -42.5 38.001 -42.5c30 0 45 16 45 48c0 34.667 -17.333 61.334 -52 80.001c34.667 2.66699 53.667 4 57 4c26 0 48.667 -17 68 -51c25.333 -43.333 44 -69.666 56 -78.999zM454.998 1683c0 -30 -24.667 -56 -74 -78l58 -52h-44c-22 0 -45.333 8.66699 -70 26
c-107.333 -55.333 -180.333 -83 -219 -83h-92c72 27.333 157.667 68.333 257 123c-41.333 38 -62 68 -62 90c0 27.333 21.667 58.333 65 93c17.333 14 48.333 37 93 69c0 -14 14.667 -45.167 44 -93.5s44 -79.833 44 -94.5zM385.998 1693
c0 37.333 -18.667 55.999 -56 55.999c-34 0 -51 -13.667 -51 -41c0 -10 18 -29.667 54 -59c35.333 20.667 53 35.334 53 44.001z" />
    <glyph glyph-name="uFC62" unicode="&#x651;&#x650;" arabic-form="isolated" 
d="M513 1690c-26.667 -6 -86.6699 -32.6689 -180.003 -80.002c-87.333 -44 -137.666 -66 -150.999 -66c-23.333 0 -50.666 20 -81.999 60l-68 89h59c15.333 0 35.833 -10.667 61.5 -32s40.5 -32 44.5 -32c32 0 48 13 48 39c0 44 -21.333 79 -64 105h61
c16 0 35.333 -14.167 58 -42.5s35.667 -42.5 39 -42.5c30 0 45 16 45 48c0 34.667 -17.333 61.334 -52 80.001c34.667 2.66699 53.667 4 57 4c26 0 48.667 -17 68 -51c24.667 -43.333 43.334 -69.666 56.001 -78.999zM642.997 1442c-22 -6.66699 -90.667 -37 -206 -91
c-98 -46 -161.667 -69 -191 -69h-96c231.333 106.667 363.333 160 396 160h97z" />
    <glyph glyph-name="uFDF2" unicode="&#xfedf;&#xfee0;&#xfeea;" horiz-adv-x="2294" arabic-form="isolated" 
d="M1566 536l237 0.000976562l-108 456c-19.333 81.333 -29 133.666 -29 156.999c0 28 108.333 86.333 325 175c4.66699 2 21 -23.667 49 -77c10 4 18 6 24 6c10.667 -6.66699 32.334 -44.5 65 -113.5c32.667 -69 49 -110.5 49 -124.5c0 -23.333 -39.667 -76.333 -119 -159
c5.33301 -32.667 27.333 -101.667 66 -207c34.667 -94.667 52 -163 52 -205v-514h-1152c-54.667 0 -94 5.66699 -118 17c-12 5.33301 -36 23.333 -72 54c-8.66699 12 -20.334 25.333 -35.001 40c-46.667 48 -76.667 88 -90 120l-96 -86c-42 -38 -77.333 -59.333 -106 -64
l-353 194l7 28l-76 41c32.667 152.667 202.667 304.667 510 456l17 71l139 52l2 -95l68 25l1 -118c0.666992 -37.333 8 -76 22 -116c30.667 -9.33301 60.334 -14 89.001 -14c26.667 0 53.667 0.333008 81 1h233l-139 628l340 170l37 -87l33 17l105 -250l-114 -144
c22.667 -85.333 48 -175.333 76 -270c19.333 -64.667 28.333 -99 27 -103h-98l-119 451l113 142l-79 188l-276 -136l145 -645h-274c-40 -0.666992 -60.667 -1 -62 -1c-104 0 -173 19.333 -207 58c-29.333 34 -44 115 -44 243l-65 -23l-15 -70
c-107.333 -47.333 -204 -102.333 -290 -165c-117.333 -85.333 -187 -167.333 -209 -246l312 -173c21.333 6 58 35 110 87c49.333 49.333 80.666 74 93.999 74c22.667 0 47 -12 73 -36c8.66699 -28 24.334 -68 47.001 -120c22 -38 49.667 -62 83 -72
c28.667 -8.66699 86.334 -13 173.001 -13h1043v474c0 40.667 -21 116.667 -63 228s-62.667 177.333 -62 198c81.333 78 122 127 122 147c0 14.667 -13.333 50.5 -40 107.5s-43.334 85.5 -50.001 85.5c-22 0 -71 -20.667 -147 -62c-78 -42 -117 -70.667 -117 -86
c0 -56 20 -161.667 60 -317l83 -318h-241zM671 499.001c0 -78.667 -34 -118 -102 -118c-22 0 -44.333 4.33301 -67 13c-28.667 11.333 -43 26.333 -43 45c0 34 16.667 66.5 50 97.5s67 46.5 101 46.5c40.667 0 61 -28 61 -84z" />
    <glyph glyph-name="uFEF5" unicode="&#xfedf;&#xfe82;" horiz-adv-x="915" arabic-form="isolated" 
d="M489 1296c-14.667 -2 -39.665 -11.333 -74.998 -28c-32.667 -15.333 -58.334 -23 -77.001 -23c-15.333 0 -40.5 8 -75.5 24s-57.167 24 -66.5 24c-50.667 0 -95.334 -19.333 -134.001 -58l14 -2l89 8c18.667 0 47.167 -7.5 85.5 -22.5s66.5 -22.5 84.5 -22.5
c20 0 50.333 11 91 33c44 23.333 66 43.333 66 60c0 2.66699 -0.666992 5 -2 7zM752.002 1196c0 18 -5.66602 36.666 -16.999 55.999c-12.667 22.667 -27.334 34 -44.001 34c-11.333 0 -37.333 -11.333 -78 -34c-36 -20 -59.667 -35 -71 -45l-65 -366
c-78 182 -146 273 -204 273c-34 0 -73.667 -33.667 -119 -101c10 -31.333 39.333 -59.666 88 -84.999l65 20c58.667 -44 92 -101.333 100 -172c-30.667 -104.667 -117.667 -196 -261 -274v-462h594v466c-112 128.667 -168 235 -168 319c0 34 14.5 82.5 43.5 145.5
s43.5 111.5 43.5 145.5c44 10.667 67.333 17 70 19c15.333 8.66699 23 29 23 61zM603.003 496.999h-255l-9 37c29.333 15.333 81.333 70 156 164zM687.003 1326c26 0 51.668 -23.334 77.001 -70.001c29.333 -10 52.333 -33.333 69 -70c14.667 -31.333 22 -64.333 22 -99
c0 -26 -30 -50.667 -90 -74c0 -24.667 -14 -66.5 -42 -125.5s-42 -103.167 -42 -132.5c0 -46.667 19 -102 57 -166c32.667 -54.667 68.667 -100 108 -136v-523h-669v70h-70v527c134 60 221 145 261 255c-1.33301 14.667 -6 30.334 -14 47.001l-41 -10
c-46.667 17.333 -84.334 47.333 -113.001 90c-40.667 26.667 -69.667 64 -87 112c18 26.667 49.333 63 94 109c-32.667 -4 -69 -6 -109 -6c-8 0 -13.667 2.66699 -17 8c0 22 15.667 44.667 47 68c-32.667 -4 -67 -6 -103 -6c-2 0 -4.33301 0.666992 -7 2l-6 11
c8 30 32.667 58.333 74 85c39.333 26 75 39 107 39c12.667 0 36.167 -7.83301 70.5 -23.5s58.833 -23.5 73.5 -23.5c18 0 48.333 7.33301 91 22c56 19.333 86 29.333 90 30c4 -5.33301 6 -12.333 6 -21c0 -26 -16.333 -55.333 -49 -88c33.333 18 84.333 43 153 75z
M374.004 1096l90 -92l18 104c-32 -12.667 -55.333 -19 -70 -19c-13.333 0 -26 2.33301 -38 7z" />
    <glyph glyph-name="uFEF6" unicode="&#xfee0;&#xfe82;" horiz-adv-x="1161" arabic-form="final" 
d="M857 1336c-80 -34.667 -130.999 -52 -152.999 -52c-13.333 0 -36.5 8.16699 -69.5 24.5s-56.5 24.5 -70.5 24.5c-42.667 0 -87.334 -19.333 -134.001 -58l27 -1c8.66699 0 21.5 1 38.5 3s29.5 3 37.5 3c19.333 0 47.333 -7.33301 84 -22s64.667 -22 84 -22
c22 0 52.667 10.333 92 31c43.333 22.667 65 43.667 65 63c0 2.66699 -0.333008 4.66699 -1 6zM447.001 -71c-104.667 0 -180.337 37.665 -227.004 112.998c-88 57.333 -132 166.666 -132 327.999c0 63.333 6.33301 128.666 19 195.999c41.333 -66 123 -99 245 -99
c113.333 0 170 28.333 170 85c0 64 -53 164.667 -159 302c-7.33301 -18 -16 -32.333 -26 -43l-238 178c-4.66699 3.33301 -7 11.333 -7 24l-66 49l-5 15c0 28.667 20.333 76.334 61 143.001c42 69.333 75.333 104 100 104c50.667 0 119 -43.667 205 -131
c60.667 -62 116.334 -128.667 167.001 -200c126.667 -178.667 190 -313.667 190 -405c27.333 94.667 45.666 184.334 54.999 269.001c0 0.666992 7 93.667 21 279l-39 -7c-19.333 0 -46.833 7 -82.5 21s-63.167 21 -82.5 21c-13.333 0 -35.666 -1.33301 -66.999 -4
c-28.667 -2.66699 -51 -3.66699 -67 -3l-26 1l-6 7c2 18 17.667 40.333 47 67l-102 -4c-10 -0.666992 -15 3 -15 11c0 24.667 23.333 52.334 70 83.001c42.667 28 78 42 106 42c16 0 40.667 -7.83301 74 -23.5s58 -23.5 74 -23.5c21.333 0 53.833 8.5 97.5 25.5
s69.834 25.5 78.501 25.5h7l5 -19c0 -23.333 -15.333 -53 -46 -89c70 28 128.333 48.333 175 61l-2 -92l72 21c0 -85.333 -3 -205 -9 -359l-14 -359c26.667 -2 64 -3 112 -3v-39c-15.333 -0.666992 -35.333 -1 -60 -1c-78.667 0 -124.334 9.66699 -137.001 29
c-14 40.667 -21 105.334 -21 194.001c0 95.333 6.66699 281.333 20 558c-81.333 -26 -122 -55.333 -122 -88c0 -93.333 -11.333 -219.333 -34 -378c-29.333 -206 -64.333 -309 -105 -309c0 146.667 -85.667 330.334 -257 551.001
c-117.333 151.333 -208.666 227 -273.999 227c-17.333 0 -42.833 -26.333 -76.5 -79s-50.5 -89 -50.5 -109l2 -9l192 -147c18 23.333 27 44.666 27 63.999c0 6 -1 12 -3 18c186 -221.333 279 -379.333 279 -474c0 -77.333 -64.667 -116 -194 -116
c-89.333 0 -167.666 17.667 -234.999 53c-7.33301 -49.333 -11 -99 -11 -149c0 -86.667 22.667 -156.334 68 -209.001c47.333 -56 113.666 -84 198.999 -84c80 0 159 23 237 69c82 47.333 138.333 106.333 169 177l38 -6c12.667 -106 47.334 -174.667 104.001 -206
c42 -23.333 123.667 -34.333 245 -33v-109c-84 0 -150.333 12 -199 36c-53.333 26.667 -101 74.334 -143 143.001c-99.333 -120.667 -229.666 -181 -390.999 -181z" />
    <glyph glyph-name="uFEF7" unicode="&#xfedf;&#xfe84;" horiz-adv-x="1025" arabic-form="isolated" 
d="M253 1180l-42 -8.99902c-55.333 0 -83 16.333 -83 49c0 35.333 31.667 57.666 95 66.999c-28 17.333 -47.667 26 -59 26c-27.333 0 -49.333 -10 -66 -30s-25 -44 -25 -72c0 -22.667 14.333 -45.667 43 -69l-67 -15l-10 -82l194 50zM857 1196
c0 18 -5.66602 36.666 -16.999 55.999c-12.667 22.667 -27.334 34 -44.001 34c-11.333 0 -37.333 -11.333 -78 -34c-36 -20 -59.667 -35 -71 -45l-65 -366c-78 182 -146 273 -204 273c-34 0 -73.667 -33.667 -119 -101c10 -31.333 39.333 -59.666 88 -84.999l65 20
c58.667 -44 92 -101.333 100 -172c-30.667 -104.667 -117.667 -196 -261 -274v-462h594v466c-112 128.667 -168 235 -168 319c0 34 14.5 82.5 43.5 145.5s43.5 111.5 43.5 145.5c44 10.667 67.333 17 70 19c15.333 8.66699 23 29 23 61zM708.001 497h-255l-9 37
c29.333 15.333 81.333 70 156 164zM240.001 971l-177.998 -46.001l15 90l-85 -21l27 164l32 5c-7.33301 16.667 -11 34 -11 52c0 36.667 14.167 68 42.5 94s61.166 39 98.499 39c30 0 58.333 -24.667 85 -74c34 -20 59.333 -47.333 76 -82l-51 -2l-12 -54
c4.66699 -0.666992 14 -1 28 -1c7.33301 0 18.333 3.16699 33 9.5s25.667 9.5 33 9.5c27.333 0 53.333 -10.667 78 -32l59 -62c13.333 -11.333 33 -30 59 -56l40 223c24.667 24.667 85.667 57.667 183 99c26 0 51.667 -23.333 77 -70c29.333 -10 52.333 -33.333 69 -70
c14.667 -31.333 22 -64.333 22 -99c0 -26 -30 -50.667 -90 -74c0 -24.667 -14 -66.5 -42 -125.5s-42 -103.167 -42 -132.5c0 -46.667 19 -102 57 -166c32 -54 68 -99.333 108 -136v-523h-669v70h-70v527c134 60 221 145 261 255c-1.33301 14.667 -6 30.334 -14 47.001
l-41 -10c-46.667 17.333 -84.334 47.333 -113.001 90c-18 11.333 -39.667 32 -65 62z" />
    <glyph glyph-name="uFEF8" unicode="&#xfee0;&#xfe84;" horiz-adv-x="1161" arabic-form="final" 
d="M758 1229l-42 -8.99902c-55.333 0 -83 16.333 -83 49c0 35.333 31.667 57.666 95 66.999c-28 17.333 -47.667 26 -59 26c-27.333 0 -49.333 -10 -66 -30s-25 -44 -25 -72c0 -22.667 14.333 -45.667 43 -69l-67 -15l-10 -82l194 50zM569 972.001
c116.667 -174.667 175 -302.666 175 -383.999c26 54.667 43.667 128 53 220c2.66699 23.333 9 99.666 19 228.999zM515 1047c16.667 -21.333 33 -44 49 -68l18 85zM447 -70.998c-104.667 0 -180.333 37.6709 -227 113.004c-88 57.333 -132 166.666 -132 327.999
c0 63.333 6.33301 128.666 19 195.999c41.333 -66 123 -99 245 -99c113.333 0 170 28 170 84c0 66 -53 167 -159 303c-7.33301 -18 -16 -32.333 -26 -43l-238 178c-4.66699 3.33301 -7 11.333 -7 24l-66 49l-5 15c0 29.333 20 77 60 143c42 69.333 75.667 104 101 104
c79.333 0 185.666 -86.333 318.999 -259l23 142l32 5c-7.33301 16.667 -11 34 -11 52c0 36.667 14.167 68 42.5 94s61.166 39 98.499 39c30 0 58.333 -24.667 85 -74c28.667 -14.667 51.334 -40.667 68.001 -78c-12 0 -26.333 -2 -43 -6l-12 -54
c12.667 0 25.334 1.33301 38.001 4c0 58.667 66.333 105 199 139l-2 -92l72 21c0 -85.333 -3 -205 -9 -359l-14 -359c26.667 -2 64 -3 112 -3v-39c-15.333 -0.666992 -35.333 -1 -60 -1c-78.667 0 -124.334 9.66699 -137.001 29c-14 40.667 -21 105.334 -21 194.001
c0 95.333 6.66699 281.333 20 558c-81.333 -26 -122 -55.333 -122 -88c0 -90.667 -11.333 -216.334 -34 -377.001c-29.333 -206.667 -64.333 -310 -105 -310c0 146.667 -85.333 330 -256 550c-118 152 -209.667 228 -275 228c-17.333 0 -42.833 -26.333 -76.5 -79
s-50.5 -89 -50.5 -109l2 -9l192 -147c18 23.333 27 44.666 27 63.999c0 6 -1 12 -3 18c186 -221.333 279 -379.333 279 -474c0 -77.333 -64.667 -116 -194 -116c-89.333 0 -167.666 17.667 -234.999 53c-7.33301 -49.333 -11 -99 -11 -149
c0 -86.667 22.667 -156.334 68 -209.001c47.333 -56 113.666 -84 198.999 -84c80 0 159 23 237 69c82 47.333 138.333 106.333 169 177l38 -6c12 -106.667 47.333 -175.334 106 -206.001c42 -22 123 -33 243 -33v-109c-84 0 -150.333 12 -199 36
c-53.333 26.667 -101 74.334 -143 143.001c-99.333 -120.667 -229.666 -181 -390.999 -181z" />
    <glyph glyph-name="uFEF9" unicode="&#xfedf;&#xfe88;" horiz-adv-x="915" arabic-form="isolated" 
d="M848 1058c-22.667 -19.333 -50.332 -34.334 -82.999 -45.001c0 -24 -14 -65.5 -42 -124.5s-42 -103.5 -42 -133.5c0 -46.667 19 -102 57 -166c32 -54 68 -99.333 108 -136v-523h-669v70h-70v527c134 60 221 145 261 255c-1.33301 14.667 -6 30.334 -14 47.001l-41 -10
c-46 17.333 -83.667 47.333 -113 90c-41.333 26.667 -70.333 64 -87 112c35.333 49.333 56.666 77.666 63.999 84.999c30.667 32 61 48 91 48c28 0 54 -10.667 78 -32l59 -62c13.333 -11.333 33 -30 59 -56l40 223c24.667 24.667 85.667 57.667 183 99
c26 0 51.667 -23.333 77 -70c60.667 -22 91 -79.667 91 -173c0 -9.33301 -2.33301 -17.666 -7 -24.999zM752.002 1196c0 18 -5.66602 36.666 -16.999 55.999c-12.667 22.667 -27.334 34 -44.001 34c-11.333 0 -37.333 -11.333 -78 -34c-36 -20 -59.667 -35 -71 -45l-65 -366
c-78 182 -146 273 -204 273c-34 0 -73.667 -33.667 -119 -101c10 -31.333 39.333 -59.666 88 -84.999l65 20c58.667 -44 92 -101.333 100 -172c-30.667 -104.667 -117.667 -196 -261 -274v-462h594v466c-112 128.667 -168 235 -168 319c0 34 14.5 82.5 43.5 145.5
s43.5 111.5 43.5 145.5c44 10.667 67.333 17 70 19c15.333 8.66699 23 29 23 61zM603.003 496.998h-255l-9 37c29.333 15.333 81.333 70 156 164zM481.003 -273.002l-12 -53h13c12 0 38 6.66699 78 20c-8 -37.333 -22 -93 -42 -167l-266 -68l15 94l-85 -23l27 165l32 6
c-8 16 -12 36.667 -12 62c0 32 16 60.667 48 86c30 24 61.667 36 95 36c30 0 58.333 -25 85 -75c22.667 -11.333 48 -38 76 -80c-12 0 -29.333 -1 -52 -3zM443.003 -284.002c-4.66699 0 -11.666 -1.16797 -20.999 -3.50098s-16.333 -3.5 -21 -3.5
c-55.333 0 -83 16.333 -83 49c0 27.333 31.667 49 95 65c-24.667 18 -44.334 27 -59.001 27c-26.667 0 -48.5 -10 -65.5 -30s-25.5 -43.667 -25.5 -71c0 -23.333 14.333 -46.666 43 -69.999l-67 -16l-10 -81c73.333 20 138 36.333 194 49z" />
    <glyph glyph-name="uFEFA" unicode="&#xfee0;&#xfe88;" horiz-adv-x="1161" arabic-form="final" 
d="M1180 -69c-84 0 -150.332 12.002 -198.999 36.002c-53.333 26.667 -101 74.334 -143 143.001c-44.667 -54.667 -103 -98.5 -175 -131.5s-144 -49.5 -216 -49.5c-104.667 0 -180.334 37.667 -227.001 113c-88 57.333 -132 166.666 -132 327.999
c0 63.333 6.33301 128.666 19 195.999c41.333 -66 123 -99 245 -99c113.333 0 170 28.333 170 85c0 64 -53 164.667 -159 302c-7.33301 -18 -16 -32.333 -26 -43l-238 178c-4.66699 3.33301 -7 11.333 -7 24l-66 49l-5 15c0 29.333 20 77 60 143
c42 69.333 75.667 104 101 104c88 0 204.667 -100 350 -300c141.333 -194 212 -339.333 212 -436c26.667 82.667 51 237.334 73 464.001c1.33301 31.333 4.33301 77.666 9 138.999c3.33301 34 18.333 61 45 81c24.667 18 74.667 36.667 150 56l-2 -92l72 21
c0 -85.333 -3 -205 -9 -359l-14 -359c26.667 -2 64 -3 112 -3v-39c-15.333 -0.666992 -35.333 -1 -60 -1c-78.667 0 -124.334 9.66699 -137.001 29c-14 40.667 -21 105.334 -21 194.001c0 95.333 6.66699 281.333 20 558c-81.333 -26 -122 -55.333 -122 -88
c0 -93.333 -11.333 -219.333 -34 -378c-29.333 -206 -64.333 -309 -105 -309c0 145.333 -85.333 328.333 -256 549c-118 152.667 -209.667 229 -275 229c-17.333 0 -42.833 -26.333 -76.5 -79s-50.5 -89 -50.5 -109l2 -9l192 -147c18 23.333 27 44.666 27 63.999
c0 6 -1 12 -3 18c186 -221.333 279 -379.333 279 -474c0 -77.333 -64.667 -116 -194 -116c-89.333 0 -167.666 17.667 -234.999 53c-7.33301 -49.333 -11 -99 -11 -149c0 -86.667 22.667 -156.334 68 -209.001c47.333 -56 113.666 -84 198.999 -84c80 0 159 23 237 69
c82 47.333 138.333 106.333 169 177l38 -6c12 -106.667 47.667 -175.667 107 -207c40.667 -21.333 121.334 -32 242.001 -32v-109zM821.001 -212.998l-12 -53h13c12 0 38 6.66699 78 20c-8 -37.333 -22 -93 -42 -167l-266 -68l15 94l-85 -23l27 165l32 6
c-8 16 -12 36.667 -12 62c0 32 16 60.667 48 86c30 24 61.667 36 95 36c30 0 58.333 -25 85 -75c22.667 -11.333 48 -38 76 -80c-12 0 -29.333 -1 -52 -3zM783.001 -223.998c-4.66699 0 -11.666 -1.16797 -20.999 -3.50098s-16.333 -3.5 -21 -3.5
c-55.333 0 -83 16.333 -83 49c0 27.333 31.667 49 95 65c-24.667 18 -44.334 27 -59.001 27c-26.667 0 -48.5 -10 -65.5 -30s-25.5 -43.667 -25.5 -71c0 -23.333 14.333 -46.666 43 -69.999l-67 -16l-10 -81c73.333 20 138 36.333 194 49z" />
    <glyph glyph-name="uFEFB" unicode="&#xfedf;&#xfe8e;" horiz-adv-x="915" arabic-form="isolated" 
d="M848 1058c-22.667 -19.333 -50.332 -34.334 -82.999 -45.001c0 -24 -14 -65.5 -42 -124.5s-42 -103.5 -42 -133.5c0 -46.667 19 -102 57 -166c32 -54 68 -99.333 108 -136v-523h-669v70h-70v527c134 60 221 145 261 255c-1.33301 14.667 -6 30.334 -14 47.001l-41 -10
c-46 17.333 -83.667 47.333 -113 90c-41.333 26.667 -70.333 64 -87 112c35.333 49.333 56.666 77.666 63.999 84.999c30.667 32 61 48 91 48c28 0 54 -10.667 78 -32l59 -62c13.333 -11.333 33 -30 59 -56l40 223c24.667 24.667 85.667 57.667 183 99
c26 0 51.667 -23.333 77 -70c60.667 -22 91 -79.667 91 -173c0 -9.33301 -2.33301 -17.666 -7 -24.999zM752.002 1196c0 18 -5.66602 36.666 -16.999 55.999c-12.667 22.667 -27.334 34 -44.001 34c-11.333 0 -37.333 -11.333 -78 -34c-36 -20 -59.667 -35 -71 -45l-65 -366
c-78 182 -146 273 -204 273c-34 0 -73.667 -33.667 -119 -101c10 -31.333 39.333 -59.666 88 -84.999l65 20c58.667 -44 92 -101.333 100 -172c-30.667 -104.667 -117.667 -196 -261 -274v-462h594v466c-112 128.667 -168 235 -168 319c0 34 14.5 82.5 43.5 145.5
s43.5 111.5 43.5 145.5c44 10.667 67.333 17 70 19c15.333 8.66699 23 29 23 61zM603.003 496.998h-255l-9 37c29.333 15.333 81.333 70 156 164z" />
    <glyph glyph-name="uFEFC" unicode="&#xfee0;&#xfe8e;" horiz-adv-x="1161" arabic-form="final" 
d="M1180 -69c-84 0 -150.332 12.002 -198.999 36.002c-53.333 26.667 -101 74.334 -143 143.001c-44.667 -54.667 -103 -98.5 -175 -131.5s-144 -49.5 -216 -49.5c-104.667 0 -180.334 37.667 -227.001 113c-88 57.333 -132 166.666 -132 327.999
c0 63.333 6.33301 128.666 19 195.999c41.333 -66 123 -99 245 -99c113.333 0 170 28.333 170 85c0 64 -53 164.667 -159 302c-7.33301 -18 -16 -32.333 -26 -43l-238 178c-4.66699 3.33301 -7 11.333 -7 24l-66 49l-5 15c0 29.333 20 77 60 143
c42 69.333 75.667 104 101 104c88 0 204.667 -100 350 -300c141.333 -194 212 -339.333 212 -436c26.667 82.667 51 237.334 73 464.001c1.33301 31.333 4.33301 77.666 9 138.999c3.33301 34 18.333 61 45 81c24.667 18 74.667 36.667 150 56l-2 -92l72 21
c0 -85.333 -3 -205 -9 -359l-14 -359c26.667 -2 64 -3 112 -3v-39c-15.333 -0.666992 -35.333 -1 -60 -1c-78.667 0 -124.334 9.66699 -137.001 29c-14 40.667 -21 105.334 -21 194.001c0 95.333 6.66699 281.333 20 558c-81.333 -26 -122 -55.333 -122 -88
c0 -93.333 -11.333 -219.333 -34 -378c-29.333 -206 -64.333 -309 -105 -309c0 145.333 -85.333 328.333 -256 549c-118 152.667 -209.667 229 -275 229c-17.333 0 -42.833 -26.333 -76.5 -79s-50.5 -89 -50.5 -109l2 -9l192 -147c18 23.333 27 44.666 27 63.999
c0 6 -1 12 -3 18c186 -221.333 279 -379.333 279 -474c0 -77.333 -64.667 -116 -194 -116c-89.333 0 -167.666 17.667 -234.999 53c-7.33301 -49.333 -11 -99 -11 -149c0 -86.667 22.667 -156.334 68 -209.001c47.333 -56 113.666 -84 198.999 -84c80 0 159 23 237 69
c82 47.333 138.333 106.333 169 177l38 -6c12 -106.667 47.667 -175.667 107 -207c40.667 -21.333 121.334 -32 242.001 -32v-109z" />
    <glyph glyph-name="u0652_u064E.liga" unicode="&#x652;&#x64e;" horiz-adv-x="1" 
d="M218 1399c-4 -18 -6 -80.333 -6 -187c0 -90.667 -9.66699 -146.667 -29 -168l-64 -73c1.33301 212 13 330.333 35 355z" />
    <glyph glyph-name="u0652_u064B.liga" unicode="&#x652;&#x64b;" horiz-adv-x="1" 
d="M757 1119l-175 -169l-149 141l-149 -143l-243 240l176 172l146 -145l151 145zM634 1188l-125 121l-122 -121l127 -118zM338 1188l-126 121l-122 -121l127 -118z" />
    <glyph glyph-name="u0652_u064D.liga" unicode="&#x652;&#x64d;" horiz-adv-x="1" 
d="M895 -803l-175 -169l-149 141l-149 -143l-243 240l176 172l146 -145l151 145zM772 -734l-125 121l-122 -121l127 -118zM476 -734l-126 121l-122 -121l127 -118z" />
    <glyph glyph-name="u0622" unicode="&#x622;" horiz-adv-x="668" arabic-form="isolated" 
d="M508 1252c-14.667 -2 -39.665 -11.333 -74.998 -28c-32.667 -15.333 -58.334 -23 -77.001 -23c-15.333 0 -40.333 8 -75 24s-56.667 24 -66 24c-53.333 0 -98 -19.333 -134 -58l14 -2l89 8c18.667 0 47.167 -7.5 85.5 -22.5s66.5 -22.5 84.5 -22.5
c19.333 0 49.333 11 90 33c44 24 66 44.667 66 62c-0.666992 2 -1.33398 3.66699 -2.00098 5zM474.002 815l-57 226l-267 -80l48 -923c93.333 20.667 141.333 51.667 144 93l35 585zM459.002 1049l10.999 -40.999l46 13l74 -286l-105 -105l-34 -569
c-3.33301 -50.667 -66.666 -95.334 -189.999 -134.001l-32 -10l-3 91l-66 -20l-49 1005l245 71c-37.333 15.333 -67.666 23 -90.999 23c-14.667 0 -36.667 -1.16699 -66 -3.5s-51.333 -3.5 -66 -3.5c-17.333 0 -28 3 -32 9c2 14 17.333 36 46 66
c-8 0 -21.5 -0.666992 -40.5 -2s-33.5 -1.66602 -43.5 -0.999023l-23 1l-8 11c8.66699 30.667 34 59 76 85c40 25.333 76.667 38 110 38c15.333 0 38.333 -7.66699 69 -23s53.667 -23 69 -23c22 0 54.667 8.5 98 25.5s70.666 25.5 81.999 25.5h2c4 -5.33301 6 -12 6 -20
c0 -26.667 -15.667 -55.667 -47 -87c16.667 4.66699 52.667 17.667 108 39c6 -5.33301 9 -13 9 -23c0 -30.667 -18.667 -62.334 -56 -95.001c-32 -28.667 -65 -47.667 -99 -57z" />
    <glyph glyph-name="u0623" unicode="&#x623;" horiz-adv-x="668" arabic-form="isolated" 
d="M504 815l-57 226l-267 -80l48 -923c93.333 20.667 141.333 51.667 144 93l35 585zM396 1246c-4.66699 0 -11.666 -1.16797 -20.999 -3.50098s-16.333 -3.5 -21 -3.5c-55.333 0 -83 16.333 -83 49c0 27.333 31.667 49 95 65c-24.667 18 -44.334 27 -59.001 27
c-26.667 0 -48.5 -10 -65.5 -30s-25.5 -43.667 -25.5 -71c0 -23.333 14.333 -46.666 43 -69.999l-67 -16l-10 -81c73.333 20 138 36.333 194 49zM209.001 1013l11 70l-85 -23l27 165l32 6c-8 16 -12 36.667 -12 62c0 32 16 60.667 48 86c30 24 61.667 36 95 36
c30 0 58.333 -25 85 -75c22.667 -11.333 48 -38 76 -80c-12 0 -29.333 -1 -52 -3l-12 -53h13c12 0 38 6.66699 78 20l-34 -139l21 -77l46 13l74 -286l-105 -105l-34 -569c-2 -34.667 -32 -66.334 -90 -95.001c-19.333 -9.33301 -63.333 -25.666 -132 -48.999l-3 91l-66 -20
l-49 1005z" />
    <glyph glyph-name="u0624" unicode="&#x624;" horiz-adv-x="1126" arabic-form="isolated" 
d="M1086 73c0 -70.667 -6.33398 -119 -19.001 -145c-117.333 -238.667 -280 -358 -488 -358c-88 0 -180 36 -276 108c-85.333 64 -152 138.333 -200 223c80 -13.333 148.667 -20 206 -20c28.667 0 65.5 6.16699 110.5 18.5s78.5 25.833 100.5 40.5
c-66 16 -114.667 50 -146 102c-64.667 38 -97 105.667 -97 203c0 96.667 16.667 195.667 50 297c36.667 111.333 85.667 198 147 260c46 46.667 86.333 70 121 70c50.667 0 96.667 -13.667 138 -41c17.333 -11.333 53.333 -43 108 -95
c76.667 -72.667 133.334 -155 170.001 -247c50 -125.333 75 -264 75 -416zM592.999 832c-59.333 0 -123.666 -73.6689 -192.999 -221.002c-56 -119.333 -84 -241.333 -84 -366c0 -137.333 77.667 -206 233 -206c7.33301 0 18.333 1.16699 33 3.5s25.667 3.5 33 3.5
c18 0 27 -9 27 -27c0 -16 -16.333 -39.333 -49 -70c-74.667 -70 -181.667 -105 -321 -105c-38.667 0 -74 4.33301 -106 13c61.333 -59.333 110.666 -100.666 147.999 -123.999c58.667 -36.667 119.667 -55 183 -55c7.33301 0 29 1.33301 65 4
c163.333 12 296.333 122.667 399 332c11.333 23.333 17 65.333 17 126c0 232.667 -56.333 423.334 -169 572.001c-13.333 17.333 -42 43.333 -86 78c-36 28 -79.333 42 -130 42zM772.999 533.998c0 -28.667 -20.332 -43.001 -60.999 -43.001
c-38.667 0 -75.334 5.33301 -110.001 16c-48 14.667 -72 37 -72 67c0 24.667 7 47 21 67c15.333 22.667 35 34 59 34s57.167 -17.667 99.5 -53s63.5 -64.666 63.5 -87.999zM727 543.997c-18 14 -33.666 21 -46.999 21c-16.667 0 -29.334 -9 -38.001 -27
c26 -4.66699 49.333 -7 70 -7h10l6 3zM401.001 1107l-12 -53h13c12 0 38 6.66699 78 20c-8 -37.333 -22 -93 -42 -167l-266 -68l15 94l-85 -23l27 165l32 6c-8 16 -12 36.667 -12 62c0 32 16 60.667 48 86c30 24 61.667 36 95 36c30 0 58.333 -25 85 -75
c22.667 -11.333 48 -38 76 -80c-12 0 -29.333 -1 -52 -3zM363.001 1096c-4.66699 0 -11.666 -1.16797 -20.999 -3.50098s-16.333 -3.5 -21 -3.5c-55.333 0 -83 16.333 -83 49c0 27.333 31.667 49 95 65c-24.667 18 -44.334 27 -59.001 27c-26.667 0 -48.5 -10 -65.5 -30
s-25.5 -43.667 -25.5 -71c0 -23.333 14.333 -46.666 43 -69.999l-67 -16l-10 -81c73.333 20 138 36.333 194 49z" />
    <glyph glyph-name="u0625" unicode="&#x625;" horiz-adv-x="658" arabic-form="isolated" 
d="M620 965l-105 -105.001l-34 -797c-2 -53.333 -75.667 -101.666 -221 -144.999l-4 90l-66 -20l-49 1235l336 99l22 -84l48 14zM504 1045l-57 226l-267 -80l48 -1153c94 20.667 142 51.667 144 93l35 815zM429 -301.001l-12 -52.999h13c12 0 38 6.66699 78 20
c-8 -37.333 -22 -93 -42 -167l-266 -68l15 94l-85 -23l27 165l32 6c-8 16 -12 36.667 -12 62c0 31.333 16.333 59.666 49 84.999c30.667 24.667 62 37 94 37c30 0 58.333 -25 85 -75c22.667 -11.333 48 -38 76 -80c-12 0 -29.333 -1 -52 -3zM391 -312
c-4.66699 0 -11.666 -1.16797 -20.999 -3.50098s-16.333 -3.5 -21 -3.5c-55.333 0 -83 16.333 -83 49c0 27.333 31.667 49 95 65c-24.667 18 -44.334 27 -59.001 27c-26.667 0 -48.5 -10 -65.5 -30s-25.5 -43.667 -25.5 -71c0 -23.333 14.333 -46.666 43 -69.999l-67 -16
l-10 -81c73.333 20 138 36.333 194 49z" />
    <glyph glyph-name="u0626" unicode="&#x626;" horiz-adv-x="1597" arabic-form="isolated" 
d="M1449 392c62.667 -34 93.9971 -93.3311 93.9971 -177.998c0 -244 -189.667 -452 -569 -624c-141.333 -64 -290.333 -96 -447 -96c-55.333 0 -113.666 12 -174.999 36c-35.333 14 -85.333 51.667 -150 113c-56 53.333 -94 104.333 -114 153
c-18.667 46 -28 108.667 -28 188s14.667 153.666 44 222.999c32.667 78 79.334 136.333 140.001 175c-9.33301 -41.333 -12.666 -88.333 -9.99902 -141c23.333 30 49.666 53.333 78.999 70c-6.66699 -38.667 -10 -74.667 -10 -108c0 -101.333 18 -169.666 54 -204.999
c46.667 -45.333 138 -68 274 -68c88 0 205 20.333 351 61l-193 52c-74.667 20 -117.667 52 -129 96c-49.333 23.333 -74 54.333 -74 93c0 88 11 158.333 33 211c46.667 112 133.834 220.167 261.501 324.5s250.5 165.166 368.5 182.499c18 2.66699 30 4 36 4
c58 0 102.667 -28.333 134 -85c63.333 -40 95 -96.667 95 -170c0 -38 -13 -76.667 -39 -116c-77.333 24 -141.333 36 -192 36c-60 0 -102 -23.333 -126 -70l155 -56c70 -26.667 115.667 -60.334 137 -101.001zM1043 601.002c0 40 22.334 72.3359 67.001 97.0029
c37.333 20.667 77.666 31 120.999 31c53.333 0 105.666 -10.333 156.999 -31c10.667 30 16 54 16 72c0 96 -45 144 -135 144c-16 0 -47.333 -8.66699 -94 -26c-40.667 -15.333 -71.334 -28.666 -92.001 -39.999c-305.333 -168.667 -458 -370.334 -458 -605.001
c0 -44.667 69.333 -84.334 208 -119.001c146 -36.667 225.333 -73.334 238 -110.001l-6 -14c-26.667 -34 -99.667 -61.667 -219 -83c-96.667 -17.333 -180 -26 -250 -26c-95.333 0 -180.333 23.667 -255 71c-85.333 54 -131.666 126 -138.999 216
c-3.33301 40.667 -4 81.667 -2 123c-68 -91.333 -102 -202.333 -102 -333c0 -132.667 39 -228.334 117 -287.001c68 -50.667 170.667 -76 308 -76c39.333 0 120.333 15.667 243 47c150.667 38.667 294.334 114.334 431.001 227.001c158 130.667 237 264 237 400
c0 73.333 -33.667 128.666 -101 165.999c-14.667 8.66699 -77.667 31 -189 67c-67.333 22 -101 51.667 -101 89zM420.998 1107l-12 -53h13c12 0 38 6.66699 78 20c-8 -37.333 -22 -93 -42 -167l-266 -68l15 94l-85 -23l27 165l32 6c-8 16 -12 36.667 -12 62
c0 32 16 60.667 48 86c30 24 61.667 36 95 36c30 0 58.333 -25 85 -75c22.667 -11.333 48 -38 76 -80c-12 0 -29.333 -1 -52 -3zM382.998 1096c-4.66699 0 -11.666 -1.16797 -20.999 -3.50098s-16.333 -3.5 -21 -3.5c-55.333 0 -83 16.333 -83 49c0 27.333 31.667 49 95 65
c-24.667 18 -44.334 27 -59.001 27c-26.667 0 -48.5 -10 -65.5 -30s-25.5 -43.667 -25.5 -71c0 -23.333 14.333 -46.666 43 -69.999l-67 -16l-10 -81c73.333 20 138 36.333 194 49z" />
    <glyph glyph-name="u0627" unicode="&#x627;" horiz-adv-x="658" arabic-form="isolated" 
d="M620 965l-105 -105.001l-34 -797c-2 -53.333 -75.667 -101.666 -221 -144.999l-4 90l-66 -20l-49 1235l336 99l22 -84l48 14zM504 1045l-57 226l-267 -80l48 -1153c94 20.667 142 51.667 144 93l35 815z" />
    <glyph glyph-name="u0628" unicode="&#x628;" horiz-adv-x="1774" arabic-form="isolated" 
d="M1714 -69l-1191 -1.00195c-62 0 -122.333 11.333 -181 34c-37.333 14.667 -85 51.334 -143 110.001c-35.333 35.333 -59 61 -71 77c-52 66.667 -78 156 -78 268c0 72 11 143.667 33 215c26.667 86.667 64.667 145.667 114 177c4.66699 -44 13.334 -80.333 26.001 -109
c8.66699 10 23.334 23 44.001 39c6.66699 -62 24 -114.333 52 -157c54.667 -32 108 -48 160 -48h825c98 0 147 22 147 66c0 31.333 -20 69 -60 113c0 11.333 53.667 65.333 161 162c22 -14 41 -40.667 57 -80l12 10c62 -47.333 93 -142.666 93 -285.999v-590zM1133 -345.002
l-174 -170l-244 240l176 172zM1605 39.998l-0.000976562 550c0 113.333 -18.333 190.666 -55 231.999c-21.333 -12 -59 -46.333 -113 -103c36.667 -53.333 55 -91.666 55 -114.999c0 -71.333 -62.667 -107 -188 -107h-825c-165.333 0 -267.666 78.333 -306.999 235
c-54 -64 -81 -173.333 -81 -328c0 -114 33.5 -203.167 100.5 -267.5s157.5 -96.5 271.5 -96.5h1142zM1011 -275.002l-124 121l-123 -121l127 -119z" />
    <glyph glyph-name="u0629" unicode="&#x629;" horiz-adv-x="983" arabic-form="isolated" 
d="M917 370c0 -123.333 -44.168 -228.501 -132.501 -315.501s-194.166 -130.5 -317.499 -130.5c-68.667 0 -123.334 9.66699 -164.001 29c-38 17.333 -82 52 -132 104s-80.667 89.667 -92 113c-16 33.333 -24 83.666 -24 150.999c0 69.333 20 129.333 60 180
c22.667 29.333 60.334 62 113.001 98c40.667 28 61 47.333 61 58c0 12 -11 26.333 -33 43c26.667 48.667 69.334 119.334 128.001 212.001c68.667 -19.333 157.667 -72.666 267 -159.999c103.333 -83.333 179.666 -160 228.999 -230c24.667 -35.333 37 -86 37 -152z
M399.999 863.999c-33.333 -49.333 -64.999 -101.335 -94.999 -156.002c20.667 -18.667 31 -35 31 -49c0 -23.333 -21 -48.666 -63 -75.999c-56.667 -37.333 -95.334 -68.666 -116.001 -93.999c-42 -52 -63 -119.333 -63 -202c0 -80.667 31 -144 93 -190
c55.333 -42 124.666 -63 207.999 -63c119.333 0 218 41 296 123s116.667 182.667 116 302c0 3.33301 -1 21 -3 53c-3.33301 50 -60.666 118.333 -171.999 205c-94 73.333 -171.333 122.333 -232 147zM610 469.997c0 -28.667 -16.333 -53 -49 -73
c-28.667 -18 -58 -27 -88 -27c-40 0 -75.333 13.333 -106 40c-32.667 28 -49 61.667 -49 101c0 30 12.833 57.833 38.5 83.5s53.5 38.5 83.5 38.5c39.333 0 77.5 -17.333 114.5 -52s55.5 -71.667 55.5 -111zM573 468.997c0 16 -6.00098 30.668 -18.001 44.001
c-17.333 7.33301 -30.666 11 -39.999 11c-22.667 0 -42.667 -10.333 -60 -31s-26 -42.334 -26 -65.001c0 -2 0.666992 -4.33301 2 -7l50 -10c18 0 37 5.33301 57 16c23.333 12 35 26 35 42zM396.999 1128l-12 -53h13c12 0 38 6.66699 78 20c-8 -37.333 -22 -93 -42 -167
l-266 -68l15 94l-85 -23l27 165l32 6c-8 16 -12 36.667 -12 62c0 32 16 60.667 48 86c30 24 61.667 36 95 36c30 0 58.333 -25 85 -75c22.667 -11.333 48 -38 76 -80c-12 0 -29.333 -1 -52 -3zM358.999 1117c-4.66699 0 -11.666 -1.16797 -20.999 -3.50098
s-16.333 -3.5 -21 -3.5c-55.333 0 -83 16.333 -83 49c0 27.333 31.667 49 95 65c-24.667 18 -44.334 27 -59.001 27c-26.667 0 -48.5 -10 -65.5 -30s-25.5 -43.667 -25.5 -71c0 -23.333 14.333 -46.666 43 -69.999l-67 -16l-10 -81c73.333 20 138 36.333 194 49z" />
    <glyph glyph-name="u062A" unicode="&#x62a;" horiz-adv-x="1801" arabic-form="isolated" 
d="M1229 920l-175 -169l-149 141l-149 -143l-243 240l176 172l146 -145l151 145zM1106 989l-125 121l-122 -121l127 -118zM810 989l-126 121l-122 -121l127 -118zM1714 -69l-1191 -1.00195c-62 0 -122.333 11.333 -181 34c-37.333 14.667 -85 51.334 -143 110.001
c-35.333 35.333 -59 61 -71 77c-52 66.667 -78 156 -78 268c0 72 11 143.667 33 215c26.667 86.667 64.667 145.667 114 177c4.66699 -44 13.334 -80.333 26.001 -109c8.66699 10 23.334 23 44.001 39c6.66699 -62 24 -114.333 52 -157c54.667 -32 108 -48 160 -48h825
c98 0 147 22 147 66c0 31.333 -20 69 -60 113c0 11.333 53.667 65.333 161 162c22 -14 41 -40.667 57 -80l12 10c62 -47.333 93 -142.666 93 -285.999v-590zM1605 39.998l-0.000976562 550c0 113.333 -18.333 190.666 -55 231.999c-21.333 -12 -59 -46.333 -113 -103
c36.667 -53.333 55 -91.666 55 -114.999c0 -71.333 -62.667 -107 -188 -107h-825c-165.333 0 -267.666 78.333 -306.999 235c-54 -64 -81 -173.333 -81 -328c0 -114 33.5 -203.167 100.5 -267.5s157.5 -96.5 271.5 -96.5h1142z" />
    <glyph glyph-name="u062B" unicode="&#x62b;" horiz-adv-x="1788" arabic-form="isolated" 
d="M1714 -69l-1191 -1.00195c-62 0 -122.333 11.333 -181 34c-37.333 14.667 -85 51.334 -143 110.001c-35.333 35.333 -59 61 -71 77c-52 66.667 -78 156 -78 268c0 72 11 143.667 33 215c26.667 86.667 64.667 145.667 114 177c4.66699 -44 13.334 -80.333 26.001 -109
c8.66699 10 23.334 23 44.001 39c6.66699 -62 24 -114.333 52 -157c54.667 -32 108 -48 160 -48h825c98 0 147 22 147 66c0 31.333 -20 69 -60 113c0 11.333 53.667 65.333 161 162c22 -14 41 -40.667 57 -80l12 10c62 -47.333 93 -142.666 93 -285.999v-590zM1605 39.998
l-0.000976562 550c0 113.333 -18.333 190.666 -55 231.999c-21.333 -12 -59 -46.333 -113 -103c36.667 -53.333 55 -91.666 55 -114.999c0 -71.333 -62.667 -107 -188 -107h-825c-165.333 0 -267.666 78.333 -306.999 235c-54 -64 -81 -173.333 -81 -328
c0 -114 33.5 -203.167 100.5 -267.5s157.5 -96.5 271.5 -96.5h1142zM794.997 1048l-126 121l-122 -121l127 -118zM1091 1048l-125 121l-122 -121l127 -118zM932.997 1328l-125 120l-122 -120l126 -120zM855.997 1110l-220 218l176 171l243 -242l-62 -60l221 -221l-175 -169
l-148 143l-149 -143l-244 241l176 172l146 -145z" />
    <glyph glyph-name="u062C" unicode="&#x62c;" horiz-adv-x="1117" arabic-form="isolated" 
d="M684 -55l-86 89l-87 -87l91 -82zM934 -44c-113.333 -121.333 -242.666 -182.001 -387.999 -182.001c-54 0 -102.333 14.667 -145 44c-48.667 32.667 -73 74.667 -73 126c0 142.667 200 214 600 214v400c-53.333 -18 -105.333 -27 -156 -27
c-52.667 0 -175.667 19.333 -369 58c-8.66699 -0.666992 -17 -1.66699 -25 -3c-50.667 -9.33301 -96.167 -36.333 -136.5 -81s-60.5 -92.667 -60.5 -144l3 -30c54 80 125.667 120 215 120c84.667 0 127 -27.333 127 -82c0 -39.333 -31.667 -72.666 -95 -99.999
c-98 -42.667 -161.667 -75 -191 -97c-76 -58 -125.333 -140.333 -148 -247c-8.66699 -40.667 -13 -76 -13 -106c0 -102 37.333 -182 112 -240c68 -53.333 154.333 -80 259 -80c137.333 0 251.666 41.667 342.999 125c94 85.333 141 196 141 332zM791 -112.001
c58.667 34.667 116.335 86.666 173.002 155.999l3 -62c2 -42 0.333008 -70 -5 -84c26 24 50 49 72 75l3 -97c4 -138 -48 -255.667 -156 -353c-100 -90 -222 -135 -366 -135c-78 0 -141.667 11.667 -191 35c-40.667 19.333 -91.334 58 -152.001 116
c-48.667 46.667 -81.667 86.667 -99 120c-22 42 -33 93.333 -33 154c0 80.667 16 156 48 226c34.667 76 83.667 134.333 147 175c-13.333 30.667 -20 57.667 -20 81c0 7.33301 0.666992 14.333 2 21c-13.333 -16 -26.333 -34.333 -39 -55
c-21.333 32.667 -32 68.334 -32 107.001c0 54 19 104.333 57 151c50 61.333 104.333 97 163 107c8 1.33301 15.333 2 22 2c31.333 0 89.333 -10.333 174 -31s148.667 -31 192 -31c73.333 0 144.666 15 213.999 45l-1 -93c18.667 3.33301 42 11 70 23v-492
c-100.667 0 -227 -10 -379 -30zM468.001 -53.002c-20 -22.667 -30 -45.667 -30 -69c0 -17.333 2.66699 -32 8 -44c34 -16 66.333 -24 97 -24c30 0 50.667 1.66699 62 5zM284.001 241.998c44.667 20 110.334 54 197.001 102c-80.667 -5.33301 -146.334 -39.333 -197.001 -102
z" />
    <glyph glyph-name="u062D" unicode="&#x62d;" horiz-adv-x="1125" arabic-form="isolated" 
d="M944 -44c-113.333 -121.333 -242.666 -182.001 -387.999 -182.001c-54 0 -102.333 14.667 -145 44c-48.667 32.667 -73 74.667 -73 126c0 142.667 200 214 600 214v400c-53.333 -18 -105.333 -27 -156 -27c-52.667 0 -175.667 19.333 -369 58
c-8.66699 -0.666992 -17 -1.66699 -25 -3c-50.667 -9.33301 -96.167 -36.333 -136.5 -81s-60.5 -92.667 -60.5 -144l3 -30c54 80 125.667 120 215 120c84.667 0 127 -27.333 127 -82c0 -39.333 -31.667 -72.666 -95 -99.999c-98 -42.667 -161.667 -75 -191 -97
c-76 -58 -125.333 -140.333 -148 -247c-8.66699 -40.667 -13 -76 -13 -106c0 -102 37.333 -182 112 -240c68 -53.333 154.333 -80 259 -80c137.333 0 251.666 41.667 342.999 125c94 85.333 141 196 141 332zM294 241.999c44.667 20 110.334 54 197.001 102
c-80.667 -5.33301 -146.334 -39.333 -197.001 -102zM448 -125.001c0 -15.333 2.66797 -29.001 8.00098 -41.001c32.667 -14.667 75.334 -22 128.001 -22c66 0 138.667 25.667 218 77c66.667 43.333 124 95 172 155l3 -62c2 -42 0.333008 -70 -5 -84c26 24 50 49 72 75l3 -97
c4 -138 -48 -255.667 -156 -353c-100 -90 -222 -135 -366 -135c-70.667 0 -134.334 11.667 -191.001 35c-36 15.333 -86.667 54 -152 116c-48 46 -81 86 -99 120c-22 42 -33 93.333 -33 154c0 80.667 16 156 48 226c34.667 76 83.667 134.333 147 175
c-13.333 30.667 -20 57.667 -20 81c0 7.33301 0.666992 14.333 2 21c-13.333 -16 -26.333 -34.333 -39 -55c-21.333 32.667 -32 68.334 -32 107.001c0 54 19 104.333 57 151c17.333 22 42 43.667 74 65c35.333 24 65 38 89 42c8 1.33301 15.333 2 22 2
c31.333 0 89.333 -10.333 174 -31s148.667 -31 192 -31c73.333 0 144.666 15 213.999 45l-1 -93c18.667 3.33301 42 11 70 23v-492c-208 0 -366.333 -17 -475 -51c-82.667 -26 -124 -67 -124 -123z" />
    <glyph glyph-name="u062E" unicode="&#x62e;" horiz-adv-x="1127" arabic-form="isolated" 
d="M934 -44c-113.333 -121.333 -242.666 -182.001 -387.999 -182.001c-54 0 -102.333 14.667 -145 44c-48.667 32.667 -73 74.667 -73 126c0 142.667 200 214 600 214v400c-53.333 -18 -105.333 -27 -156 -27c-52.667 0 -175.667 19.333 -369 58
c-8.66699 -0.666992 -17 -1.66699 -25 -3c-50.667 -9.33301 -96.167 -36.333 -136.5 -81s-60.5 -92.667 -60.5 -144l3 -30c54 80 125.667 120 215 120c84.667 0 127 -27.333 127 -82c0 -39.333 -31.667 -72.666 -95 -99.999c-98 -42.667 -161.667 -75 -191 -97
c-76 -58 -125.333 -140.333 -148 -247c-8.66699 -40.667 -13 -76 -13 -106c0 -102 37.333 -182 112 -240c68 -53.333 154.333 -80 259 -80c137.333 0 251.666 41.667 342.999 125c94 85.333 141 196 141 332zM284 241.999c44.667 20 110.334 54 197.001 102
c-80.667 -5.33301 -146.334 -39.333 -197.001 -102zM438 -125.001c0 -15.333 2.66797 -29.001 8.00098 -41.001c32.667 -14.667 75.334 -22 128.001 -22c66 0 138.667 25.667 218 77c66.667 43.333 124 95 172 155l3 -62c2 -42 0.333008 -70 -5 -84c26 24 50 49 72 75l3 -97
c4 -138 -48 -255.667 -156 -353c-100 -90 -222 -135 -366 -135c-70.667 0 -134.334 11.667 -191.001 35c-36 15.333 -86.667 54 -152 116c-48 46 -81 86 -99 120c-22 42 -33 93.333 -33 154c0 80.667 16 156 48 226c34.667 76 83.667 134.333 147 175
c-13.333 30.667 -20 57.667 -20 81c0 7.33301 0.666992 14.333 2 21c-13.333 -16 -26.333 -34.333 -39 -55c-21.333 32.667 -32 68.334 -32 107.001c0 54 19 104.333 57 151c17.333 22 42 43.667 74 65c35.333 24 65 38 89 42c8 1.33301 15.333 2 22 2
c31.333 0 89.333 -10.333 174 -31s148.667 -31 192 -31c73.333 0 144.666 15 213.999 45l-1 -93c18.667 3.33301 42 11 70 23v-492c-208 0 -366.333 -17 -475 -51c-82.667 -26 -124 -67 -124 -123zM873.001 914.998l-174 -170l-244 240l176 172zM751.001 984.998l-124 121
l-123 -121l127 -119z" />
    <glyph glyph-name="u062F" unicode="&#x62f;" horiz-adv-x="960" arabic-form="isolated" 
d="M899 314l0.00292969 -229.997c0 -17.333 -2.66699 -35.333 -8 -54c-10.667 -37.333 -59.334 -64.666 -146.001 -81.999c-56.667 -11.333 -120.334 -17 -191.001 -17c-77.333 0 -146.666 6 -207.999 18c-103.333 20 -158.333 53.667 -165 101
c-40.667 17.333 -66.334 47.666 -77.001 90.999c-4.66699 19.333 -7 62.666 -7 129.999c0 116 5.66699 212.333 17 289c42.667 -40.667 131.667 -61 267 -61c122 0 183 25 183 75c0 12 -4 25.667 -12 41c-32.667 24 -70.667 49.333 -114 76l15 15l-85 55l168 161
c3.33301 1.33301 7.66602 2.66602 12.999 3.99902c11.333 0 41 -25 89 -75c42.667 -44.667 75.667 -84.334 99 -119.001c79.333 -120 122 -186.333 128 -199c22.667 -48.667 34 -121.667 34 -219zM791.003 438.003c-0.666992 67.333 -20.667 134.667 -60 202
c-6 10 -47.333 69 -124 177c-30.667 43.333 -50 65 -58 65c-4.66699 0 -23 -16.333 -55 -49l-62 -63c114 -73.333 171 -140 171 -200c0 -38.667 -34.333 -68.334 -103 -89.001c-48.667 -14.667 -99.667 -22 -153 -22c-87.333 0 -156 11.333 -206 34
c0 -22 -0.5 -54.833 -1.5 -98.5s-1.5 -76.5 -1.5 -98.5c0 -109.333 5.33301 -170.333 16 -183c20 -23.333 69.333 -42.666 148 -57.999c62 -12 117.333 -18 166 -18c150 0 250.667 18 302 54c15.333 10.667 23 38 23 82c0 0.666992 -0.333008 45 -1 133z" />
    <glyph glyph-name="u0630" unicode="&#x630;" horiz-adv-x="970" arabic-form="isolated" 
d="M899 314l0.00292969 -229.997c0 -17.333 -2.66699 -35.333 -8 -54c-10.667 -37.333 -59.334 -64.666 -146.001 -81.999c-56.667 -11.333 -120.334 -17 -191.001 -17c-77.333 0 -146.666 6 -207.999 18c-103.333 20 -158.333 53.667 -165 101
c-40.667 17.333 -66.334 47.666 -77.001 90.999c-4.66699 19.333 -7 62.666 -7 129.999c0 116 5.66699 212.333 17 289c42.667 -40.667 131.667 -61 267 -61c122 0 183 25 183 75c0 12 -4 25.667 -12 41c-32.667 24 -70.667 49.333 -114 76l15 15l-85 55l168 161
c3.33301 1.33301 7.66602 2.66602 12.999 3.99902c11.333 0 41 -25 89 -75c42.667 -44.667 75.667 -84.334 99 -119.001c79.333 -120 122 -186.333 128 -199c22.667 -48.667 34 -121.667 34 -219zM791.003 438.003c-0.666992 67.333 -20.667 134.667 -60 202
c-6 10 -47.333 69 -124 177c-30.667 43.333 -50 65 -58 65c-4.66699 0 -23 -16.333 -55 -49l-62 -63c114 -73.333 171 -140 171 -200c0 -38.667 -34.333 -68.334 -103 -89.001c-48.667 -14.667 -99.667 -22 -153 -22c-87.333 0 -156 11.333 -206 34
c0 -22 -0.5 -54.833 -1.5 -98.5s-1.5 -76.5 -1.5 -98.5c0 -109.333 5.33301 -170.333 16 -183c20 -23.333 69.333 -42.666 148 -57.999c62 -12 117.333 -18 166 -18c150 0 250.667 18 302 54c15.333 10.667 23 38 23 82c0 0.666992 -0.333008 45 -1 133zM589.003 1050
l-174 -170l-244 240l176 172zM467.003 1120l-124 121l-123 -121l127 -119z" />
    <glyph glyph-name="u0631" unicode="&#x631;" horiz-adv-x="1020" arabic-form="isolated" 
d="M451 -435c-116 0 -236.002 62.998 -360.002 188.998c-40 40.667 -82.333 88.334 -127 143.001c34.667 -5.33301 76.334 -8 125.001 -8c91.333 0 203.333 25.667 336 77c155.333 60 239.333 126 252 198c-3.33301 13.333 -31 48.333 -83 105
c-45.333 49.333 -79.666 84.333 -102.999 105l135 283c94 -78 170.667 -165.333 230 -262c68.667 -112 103 -221.667 103 -329c0 -141.333 -49.333 -260.166 -148 -356.499s-218.667 -144.5 -360 -144.5zM850.998 140.998c0 146.667 -71.334 298.333 -214.001 455l-99 -212
c22.667 -21.333 56.334 -59 101.001 -113c51.333 -62 77 -99.667 77 -113c0 -42.667 -49.667 -96 -149 -160c-88 -56.667 -171.333 -94.667 -250 -114c-54.667 -13.333 -145.667 -23.333 -273 -30c94 -118.667 214.667 -178 362 -178c122.667 0 228 47 316 141
c86 92.667 129 200.667 129 324z" />
    <glyph glyph-name="u0632" unicode="&#x632;" horiz-adv-x="1023" arabic-form="isolated" 
d="M451 -435c-116 0 -236.002 62.998 -360.002 188.998c-40 40.667 -82.333 88.334 -127 143.001c34.667 -5.33301 76.334 -8 125.001 -8c91.333 0 203.333 25.667 336 77c155.333 60 239.333 126 252 198c-3.33301 13.333 -31 48.333 -83 105
c-45.333 49.333 -79.666 84.333 -102.999 105l135 283c94 -78 170.667 -165.333 230 -262c68.667 -112 103 -221.667 103 -329c0 -141.333 -49.333 -260.166 -148 -356.499s-218.667 -144.5 -360 -144.5zM850.998 140.998c0 146.667 -71.334 298.333 -214.001 455l-99 -212
c22.667 -21.333 56.334 -59 101.001 -113c51.333 -62 77 -99.667 77 -113c0 -42.667 -49.667 -96 -149 -160c-88 -56.667 -171.333 -94.667 -250 -114c-54.667 -13.333 -145.667 -23.333 -273 -30c94 -118.667 214.667 -178 362 -178c122.667 0 228 47 316 141
c86 92.667 129 200.667 129 324zM702.997 878.997l-174 -170l-244 240l176 172zM580.997 948.997l-124 121l-123 -121l127 -119z" />
    <glyph glyph-name="u0633" unicode="&#x633;" horiz-adv-x="1981" arabic-form="isolated" 
d="M1906 188c0 -140.667 -8.33691 -216.667 -25.0039 -228c-30 -20 -93.333 -30 -190 -30c-132 0 -219 24.333 -261 73c-30 -49.333 -70.667 -74 -122 -74c-26.667 0 -58.667 12.333 -96 37c-68 -143.333 -139.333 -244.333 -214 -303c-88 -69.333 -205.333 -104 -352 -104
c-130 0 -247.667 33.667 -353 101c-9.33301 6 -39 34 -89 84c-56.667 56.667 -94.667 104 -114 142c-24.667 48 -37 108.667 -37 182c0 88.667 26 175 78 259c48.667 78.667 112 143.334 190 194.001c-24 -62 -36 -113 -36 -153c22.667 20 58.334 47.667 107.001 83
c-24.667 -53.333 -37 -103.333 -37 -150c0 -32 10 -65.667 30 -101c43.333 -28 96.333 -42 159 -42c82.667 0 152.334 12.667 209.001 38c76 34 114 87.333 114 160c0 48 -19.667 103 -59 165l186 142c48 -84.667 127.333 -127 238 -127c36.667 0 75.334 33.667 116.001 101
c103.333 -69.333 176 -104 218 -104c14 0 25 4.33301 33 13c2 5.33301 3.66699 11.333 5 18c0 18 -12.333 41.667 -37 71c36.667 45.333 84.334 89.666 143.001 132.999c25.333 -20.667 47.333 -45 66 -73l5 3c84.667 -72 127 -191.333 127 -358
c0 -16.667 -0.333008 -42 -1 -76s-1 -59.333 -1 -76zM1704 723c-43.333 -36.667 -74.999 -65.3311 -94.999 -85.998c24.667 -32.667 37 -58 37 -76c0 -40.667 -25.667 -61 -77 -61c-64.667 0 -134.334 26.667 -209.001 80c-34.667 -56 -87.667 -84 -159 -84
c-34.667 0 -74 11.667 -118 35c-40.667 21.333 -74 46 -100 74l-124 -97c32 -64 48 -114.667 48 -152c0 -85.333 -49 -149 -147 -191c-72 -30.667 -157.667 -46 -257 -46c-66 0 -124.667 24.5 -176 73.5s-77 106.167 -77 171.5c0 22.667 3.33301 47 10 73
c-48 -39.333 -88.333 -93.833 -121 -163.5s-49 -135.5 -49 -197.5c0 -136.667 52.667 -241 158 -313c90.667 -62 207.667 -93 351 -93c140.667 0 252 38.667 334 116c52.667 50 117.667 149.667 195 299c57.333 -32.667 100.333 -49 129 -49c31.333 0 66.333 36.667 105 110
c20.667 -48 62 -79.667 124 -95c34.667 -8.66699 89.334 -13 164.001 -13c53.333 0 86.666 2 99.999 6c32 9.33301 50 33.666 54 72.999c0 -2 -0.333008 -2.66699 -1 -2v23l-1 83c0 16.667 0.333008 39.667 1 69c0.666992 33.333 1 56.666 1 69.999
c0 183.333 -33.333 304.333 -100 363z" />
    <glyph glyph-name="u0634" unicode="&#x634;" horiz-adv-x="1988" arabic-form="isolated" 
d="M1906 188c0 -140.667 -8.33691 -216.667 -25.0039 -228c-30 -20 -93.333 -30 -190 -30c-132 0 -219 24.333 -261 73c-30 -49.333 -70.667 -74 -122 -74c-26.667 0 -58.667 12.333 -96 37c-68 -143.333 -139.333 -244.333 -214 -303c-88 -69.333 -205.333 -104 -352 -104
c-130 0 -247.667 33.667 -353 101c-9.33301 6 -39 34 -89 84c-56.667 56.667 -94.667 104 -114 142c-24.667 48 -37 108.667 -37 182c0 88.667 26 175 78 259c48.667 78.667 112 143.334 190 194.001c-24 -62 -36 -113 -36 -153c22.667 20 58.334 47.667 107.001 83
c-24.667 -53.333 -37 -103.333 -37 -150c0 -32 10 -65.667 30 -101c43.333 -28 96.333 -42 159 -42c82.667 0 152.334 12.667 209.001 38c76 34 114 87.333 114 160c0 48 -19.667 103 -59 165l186 142c48 -84.667 127.333 -127 238 -127c36.667 0 75.334 33.667 116.001 101
c103.333 -69.333 176 -104 218 -104c14 0 25 4.33301 33 13c2 5.33301 3.66699 11.333 5 18c0 18 -12.333 41.667 -37 71c36.667 45.333 84.334 89.666 143.001 132.999c25.333 -20.667 47.333 -45 66 -73l5 3c84.667 -72 127 -191.333 127 -358
c0 -16.667 -0.333008 -42 -1 -76s-1 -59.333 -1 -76zM1704 723c-43.333 -36.667 -74.999 -65.3311 -94.999 -85.998c24.667 -32.667 37 -58 37 -76c0 -40.667 -25.667 -61 -77 -61c-64.667 0 -134.334 26.667 -209.001 80c-34.667 -56 -87.667 -84 -159 -84
c-34.667 0 -74 11.667 -118 35c-40.667 21.333 -74 46 -100 74l-124 -97c32 -64 48 -114.667 48 -152c0 -85.333 -49 -149 -147 -191c-72 -30.667 -157.667 -46 -257 -46c-66 0 -124.667 24.5 -176 73.5s-77 106.167 -77 171.5c0 22.667 3.33301 47 10 73
c-48 -39.333 -88.333 -93.833 -121 -163.5s-49 -135.5 -49 -197.5c0 -136.667 52.667 -241 158 -313c90.667 -62 207.667 -93 351 -93c140.667 0 252 38.667 334 116c52.667 50 117.667 149.667 195 299c57.333 -32.667 100.333 -49 129 -49c31.333 0 66.333 36.667 105 110
c20.667 -48 62 -79.667 124 -95c34.667 -8.66699 89.334 -13 164.001 -13c53.333 0 86.666 2 99.999 6c32 9.33301 50 33.666 54 72.999c0 -2 -0.333008 -2.66699 -1 -2v23l-1 83c0 16.667 0.333008 39.667 1 69c0.666992 33.333 1 56.666 1 69.999
c0 183.333 -33.333 304.333 -100 363zM1242 990.003l-126 121l-122 -121l127 -118zM1538 990.003l-125 121l-122 -121l127 -118zM1380 1270l-125 120l-122 -120l126 -120zM1303 1052l-220 218l176 171l243 -242l-62 -60l221 -221l-175 -169l-148 143l-149 -143l-244 241
l176 172l146 -145z" />
    <glyph glyph-name="u0635" unicode="&#x635;" horiz-adv-x="2281" arabic-form="isolated" 
d="M2084 750c68 -43.333 101.997 -121.666 101.997 -234.999c0 -69.333 -13 -154.166 -39 -254.499s-55.667 -181.833 -89 -244.5c-11.333 -21.333 -26.333 -41.333 -45 -60c-73.333 -14.667 -153 -22.334 -239 -23.001c-44.667 0 -125 -0.666992 -241 -2
c-174 -2 -284.667 10 -332 36c-30 -124 -97.667 -225 -203 -303c-102.667 -76 -218.334 -114 -347.001 -114c-169.333 0 -317.666 66 -444.999 198c-55.333 57.333 -92.666 102.333 -111.999 135c-29.333 50 -44 106.667 -44 170c0 82.667 26 168.667 78 258
c47.333 82 106.333 151 177 207c-14.667 -62.667 -22 -109.667 -22 -141l2 -18c19.333 23.333 49.666 53 90.999 89c-14.667 -42.667 -22 -86.334 -22 -131.001c0 -31.333 9 -67.666 27 -108.999c48 -32 110 -48 186 -48c68.667 0 132.334 14 191.001 42
c73.333 34.667 110 83 110 145c0 49.333 -18.667 107.333 -56 174l182 126c15.333 -24.667 35.333 -50.334 60 -77.001l10 7l25 -37c15.333 -8.66699 28.333 -13 39 -13c12 0 64 30.333 156 91c112.667 74.667 206.334 130.667 281.001 168
c120.667 60.667 222.334 91 305.001 91c84 0 155.333 -42.333 214 -127zM1866 837c-84 0 -183.665 -30.001 -298.998 -90.001c-58.667 -30.667 -149 -86.667 -271 -168c-90 -60 -144.667 -90 -164 -90c-40 0 -89.667 34.333 -149 103l-120 -86
c30 -51.333 45 -100.666 45 -147.999c0 -80.667 -41.667 -142.334 -125 -185.001c-66.667 -34 -144.334 -51 -233.001 -51c-86.667 0 -157 21.667 -211 65c-58.667 47.333 -88 113.333 -88 198c0 10 0.333008 20 1 30c-44 -41.333 -82 -95.333 -114 -162
c-34 -70 -51 -133.333 -51 -190c0 -121.333 53.667 -220.666 161 -297.999c96.667 -70 208 -105 334 -105c273.333 0 448 147.667 524 443c56.667 -41.333 171 -62 343 -62c43.333 0 167 2 371 6c69.333 1.33301 114.666 15 135.999 41
c10.667 13.333 27.667 60.666 51 141.999c48.667 170.667 73 294.334 73 371.001c0 66 -19 121 -57 165c-40 47.333 -92.333 71 -157 71zM1451 486.999c-20.667 -0.666992 -30.999 7.33398 -30.999 24.001c0 38.667 30.667 78.667 92 120
c57.333 38.667 106.666 58 147.999 58c42.667 0 84.667 -11.667 126 -35c48 -27.333 72 -61 72 -101c0 -23.333 -5.66699 -38 -17 -44c-8 -4.66699 -24 -7.33398 -48 -8.00098zM1811 538c4 8 5.99805 16.667 5.99805 26c-29.333 10 -58.666 15 -87.999 15
c-45.333 0 -86.333 -15.333 -123 -46c15.333 -1.33301 33 -2 53 -2c40.667 0 91.334 2.33301 152.001 7z" />
    <glyph glyph-name="u0636" unicode="&#x636;" horiz-adv-x="2265" arabic-form="isolated" 
d="M2084 750c68 -43.333 101.997 -121.666 101.997 -234.999c0 -69.333 -13 -154.166 -39 -254.499s-55.667 -181.833 -89 -244.5c-11.333 -21.333 -26.333 -41.333 -45 -60c-73.333 -14.667 -153 -22.334 -239 -23.001c-44.667 0 -125 -0.666992 -241 -2
c-174 -2 -284.667 10 -332 36c-30 -124 -97.667 -225 -203 -303c-102.667 -76 -218.334 -114 -347.001 -114c-169.333 0 -317.666 66 -444.999 198c-55.333 57.333 -92.666 102.333 -111.999 135c-29.333 50 -44 106.667 -44 170c0 82.667 26 168.667 78 258
c47.333 82 106.333 151 177 207c-14.667 -62.667 -22 -109.667 -22 -141l2 -18c19.333 23.333 49.666 53 90.999 89c-14.667 -42.667 -22 -86.334 -22 -131.001c0 -31.333 9 -67.666 27 -108.999c48 -32 110 -48 186 -48c68.667 0 132.334 14 191.001 42
c73.333 34.667 110 83 110 145c0 49.333 -18.667 107.333 -56 174l182 126c15.333 -24.667 35.333 -50.334 60 -77.001l10 7l25 -37c15.333 -8.66699 28.333 -13 39 -13c12 0 64 30.333 156 91c112.667 74.667 206.334 130.667 281.001 168
c120.667 60.667 222.334 91 305.001 91c84 0 155.333 -42.333 214 -127zM1866 837c-84 0 -183.665 -30.001 -298.998 -90.001c-58.667 -30.667 -149 -86.667 -271 -168c-90 -60 -144.667 -90 -164 -90c-40 0 -89.667 34.333 -149 103l-120 -86
c30 -51.333 45 -100.666 45 -147.999c0 -80.667 -41.667 -142.334 -125 -185.001c-66.667 -34 -144.334 -51 -233.001 -51c-86.667 0 -157 21.667 -211 65c-58.667 47.333 -88 113.333 -88 198c0 10 0.333008 20 1 30c-44 -41.333 -82 -95.333 -114 -162
c-34 -70 -51 -133.333 -51 -190c0 -121.333 53.667 -220.666 161 -297.999c96.667 -70 208 -105 334 -105c273.333 0 448 147.667 524 443c56.667 -41.333 171 -62 343 -62c43.333 0 167 2 371 6c69.333 1.33301 114.666 15 135.999 41
c10.667 13.333 27.667 60.666 51 141.999c48.667 170.667 73 294.334 73 371.001c0 66 -19 121 -57 165c-40 47.333 -92.333 71 -157 71zM1451 486.999c-20.667 -0.666992 -30.999 7.33398 -30.999 24.001c0 38.667 30.667 78.667 92 120
c57.333 38.667 106.666 58 147.999 58c42.667 0 84.667 -11.667 126 -35c48 -27.333 72 -61 72 -101c0 -23.333 -5.66699 -38 -17 -44c-8 -4.66699 -24 -7.33398 -48 -8.00098zM1811 538c4 8 5.99805 16.667 5.99805 26c-29.333 10 -58.666 15 -87.999 15
c-45.333 0 -86.333 -15.333 -123 -46c15.333 -1.33301 33 -2 53 -2c40.667 0 91.334 2.33301 152.001 7zM1523 984l-174 -170l-244 240l176 172zM1401 1054l-124 121l-123 -121l127 -119z" />
    <glyph glyph-name="u0637" unicode="&#x637;" horiz-adv-x="1253" arabic-form="isolated" 
d="M1179 284c0 -236 -45 -354 -135 -354h-926v70h-70v536c69.333 0 118.666 6.33301 147.999 19c46.667 20 70 59.667 70 119c0 79.333 -7.33301 170.333 -22 273l-40 270c78 47.333 146 83.666 204 108.999l29 -87c12.667 6.66699 26 12.334 40 17.001
c25.333 -68.667 44 -126 56 -172l-41 -34c17.333 -128 24.333 -207.333 21 -238c117.333 57.333 218 86 302 86c96.667 0 169 -36.667 217 -110c66.667 -44 110.334 -120.667 131.001 -230c10.667 -56.667 16 -148 16 -274zM1067 463c0 264 -86.333 396.002 -259 396.002
c-126.667 0 -255 -49.667 -385 -149l-9 -3l-8 3c-4 11.333 -6.33301 30 -7 56c-0.666992 16 -0.333984 37.667 0.999023 65c2 30.667 3 52 3 64c0 30 -3 70.667 -9 122c-6.66699 59.333 -10.667 99.666 -12 120.999l34 28l-32 116c-32 -12 -79.667 -39 -143 -81
c43.333 -202.667 65 -386.334 65 -551.001c0 -102 -73 -153 -219 -153v-457h885c46.667 0 76.334 63.333 89.001 190c4 40 6 117.667 6 233zM815 516.002c-28.667 -15.333 -153.333 -23 -374 -23c-15.333 0 -25 2.66699 -29 8c19.333 124 90.333 186 213 186
c46.667 0 89.667 -9 129 -27c50.667 -23.333 76 -55.333 76 -96c0 -16 -5 -32 -15 -48zM781.001 544.002c4 6 6.00098 12.333 6.00098 19c-38.667 9.33301 -68.334 14 -89.001 14c-68 0 -112.667 -15 -134 -45c132 -0.666992 204.333 3.33301 217 12z" />
    <glyph glyph-name="u0638" unicode="&#x638;" horiz-adv-x="1261" arabic-form="isolated" 
d="M1179 284c0 -236 -45 -354 -135 -354h-926v70h-70v536c69.333 0 118.666 6.33301 147.999 19c46.667 20 70 59.667 70 119c0 79.333 -7.33301 170.333 -22 273l-40 270c78 47.333 146 83.666 204 108.999l29 -87c12.667 6.66699 26 12.334 40 17.001
c25.333 -68.667 44 -126 56 -172l-41 -34c17.333 -128 24.333 -207.333 21 -238c117.333 57.333 218 86 302 86c96.667 0 169 -36.667 217 -110c66.667 -44 110.334 -120.667 131.001 -230c10.667 -56.667 16 -148 16 -274zM1067 463c0 264 -86.333 396.002 -259 396.002
c-126.667 0 -255 -49.667 -385 -149l-9 -3l-8 3c-4 11.333 -6.33301 30 -7 56c-0.666992 16 -0.333984 37.667 0.999023 65c2 30.667 3 52 3 64c0 30 -3 70.667 -9 122c-6.66699 59.333 -10.667 99.666 -12 120.999l34 28l-32 116c-32 -12 -79.667 -39 -143 -81
c43.333 -202.667 65 -386.334 65 -551.001c0 -102 -73 -153 -219 -153v-457h885c46.667 0 76.334 63.333 89.001 190c4 40 6 117.667 6 233zM815 516.002c-28.667 -15.333 -153.333 -23 -374 -23c-15.333 0 -25 2.66699 -29 8c19.333 124 90.333 186 213 186
c46.667 0 89.667 -9 129 -27c50.667 -23.333 76 -55.333 76 -96c0 -16 -5 -32 -15 -48zM781.001 544.002c4 6 6.00098 12.333 6.00098 19c-38.667 9.33301 -68.334 14 -89.001 14c-68 0 -112.667 -15 -134 -45c132 -0.666992 204.333 3.33301 217 12zM998.002 1080
l-174 -170l-244 240l176 172zM876.002 1150l-124 121l-123 -121l127 -119z" />
    <glyph glyph-name="u0639" unicode="&#x639;" horiz-adv-x="1069" arabic-form="isolated" 
d="M954 -133l-0.00292969 -13.001c0 -27.333 -2 -58 -6 -92l76 34c0 -194.667 -81.333 -348.667 -244 -462c-94.667 -66 -189.667 -99 -285 -99c-63.333 0 -118.333 13.333 -165 40c-30.667 17.333 -72.667 52.333 -126 105s-90.333 95 -111 127
c-30.667 46.667 -46 99.334 -46 158.001c0 130.667 87 274.667 261 432c-50.667 20.667 -84 49 -100 85c-48 26 -72 57 -72 93c0 90 35 157.667 105 203c58.667 38.667 135.334 58 230.001 58c47.333 0 95.333 -11.667 144 -35c52 -24.667 89.667 -56 113 -94
c16 -8.66699 34.333 -25.667 55 -51c22.667 -27.333 34 -48.666 34 -63.999c0 -11.333 -7.66699 -21 -23 -29c-20.667 -4 -75.667 -6 -165 -6c-84.667 0 -127 -26.667 -127 -80l47 -3c52.667 -3.33301 122.334 6.66699 209.001 30l-14 -87c8 0 36 5.66699 84 17
c-5.33301 -44.667 -16.666 -111.334 -33.999 -200.001c-171.333 -34.667 -257 -83 -257 -145c0 -26.667 2 -44 6 -52l34 -3c50.667 0 115.667 16 195 48c21.333 8.66699 82 37 182 85zM913.997 -194.001c-143.333 -74 -258.998 -111.002 -346.998 -111.002
c-94 0 -141 52.667 -141 158c0 50 35.667 91.333 107 124l164 55c8 40.667 15 83.334 21 128.001c-60 -11.333 -110.667 -17 -152 -17c-32.667 0 -64.667 3.66699 -96 11c-46 10.667 -70.333 26.334 -73 47.001c-1.33301 10 -2 23.333 -2 40c0 80 60.667 120 182 120h40
l36 -1c34.667 0 52 7.33301 52 22c-38 79.333 -125.667 119 -263 119c-78 0 -140.333 -17.667 -187 -53c-52.667 -39.333 -79 -96.666 -79 -171.999c0 -19.333 29.5 -46.333 88.5 -81s88.5 -60 88.5 -76c0 -22.667 -5.66699 -39.334 -17 -50.001
c-78.667 -73.333 -135.334 -135 -170.001 -185c-54 -78 -81 -155.667 -81 -233c0 -86 52 -169 156 -249c49.333 -38 108.666 -57 177.999 -57c119.333 0 231 46.667 335 140c106.667 96 160 203 160 321z" />
    <glyph glyph-name="u063A" unicode="&#x63a;" horiz-adv-x="1045" arabic-form="isolated" 
d="M954 -133l-0.00292969 -13.001c0 -27.333 -2 -58 -6 -92l76 34c0 -194.667 -81.333 -348.667 -244 -462c-94.667 -66 -189.667 -99 -285 -99c-63.333 0 -118.333 13.333 -165 40c-30.667 17.333 -72.667 52.333 -126 105s-90.333 95 -111 127
c-30.667 46.667 -46 99.334 -46 158.001c0 130.667 87 274.667 261 432c-50.667 20.667 -84 49 -100 85c-48 26 -72 57 -72 93c0 90 35 157.667 105 203c58.667 38.667 135.334 58 230.001 58c47.333 0 95.333 -11.667 144 -35c52 -24.667 89.667 -56 113 -94
c16 -8.66699 34.333 -25.667 55 -51c22.667 -27.333 34 -48.666 34 -63.999c0 -11.333 -7.66699 -21 -23 -29c-20.667 -4 -75.667 -6 -165 -6c-84.667 0 -127 -26.667 -127 -80l47 -3c52.667 -3.33301 122.334 6.66699 209.001 30l-14 -87c8 0 36 5.66699 84 17
c-5.33301 -44.667 -16.666 -111.334 -33.999 -200.001c-171.333 -34.667 -257 -83 -257 -145c0 -26.667 2 -44 6 -52l34 -3c50.667 0 115.667 16 195 48c21.333 8.66699 82 37 182 85zM913.997 -194.001c-143.333 -74 -258.998 -111.002 -346.998 -111.002
c-94 0 -141 52.667 -141 158c0 50 35.667 91.333 107 124l164 55c8 40.667 15 83.334 21 128.001c-60 -11.333 -110.667 -17 -152 -17c-32.667 0 -64.667 3.66699 -96 11c-46 10.667 -70.333 26.334 -73 47.001c-1.33301 10 -2 23.333 -2 40c0 80 60.667 120 182 120h40
l36 -1c34.667 0 52 7.33301 52 22c-38 79.333 -125.667 119 -263 119c-78 0 -140.333 -17.667 -187 -53c-52.667 -39.333 -79 -96.666 -79 -171.999c0 -19.333 29.5 -46.333 88.5 -81s88.5 -60 88.5 -76c0 -22.667 -5.66699 -39.334 -17 -50.001
c-78.667 -73.333 -135.334 -135 -170.001 -185c-54 -78 -81 -155.667 -81 -233c0 -86 52 -169 156 -249c49.333 -38 108.666 -57 177.999 -57c119.333 0 231 46.667 335 140c106.667 96 160 203 160 321zM676.999 755.997l-174 -170l-244 240l176 172zM554.999 825.997
l-124 121l-123 -121l127 -119z" />
    <glyph glyph-name="u0641" unicode="&#x641;" horiz-adv-x="1777" arabic-form="isolated" 
d="M1349 578c0 -10 4 -23.333 12 -40l25 -5c34 0 51 18.333 51 55l-4 19c-14.667 6.66699 -28 10 -40 10c-29.333 0 -44 -13 -44 -39zM1587 40l1.99902 277c0.666992 118.667 -8.66602 211.667 -27.999 279c-30 103.333 -87.333 171 -172 203c-26.667 10 -52.667 15 -78 15
c-48 0 -89.333 -11.667 -124 -35c-40 -26.667 -60 -62.667 -60 -108c0 -32.667 11 -64 33 -94l61 -82h-617c-90 0 -167.667 11 -233 33c-95.333 32 -143 84 -143 156c0 8.66699 0.666992 17.334 2 26.001c-94 -81.333 -141 -186 -141 -314
c0 -162.667 84 -269.334 252 -320.001c84.667 -26 234.667 -38.667 450 -38zM1477 587c0 -24.667 -9.16699 -46.166 -27.5 -64.499s-39.833 -27.5 -64.5 -27.5c-35.333 0 -68.333 17.167 -99 51.5s-46 69.166 -46 104.499c0 30 19.667 54.667 59 74l19 2
c39.333 0 75 -13.333 107 -40c34.667 -28.667 52 -62 52 -100zM1138 970.001l-124 121l-123 -121l127 -119zM1177 815.001c46 24.667 88.001 37.002 126.001 37.002c51.333 0 94.666 -9.33301 129.999 -28c30 -16.667 63.667 -46 101 -88
c22.667 -19.333 52.334 -53 89.001 -101c43.333 -84.667 65.666 -168.334 66.999 -251.001l7 -453l-1096 3c-113.333 0 -208 21.333 -284 64c-33.333 18.667 -74.666 52.667 -123.999 102c-36.667 36.667 -58.334 59 -65.001 67c-51.333 61.333 -77 144.333 -77 249
c0 72 19.667 140 59 204c38 62 88.667 112 152 150l23 -18c-12 -16 -18 -36.667 -18 -62c0 -12.667 1.66699 -23.334 5 -32.001c17.333 14.667 37.333 28.667 60 42l23 -18c-11.333 -14.667 -17 -35.667 -17 -63c0 -8 2 -20.667 6 -38c60.667 -31.333 143.667 -47 249 -47
h549c-37.333 44 -56 88.333 -56 133c0 24 7.66699 51 23 81l-20 -20l-247 242l176 172l243 -244z" />
    <glyph glyph-name="u0642" unicode="&#x642;" horiz-adv-x="1233" arabic-form="isolated" 
d="M611 -468c-79.333 0 -152.336 13.001 -219.003 39.001c-47.333 18.667 -101.333 57.667 -162 117c-36 35.333 -61.333 62 -76 80c-22.667 28 -42 60 -58 96c-30.667 69.333 -46 138 -46 206c0 116 32 224.667 96 326l36 -14c-6 -27.333 -8.33301 -52 -7 -74l3 -48
c11.333 22.667 24.333 44.667 39 66l35 -14c-4.66699 -20 -7 -46 -7 -78c0 -39.333 7.66699 -89.666 23 -150.999c17.333 -70 37.333 -115 60 -135c25.333 -22.667 68.333 -40.667 129 -54c48 -10.667 95 -16 141 -16c52.667 0 102 11 148 33
c-103.333 0 -171.666 34.333 -204.999 103c-71.333 36 -107 109 -107 219c0 86.667 22.667 181 68 283c43.333 97.333 96.5 179.666 159.5 246.999s109.833 101 140.5 101c28.667 0 54.667 -11.667 78 -35c4.66699 -4.66699 24.667 -26 60 -64
c18 -14.667 31.333 -26.334 40 -35.001c46.667 -46 87.334 -113.667 122.001 -203c42.667 -109.333 64 -214.666 64 -315.999c0 -186.667 -44.667 -342.334 -134 -467.001c-101.333 -141.333 -241.666 -212 -420.999 -212zM1061 276.001
c0 178.667 -49.334 331.999 -148.001 459.999c-46.667 60.667 -81.667 91 -105 91c-32.667 -4.66699 -72.334 -36.334 -119.001 -95.001c-144 -181.333 -216 -344.666 -216 -489.999c0 -148.667 70.333 -223 211 -223c68 0 139 12.667 213 38c0 -62 -37.667 -115 -113 -159
c-65.333 -38 -131.666 -57 -198.999 -57c-192 0 -321.667 69.333 -389 208c-40.667 84 -61 170 -61 258c-31.333 -77.333 -47 -155.666 -47 -234.999c0 -62.667 15.333 -127.667 46 -195c31.333 -70 71.333 -122.667 120 -158c26.667 -19.333 68.667 -36.666 126 -51.999
c54 -14.667 99.333 -22 136 -22c174.667 0 311.334 63 410.001 189c90 115.333 135 262.666 135 441.999zM848.996 478c-38 0 -73 10.333 -105 31c-36.667 23.333 -55 53 -55 89c0 18.667 8.83301 38.5 26.5 59.5s35.5 31.5 53.5 31.5c32.667 0 69.5 -18.667 110.5 -56
s61.5 -72.333 61.5 -105c0 -33.333 -30.667 -50 -92 -50zM898.996 527l4 7c0 9.33301 -6.66699 19.5 -20 30.5s-25 16.5 -35 16.5c-32.667 -5.33301 -49 -24 -49 -56c18 -8 36.333 -12 55 -12s33.667 4.66699 45 14zM779.996 932l-175 -169l-149 141l-149 -143l-243 240
l176 172l146 -145l151 145zM656.996 1001l-125 121l-122 -121l127 -118zM360.996 1001l-126 121l-122 -121l127 -118z" />
    <glyph glyph-name="u0643" unicode="&#x643;" horiz-adv-x="1637" arabic-form="isolated" 
d="M1459 501c-12.667 14.667 -68.999 51.001 -168.999 109.001l-492 286l252 88c128 44.667 201.667 67 221 67c23.333 0 52.666 -10.667 87.999 -32l8 -1l8 1c26.667 17.333 40 61.666 40 132.999c0 60 -14.667 90 -44 90l-658 -224v-253c94 -57.333 231 -148 411 -272
h-740c-46 0 -86.667 30 -122 90c-32 54.667 -46 105 -42 151c-80 -31.333 -120 -133.333 -120 -306c0 -102.667 20.667 -189.667 62 -261c50 -86 122.667 -129 218 -129h986zM1369 1280c4 1.33301 7.33398 2.00098 10.001 2.00098c30.667 0 52.667 -24 66 -72
c54 0 81 -53.667 81 -161c0 -28.667 -7 -57.334 -21 -86.001c-17.333 -35.333 -38.666 -53 -63.999 -53c-12.667 0 -30.334 5.16699 -53.001 15.5s-40.334 15.5 -53.001 15.5c-41.333 0 -157.666 -36.667 -348.999 -110l314 -183c129.333 -75.333 196.333 -119.333 201 -132
l-4 -15c24 -10.667 48.667 -28.667 74 -54l-104 -518h-1018c-98.667 0 -174.334 38.667 -227.001 116c-55.333 28 -98.333 91.333 -129 190c-22.667 72.667 -34 149.334 -34 230.001c0 168.667 67.667 278.667 203 330c-2 -24.667 -3 -47.334 -3 -68.001l4 -32
c26 14 49 23.667 69 29c-2 -12 -3 -27.667 -3 -47c0 -62 10.667 -108.333 32 -139l23 -5h583l-224 140v27l-70 42v299c41.333 15.333 273.333 95 696 239z" />
    <glyph glyph-name="u0644" unicode="&#x644;" horiz-adv-x="1145" arabic-form="isolated" 
d="M1090 103c0 -166.667 -32.332 -304.336 -96.999 -413.003c-79.333 -133.333 -196.333 -200 -351 -200c-98 0 -188 20 -270 60c-44 21.333 -99.333 64.333 -166 129c-98 94.667 -147 197.334 -147 308.001c0 136 70.333 268.333 211 397c-4.66699 -38 -7 -79.333 -7 -124
l2 -15c28.667 27.333 53.667 50 75 68c-4.66699 -33.333 -7 -68.666 -7 -105.999c0 -49.333 11.333 -92 34 -128c37.333 -19.333 81 -29 131 -29c126.667 0 214 34.667 262 104c6.66699 20 10 47.667 10 83c0 73.333 -10.667 225 -32 455c-23.333 254 -45 410.333 -65 469
c28 33.333 82 92.333 162 177c13.333 -12 34.666 -36.667 63.999 -74l7 4c35.333 -28 86.333 -96.667 153 -206c-32.667 -53.333 -49 -93 -49 -119c0 -52 6.33301 -114.667 19 -188l32 -186c19.333 -119.333 29 -274.666 29 -465.999zM982.001 278.998
c0 124.667 -18.332 299.001 -54.999 523.001c-17.333 106 -26 176.333 -26 211c0 17.333 13.667 55.666 41 114.999c-28 54.667 -65.667 104.667 -113 150c-47.333 -51.333 -84.666 -94.333 -111.999 -129c59.333 -428.667 89 -736 89 -922c0 -42 -4.66699 -72 -14 -90
c-20 -38.667 -66.333 -70.667 -139 -96c-60.667 -21.333 -117.334 -32 -170.001 -32c-168 0 -252.333 94.667 -253 284c-88 -107.333 -132 -214 -132 -320c0 -118 53 -212 159 -282c92 -60.667 200.333 -91 325 -91c103.333 0 189.666 36 258.999 108
c65.333 66.667 105 152.667 119 258c14.667 108.667 22 213 22 313z" />
    <glyph glyph-name="u0645" unicode="&#x645;" horiz-adv-x="1113" arabic-form="isolated" 
d="M1046 319c0 -56 -2.66895 -99.666 -8.00195 -130.999c-17.333 -100.667 -47.666 -188.667 -90.999 -264c-58 -100.667 -128.333 -151 -211 -151c-28 0 -75.167 25.167 -141.5 75.5s-115.166 75.5 -146.499 75.5c-59.333 0 -89 -36.667 -89 -110
c0 -50.667 8.33301 -126 25 -226s25 -175.333 25 -226c0 -27.333 -3.66699 -43.666 -11 -48.999l-138 -101l-7 117l-63 -48c2.66699 67.333 -10.333 185.666 -39 354.999c-51.333 303.333 -77 512.666 -77 627.999c0 177.333 67.333 266 202 266c13.333 0 35.333 -2 66 -6
c28.667 -4 50.667 -5.66699 66 -5l20 1c10.667 4.66699 23 30 37 76c16 52 36 90.333 60 115c38.667 39.333 95.667 59 171 59c86 0 155 -37.667 207 -113c95.333 -64 143 -176.667 143 -338zM691.998 729.001c-67.333 0 -113 -14.668 -137 -44.001
c-8.66699 -10 -28 -52.333 -58 -127c-21.333 -52.667 -47.666 -79 -78.999 -79c-16.667 0 -41.667 2 -75 6s-58.333 6 -75 6c-103.333 0 -155 -81.333 -155 -244c0 -131.333 12 -261.666 36 -390.999c17.333 -70.667 39.666 -199 66.999 -385l10 -112l51 34
c17.333 14 26 30.333 26 49c0 46 -8.16699 114.5 -24.5 205.5s-24.5 159.5 -24.5 205.5c0 61.333 6.66699 104 20 128c19.333 35.333 58 53 116 53c35.333 0 84.5 -25.333 147.5 -76s106.167 -76 129.5 -76c87.333 0 157 63.333 209 190c40.667 98.667 61 198.667 61 300
c0 94.667 -17 173.667 -51 237c-43.333 80 -108 120 -194 120zM880.998 473c0 -64.667 -16.332 -97 -48.999 -97c-39.333 0 -89 12 -149 36c-70.667 28 -106 58.333 -106 91c0 26 16.667 49.333 50 70c29.333 18.667 58 28 86 28c37.333 0 73.666 -11.667 108.999 -35
c39.333 -26.667 59 -57.667 59 -93zM688.999 451c60 -24.667 106.667 -36.668 140 -36.001c12.667 14.667 19 28.334 19 41.001c0 8.66699 -1.66699 16 -5 22c-24 10 -43.333 15 -58 15c-36 0 -68 -14 -96 -42z" />
    <glyph glyph-name="u0646" unicode="&#x646;" horiz-adv-x="1181" arabic-form="isolated" 
d="M584 -317c-65.333 0 -124.668 15.332 -178.001 45.999c-38.667 22 -86 61 -142 117c-37.333 37.333 -63 64 -77 80c-26 30 -47.333 60.333 -64 91c-38 70.667 -57 141.667 -57 213c0 156.667 94.667 291.667 284 405c-11.333 -58 -17 -100.333 -17 -127
c26.667 20.667 56 39.667 88 57c-12 -62 -18 -103.333 -18 -124c0 -53.333 7.66699 -93 23 -119c38 -22 76.333 -33 115 -33c80.667 0 145.334 27.333 194.001 82c46.667 52 70 119 70 201c0 8 -2 19.833 -6 35.5s-6 27.5 -6 35.5c0 12 55 72.333 165 181
c18.667 -16 36 -45 52 -87c4.66699 4.66699 10.667 10.334 18 17.001c27.333 -14 51.333 -70.667 72 -170c16.667 -80.667 25 -147.667 25 -201c0 -200.667 -39.333 -361.667 -118 -483c-94 -144.667 -235 -217 -423 -217zM1017 474.999
c0 140.667 -20.333 236.668 -61 288.001c-72 -56 -112.333 -98 -121 -126c7.33301 -31.333 11 -57.333 11 -78c0 -86.667 -28 -160.167 -84 -220.5s-127 -90.5 -213 -90.5c-71.333 0 -131.333 21.667 -180 65c-51.333 44.667 -77 102 -77 172c0 32.667 1.66699 55.667 5 69
c-127.333 -80.667 -191 -188.667 -191 -324c0 -116.667 42.5 -218.834 127.5 -306.501s185.5 -131.5 301.5 -131.5c175.333 0 310.333 88.667 405 266c51.333 96.667 77 235.667 77 417zM812.998 930l-174 -170l-244 240l176 172zM690.998 1000l-124 121l-123 -121l127 -119
z" />
    <glyph glyph-name="u0647" unicode="&#x647;" horiz-adv-x="977" arabic-form="isolated" 
d="M927 370c0 -123.333 -44.168 -228.501 -132.501 -315.501s-194.166 -130.5 -317.499 -130.5c-68.667 0 -123.334 9.66699 -164.001 29c-38 17.333 -82 52 -132 104s-80.667 89.667 -92 113c-16 33.333 -24 83.666 -24 150.999c0 69.333 20 129.333 60 180
c22.667 29.333 60.334 62 113.001 98c40.667 28 61 47.333 61 58c0 12 -11 26.333 -33 43c26.667 48.667 69.334 119.334 128.001 212.001c68.667 -19.333 157.667 -72.666 267 -159.999c103.333 -83.333 179.666 -160 228.999 -230c24.667 -35.333 37 -86 37 -152z
M409.999 863.999c-33.333 -49.333 -64.999 -101.335 -94.999 -156.002c20.667 -18.667 31 -35 31 -49c0 -23.333 -21 -48.666 -63 -75.999c-56.667 -37.333 -95.334 -68.666 -116.001 -93.999c-42 -52 -63 -119.333 -63 -202c0 -80.667 31 -144 93 -190
c55.333 -42 124.666 -63 207.999 -63c119.333 0 218 41 296 123s116.667 182.667 116 302c0 3.33301 -1 21 -3 53c-3.33301 50 -60.666 118.333 -171.999 205c-94 73.333 -171.333 122.333 -232 147zM620 469.997c0 -28.667 -16.333 -53 -49 -73
c-28.667 -18 -58 -27 -88 -27c-40 0 -75.333 13.333 -106 40c-32.667 28 -49 61.667 -49 101c0 30 12.833 57.833 38.5 83.5s53.5 38.5 83.5 38.5c39.333 0 77.5 -17.333 114.5 -52s55.5 -71.667 55.5 -111zM583 468.997c0 16 -6.00098 30.668 -18.001 44.001
c-17.333 7.33301 -30.666 11 -39.999 11c-22.667 0 -42.667 -10.333 -60 -31s-26 -42.334 -26 -65.001c0 -2 0.666992 -4.33301 2 -7l50 -10c18 0 37 5.33301 57 16c23.333 12 35 26 35 42z" />
    <glyph glyph-name="u0648" unicode="&#x648;" horiz-adv-x="1161" arabic-form="isolated" 
d="M1086 73c0 -70.667 -6.33398 -119.001 -19.001 -145.001c-117.333 -238.667 -280 -358 -488 -358c-88 0 -180 36 -276 108c-85.333 64 -152 138.333 -200 223c80 -13.333 148.667 -20 206 -20c28.667 0 65 6 109 18c47.333 12.667 81.333 26.334 102 41.001
c-66 16 -114.667 50 -146 102c-64.667 38 -97 105.667 -97 203c0 96.667 16.667 195.667 50 297c36.667 111.333 85.667 198 147 260c46 46.667 86.333 70 121 70c50.667 0 96.667 -13.667 138 -41c17.333 -11.333 53.333 -43 108 -95
c76.667 -72.667 133.334 -155 170.001 -247c50 -125.333 75 -264 75 -416zM592.999 831.999c-59.333 0 -123.666 -73.6689 -192.999 -221.002c-56 -119.333 -84 -241.333 -84 -366c0 -137.333 77.667 -206 233 -206c7.33301 0 18.333 1.16699 33 3.5s25.667 3.5 33 3.5
c18 0 27 -9 27 -27c0 -16 -16.333 -39.333 -49 -70c-74.667 -70 -181.667 -105 -321 -105c-38.667 0 -74 4.33301 -106 13c61.333 -59.333 110.666 -100.666 147.999 -123.999c58.667 -36.667 119.667 -55 183 -55c7.33301 0 29 1.33301 65 4
c163.333 12 296.333 122.667 399 332c11.333 23.333 17 65.333 17 126c0 232.667 -56.333 423.334 -169 572.001c-13.333 17.333 -42 43.333 -86 78c-36 28 -79.333 42 -130 42zM772.999 533.997c0 -30 -20.333 -44.334 -61 -43.001c-121.333 4 -182 31.667 -182 83
c0 25.333 7.33301 48.5 22 69.5s34 31.5 58 31.5s57.167 -17.667 99.5 -53s63.5 -64.666 63.5 -87.999zM726.999 543.996c-18 14 -33.666 21 -46.999 21c-16.667 0 -29.334 -9 -38.001 -27c26 -4.66699 49.333 -7 70 -7h10l6 3z" />
    <glyph glyph-name="u0649" unicode="&#x649;" horiz-adv-x="1617" arabic-form="isolated" 
d="M1459 392c62.667 -34 93.9961 -93.3311 93.9961 -177.998c0 -244 -189.667 -452 -569 -624c-141.333 -64 -290.333 -96 -447 -96c-55.333 0 -113.666 12 -174.999 36c-35.333 14 -85.333 51.667 -150 113c-56 53.333 -94 104.333 -114 153
c-18.667 46 -28 108.667 -28 188s14.667 153.666 44 222.999c32.667 78 79.334 136.333 140.001 175c-9.33301 -41.333 -12.666 -88.333 -9.99902 -141c20.667 28.667 47 52 79 70c-6.66699 -38.667 -10 -74.667 -10 -108c0 -101.333 18 -169.666 54 -204.999
c46.667 -45.333 138 -68 274 -68c88 0 205 20.333 351 61l-193 52c-74.667 20 -117.667 52 -129 96c-49.333 23.333 -74 54.333 -74 93c0 88 11 158.333 33 211c46.667 112 133.834 220.167 261.501 324.5s250.5 165.166 368.5 182.499c18 2.66699 30 4 36 4
c58 0 102.667 -28.333 134 -85c63.333 -40 95 -96.667 95 -170c0 -38 -13 -76.667 -39 -116c-77.333 24 -141.333 36 -192 36c-60 0 -102 -23.333 -126 -70l155 -56c70 -26.667 115.667 -60.334 137 -101.001zM1053 601.002c0 40 22.334 72.3359 67.001 97.0029
c37.333 20.667 77.666 31 120.999 31c53.333 0 105.666 -10.333 156.999 -31c10.667 30 16 54 16 72c0 96 -45 144 -135 144c-16 0 -47.333 -8.66699 -94 -26c-40.667 -15.333 -71.334 -28.666 -92.001 -39.999c-305.333 -168.667 -458 -370.334 -458 -605.001
c0 -44.667 69.333 -84.334 208 -119.001c146 -36.667 225.333 -73.334 238 -110.001l-6 -14c-26.667 -34 -99.667 -61.667 -219 -83c-96.667 -17.333 -180 -26 -250 -26c-95.333 0 -180.333 23.667 -255 71c-85.333 54 -131.666 126 -138.999 216
c-3.33301 40.667 -4 81.667 -2 123c-68 -91.333 -102 -202.333 -102 -333c0 -132.667 39 -228.334 117 -287.001c68 -50.667 170.667 -76 308 -76c39.333 0 120.333 15.667 243 47c150.667 38.667 294.334 114.334 431.001 227.001c158 130.667 237 264 237 400
c0 73.333 -33.667 128.666 -101 165.999c-14.667 8.66699 -77.667 31 -189 67c-67.333 22 -101 51.667 -101 89z" />
    <glyph glyph-name="u064A" unicode="&#x64a;" horiz-adv-x="1617" arabic-form="isolated" 
d="M1459 392c62.667 -34 93.9961 -93.3311 93.9961 -177.998c0 -244 -189.667 -452 -569 -624c-141.333 -64 -290.333 -96 -447 -96c-55.333 0 -113.666 12 -174.999 36c-35.333 14 -85.333 51.667 -150 113c-56 53.333 -94 104.333 -114 153
c-18.667 46 -28 108.667 -28 188s14.667 153.666 44 222.999c32.667 78 79.334 136.333 140.001 175c-9.33301 -41.333 -12.666 -88.333 -9.99902 -141c20.667 28.667 47 52 79 70c-6.66699 -38.667 -10 -74.667 -10 -108c0 -101.333 18 -169.666 54 -204.999
c46.667 -45.333 138 -68 274 -68c88 0 205 20.333 351 61l-193 52c-74.667 20 -117.667 52 -129 96c-49.333 23.333 -74 54.333 -74 93c0 88 11 158.333 33 211c46.667 112 133.834 220.167 261.501 324.5s250.5 165.166 368.5 182.499c18 2.66699 30 4 36 4
c58 0 102.667 -28.333 134 -85c63.333 -40 95 -96.667 95 -170c0 -38 -13 -76.667 -39 -116c-77.333 24 -141.333 36 -192 36c-60 0 -102 -23.333 -126 -70l155 -56c70 -26.667 115.667 -60.334 137 -101.001zM1053 601.002c0 40 22.334 72.3359 67.001 97.0029
c37.333 20.667 77.666 31 120.999 31c53.333 0 105.666 -10.333 156.999 -31c10.667 30 16 54 16 72c0 96 -45 144 -135 144c-16 0 -47.333 -8.66699 -94 -26c-40.667 -15.333 -71.334 -28.666 -92.001 -39.999c-305.333 -168.667 -458 -370.334 -458 -605.001
c0 -44.667 69.333 -84.334 208 -119.001c146 -36.667 225.333 -73.334 238 -110.001l-6 -14c-26.667 -34 -99.667 -61.667 -219 -83c-96.667 -17.333 -180 -26 -250 -26c-95.333 0 -180.333 23.667 -255 71c-85.333 54 -131.666 126 -138.999 216
c-3.33301 40.667 -4 81.667 -2 123c-68 -91.333 -102 -202.333 -102 -333c0 -132.667 39 -228.334 117 -287.001c68 -50.667 170.667 -76 308 -76c39.333 0 120.333 15.667 243 47c150.667 38.667 294.334 114.334 431.001 227.001c158 130.667 237 264 237 400
c0 73.333 -33.667 128.666 -101 165.999c-14.667 8.66699 -77.667 31 -189 67c-67.333 22 -101 51.667 -101 89z" />
    <glyph glyph-name="u067E" unicode="&#x67e;" horiz-adv-x="1793" arabic-form="isolated" 
d="M1002 -582l-127 119l-120 -119l124 -120zM843 -303l-126 119l-121 -119l125 -121zM764 -522l-220 219l175 170l148 -144l149 144l243 -240l-175 -172l-147 146l-36 -35l220 -218l-176 -172l-242 242zM1140 -303l-126 119l-122 -119l125 -121zM1615 40l-0.000976562 550
c0 113.333 -18.333 190.666 -55 231.999c-21.333 -12 -59 -46.333 -113 -103c36.667 -53.333 55 -91.666 55 -114.999c0 -71.333 -62.667 -107 -188 -107h-825c-165.333 0 -267.666 78.333 -306.999 235c-54 -64 -81 -173.333 -81 -328c0 -114 33.5 -203.167 100.5 -267.5
s157.5 -96.5 271.5 -96.5h1142zM1724 -69l-1191 -1.00195c-62 0 -122.333 11.333 -181 34c-37.333 14.667 -85 51.334 -143 110.001c-35.333 35.333 -59 61 -71 77c-52 66.667 -78 156 -78 268c0 72 11 143.667 33 215c26.667 86.667 64.667 145.667 114 177
c4.66699 -44 13.334 -80.333 26.001 -109c8.66699 10 23.334 23 44.001 39c6.66699 -62 24 -114.333 52 -157c54.667 -32 108 -48 160 -48h825c98 0 147 22 147 66c0 31.333 -20 69 -60 113c0 11.333 53.667 65.333 161 162c22 -14 41 -40.667 57 -80l12 10
c62 -47.333 93 -142.666 93 -285.999v-590z" />
    <glyph glyph-name="u0686" unicode="&#x686;" horiz-adv-x="1122" arabic-form="isolated" 
d="M604 -171l-120.998 116c-16.667 -18.667 -25 -41.667 -25 -69c0 -12 2.66699 -24.667 8 -38c31.333 -16.667 66.666 -25 105.999 -25c33.333 0 58.666 2.33301 75.999 7l-26 25zM303.002 241c45.333 20 111.001 54 197.001 102
c-80.667 -4.66699 -146.334 -38.667 -197.001 -102zM596.003 -12l-64 63l-60 -63l64 -57zM952.003 -42c-112.667 -121.333 -241.666 -182.001 -386.999 -182.001c-54 0 -102.333 14.667 -145 44c-48.667 32 -73 74 -73 126c0 142.667 199.667 214 599 214v400
c-52.667 -18.667 -104.334 -28 -155.001 -28c-52.667 0 -175.667 19.333 -369 58c-6 0 -14.333 -1 -25 -3c-52 -10 -97.333 -36.667 -136 -80c-40.667 -45.333 -61 -93.666 -61 -144.999l3 -29c55.333 78.667 127.333 118 216 118c84.667 0 127 -27 127 -81
c0 -38.667 -32 -72 -96 -100c-98 -42 -161.333 -74 -190 -96c-76 -58 -125.333 -140.333 -148 -247c-9.33301 -42 -14 -77.333 -14 -106c0 -102 37.333 -182 112 -240c68 -52.667 154.667 -79 260 -79c136.667 0 250.667 41.333 342 124c93.333 86 140 196.667 140 332z
M726.004 -105.001l-63 63l-62 -61l66 -59zM849.004 9.99902l-62 63l-61 -61l65 -60zM853.004 37.999l64.998 -61.999c22 19.333 43.333 42.666 64 69.999l4 -63c0.666992 -13.333 -1.33301 -41.333 -6 -84c24.667 22 48.667 47 72 75c3.33301 -40.667 5 -72.667 5 -96
c0 -143.333 -52 -261.333 -156 -354c-100.667 -88.667 -223.667 -133 -369 -133c-77.333 0 -140.333 11.667 -189 35c-42 20 -92.333 58.667 -151 116c-48.667 48 -81.667 88.333 -99 121c-22 42 -33 92.667 -33 152c0 79.333 16 154.333 48 225
c35.333 76.667 84.333 134.667 147 174c-12 40.667 -18 75 -18 103c-13.333 -16 -26.666 -34.333 -39.999 -55c-20.667 33.333 -31 69 -31 107c0 62 24.833 120.833 74.5 176.5s105.167 83.5 166.5 83.5c40.667 0 101.334 -10.333 182.001 -31s141.667 -31 183 -31
c74 0 145.667 15 215 45v-93l67 21l2 -489zM710.002 27c-36 -6 -69.667 -12.667 -101 -20l37 -33l18 16l119 -118l32 20l-121 118z" />
    <glyph glyph-name="u0698" unicode="&#x698;" horiz-adv-x="1049" arabic-form="isolated" 
d="M481 -435c-116 0 -236.002 62.998 -360.002 188.998c-40 40.667 -82.333 88.334 -127 143.001c34.667 -5.33301 76.334 -8 125.001 -8c91.333 0 203.333 25.667 336 77c155.333 60 239.333 126 252 198c-3.33301 13.333 -31 48.333 -83 105
c-45.333 49.333 -79.666 84.333 -102.999 105l135 283c94 -78 170.667 -165.333 230 -262c68.667 -112 103 -221.667 103 -329c0 -141.333 -49.333 -260.166 -148 -356.499s-218.667 -144.5 -360 -144.5zM880.998 140.998c0 146.667 -71.334 298.333 -214.001 455l-99 -212
c22.667 -21.333 56.334 -59 101.001 -113c51.333 -62 77 -99.667 77 -113c0 -42.667 -49.667 -96 -149 -160c-88 -56.667 -171.333 -94.667 -250 -114c-54.667 -13.333 -145.667 -23.333 -273 -30c94 -118.667 214.667 -178 362 -178c122.667 0 228 47 316 141
c86 92.667 129 200.667 129 324zM441.997 979.997l-126 121l-122 -121l127 -118zM737.997 979.997l-125 121l-122 -121l127 -118zM579.997 1260l-125 120l-122 -120l126 -120zM502.997 1042l-220 218l176 171l243 -242l-62 -60l221 -221l-175 -169l-148 143l-149 -143
l-244 241l176 172l146 -145z" />
    <glyph glyph-name="u06AF" unicode="&#x6af;" horiz-adv-x="1633" arabic-form="isolated" 
d="M1459 501c-12.667 14.667 -68.999 51.001 -168.999 109.001l-492 286l252 88c128 44.667 201.667 67 221 67c23.333 0 52.666 -10.667 87.999 -32l8 -1l8 1c26.667 17.333 40 61.666 40 132.999c0 60 -14.667 90 -44 90l-658 -224v-253c94 -57.333 231 -148 411 -272
h-740c-46 0 -86.667 30 -122 90c-32 54.667 -46 105 -42 151c-80 -31.333 -120 -133.333 -120 -306c0 -102.667 20.667 -189.667 62 -261c50 -86 122.667 -129 218 -129h986zM1369 1280c4 1.33301 7.33398 2.00098 10.001 2.00098c30.667 0 52.667 -24 66 -72
c54 0 81 -53.667 81 -161c0 -28.667 -7 -57.334 -21 -86.001c-17.333 -35.333 -38.666 -53 -63.999 -53c-12.667 0 -30.334 5.16699 -53.001 15.5s-40.334 15.5 -53.001 15.5c-41.333 0 -157.666 -36.667 -348.999 -110l314 -183c129.333 -75.333 196.333 -119.333 201 -132
l-4 -15c24 -10.667 48.667 -28.667 74 -54l-104 -518h-1018c-98.667 0 -174.334 38.667 -227.001 116c-55.333 28 -98.333 91.333 -129 190c-22.667 72.667 -34 149.334 -34 230.001c0 168.667 67.667 278.667 203 330c-2 -24.667 -3 -47.334 -3 -68.001l4 -32
c26 14 49 23.667 69 29c-2 -12 -3 -27.667 -3 -47c0 -62 10.667 -108.333 32 -139l23 -5h583l-224 140v27l-70 42v299c41.333 15.333 273.333 95 696 239zM1301 1341l-599 -222l-15 114l598 219zM1272 1402l-3 24l-561 -206l4 -25z" />
    <glyph glyph-name="uFB57" unicode="&#x67e;" horiz-adv-x="1793" arabic-form="final" 
d="M1823 497l-168.999 0.00292969c0 148.667 -21.667 254.667 -65 318l-108 -84l2 -4c42 -32.667 63 -73.334 63 -122.001c0 -73.333 -64 -110 -192 -110h-826c-164.667 0 -265.334 76.667 -302.001 230c-83.333 -142.667 -125 -265.667 -125 -369
c0 -101.333 45.667 -181.333 137 -240c78.667 -50.667 171.667 -76 279 -76h1302v-109l-1232 -1c-160 0 -297 62.333 -411 187c-76 82.667 -114 162.334 -114 239.001c0 125.333 62.667 285.666 188 480.999c3.33301 -44.667 13.333 -89.334 30 -134.001
c12 22.667 25.333 44 40 64c0 -70.667 19.667 -134.334 59 -191.001c8 -12 31.333 -22.333 70 -31c32 -7.33301 58.333 -11 79 -11h826c102 0 153 24 153 72c0 21.333 -11.5 46.5 -34.5 75.5l-34.5 43.5c0 20 24.667 48.333 74 85l91 65c7.33301 -8 23 -37 47 -87l23 17
c22 -20.667 42.333 -63 61 -127c16.667 -56.667 25 -104 25 -142h64v-39zM1013 -558.997l-127 119l-120 -119l124 -120zM854.001 -279.997l-126 119l-121 -119l125 -121zM775.001 -498.997l-220 219l175 170l148 -144l149 144l243 -240l-175 -172l-147 146l-36 -35l220 -218
l-176 -172l-242 242zM1151 -279.997l-126 119l-122 -119l125 -121z" />
    <glyph glyph-name="uFB58" unicode="&#x67e;" horiz-adv-x="709" arabic-form="initial" 
d="M640 -70l-667 -0.000976562v110h558v570c0 86.667 -20 157.334 -60 212.001c-38.667 -27.333 -77 -58 -115 -92c41.333 -47.333 62 -89.333 62 -126c0 -71.333 -62 -107 -186 -107h-259v39h259c94 0 141 24.333 141 73c0 38 -24.667 77.667 -74 119
c49.333 49.333 109.333 98.333 180 147c14 -10.667 31.667 -37.667 53 -81l17 11c60.667 -55.333 91 -151 91 -287v-588zM459 -615.001l-127 119l-120 -119l124 -120zM300 -336.001l-126 119l-121 -119l125 -121zM221 -555.001l-220 219l175 170l148 -144l149 144l243 -240
l-175 -172l-147 146l-36 -35l220 -218l-176 -172l-242 242zM597 -336.001l-126 119l-122 -119l125 -121z" />
    <glyph glyph-name="uFB59" unicode="&#x67e;" horiz-adv-x="1102" arabic-form="medial" 
d="M1127 497h-375.001c-84 0 -144.667 43 -182 129c-60.667 -86 -124.667 -129 -192 -129h-405v39h401c38.667 0 79.667 21 123 63c15.333 14.667 46.333 51 93 109c6 -37.333 20 -72 42 -104l27 34c6 -38.667 15.333 -66 28 -82c26.667 -13.333 54.334 -20 83.001 -20h357
v-39zM1127 -70h-341c-48 0 -100 39.333 -156 118c-76 -78.667 -142 -118 -198 -118h-459v110h381c53.333 0 125.333 49.333 216 148c50 -98.667 101.667 -148 155 -148h402v-110zM677.999 -562l-127 119l-120 -119l124 -120zM518.999 -283l-126 119l-121 -119l125 -121z
M439.999 -502l-220 219l175 170l148 -144l149 144l243 -240l-175 -172l-147 146l-36 -35l220 -218l-176 -172l-242 242zM815.999 -283l-126 119l-122 -119l125 -121z" />
    <glyph glyph-name="uFB7B" unicode="&#x686;" horiz-adv-x="1181" arabic-form="final" 
d="M278 529c20.667 8 57.665 23.333 110.998 46s83 42.667 89 60c-43.333 0 -80.666 -9.33301 -111.999 -28c-23.333 -14 -52.666 -40 -87.999 -78zM649.998 107l-60 55l-58 -55l58 -59zM579.998 257l-59 57l-58 -57l58 -59zM532.998 147l-48.002 49l-3 -36
c-3.33301 -40.667 6.33398 -76 29.001 -106c16.667 -22 47.334 -42 92.001 -60l-110 115zM837.996 177l-91.0029 -88.001l-77 78l-21 -21l110 -110l-68 -67c52.667 -8.66699 106 -13 160 -13c30 0 77.667 4 143 12l-84 -81c4 -0.666992 10.667 -1 20 -1
c13.333 0 57.333 3.66699 132 11c-48 -52 -111 -112.667 -189 -182c-69.333 -61.333 -116.666 -99.666 -141.999 -114.999c-50 -30 -107.333 -45 -172 -45c-111.333 0 -226.666 59.667 -345.999 179c-60 60 -101.333 113.333 -124 160c-28.667 58.667 -43 127.667 -43 207
c0 137.333 64.667 270.666 194 399.999c-15.333 24.667 -23 53.334 -23 86.001c0 9.33301 0.666992 18.666 2 27.999l-35 -61c-24.667 24.667 -37 58 -37 100c0 60.667 22.333 119 67 175c47.333 59.333 100.666 89 159.999 89c23.333 0 43.666 -2.66699 60.999 -8
c147.333 -44.667 259 -67 335 -67c28.667 0 71.5 6 128.5 18s99.833 18 128.5 18l-1 -78c22.667 4 46 6.66699 70 8v-242c-39.333 -12 -84.666 -22.667 -135.999 -32l241 1v-39c-33.333 -0.666992 -91.333 -1 -174 -1c-88 0 -136.333 0.333008 -145 1
c-86.667 6.66699 -130 26.334 -130 59.001c0 27.333 36 51.333 108 72c16 4.66699 58.667 15 128 31v178c-92 -20 -167.333 -31.333 -226 -34c-67.333 -2.66699 -144.666 9.16602 -231.999 35.499s-137.333 39.5 -150 39.5c-50.667 0 -97 -25.333 -139 -76
c-39.333 -48 -59 -98 -59 -150l2 -19c50 74 118 111 204 111c32.667 0 61.334 -8 86.001 -24c28 -18 42 -42.667 42 -74c0 -32 -15.667 -54.667 -47 -68l-111 -48c-78 -33.333 -143.333 -94.666 -196 -183.999c-50.667 -86 -76 -172.667 -76 -260
c0 -120 42.167 -220.167 126.5 -300.5s186.833 -120.5 307.5 -120.5c75.333 0 196 83.333 362 250c-51.333 -2.66699 -81.666 -4 -90.999 -4c-100.667 0 -193 28 -277 84c-94.667 62.667 -142 142 -142 238c0 102.667 55.333 194.334 166 275.001c20 14.667 39.667 22 59 22
c33.333 0 70.666 -30.333 111.999 -91l261 -386c6.66699 -10 41 -15.667 103 -17c64.667 -1.33301 107.334 0 128.001 4v-111h-107c-30.667 0 -54.334 6.33301 -71.001 19c-12.667 9.33301 -28 29.333 -46 60c-24.667 7.33301 -50.667 31.666 -78 72.999zM548.993 327.999
l51 -51l81 77l116 -117l-123 182l-6 1c-31.333 0 -71 -30.667 -119 -92zM738.993 256.999l-60 57l-60 -57l60 -59z" />
    <glyph glyph-name="uFB7C" unicode="&#x686;" horiz-adv-x="1405" arabic-form="initial" 
d="M261 536h430c-76.667 56.667 -145.667 85 -207 85c-70.667 0 -145 -28.333 -223 -85zM254 536c2.66699 46 9.00098 85.999 19.001 119.999c-29.333 -14.667 -59 -33 -89 -55c0 96.667 21.667 173.667 65 231c48.667 64.667 119.667 97 213 97
c48.667 0 107.334 -21 176.001 -63c61.333 -37.333 110.666 -78 147.999 -122c24 -13.333 63 -59.333 117 -138c61.333 -46.667 189.666 -70 384.999 -70l-30 -68l100 -2l-237 -536h-1146v110h1052l202 457c-206 0 -339.333 41 -400 123l-75 101
c-36 48.667 -83.667 88.834 -143 120.501s-118.333 47.5 -177 47.5c-104 0 -171.333 -72 -202 -216c56 38 112.667 57 170 57c128.667 0 252 -77.667 370 -233h-797v39h279zM645.001 -588.001l-127 119l-120 -119l124 -120zM486.001 -309.001l-126 119l-121 -119l125 -121z
M407.001 -528.001l-220 219l175 170l148 -144l149 144l243 -240l-175 -172l-147 146l-36 -35l220 -218l-176 -172l-242 242zM783.001 -309.001l-126 119l-122 -119l125 -121z" />
    <glyph glyph-name="uFB7D" unicode="&#x686;" horiz-adv-x="1126" arabic-form="medial" 
d="M1157 -70h-1186v110h1186v-110zM336 536h376c-62 34.667 -128.667 52 -200 52c-61.333 0 -120 -17.333 -176 -52zM329 536c-4 11.333 -6.00293 25.332 -6.00293 41.999c0 22.667 3 43 9 61c-20 -6 -43.667 -17.333 -71 -34c-5.33301 9.33301 -8 20.666 -8 33.999
c0 69.333 26 132.333 78 189s112.667 85 182 85c74 0 153.667 -37 239 -111c34.667 -30 97.334 -96.333 188.001 -199c18.667 -21.333 52.334 -38.666 101.001 -51.999c41.333 -11.333 80 -17 116 -17v-39c-99.333 0 -186.666 32.333 -261.999 97l-175 182
c-64 64.667 -134 97 -210 97c-54 0 -104.667 -21.667 -152 -65s-71 -91.666 -71 -144.999c58.667 28 116 42 172 42c64.667 0 133 -19.667 205 -59c77.333 -42 127 -91 149 -147h-842v39h358zM677.997 -542.001l-127 119l-120 -119l124 -120zM518.997 -263.001l-126 119
l-121 -119l125 -121zM439.997 -482.001l-220 219l175 170l148 -144l149 144l243 -240l-175 -172l-147 146l-36 -35l220 -218l-176 -172l-242 242zM815.997 -263.001l-126 119l-122 -119l125 -121z" />
    <glyph glyph-name="uFB8B" unicode="&#x698;" horiz-adv-x="1005" arabic-form="final" 
d="M1034 -72l-66.999 0.00195312c-37.333 -98 -96.333 -176.667 -177 -236c-82.667 -61.333 -175.667 -92 -279 -92c-86 0 -162 18.333 -228 55c-49.333 27.333 -110 76.666 -182 147.999c-54.667 54 -94.667 98.667 -120 134c42 -12.667 90 -19 144 -19
c113.333 0 220.333 18.333 321 55c120 44 206 106.667 258 188c10 15.333 15.667 25.666 17 30.999c0 9.33301 -27.667 42.666 -83 99.999c-48 50 -83.333 84.667 -106 104l135 281c46 -32.667 74.667 -54 86 -64c24.667 -21.333 48 -47.666 70 -78.999h211v-39h-234
c-18 33.333 -57 75 -117 125l-103 -215c28.667 -26 64 -61.333 106 -106c54 -57.333 81.333 -92.333 82 -105c-48 -98.667 -136 -177.667 -264 -237c-115.333 -53.333 -235.666 -80 -360.999 -80c-22 0 -43.333 1 -64 3c93.333 -114 217.666 -171 372.999 -171
c95.333 0 181.666 32.667 258.999 98c72 60 124.667 137 158 231h165v-110zM457.001 960.002l-126 121l-122 -121l127 -118zM753.001 960.002l-125 121l-122 -121l127 -118zM595.001 1240l-125 120l-122 -120l126 -120zM518.001 1022l-220 218l176 171l243 -242l-62 -60
l221 -221l-175 -169l-148 143l-149 -143l-244 241l176 172l146 -145z" />
    <glyph glyph-name="uFEDA" unicode="&#x6a9;" horiz-adv-x="1569" arabic-form="final" 
d="M1375 1281c24.667 0 45.334 -23.667 62.001 -71c28 0 50 -20.333 66 -61c12 -30.667 18 -62.667 18 -96c0 -62 -17 -107.667 -51 -137l-17 -5c-68 20 -106.667 30 -116 30c-21.333 0 -139.666 -36.333 -354.999 -109l496 -296h114v-39h-123l-678 401
c106 38.667 266.667 89.667 482 153c8 -1.33301 24 -6 48 -14c20 -6.66699 36.333 -10 49 -10c30 0 45 34 45 102c0 72.667 -18.667 109 -56 109c-4 0 -218.667 -70.333 -644 -211v-264l419 -266h-748c-52.667 0 -94 27 -124 81c-24.667 44 -37.334 94.667 -38.001 152
c-38 -26.667 -67.333 -70.334 -88 -131.001c-18 -52 -27 -105.333 -27 -160c0 -98 21 -185 63 -261c50.667 -92 121.334 -138 212.001 -138h1208v-110h-1138c-46.667 0 -87 10.667 -121 32c-42 26.667 -95.667 79.667 -161 159c-22.667 28 -40.334 57 -53.001 87
c-29.333 70 -44 144.667 -44 224c0 179.333 63 301 189 365c-2 -28 -3 -55.667 -3 -83l4 -34c21.333 20.667 44.666 36.334 69.999 47.001l-4 -54c-3.33301 -47.333 4.33398 -91.333 23.001 -132c7.33301 -3.33301 18 -5 32 -5h577l-218 138v26l-70 44v314
c453.333 148.667 686.666 223 699.999 223z" />
    <glyph glyph-name="uFEDB" unicode="&#x6a9;" horiz-adv-x="1137" arabic-form="initial" 
d="M1001 516l-3.99805 -16.0039c15.333 -7.33301 40 -24.666 74 -51.999c-20 -108 -54.333 -281.333 -103 -520h-989v110h888l92 466c-14.667 16.667 -72 53.667 -172 111l-500 287c107.333 36.667 269 86.334 485 149.001c9.33301 -1.33301 25.666 -6.66602 48.999 -15.999
c20.667 -8 37 -12 49 -12c31.333 0 47 38.667 47 116c0 65.333 -19.667 98 -59 98c-6 0 -221 -73 -645 -219v-253l211 -128c75.333 -45.333 142.666 -92 201.999 -140h-647v39h487l-221 137v26l-70 43v299l691 239c2 0.666992 4.33301 1 7 1c24.667 0 45.667 -23.333 63 -70
c27.333 -4 48.666 -21.667 63.999 -53c12.667 -25.333 19 -53.666 19 -84.999c0 -82 -17 -134.333 -51 -157l-17 -4c-13.333 0 -33 4.83301 -59 14.5s-45.667 14.5 -59 14.5c-35.333 0 -150.666 -36.667 -345.999 -110l256 -148c165.333 -95.333 251.333 -151 258 -167z" />
    <glyph glyph-name="uFEDC" unicode="&#x6a9;" horiz-adv-x="1069" arabic-form="medial" 
d="M1092 495l-105.001 2c-15.333 0 -111.666 60 -288.999 180l-399 269c168 57.333 325.667 107.333 473 150c8.66699 2.66699 42 -7.33301 100 -30c32.667 0 49 37.333 49 112c0 71.333 -18.333 107 -55 107c-20 0 -236.333 -75 -649 -225v-251l414 -312h-660v39h519
l-242 184v17l-70 53v298c436.667 158 667.334 237 692.001 237c27.333 0 50.333 -23 69 -69c29.333 0 51.666 -20 66.999 -60c11.333 -30 17 -62.333 17 -97c0 -86 -21.667 -133.333 -65 -142c-57.333 19.333 -96 29 -116 29c-24 0 -147.667 -38 -371 -114
c324 -223.333 496 -335.333 516 -336l105 -2v-39zM1092 -70h-1121v110h1121v-110z" />
    <glyph glyph-name="uFB93" unicode="&#x6af;" horiz-adv-x="1573" arabic-form="final" 
d="M1375 1281c24.667 0 45.334 -23.667 62.001 -71c28 0 50 -20.333 66 -61c12 -30.667 18 -62.667 18 -96c0 -62 -17 -107.667 -51 -137l-17 -5c-68 20 -106.667 30 -116 30c-21.333 0 -139.666 -36.333 -354.999 -109l496 -296h114v-39h-123l-678 401
c106 38.667 266.667 89.667 482 153c8 -1.33301 24 -6 48 -14c20 -6.66699 36.333 -10 49 -10c30 0 45 34 45 102c0 72.667 -18.667 109 -56 109c-4 0 -218.667 -70.333 -644 -211v-264l419 -266h-748c-52.667 0 -94 27 -124 81c-24.667 44 -37.334 94.667 -38.001 152
c-38 -26.667 -67.333 -70.334 -88 -131.001c-18 -52 -27 -105.333 -27 -160c0 -98 21 -185 63 -261c50.667 -92 121.334 -138 212.001 -138h1208v-110h-1138c-46.667 0 -87 10.667 -121 32c-42 26.667 -95.667 79.667 -161 159c-22.667 28 -40.334 57 -53.001 87
c-29.333 70 -44 144.667 -44 224c0 179.333 63 301 189 365c-2 -28 -3 -55.667 -3 -83l4 -34c21.333 20.667 44.666 36.334 69.999 47.001l-4 -54c-3.33301 -47.333 4.33398 -91.333 23.001 -132c7.33301 -3.33301 18 -5 32 -5h577l-218 138v26l-70 44v314
c453.333 148.667 686.666 223 699.999 223zM1301 1341l-599 -222l-15 114l598 219zM1272 1402l-3 24l-561 -206l4 -25z" />
    <glyph glyph-name="uFB94" unicode="&#x6af;" horiz-adv-x="1169" arabic-form="initial" 
d="M1001 516l-3.99805 -16.0039c15.333 -7.33301 40 -24.666 74 -51.999c-20 -108 -54.333 -281.333 -103 -520h-989v110h888l92 466c-14.667 16.667 -72 53.667 -172 111l-500 287c107.333 36.667 269 86.334 485 149.001c9.33301 -1.33301 25.666 -6.66602 48.999 -15.999
c20.667 -8 37 -12 49 -12c31.333 0 47 38.667 47 116c0 65.333 -19.667 98 -59 98c-6 0 -221 -73 -645 -219v-253l211 -128c75.333 -45.333 142.666 -92 201.999 -140h-647v39h487l-221 137v26l-70 43v299l691 239c2 0.666992 4.33301 1 7 1c24.667 0 45.667 -23.333 63 -70
c27.333 -4 48.666 -21.667 63.999 -53c12.667 -25.333 19 -53.666 19 -84.999c0 -82 -17 -134.333 -51 -157l-17 -4c-13.333 0 -33 4.83301 -59 14.5s-45.667 14.5 -59 14.5c-35.333 0 -150.666 -36.667 -345.999 -110l256 -148c165.333 -95.333 251.333 -151 258 -167z
M830.002 1340l-599 -222l-15 114l598 218zM801.002 1401l-3 23l-561 -205l4 -25z" />
    <glyph glyph-name="uFB95" unicode="&#x6af;" horiz-adv-x="1069" arabic-form="medial" 
d="M1092 495l-105.001 2c-15.333 0 -111.666 60 -288.999 180l-399 269c168 57.333 325.667 107.333 473 150c8.66699 2.66699 42 -7.33301 100 -30c32.667 0 49 37.333 49 112c0 71.333 -18.333 107 -55 107c-20 0 -236.333 -75 -649 -225v-251l414 -312h-660v39h519
l-242 184v17l-70 53v298c436.667 158 667.334 237 692.001 237c27.333 0 50.333 -23 69 -69c29.333 0 51.666 -20 66.999 -60c11.333 -30 17 -62.333 17 -97c0 -86 -21.667 -133.333 -65 -142c-57.333 19.333 -96 29 -116 29c-24 0 -147.667 -38 -371 -114
c324 -223.333 496 -335.333 516 -336l105 -2v-39zM1092 -70h-1121v110h1121v-110zM818.999 1391l-599 -222l-15 114l598 218zM789.999 1452l-3 23l-561 -205l4 -25z" />
    <glyph glyph-name="uFE94" unicode="&#x6c0;" horiz-adv-x="997" arabic-form="final" 
d="M459 938l-12 -53.999c32 2.66699 62 9.66699 90 21c-13.333 -60.667 -26.666 -115.334 -39.999 -164.001l-267 -68l15 90l-85 -21l27 164l32 5c-7.33301 16.667 -11 34 -11 52c0 36.667 14.167 68 42.5 94s61.166 39 98.499 39c30 0 58.333 -24.667 85 -74
c34 -20 59.333 -47.333 76 -82zM421 928.001l-42 -8.99902c-55.333 0 -83 16.333 -83 49c0 35.333 31.667 57.666 95 66.999c-28 17.333 -47.667 26 -59 26c-27.333 0 -49.333 -10 -66 -30s-25 -44 -25 -72c0 -22.667 14.333 -45.667 43 -69l-67 -15l-10 -82l194 50z
M596 499.002c0 -78.667 -34 -118 -102 -118c-22 0 -44.333 4.33301 -67 13c-28.667 11.333 -43 26.333 -43 45c0 34 16.667 66.5 50 97.5s67 46.5 101 46.5c40.667 0 61 -28 61 -84zM1037 -69.998c-129.333 0 -221.666 23.667 -276.999 71c-9.33301 12 -21 25.333 -35 40
c-46.667 48 -76.667 88 -90 120c-13.333 -11.333 -45.333 -40 -96 -86c-42 -38 -77.333 -59.333 -106 -64l-353 194l7 28l-76 41c32.667 152.667 202.667 304.667 510 456l17 71l139 52l2 -95l68 25l1 -118c0 -37.333 7.33301 -76 22 -116
c31.333 -10 86.666 -15 165.999 -15c30 0 63.667 0.666992 101 2v-39c-28.667 -0.666992 -69.667 -1 -123 -1c-122 0 -199.667 19.333 -233 58c-29.333 34 -44 115 -44 243l-65 -23l-15 -70c-107.333 -47.333 -204 -102.333 -290 -165
c-117.333 -85.333 -187 -167.333 -209 -246l312 -173c21.333 6 58 35 110 87c49.333 49.333 80.666 74 93.999 74c22.667 0 47 -12 73 -36c8.66699 -28 24.334 -68 47.001 -120c32.667 -56 147 -84.333 343 -85v-110z" />
    <glyph glyph-name="uFEF2" unicode="&#x6cc;" horiz-adv-x="1365" arabic-form="final" 
d="M1386 -70c-25.333 4.66699 -65.668 13.668 -121.001 27.001c-28.667 8 -61 24.333 -97 49l5 -52c0 -142 -82.333 -252.333 -247 -331c-129.333 -62 -272.666 -93 -429.999 -93c-167.333 0 -285 51.333 -353 154c-82 59.333 -123 142.333 -123 249
c0 164 89.667 362.667 269 596l32 -23c-26 -48.667 -49.333 -115.334 -70 -200.001c22.667 35.333 58.667 86.333 108 153l32 -23c-50 -98 -75 -184.667 -75 -260c0 -61.333 14.333 -113.666 43 -156.999c55.333 -37.333 115 -56 179 -56c101.333 0 173.333 19.333 216 58
c4.66699 4 7 8 7 12l-1 8c-52 37.333 -139 88 -261 152l15 26l-84 44l152 273h805v-39h-781l-121 -220l176 -98c91.333 -53.333 137 -101.666 137 -144.999c0 -36 -33.333 -64.667 -100 -86c-50 -16 -98.667 -24 -146 -24c-100 0 -181.667 26.333 -245 79
c-68.667 56 -103 133 -103 231v44c0 23.333 6.66699 54 20 92c-112 -175.333 -168 -319 -168 -431c0 -100.667 46.667 -178.667 140 -234c78 -46 170.667 -69 278 -69c132 0 257.333 30.667 376 92c144 74.667 216 172 216 292c0 33.333 -6.33301 66.666 -19 99.999l32 21
c72 -72.667 174.667 -106.334 308 -101.001z" />
    <glyph glyph-name="uFEF3" unicode="&#x6cc;" horiz-adv-x="701" arabic-form="initial" 
d="M640 -70l-667 -0.000976562v110h558v570c0 86.667 -20 157.334 -60 212.001c-38.667 -27.333 -77 -58 -115 -92c41.333 -47.333 62 -89.333 62 -126c0 -71.333 -62 -107 -186 -107h-259v39h259c94 0 141 24.333 141 73c0 38 -24.667 77.667 -74 119
c49.333 49.333 109.333 98.333 180 147c14 -10.667 31.667 -37.667 53 -81l17 11c60.667 -55.333 91 -151 91 -287v-588zM696 -356.001l-175 -169l-149 141l-149 -143l-243 240l176 172l146 -145l151 145zM573 -287.001l-125 121l-122 -121l127 -118zM277 -287.001l-126 121
l-122 -121l127 -118z" />
    <glyph glyph-name="uFEF4" unicode="&#x6cc;" horiz-adv-x="1102" arabic-form="medial" 
d="M1127 497h-375.001c-84 0 -144.667 43 -182 129c-60.667 -86 -124.667 -129 -192 -129h-405v39h401c38.667 0 79.667 21 123 63c15.333 14.667 46.333 51 93 109c6 -37.333 20 -72 42 -104l27 34c6 -38.667 15.333 -66 28 -82c26.667 -13.333 54.334 -20 83.001 -20h357
v-39zM1127 -70h-341c-48 0 -100 39.333 -156 118c-76 -78.667 -142 -118 -198 -118h-459v110h381c53.333 0 125.333 49.333 216 148c50 -98.667 101.667 -148 155 -148h402v-110zM972.999 -370l-175 -169l-149 141l-149 -143l-243 240l176 172l146 -145l151 145z
M849.999 -301l-125 121l-122 -121l127 -118zM553.999 -301l-126 121l-122 -121l127 -118z" />
    </font>
</defs>
</svg>
