<?xml version="1.0" standalone="no"?>
<!DOCTYPE svg PUBLIC "-//W3C//DTD SVG 1.1//EN" "http://www.w3.org/Graphics/SVG/1.1/DTD/svg11.dtd" >
<svg>
<metadata>
Created by FontForge 20090914 at Wed Oct 19 01:37:18 2011
 By www-data
(c) by Abolfazl Seilsepour - +98 912 591 3420  -  seilsepor@yahoo.com
</metadata>
<defs>
<font id="FarMoj" horiz-adv-x="0" >
  <font-face 
    font-family="Far.Moj"
    font-weight="400"
    font-stretch="normal"
    units-per-em="2048"
    panose-1="0 0 4 0 0 0 0 0 0 0"
    ascent="1638"
    descent="-410"
    bbox="-189 -954.001 1766 2325"
    underline-thickness="100"
    underline-position="-630"
    unicode-range="U+0020-U+FEFC"
  />
<missing-glyph horiz-adv-x="1024" 
d="M128 0v1437h768v-1437h-768zM256 128h512v1181h-512v-1181z" />
    <glyph glyph-name="uE818" unicode="&#x651;&#x64b;" 
d="M389 1770c2.66699 -42 -5.66699 -78.999 -25 -110.999c-16.667 -26.667 -39.667 -40 -69 -40l-28 2l-15 7l-15 10c-3.33301 -20.667 -14.5 -38.834 -33.5 -54.501s-38.833 -23.5 -59.5 -23.5c-18 0 -35.667 9 -53 27c-14 18.667 -21 42 -21 70c0 18.667 0.666992 30 2 34
l18 57l20 4c0 -66.667 12 -100 36 -100c34.667 0 61.667 48.667 81 146l16 5c12.667 -58.667 30 -88 52 -88c40 0 60 44 60 132l21 9l10 -47zM356.999 2203c0 -39.333 -10.333 -65 -31 -77l-273 -155c0 38 19.667 68.333 59 91zM356.999 2072c0 -40 -10.333 -66 -31 -78
l-273 -155c0 38 19.667 68.333 59 91z" />
    <glyph glyph-name="uFC5E" unicode="&#x651;&#x64c;" arabic-form="isolated" 
d="M370 1768c2.66699 -42 -5.66602 -78.999 -24.999 -110.999c-16.667 -26.667 -39.667 -40 -69 -40l-28 2l-15 7l-14 10c-4 -20.667 -15.5 -38.834 -34.5 -54.501s-38.833 -23.5 -59.5 -23.5c-18 0 -35.667 9 -53 27c-14 18.667 -21 42 -21 70c0 18.667 0.666992 30 2 34
l18 57l21 4c0 -66.667 11.667 -100 35 -100c34.667 0 61.667 48.667 81 146l16 5c13.333 -58.667 30.666 -88 51.999 -88c40.667 0 61 44 61 132l20 9l10 -47zM410 2006l-1.99902 -53.002l-40 22l-43 31c-38 -40 -74.333 -71.333 -109 -94
c-21.333 -13.333 -57 -25.666 -107 -36.999l19 42l13 34l5 20l2 21c0.666992 10 -4 20.667 -14 32s-20.333 17 -31 17c-24.667 0 -39.334 -22.667 -44.001 -68l-7 27l-2 19c0 24 7 46.5 21 67.5s32.333 31.5 55 31.5c42.667 0 62.667 -30 60 -90l-1 -25l-4 -57
c24 8.66699 42 17.667 54 27c14.667 10 34 28 58 54c-19.333 11.333 -35.333 25 -48 41c-8 17.333 -12 31.666 -12 43c0 29.333 11.333 58.833 34 88.5s48 44.5 76 44.5c14.667 0 28.5 -8.16699 41.5 -24.5s19.5 -32.166 19.5 -47.499c0 -19.333 -3.33301 -37.333 -10 -54
l-19 -49c24 -18 35.667 -39 35 -63zM341.001 2136c2 31.333 -10.332 47 -36.999 47c-8.66699 0 -16.334 -6.66699 -23.001 -20c0 -12.667 7.66699 -25.667 23 -39l34 -24l2 18z" />
    <glyph glyph-name="uFC5F" unicode="&#x651;&#x64d;" arabic-form="isolated" 
d="M380 2121c2.66699 -42 -5.66602 -79 -24.999 -111c-16.667 -26.667 -39.667 -40 -69 -40l-28 3l-15 6l-15 10c-3.33301 -20.667 -14.5 -38.834 -33.5 -54.501s-38.833 -23.5 -59.5 -23.5c-18 0 -35.667 9 -53 27c-14 18.667 -21 42.334 -21 71.001c0 18 0.666992 29 2 33
l18 58l20 3c0 -66.667 11.667 -100 35 -100c35.333 0 62.666 48.667 81.999 146l16 5c12.667 -58.667 30 -88 52 -88c40 0 60 44.333 60 133l21 9l10 -48zM380 2325c0 -39.333 -10.333 -65 -31 -77l-273 -155c0 23.333 3.33301 40 10 50c8 12.667 24.667 26.334 50 41z
M380 2193c0 -40 -10.333 -66 -31 -78l-273 -155c0 24 3.33301 40.667 10 50c8 13.333 24.667 27 50 41z" />
    <glyph glyph-name="uFC60" unicode="&#x651;&#x64e;" arabic-form="isolated" 
d="M389 1752c2.66699 -42 -5.66699 -78.999 -25 -110.999c-16.667 -26.667 -39.667 -40 -69 -40l-28 2l-15 7l-15 10c-3.33301 -20.667 -14.5 -38.834 -33.5 -54.501s-38.833 -23.5 -59.5 -23.5c-18 0 -35.667 9 -53 27c-14 18.667 -21 42 -21 70c0 18.667 0.666992 30 2 34
l18 57l20 4c0 -66.667 12 -100 36 -100c34.667 0 61.667 48.667 81 146l16 5c12.667 -58.667 30 -88 52 -88c40 0 60 44 60 132l21 9l10 -47zM381.999 2077c0 -39.333 -10.333 -65 -31 -77l-273 -155c0 38 19.667 68.333 59 91z" />
    <glyph glyph-name="uFC61" unicode="&#x651;&#x64f;" arabic-form="isolated" 
d="M380 1770c2.66699 -42 -5.66602 -78.999 -24.999 -110.999c-16.667 -26.667 -39.667 -40 -69 -40l-28 2l-15 7l-15 10c-3.33301 -20.667 -14.5 -38.834 -33.5 -54.501s-38.833 -23.5 -59.5 -23.5c-18 0 -35.667 9 -53 27c-14 18.667 -21 42 -21 70
c0 18.667 0.666992 30 2 34l18 57l20 4c0 -66.667 11.667 -100 35 -100c35.333 0 62.666 48.667 81.999 146l16 5c12.667 -58.667 30 -88 52 -88c40 0 60 44 60 132l21 9l10 -47zM378 2025l-6.99902 -90l-33 21l-39 26c-32.667 -39.333 -61.667 -69.666 -87 -90.999
c-30.667 -25.333 -60.667 -38 -90 -38c-10.667 0 -21.334 1.33301 -32.001 4l-21 6l25 13l68 44c12 7.33301 44.667 35.333 98 84c-19.333 15.333 -33.666 28.666 -42.999 39.999l-7 17l-3 9c0 6 -0.333008 11 -1 15c0 28 10.667 61.333 32 100c19.333 34 43.333 51 72 51
c43.333 0 63.666 -26.333 60.999 -79l-1 -22c0 -6.66699 -2 -16 -6 -28l-3 -11l-6 -18l-12 -26zM315.001 2104c0 36.667 -15.667 55 -47 55l-6 -2l-6 -4l-5 -12c0 -11.333 3.5 -21 10.5 -29s23.167 -21 48.5 -39c3.33301 12 5 22.333 5 31z" />
    <glyph glyph-name="uFC62" unicode="&#x651;&#x650;" arabic-form="isolated" 
d="M389 1959c2.66699 -42 -5.66699 -78.999 -25 -110.999c-16.667 -26.667 -39.667 -40 -69 -40l-28 2l-15 7l-15 10c-3.33301 -20.667 -14.5 -38.834 -33.5 -54.501s-38.833 -23.5 -59.5 -23.5c-18 0 -35.667 9 -53 27c-14 18.667 -21 42 -21 70c0 18.667 0.666992 30 2 34
l18 57l20 4c0 -66.667 12 -100 36 -100c34.667 0 61.667 48.667 81 146l16 5c12.667 -58.667 30 -88 52 -88c40 0 60 44 60 132l21 9l10 -47zM392.999 2178c0 -40 -10.667 -66.001 -32 -78.001l-272 -155c0 23.333 3 40 9 50c8 12.667 24.667 26.334 50 41.001z" />
    <glyph glyph-name="uFDF2" unicode="&#xfedf;&#xfee0;&#xfeea;" horiz-adv-x="1850" arabic-form="isolated" 
d="M515 372c-30.667 -19.333 -63.665 -29 -98.998 -29c-21.333 0 -40.333 5.33301 -57 16c-19.333 12.667 -29 29 -29 49c0 19.333 11 36 33 50c19.333 9.33301 40.666 14 63.999 14c25.333 0 51.666 -7.33301 78.999 -22zM1254 413
c-40.667 15.333 -61.002 41.3379 -61.002 78.0049c0 18.667 16 40.667 48 66s48 49.666 48 72.999c0 25.333 -20.667 48 -62 68c-19.333 10 -34.166 20.167 -44.499 30.5s-15.5 21.166 -15.5 32.499c0 35.333 16.333 62.333 49 81c0 19.333 -11 39 -33 59
c-18.667 18 -41.334 27 -68.001 27c-28 0 -52.667 -7.33301 -74 -22c-23.333 -16 -35 -37.333 -35 -64c-34 -20 -51 -44 -51 -72c0 -16.667 12.667 -32.334 38 -47.001c53.333 -32 80 -57.333 80 -76s-10.333 -36.334 -31 -53.001c-44.667 -35.333 -67 -61 -67 -77
c0 -30 19.667 -52 59 -66c0 -66.667 -39.333 -99.667 -118 -99l-113 1c-24.667 0 -42.334 2.66699 -53.001 8c-16 7.33301 -24 24 -24 50c-40 16 -60 37.667 -60 65c0 14 10.667 28.667 32 44c44 32.667 66 56.334 66 71.001s-6.33301 27.667 -19 39l-21 13l-17 8
c0 64.667 -39.667 97 -119 97c-34 0 -60 -15.333 -78 -46c-6 -14.667 -9.33301 -28.334 -10 -41.001l-4 -65c-20 13.333 -41 23 -63 29l-32 6l-37 2c-10 -44.667 -25.667 -67 -47 -67c-19.333 0 -39.666 13 -60.999 39c-19.333 10.667 -36.666 16 -51.999 16
c-28 0 -42 -16 -42 -48c0 -12.667 1.66699 -25.334 5 -38.001l-2 -4l-12 -13l16 -29c4 -12.667 6 -24.334 6 -35.001c0 -12 -9.66699 -21.333 -29 -28l-43 -4c-20 -2 -36.667 -7.33301 -50 -16c-15.333 -10.667 -23 -21.667 -23 -33s5 -23 15 -35l28 -26v-31
c41.333 -10.667 62 -28.667 62 -54c0 -10.667 -12.333 -27.834 -37 -51.501s-37 -44.167 -37 -61.5c0 -30.667 25.667 -46 77 -46c12.667 -16 27 -32.333 43 -49c6.66699 5.33301 16.334 11.333 29.001 18l14 6l17 2c10 0 19.333 -6.33301 28 -19
c6.66699 -11.333 10 -31.333 10 -60l34 -5h25c10 -10 19 -17.667 27 -23c13.333 -7.33301 25.333 -11 36 -11c12 0 22.333 8.33301 31 25c4 7.33301 8 22 12 44l16 11c-7.33301 17.333 -11 36.333 -11 57c0 21.333 8.33301 32 25 32h21c4.66699 0 11.334 -1.33301 20.001 -4
l23 -6l7 8c5.33301 -33.333 19 -62 41 -86c23.333 -26 51.333 -39 84 -39c16.667 -36 40.667 -54 72 -54c18.667 0 35.667 11.333 51 34c34 49.333 61 74 81 74c21.333 0 39.666 -11.333 54.999 -34c34 -49.333 59.667 -74 77 -74c16 0 31 5.66699 45 17
c9.33301 9.33301 18.333 21.666 27 36.999c85.333 0 133 16.667 143 50c13.333 -24 34 -38.333 62 -43l33 -5l46 -2c139.333 -5.33301 225 -1.66602 257 11.001c18 7.33301 35.667 18 53 32l-10 14l-10 16c-6 10.667 -9 22.667 -9 36c0 12.667 9 22.667 27 30l18 5l28 2v18
c33.333 22.667 50 47.667 50 75c0 15.333 -19.333 33.666 -58 54.999s-58 42 -58 62c0 18.667 16.667 40.334 50 65.001s50 47 50 67c0 18 -19.333 38.333 -58 61s-58 43.334 -58 62.001s16.5 40.167 49.5 64.5s49.5 46.5 49.5 66.5c0 18 -19.333 38.167 -58 60.5
s-58 41.5 -58 57.5c0 29.333 17.333 53.333 52 72c0 22.667 -10.833 43.167 -32.5 61.5s-44.167 27.5 -67.5 27.5c-24.667 0 -49.334 -7.33301 -74.001 -22c-26.667 -15.333 -39 -33.333 -37 -54l1 -11c-5.33301 -2 -13.666 -7.33301 -24.999 -16
c-18 -13.333 -27 -28 -27 -44c0 -14.667 19.333 -32 58 -52s58 -38.333 58 -55c0 -16 -16.667 -35.667 -50 -59s-50 -43.333 -50 -60c0 -16 19.167 -34 57.5 -54s57.5 -36.333 57.5 -49c0 -14.667 -6 -28 -18 -40l-15 -12l-17 -11c0 -45.333 -20 -74.666 -60 -87.999
c-19.333 -6.66699 -47.333 -10 -84 -10c-60 0 -90 20 -90 60zM981 1045l26 0.99707c17.333 0.666992 36.333 11.334 57 32.001c13.333 -22 34 -33 62 -33h40c24 0 38.667 1.33301 44 4c16.667 4.66699 25 13.667 25 27c0 -5.33301 1.66699 16 5 64
c2 30.667 0.666992 54.334 -4 71.001c-6 23.333 -18.333 36.333 -37 39c-6.66699 0 -15.667 -2 -27 -6c-5.33301 -3.33301 -9 -8.33301 -11 -15v-110c-1.33301 -3.33301 -5 -7.66602 -11 -12.999c-4.66699 -1.33301 -11 -2 -19 -2l-20 3c-5.33301 4 -8.33301 8 -9 12
c0 80 -4 122 -12 126l-19 5l-34 -6c-5.33301 -3.33301 -9 -8.33301 -11 -15v-110c-5.33301 -10 -15 -15 -29 -15l-21 3c-5.33301 4 -8.33301 8 -9 12c0 80 -4.33301 122 -13 126l-19 5l-18 -3l-14 -3c-5.33301 -3.33301 -9.33301 -8.33301 -12 -15
c0 -118.667 12.667 -180 38 -184h52z" />
    <glyph glyph-name="uFEF5" unicode="&#xfedf;&#xfe82;" horiz-adv-x="894" arabic-form="isolated" 
d="M76 1020c22 -7.33301 39.001 -28.332 51.001 -62.999c9.33301 -28 14 -59.333 14 -94s-14.167 -67.667 -42.5 -99s-42.5 -64.333 -42.5 -99c0 -39.333 5.16699 -72.833 15.5 -100.5s27.166 -46.834 50.499 -57.501c0 -34 10.833 -63.5 32.5 -88.5s49.5 -37.5 83.5 -37.5
c32 0 59.167 12.667 81.5 38s33.5 54.333 33.5 87c-22.667 7.33301 -40 28.666 -52 63.999c-10 27.333 -15 53.333 -15 78c0 29.333 3.5 53.333 10.5 72s18.5 33.334 34.5 44.001l-21 257c-2 20 -5.66699 35.833 -11 47.5s-16 25.167 -32 40.5
c-24.667 25.333 -53.667 38 -87 38c-69.333 0 -104 -42.333 -104 -127zM451.001 1141c20.667 -7.33301 36.9971 -24.6699 48.9971 -52.0029c9.33301 -22.667 14 -50.334 14 -83.001c0 -27.333 -15 -57 -45 -89s-45 -68.333 -45 -109s21.5 -78.667 64.5 -114
s64.5 -69 64.5 -101c0 -62.667 -15 -103.667 -45 -123l1 -20l2 -18c0 -31.333 -7 -62.666 -21 -93.999c-16.667 -38.667 -39 -58 -67 -58c-24 0 -41.333 4.66699 -52 14c-5.33301 4.66699 -13 16.667 -23 36l-6 5l-14 3l-62 -15c-23.333 -5.33301 -43.666 -8 -60.999 -8
c-34.667 0 -60 12 -76 36l20 -94l8 -30c-5.33301 -5.33301 -10.666 -14 -15.999 -26c-2.66699 -10.667 -4 -25 -4 -43c0 -20 9.66699 -40.167 29 -60.5s43 -30.5 71 -30.5l16 -19l18 -17c16.667 16 37.334 24 62.001 24c26 0 49 -9.33301 69 -28s30 -41 30 -67l26 -1h26
c18 -18.667 40 -28 66 -28c58.667 0 93.334 27.333 104.001 82l29 24c-14.667 18.667 -22 40 -22 64c0 25.333 9.66699 47.5 29 66.5s41.666 28.5 66.999 28.5l1 12c30 19.333 45 55 45 107c0 24.667 -21 51.667 -63 81s-63 60 -63 92c0 30.667 15.333 61.334 46 92.001
s46 62.334 46 95.001c0 31.333 -21 62.333 -63 93s-63 62.334 -63 95.001c0 32 15.333 62.5 46 91.5s46 55.167 46 78.5c0 55.333 -20.667 91.333 -62 108c0 33.333 -11.167 62.5 -33.5 87.5s-49.833 37.5 -82.5 37.5c-32 0 -58 -13.333 -78 -40
c-18.667 -24 -28 -52.333 -28 -85zM-24.002 1227c0 -12.667 4.16797 -21.667 12.501 -27s17.833 -8 28.5 -8h17c6 1.33301 14 2.66602 24 3.99902l38 6l26 2h34l28 -4l83 -3c21.333 -1.33301 46.666 3 75.999 13c36.667 12 55 26.667 55 44c0 26 -14.333 38 -43 36l-21 -2
l-34 -8l-34 -7l-29 -2l-28 1c-19.333 0 -36.333 1.33301 -51 4l-75 4c-26 0.666992 -51 -3.66602 -75 -12.999c-21.333 -8.66699 -32 -22 -32 -40z" />
    <glyph glyph-name="uFEF6" unicode="&#xfee0;&#xfe82;" horiz-adv-x="718" arabic-form="final" 
d="M76 1020c-14 -8.66699 -24.835 -23.667 -32.502 -45s-11.5 -53 -11.5 -95c0 -36.667 22.333 -75.5 67 -116.5s67 -80.167 67 -117.5c0 -76.667 -14.333 -123 -43 -139c0 -34 10.833 -63.5 32.5 -88.5s49.167 -37.5 82.5 -37.5c32 0 59.667 13 83 39
c21.333 24.667 32 53.334 32 86.001c13.333 8 25 24.667 35 50c6 22.667 9 45 9 67c0 78.667 -21.667 125.667 -65 141l-22 257c-1.33301 20 -4.66602 35 -9.99902 45c-6 13.333 -16.667 27.666 -32 42.999c-25.333 25.333 -54.666 38 -87.999 38
c-69.333 0 -104 -42.333 -104 -127zM451.998 1141c-30.667 -14 -45.998 -55.332 -45.998 -123.999c0 -31.333 21.333 -64.666 64 -99.999s64 -73.333 64 -114c0 -40 -15 -76.167 -45 -108.5s-45 -62.833 -45 -91.5c0 -71.333 21.333 -115.666 64 -132.999l1 -20l2 -18
c0 -32 -6.66699 -63.333 -20 -94c-17.333 -38.667 -39.666 -58 -66.999 -58c-24.667 0 -42.334 4.66699 -53.001 14c-4.66699 4.66699 -12 16.334 -22 35.001l-6 6l-15 2l-62 -14c-23.333 -5.33301 -43.333 -8 -60 -8c-34.667 0 -60.334 12 -77.001 36l20 -94l8 -30
c25.333 0 48.166 -10 68.499 -30s30.5 -43 30.5 -69c0 -23.333 -6.33301 -44 -19 -62l16 -19l18 -16c0 -24.667 10.167 -46.334 30.5 -65.001s42.833 -28 67.5 -28c23.333 0 44.666 7.33301 63.999 22l28 -2l24 1c0 23.333 11.333 43.666 34 60.999
c20.667 15.333 43.334 23 68.001 23c26.667 0 49 -10 67 -30l30 24c25.333 0 47.5 9.66699 66.5 29s28.5 41.666 28.5 66.999c0 22.667 -7 43.667 -21 63l1 12c-42.667 15.333 -64 51.333 -64 108c0 21.333 15.333 47 46 77s46 62 46 96c0 30.667 -21 61.5 -63 92.5
s-63 62.167 -63 93.5c0 30 15.167 60.333 45.5 91s45.5 62.667 45.5 96c0 31.333 -21 62.166 -63 92.499s-63 57.833 -63 82.5c0 52 15.667 86.667 47 104c0 33.333 -11 62.5 -33 87.5s-49.667 37.5 -83 37.5c-31.333 0 -57.333 -13.333 -78 -40
c-18 -24 -27 -52.333 -27 -85zM-24 1227c0 -12.667 4.16699 -21.668 12.5 -27.001s17.833 -8 28.5 -8h18c6 0.666992 13.667 2 23 4l39 6l25 2h34l28 -4l84 -3c20.667 -1.33301 46 3 76 13c36 12 54 26.333 54 43c0 26.667 -14.333 38.667 -43 36l-21 -1l-34 -9l-34 -6
l-29 -3l-28 1c-18.667 0.666992 -35.667 2.33398 -51 5.00098l-75 3c-25.333 1.33301 -50.333 -3 -75 -13c-21.333 -8.66699 -32 -21.667 -32 -39z" />
    <glyph glyph-name="uFEF7" unicode="&#xfedf;&#xfe84;" horiz-adv-x="893" arabic-form="isolated" 
d="M83 830c26 -8.66699 45.668 -38.6689 59.001 -90.002c10.667 -37.333 16 -74.333 16 -111c0 -34.667 -3.16699 -61.5 -9.5 -80.5s-15.5 -32.833 -27.5 -41.5c0 -34 10.833 -63.5 32.5 -88.5s49.167 -37.5 82.5 -37.5c32 0 59.667 13 83 39
c21.333 24.667 32 53.334 32 86.001c17.333 10.667 27.666 29 30.999 55l5 33l1 43c1.33301 26.667 -4 62.334 -16 107.001c-14 52 -33.667 83.333 -59 94c0 32.667 -14 62 -42 88s-58.667 39 -92 39c-46.667 0 -77 -28 -91 -84c-3.33301 -15.333 -5 -32.333 -5 -51z
M450.001 1141c20.667 -7.33301 36.6689 -24.6709 48.002 -52.0039c10 -22.667 15 -50.334 15 -83.001c0 -27.333 -15 -57 -45 -89s-45 -68.333 -45 -109s21.333 -78.667 64 -114s64 -69 64 -101c0 -62 -15 -103 -45 -123l1 -20l2 -18
c0 -31.333 -6.66699 -62.666 -20 -93.999c-17.333 -38.667 -39.666 -58 -66.999 -58c-24.667 0 -42.334 4.66699 -53.001 14c-4.66699 4.66699 -12 16.667 -22 36l-6 5l-15 3l-62 -15c-23.333 -5.33301 -43.333 -8 -60 -8c-34.667 0 -60.334 12 -77.001 36l20 -93l8 -31
c-5.33301 -5.33301 -10 -13.666 -14 -24.999s-6 -26 -6 -44c0 -20 9.66699 -40.167 29 -60.5s43 -30.5 71 -30.5l16 -19l18 -17c17.333 16 38.333 24 63 24c25.333 0 48.166 -9.33301 68.499 -28s30.5 -41 30.5 -67l26 -1h26c17.333 -18.667 39.333 -28 66 -28
c58.667 0 93 27.333 103 82l30 24c-15.333 18.667 -23 40 -23 64c0 25.333 9.66699 47.5 29 66.5s42 28.5 68 28.5l1 12c30 19.333 45 55 45 107c0 24.667 -21 51.667 -63 81s-63 60 -63 92c0 30.667 15.167 61.334 45.5 92.001s45.5 62.334 45.5 95.001
c0 31.333 -21 62.333 -63 93s-63 62.334 -63 95.001c0 32 15.333 62.5 46 91.5s46 55.167 46 78.5c0 55.333 -20.667 91.333 -62 108c0 33.333 -11 62.5 -33 87.5s-49.667 37.5 -83 37.5c-31.333 0 -57.333 -13.333 -78 -40c-18 -24 -27 -52.333 -27 -85zM218.003 1197.99
c8.66699 -1.33301 16.668 -5.33105 24.001 -11.998c8 4 15 8.66699 21 14c1.33301 2 3 6.33301 5 13l-1 14c-20 39.333 -46.667 59 -80 59c-26 0 -49 -7 -69 -21c-23.333 -16 -35 -36.333 -35 -61c0 -38.667 8.66699 -64.334 26 -77.001l-21 -5
c-7.33301 0 -13 3.66699 -17 11l-12 13l-11 4c-6 -2 -9.66699 -4.33301 -11 -7l-1 -16c-2.66699 -48 6.33301 -82 27 -102c18.667 -15.333 35.667 -23 51 -23c110.667 0 165.667 9 165 27l-1 90c0 8 -0.333008 13.333 -1 16l-10 12c-6 0 -14.333 -4.66699 -25 -14
s-21.334 -14 -32.001 -14c-9.33301 0 -20 3.33301 -32 10c-9.33301 8 -14 17.667 -14 29s6.33301 21.333 19 30c5.33301 3.33301 17 6.66602 35 9.99902z" />
    <glyph glyph-name="uFEF8" unicode="&#xfee0;&#xfe84;" horiz-adv-x="743" arabic-form="final" 
d="M83 830c26 -8.66699 45.668 -38.6689 59.001 -90.002c10.667 -37.333 16 -74.333 16 -111c0 -34.667 -3.16699 -61.5 -9.5 -80.5s-15.5 -32.833 -27.5 -41.5c0 -34 10.833 -63.5 32.5 -88.5s49.167 -37.5 82.5 -37.5c32 0 59.667 13 83 39
c21.333 24.667 32 53.334 32 86.001c17.333 10.667 27.666 29 30.999 55l5 33l1 43c1.33301 26.667 -4 62.334 -16 107.001c-14 52 -33.667 83.333 -59 94c0 32.667 -14 62 -42 88s-58.667 39 -92 39c-46.667 0 -77 -28 -91 -84c-3.33301 -15.333 -5 -32.333 -5 -51z
M450.001 1141c20.667 -7.33301 36.6689 -24.6709 48.002 -52.0039c10 -22.667 15 -50.334 15 -83.001c0 -27.333 -15 -57 -45 -89s-45 -68.333 -45 -109s21.333 -78.667 64 -114s64 -69 64 -101c0 -62 -15 -103 -45 -123l1 -20l2 -18
c0 -31.333 -6.66699 -62.666 -20 -93.999c-17.333 -38.667 -39.666 -58 -66.999 -58c-24.667 0 -42.334 4.66699 -53.001 14c-4.66699 4.66699 -12 16.667 -22 36l-6 5l-15 3l-62 -15c-23.333 -5.33301 -43.333 -8 -60 -8c-34.667 0 -60.334 12 -77.001 36l20 -93l8 -31
c-5.33301 -5.33301 -10 -13.666 -14 -24.999s-6 -26 -6 -44c0 -20 9.66699 -40.167 29 -60.5s43 -30.5 71 -30.5l16 -19l18 -17c17.333 16 38.333 24 63 24c25.333 0 48.166 -9.33301 68.499 -28s30.5 -41 30.5 -67l26 -1h26c17.333 -18.667 39.333 -28 66 -28
c58.667 0 93 27.333 103 82l30 24c-15.333 18.667 -23 40 -23 64c0 25.333 9.66699 47.5 29 66.5s42 28.5 68 28.5l1 12c30 19.333 45 55 45 107c0 24.667 -21 51.667 -63 81s-63 60 -63 92c0 30.667 15.167 61.334 45.5 92.001s45.5 62.334 45.5 95.001
c0 31.333 -21 62.333 -63 93s-63 62.334 -63 95.001c0 32 15.333 62.5 46 91.5s46 55.167 46 78.5c0 55.333 -20.667 91.333 -62 108c0 33.333 -11 62.5 -33 87.5s-49.667 37.5 -83 37.5c-31.333 0 -57.333 -13.333 -78 -40c-18 -24 -27 -52.333 -27 -85zM218.003 1197.99
c8.66699 -1.33301 16.666 -5.33105 23.999 -11.998c8 4 15 8.66699 21 14c1.33301 2 3 6.33301 5 13l-1 14c-20 39.333 -46.667 59 -80 59c-26 0 -49 -7 -69 -21c-23.333 -16 -35 -36.333 -35 -61c0 -38.667 8.66699 -64.334 26 -77.001l-21 -5
c-7.33301 0 -13 3.66699 -17 11l-12 13l-11 4c-6 -2 -9.66699 -4.33301 -11 -7l-1 -16c-2.66699 -48 6.33301 -82 27 -102c18.667 -15.333 35.667 -23 51 -23c110 0 165 9 165 27v48c0 28.667 -1.33301 45.667 -4 51c-1.33301 10.667 -4.66602 17 -9.99902 19
c-6 -0.666992 -14.333 -5.5 -25 -14.5s-21 -13.5 -31 -13.5c-8.66699 0 -19 3.33301 -31 10c-9.33301 8 -14 17.667 -14 29s6.33301 21.333 19 30c5.33301 3.33301 17 6.66602 35 9.99902z" />
    <glyph glyph-name="uFEF9" unicode="&#xfedf;&#xfe88;" horiz-adv-x="917" arabic-form="isolated" 
d="M355 -151c6.66699 -1.33301 15.332 -5.99902 25.999 -13.999c6.66699 2 12.167 5 16.5 9s6.83301 10.333 7.5 19l-1 10c-20 40.667 -52 61 -96 61c-22 0 -42.333 -7.66699 -61 -23s-28 -33.666 -28 -54.999c0 -28 9 -55.667 27 -83l-6 -3c-13.333 0 -24 3.66699 -32 11
c-10.667 9.33301 -17.667 14.666 -21 15.999c-3.33301 0 -7.66602 -2 -12.999 -6l-3 -18c0 -80.667 27.333 -121 82 -121c80 0 127.167 2.5 141.5 7.5s21.5 11.167 21.5 18.5v60c0 24 -1.16699 38.833 -3.5 44.5s-6.5 10.167 -12.5 13.5l-31 -21
c-7.33301 -4.66699 -15.666 -7 -24.999 -7c-29.333 0 -44 13.333 -44 40c0 11.333 6 21.333 18 30l15 7c3.33301 1.33301 10.666 2.66602 21.999 3.99902zM88.998 1141c21.333 -7.33301 37.333 -22.665 48 -45.998c4.66699 -9.33301 8.33398 -20.666 11.001 -33.999l4 -43
c2.66699 -28.667 -12.333 -57.334 -45 -86.001c-29.333 -26.667 -44 -61 -44 -103c0 -37.333 21.333 -72.5 64 -105.5s64 -63.5 64 -91.5c0 -58.667 -15 -97.334 -45 -116.001c0 -34.667 10.833 -64.5 32.5 -89.5s49.167 -37.5 82.5 -37.5c32 0 59.167 12.667 81.5 38
s33.5 54.333 33.5 87c29.333 20.667 44 59.667 44 117c0 29.333 -21.333 60.5 -64 93.5s-64 67.833 -64 104.5c0 37.333 15 71.666 45 102.999s45 59.666 45 84.999c0 66.667 -21 107.667 -63 123c0 33.333 -11 62.333 -33 87s-49.667 37 -83 37
c-32.667 0 -59.834 -12.167 -81.501 -36.5s-32.5 -53.166 -32.5 -86.499zM473.998 1149c20.667 -7.33301 36.998 -24.667 48.998 -52c9.33301 -22.667 14 -50.334 14 -83.001c0 -27.333 -15 -57 -45 -89s-45 -68.333 -45 -109c0 -41.333 21.5 -79.5 64.5 -114.5
s64.5 -68.5 64.5 -100.5c0 -62.667 -15 -103.667 -45 -123l1 -20l2 -18c0 -31.333 -7 -62.666 -21 -93.999c-16.667 -38.667 -39 -58 -67 -58c-24 0 -41.333 4.66699 -52 14c-4.66699 4.66699 -12 16.334 -22 35.001l-7 6l-14 2l-62 -14
c-23.333 -5.33301 -43.666 -8 -60.999 -8c-34 0 -59.333 12 -76 36l20 -94l8 -30c-5.33301 -5.33301 -10 -13.833 -14 -25.5s-6 -26.167 -6 -43.5c0 -20 9.66699 -40.333 29 -61s43 -31 71 -31l16 -19l18 -16c16.667 16 37.334 24 62.001 24c26 0 49 -9.33301 69 -28
s30 -41 30 -67l27 -1h26c17.333 -19.333 39 -29 65 -29c59.333 0 94 27.667 104 83l30 24c-15.333 18.667 -23 40 -23 64c0 25.333 9.66699 47.5 29 66.5s42 28.5 68 28.5v12c30 19.333 45 55 45 107c0 24 -21 50.667 -63 80s-63 60.333 -63 93
c0 30.667 15.333 61.167 46 91.5s46 62.166 46 95.499c0 31.333 -21 62.333 -63 93s-63 62 -63 94c0 32.667 15.333 63.5 46 92.5s46 55.167 46 78.5c0 55.333 -20.667 91.333 -62 108c0 33.333 -11.167 62.5 -33.5 87.5s-49.833 37.5 -82.5 37.5c-32 0 -58 -13.333 -78 -40
c-18.667 -24 -28 -52.333 -28 -85z" />
    <glyph glyph-name="uFEFA" unicode="&#xfee0;&#xfe88;" horiz-adv-x="715" arabic-form="final" 
d="M355 -151c6.66699 -1.33301 15.333 -6 26 -14c6.66699 2 12.167 5 16.5 9s6.83301 10.333 7.5 19l-1 10c-20 40.667 -52 61 -96 61c-22 0 -42.333 -7.66699 -61 -23s-28 -33.666 -28 -54.999c0 -28 9 -55.667 27 -83l-6 -3c-12 0 -22.667 3.66699 -32 11l-21 16
c-3.33301 0 -7.66602 -2 -12.999 -6l-3 -18c0 -80.667 27.333 -121 82 -121c80 0 127.167 2.5 141.5 7.5s21.5 11.167 21.5 18.5v60c0 24 -1.16699 38.833 -3.5 44.5s-6.5 10.167 -12.5 13.5l-26 -18c-9.33301 -6.66699 -19 -10 -29 -10c-30 0 -45 13.333 -45 40
c0 11.333 6 21.333 18 30l15 7c3.33301 1.33301 10.666 2.66602 21.999 3.99902zM88.999 1141c21.333 -7.33301 37.333 -22.665 48 -45.998c4.66699 -9.33301 8.33398 -20.666 11.001 -33.999l4 -43c2.66699 -28.667 -12.333 -57.334 -45 -86.001
c-29.333 -26.667 -44 -61 -44 -103c0 -37.333 21.333 -72.5 64 -105.5s64 -63.5 64 -91.5c0 -58.667 -15 -97.334 -45 -116.001c0 -34.667 10.833 -64.5 32.5 -89.5s49.167 -37.5 82.5 -37.5c32 0 59.167 12.667 81.5 38s33.5 54.333 33.5 87
c29.333 20.667 44 59.667 44 117c0 29.333 -21.333 60.5 -64 93.5s-64 67.833 -64 104.5c0 37.333 15 71.666 45 102.999s45 59.666 45 84.999c0 66.667 -21 107.667 -63 123c0 33.333 -11 62.333 -33 87s-49.667 37 -83 37c-32.667 0 -59.834 -12.167 -81.501 -36.5
s-32.5 -53.166 -32.5 -86.499zM473.999 1149c20.667 -7.33301 36.998 -24.667 48.998 -52c9.33301 -22.667 14 -50.334 14 -83.001c0 -27.333 -15 -57 -45 -89s-45 -68.333 -45 -109c0 -41.333 21.5 -79.5 64.5 -114.5s64.5 -68.5 64.5 -100.5
c0 -62.667 -15 -103.667 -45 -123l1 -20l2 -18c0 -31.333 -7 -62.666 -21 -93.999c-16.667 -38.667 -39 -58 -67 -58c-24 0 -41.333 4.66699 -52 14c-4.66699 4.66699 -12 16.334 -22 35.001l-7 6l-14 2l-62 -14c-23.333 -5.33301 -43.666 -8 -60.999 -8
c-34 0 -59.333 12 -76 36l20 -94l8 -30c-5.33301 -5.33301 -10 -13.833 -14 -25.5s-6 -26.167 -6 -43.5c0 -20 9.66699 -40.333 29 -61s43 -31 71 -31l16 -19l18 -16c16.667 16 37.334 24 62.001 24c26 0 49 -9.33301 69 -28s30 -41 30 -67l27 -1h26
c17.333 -19.333 39 -29 65 -29c59.333 0 94 27.667 104 83l30 24c-15.333 18.667 -23 40 -23 64c0 25.333 9.66699 47.5 29 66.5s42 28.5 68 28.5v12c30 19.333 45 55 45 107c0 24 -21 50.667 -63 80s-63 60.333 -63 93c0 30.667 15.333 61.167 46 91.5s46 62.166 46 95.499
c0 31.333 -21 62.333 -63 93s-63 62 -63 94c0 32.667 15.333 63.5 46 92.5s46 55.167 46 78.5c0 55.333 -20.667 91.333 -62 108c0 33.333 -11.167 62.5 -33.5 87.5s-49.833 37.5 -82.5 37.5c-32 0 -58 -13.333 -78 -40c-18.667 -24 -28 -52.333 -28 -85z" />
    <glyph glyph-name="uFEFB" unicode="&#xfedf;&#xfe8e;" horiz-adv-x="917" arabic-form="isolated" 
d="M89 1133c21.333 -7.33301 37.333 -22.6699 48 -46.0029c4.66699 -9.33301 8.33398 -20.666 11.001 -33.999l4 -42c2.66699 -29.333 -12.333 -58.333 -45 -87c-29.333 -26 -44 -60 -44 -102c0 -38 21.333 -73.333 64 -106s64 -63 64 -91c0 -58.667 -15 -97.667 -45 -117
c0 -34 10.833 -63.667 32.5 -89s49.167 -38 82.5 -38c32 0 59.167 12.833 81.5 38.5s33.5 54.834 33.5 87.501c29.333 20.667 44 59.667 44 117c0 29.333 -21.333 60.333 -64 93s-64 67.667 -64 105c0 36.667 15 70.834 45 102.501s45 60.167 45 85.5
c0 66.667 -21 107.667 -63 123c0 33.333 -11 62.333 -33 87s-49.667 37 -83 37c-32.667 0 -59.834 -12.333 -81.501 -37s-32.5 -53.667 -32.5 -87zM474 1142c20.667 -8 36.998 -25.6689 48.998 -53.002c9.33301 -22 14 -49.667 14 -83c0 -27.333 -15 -57 -45 -89
s-45 -68.333 -45 -109s21.5 -78.667 64.5 -114s64.5 -68.666 64.5 -99.999c0 -62.667 -15 -103.667 -45 -123l1 -20l2 -18c0 -32 -7 -63.333 -21 -94c-16.667 -38.667 -39 -58 -67 -58c-24 0 -41.333 4.66699 -52 14c-4.66699 4.66699 -12 16.334 -22 35.001l-7 5l-14 3
l-62 -14c-23.333 -5.33301 -43.666 -8 -60.999 -8c-34 0 -59.333 12 -76 36l20 -94l8 -31c-5.33301 -5.33301 -10 -13.666 -14 -24.999s-6 -25.666 -6 -42.999c0 -20.667 9.66699 -41.167 29 -61.5s43 -30.5 71 -30.5l16 -19l18 -16c16.667 15.333 37.334 23 62.001 23
c26 0 49 -9.33301 69 -28s30 -40.667 30 -66l27 -1h26c17.333 -19.333 39 -29 65 -29c59.333 0 94 27.667 104 83l30 23c-15.333 18.667 -23 40 -23 64c0 26 9.66699 48.5 29 67.5s42 28.5 68 28.5v12c30 19.333 45 55 45 107c0 24 -21 50.667 -63 80s-63 60.333 -63 93
c0 30.667 15.333 61.167 46 91.5s46 62.166 46 95.499c0 31.333 -21 62.333 -63 93s-63 62 -63 94c0 32.667 15.333 63.5 46 92.5s46 54.833 46 77.5c0 55.333 -20.667 91.666 -62 108.999c0 33.333 -11.167 62.5 -33.5 87.5s-49.833 37.5 -82.5 37.5
c-32 0 -57.667 -12.833 -77 -38.5s-29 -54.5 -29 -86.5z" />
    <glyph glyph-name="uFEFC" unicode="&#xfee0;&#xfe8e;" horiz-adv-x="751" arabic-form="final" 
d="M89 1133c21.333 -7.33301 37.333 -22.6699 48 -46.0029c4.66699 -9.33301 8.33398 -20.666 11.001 -33.999l4 -42c2.66699 -29.333 -12.333 -58.333 -45 -87c-29.333 -26 -44 -60 -44 -102c0 -38 21.333 -73.333 64 -106s64 -63 64 -91c0 -58.667 -15 -97.667 -45 -117
c0 -34 10.833 -63.667 32.5 -89s49.167 -38 82.5 -38c32 0 59.167 12.833 81.5 38.5s33.5 54.834 33.5 87.501c29.333 20.667 44 59.667 44 117c0 29.333 -21.333 60.333 -64 93s-64 67.667 -64 105c0 36.667 15 70.834 45 102.501s45 60.167 45 85.5
c0 66.667 -21 107.667 -63 123c0 33.333 -11 62.333 -33 87s-49.667 37 -83 37c-32.667 0 -59.834 -12.333 -81.501 -37s-32.5 -53.667 -32.5 -87zM474 1142c20.667 -8 36.998 -25.6689 48.998 -53.002c9.33301 -22 14 -49.667 14 -83c0 -27.333 -15 -57 -45 -89
s-45 -68.333 -45 -109s21.5 -78.667 64.5 -114s64.5 -68.666 64.5 -99.999c0 -62.667 -15 -103.667 -45 -123l1 -20l2 -18c0 -32 -7 -63.333 -21 -94c-16.667 -38.667 -39 -58 -67 -58c-24 0 -41.333 4.66699 -52 14c-4.66699 4.66699 -12 16.334 -22 35.001l-7 5l-14 3
l-62 -14c-23.333 -5.33301 -43.666 -8 -60.999 -8c-34 0 -59.333 12 -76 36l20 -94l8 -31c-5.33301 -5.33301 -10 -13.666 -14 -24.999s-6 -25.666 -6 -42.999c0 -20.667 9.66699 -41.167 29 -61.5s43 -30.5 71 -30.5l16 -19l18 -16c16.667 15.333 37.334 23 62.001 23
c26 0 49 -9.33301 69 -28s30 -40.667 30 -66l27 -1h26c17.333 -19.333 39 -29 65 -29c59.333 0 94 27.667 104 83l30 23c-15.333 18.667 -23 40 -23 64c0 26 9.66699 48.5 29 67.5s42 28.5 68 28.5v12c30 19.333 45 55 45 107c0 24 -21 50.667 -63 80s-63 60.333 -63 93
c0 30.667 15.333 61.167 46 91.5s46 62.166 46 95.499c0 31.333 -21 62.333 -63 93s-63 62 -63 94c0 32.667 15.333 63.5 46 92.5s46 54.833 46 77.5c0 55.333 -20.667 91.666 -62 108.999c0 33.333 -11.167 62.5 -33.5 87.5s-49.833 37.5 -82.5 37.5
c-32 0 -57.667 -12.833 -77 -38.5s-29 -54.5 -29 -86.5z" />
    <glyph glyph-name="u0652_u064E.liga" unicode="&#x652;&#x64e;" 
d="M202 1014c-27.333 11.333 -44.667 20.667 -52 28c-10 11.333 -15 29.333 -15 54v217c46.667 -19.333 69.667 -39 69 -59z" />
    <glyph glyph-name="u0652_u064B.liga" unicode="&#x652;&#x64b;" 
d="M466 1106c-64.667 0 -97 -28.666 -97 -85.999c0 -26 9.33301 -47 28 -63s41.334 -24 68.001 -24c26 0 48.667 8.16699 68 24.5s29 37.166 29 62.499c0 26 -9.33301 46.833 -28 62.5s-41.334 23.5 -68.001 23.5zM235 1116c-63.333 0 -95 -28.333 -95 -85
c0 -59.333 31.333 -89 94 -89c26.667 0 49.334 8.16699 68.001 24.5s28 37.833 28 64.5c0 24 -9 45 -27 63c-18.667 14.667 -41.334 22 -68.001 22z" />
    <glyph glyph-name="u0652_u064D.liga" unicode="&#x652;&#x64d;" 
d="M636 -438c-64.667 0 -97 -28.667 -97 -86c0 -26 9.33301 -47 28 -63s41.334 -24 68.001 -24c26 0 48.667 8 68 24s29 37 29 63s-9.33301 46.833 -28 62.5s-41.334 23.5 -68.001 23.5zM405 -428c-63.333 0 -94.998 -28.667 -94.998 -86c0 -58.667 31.333 -88 94 -88
c27.333 0 50.166 8.16699 68.499 24.5s27.5 37.5 27.5 63.5c0 24.667 -9 45.667 -27 63c-18.667 15.333 -41.334 23 -68.001 23z" />
    <glyph glyph-name="u0622" unicode="&#x622;" horiz-adv-x="565" arabic-form="isolated" 
d="M105 1426c-34.667 2.66699 -67.001 -1.66602 -97.001 -12.999c-22.667 -8.66699 -34 -20.334 -34 -35.001c0 -26 14.667 -39 44 -39l51 6l51 6h22c14.667 -0.666992 26.334 -2 35.001 -4l84 -4h28c11.333 2 32.333 8 63 18c30.667 13.333 46 26.333 46 39
c0 23.333 -15 35 -45 35c-5.33301 0 -24.333 -3 -57 -9l-34 -6l-27 -3l-50 3zM216.999 1270c-26.667 0 -49.499 -9.84082 -68.499 -29.5078s-28.5 -43.167 -28.5 -70.5c-34 -16 -51 -39 -51 -69c0 -13.333 19 -31.166 57 -53.499s57 -42.833 57 -61.5
c0 -17.333 -16.833 -38.166 -50.5 -62.499s-50.5 -45.833 -50.5 -64.5c0 -17.333 19 -36.666 57 -57.999s57 -42.333 57 -63s-17.167 -42 -51.5 -64s-51.5 -43.333 -51.5 -64c0 -17.333 19.167 -36.666 57.5 -57.999s57.5 -42 57.5 -62c0 -18 -17 -39 -51 -63
s-51 -45.667 -51 -65c0 -18 19 -37.5 57 -58.5s57 -41.5 57 -61.5c0 -17.333 -16.833 -38.166 -50.5 -62.499s-50.5 -44.166 -50.5 -59.499c0 -16 6 -30.333 18 -43c7.33301 -7.33301 20.333 -15 39 -23l1 -5c0 -26 12.667 -47.333 38 -64c23.333 -14.667 49.333 -22 78 -22
c30 0 55.333 10 76 30s31 45 31 75l-1 4l-22 10l-17 13c-13.333 10.667 -20 25 -20 43c0 14.667 17 33.834 51 57.501s51 44.5 51 62.5c0 18.667 -19.333 38.667 -58 60s-58 41.333 -58 60c0 19.333 16.833 40.666 50.5 63.999s50.5 43.666 50.5 60.999
c0 20.667 -12.333 37.667 -37 51c-53.333 30 -80 54.333 -80 73c0 18 16.833 38.667 50.5 62s50.5 44.333 50.5 63s-19.167 38.334 -57.5 59.001s-57.5 40.667 -57.5 60c0 18.667 16.833 39.834 50.5 63.501s50.5 44.167 50.5 61.5c0 20 -12.333 37 -37 51
c-52.667 29.333 -79 52 -79 68c0 26.667 17 48.334 51 65.001c0 28 -12.667 50.333 -38 67c-22.667 15.333 -48.334 23 -77.001 23z" />
    <glyph glyph-name="u0623" unicode="&#x623;" horiz-adv-x="587" arabic-form="isolated" 
d="M238 962c-24.667 0 -46.5 -9.50098 -65.5 -28.501s-28.5 -41.167 -28.5 -66.5l18 -11c25.333 -15.333 38 -32.666 38 -51.999c0 -14 -16.833 -32.5 -50.5 -55.5s-50.5 -43.167 -50.5 -60.5c0 -15.333 19.333 -33.333 58 -54s58 -39 58 -55
c0 -16.667 -16.833 -36.667 -50.5 -60s-50.5 -43.333 -50.5 -60c0 -14.667 19 -32.334 57 -53.001s57 -40 57 -58c0 -16.667 -16.833 -36.5 -50.5 -59.5s-50.5 -42.833 -50.5 -59.5c0 -16 19.333 -34.167 58 -54.5s58 -39.166 58 -56.499
c0 -16.667 -16.833 -36.5 -50.5 -59.5s-50.5 -41.167 -50.5 -54.5c0 -14.667 6.66699 -28 20 -40c6 -4.66699 18.333 -11.334 37 -20.001c11.333 -60.667 50.333 -91 117 -91c29.333 0 54.5 10.333 75.5 31s31.5 45.667 31.5 75l-17 8c-28.667 13.333 -43 31.333 -43 54
c0 12.667 16.667 30.667 50 54s50 43.333 50 60c0 16 -19.5 34.167 -58.5 54.5s-58.5 38.5 -58.5 54.5c0 15.333 16.667 34.833 50 58.5s50 43.834 50 60.501c0 15.333 -19.333 33.166 -58 53.499s-58 38.5 -58 54.5s16.667 36 50 60s50 44 50 60s-19.5 34 -58.5 54
s-58.5 38.667 -58.5 56c0 15.333 16.667 34.833 50 58.5s50 41.834 50 54.501c0 25.333 -19.333 45.333 -58 60c0 26 -13.333 47.667 -40 65c-24 15.333 -49.667 23 -77 23zM309 1195l10.002 -4.00098l16 -11c16.667 6 25 18.333 25 37c0 18 -12.333 34 -37 48
c-21.333 11.333 -42 17 -62 17c-24.667 0 -45 -8.66699 -61 -26s-24 -38.666 -24 -63.999c0 -24 8 -47.667 24 -71l-6 -4c-18 0 -28.667 4 -32 12l-12 11c-4 3.33301 -8 5 -12 5l-9 -8c0 -4 -0.666992 -7 -2 -9l-1 -7c0 -80.667 27 -121 81 -121h94
c23.333 0 37.666 1 42.999 3c18 3.33301 27 10 27 20v72c0 7.33301 -0.333008 13.333 -1 18l-2 19c-2 4.66699 -6 8.66699 -12 12l-30 -22c-4.66699 -4 -12.334 -6 -23.001 -6c-32 0 -48 12.333 -48 37c0 28 18 42 54 42z" />
    <glyph glyph-name="u0624" unicode="&#x624;" horiz-adv-x="742" arabic-form="isolated" 
d="M309 -271c0 -30 16.165 -64.333 48.498 -103s63.166 -58 92.499 -58c22.667 0 43 4 61 12s32.333 16 43 24c38.667 27.333 69.667 69.666 93 126.999c7.33301 18.667 14.333 42.334 21 71.001c4.66699 19.333 9.66699 49.666 15 90.999l5 72l3 86l1 238
c-52.667 8.66699 -79 44.334 -79 107.001c0 27.333 11.333 49.666 34 66.999l-10 22l-8 18c6.66699 14 10 32.667 10 56c0 22 -11.667 44 -35 66c-17.333 16.667 -37.666 25 -60.999 25l-19 -1l-12 10l-11 10c-19.333 -16 -41.333 -24 -66 -24
c-26 0 -48.833 8.66699 -68.5 26s-29.5 39 -29.5 65l-27 -1c-7.33301 0 -15 -0.666992 -23 -2c-16.667 13.333 -37 20 -61 20c-25.333 0 -47.666 -10.333 -66.999 -31s-29 -43.667 -29 -69c-11.333 -9.33301 -22.333 -20.666 -33 -33.999c-12 -15.333 -21 -29.333 -27 -42
c18.667 -17.333 28 -39 28 -65c0 -25.333 -8 -48 -24 -68s-36.333 -32 -61 -36l-2 -26l-1 -28l1 -30l2 -26c-18 -17.333 -27 -39 -27 -65c0 -60.667 29.333 -95 88 -103c4 -8.66699 12.667 -20.334 26 -35.001l31 -34c18.667 12.667 41.667 19 69 19c22 0 42.5 -11 61.5 -33
s28.5 -44.333 28.5 -67c8.66699 0 15 -0.333008 19 -1l22 -1c8 -0.666992 24 7.33301 48 24l51 34c8.66699 0 15 -7.66699 19 -23l3 -23l1 -42c0.666992 -31.333 -23.166 -72.666 -71.499 -123.999s-72.5 -83 -72.5 -95zM464.998 243c0 -14 -6.5 -27 -19.5 -39
s-19.833 -20 -20.5 -24c-10.667 27.333 -26.334 44 -47.001 50l-75 6c-19.333 2 -37 14.667 -53 38c-13.333 24.667 -20 49 -20 73c0 56 27.333 84 82 84c34.667 0 69.334 -23 104.001 -69c32.667 -43.333 49 -83 49 -119zM239.998 1086
c0 15.333 9.66992 28.998 29.0029 40.998c17.333 11.333 34 17 50 17l18 -8l18 -11c20.667 8.66699 31 27 31 55c0 24.667 -16.333 46.334 -49 65.001c-29.333 16 -57.333 24 -84 24c-30.667 0 -59.667 -12.667 -87 -38s-41 -53 -41 -83c0 -41.333 13 -77.666 39 -108.999
l-11 -4l-11 -3l-12 3l-10 3l-40 37c-6.66699 0 -12.667 -3.66699 -18 -11l-4 -25c0 -116 38.667 -174 116 -174c89.333 0 130.666 -0.333008 123.999 -1c69.333 4 104 17.667 104 41c0 74.667 -1.66699 122.667 -5 144c-2.66699 15.333 -7.33398 23.333 -14.001 24
c-6.66699 -2 -15.334 -8.33301 -26.001 -19c-14.667 -16 -30.667 -24 -48 -24c-46 0 -69 18.667 -69 56z" />
    <glyph glyph-name="u0625" unicode="&#x625;" horiz-adv-x="610" arabic-form="isolated" 
d="M381 -151c7.33301 -2 15.999 -6.66602 25.999 -13.999c6.66699 1.33301 12.334 4.16602 17.001 8.49902s7 10.833 7 19.5v9c-20 41.333 -52.333 62 -97 62c-22 0 -42.167 -7.66699 -60.5 -23s-27.5 -34 -27.5 -56c0 -27.333 8.66699 -55 26 -83l-6 -2h-8l-15 2
c-4 2 -7.66699 5 -11 9l-9 11l-10 5l-14 -10l-2 -15c0 -80 27.333 -120 82 -120c80.667 0 128 2.33301 142 7s21 11 21 19v59c0 22.667 -1 37.167 -3 43.5s-6.33301 11.5 -13 15.5l-31 -22c-6 -2.66699 -14.333 -4.66699 -25 -6c-29.333 0 -44 13.333 -44 40
c0 11.333 6 21 18 29l15 7c4 2 11.333 3.66699 22 5zM254.999 1283c-26 0 -48.333 -10.167 -67 -30.5s-28 -43.5 -28 -69.5c38 -14.667 57 -37.334 57 -68.001c0 -14 -17 -32.667 -51 -56s-51 -44.666 -51 -63.999c0 -17.333 19.167 -37.166 57.5 -59.499
s57.5 -42.833 57.5 -61.5c0 -16.667 -17 -37.167 -51 -61.5s-51 -46.166 -51 -65.499c0 -16.667 18.833 -36.334 56.5 -59.001s56.5 -43.667 56.5 -63c0 -16.667 -16.833 -37.167 -50.5 -61.5s-50.5 -46.166 -50.5 -65.499c0 -18 19 -37.5 57 -58.5s57 -41.167 57 -60.5
c0 -17.333 -17 -38.166 -51 -62.499s-51 -46.166 -51 -65.499c0 -18.667 19.167 -38.5 57.5 -59.5s57.5 -39.833 57.5 -56.5c0 -28.667 -17 -51.667 -51 -69l1 -4c0 -26.667 12.667 -48 38 -64c23.333 -15.333 49 -23 77 -23s55 12.667 81 38c18.667 18 28 36 28 54l-2 17
c33.333 18 50 40.667 50 68c0 16.667 -12.333 32 -37 46c-52.667 29.333 -79 53.333 -79 72c0 16.667 16.833 36.667 50.5 60s50.5 44.333 50.5 63c0 19.333 -19.167 39.166 -57.5 59.499s-57.5 40.5 -57.5 60.5s16.667 41.833 50 65.5s50 44.167 50 61.5
c0 20 -12.333 36.667 -37 50c-52.667 29.333 -79 53.666 -79 72.999c0 16 16.833 36 50.5 60s50.5 45 50.5 63c0 19.333 -12.333 36 -37 50c-52.667 29.333 -79 53.666 -79 72.999c0 17.333 17 37.666 51 60.999s51 42.333 51 57c0 27.333 -19.333 49.333 -58 66
c0 28 -13.333 50.333 -40 67c-23.333 15.333 -49 23 -77 23z" />
    <glyph glyph-name="u0626" unicode="&#x626;" horiz-adv-x="1170" arabic-form="isolated" 
d="M761 508c0 11.333 4.33301 24.332 13 38.999c44.667 37.333 104 64.333 178 81c4.66699 0 13.334 -1.33301 26.001 -4l26 -7c21.333 -4.66699 35.333 -10.667 42 -18l9 -1c16.667 0 31.334 17.667 44.001 53c10.667 28.667 16 54.334 16 77.001c0 24 -13.667 45 -41 63
c-25.333 16 -50.666 24 -75.999 24c-28 0 -50 -1 -66 -3c-8.66699 -53.333 -44.334 -80 -107.001 -80c-26.667 0 -48.667 10.333 -66 31l-78 -40l-20 -15c-12 3.33301 -25.667 5 -41 5c-18.667 0 -37.5 -10.667 -56.5 -32s-28.5 -41.333 -28.5 -60
c0 -17.333 2.66699 -33 8 -47l-15 -39l-4 -28l-2 -40c-1.33301 -29.333 32.667 -64.333 102 -105c42 -24 98.333 -46.333 169 -67c20.667 -6 31 -23 31 -51c0 -20.667 -30.667 -37 -92 -49c-27.333 -5.33301 -74 -8 -140 -8c-63.333 0 -118 6.66699 -164 20
c-70 21.333 -105 57 -105 107c-20.667 8 -36 23 -46 45l-11 32l-3 34c0 50.667 16.667 85 50 103c0 76.667 -48 115 -144 115c-50.667 0 -76 -36.333 -76 -109c-18 -8.66699 -30.667 -27.667 -38 -57c-7.33301 -26 -10.333 -51 -9 -75l3 -44c0.666992 -8 4 -22.333 10 -43
c11.333 -38 28 -62 50 -72l1 -26l5 -28l10 1c24.667 0 47 -9.66699 67 -29s30 -41.333 30 -66c0 -22 -5 -41 -15 -57l15 -13l29 -22c0 -26 10 -48.667 30 -68s43 -29 69 -29c20 0 43.667 10.667 71 32s50.333 32 69 32c50.667 0 84 -22.333 100 -67l3 -1l8 1
c18 -30 47.333 -45 88 -45c35.333 0 66.166 25.667 92.499 77s55.166 77 86.499 77c35.333 0 61.666 -8.33301 78.999 -25l23 14l22 17l14 -1c35.333 -2 65 18.333 89 61c4.66699 10.667 7 21.667 7 33c0 23.333 -4.33301 41.333 -13 54l3 25l2 89
c0.666992 49.333 -28.333 94 -87 134c-27.333 18.667 -80.666 33.667 -159.999 45c-57.333 8 -86 24.667 -86 50zM453 1152l4 -2l13 -5l19 -10c22 5.33301 33 23.333 33 54c0 22.667 -17.667 43.667 -53 63c-30.667 16.667 -58.334 25 -83.001 25
c-34.667 0 -64.5 -13.333 -89.5 -40s-37.5 -57.667 -37.5 -93s13.667 -67.333 41 -96c-10 -4.66699 -20.333 -7 -31 -7c-12 0 -21 5.33301 -27 16s-11.333 17.334 -16 20.001l-15 6c-6 0 -11 -4 -15 -12l-4 -23c0 -72.667 13.333 -119.667 40 -141s52.334 -32 77.001 -32
c100 0 141.333 -0.666992 124 -2c70 4 105 17.667 105 41v94c0 25.333 -1.33301 40.666 -4 45.999c-3.33301 11.333 -9 20.333 -17 27l-41 -32c-8 -6.66699 -20.333 -10 -37 -10c-16 0 -30.667 5.33301 -44 16s-20 24 -20 40c0 16.667 9 30.667 27 42c16 10 33 15 51 15z
" />
    <glyph glyph-name="u0627" unicode="&#x627;" horiz-adv-x="612" arabic-form="isolated" 
d="M261 1275c-26 0 -48.166 -10.1699 -66.499 -30.5029s-27.5 -43.5 -27.5 -69.5c-34.667 -16.667 -52 -40 -52 -70c0 -13.333 19.167 -31.166 57.5 -53.499s57.5 -42.833 57.5 -61.5c0 -16.667 -17 -37.334 -51 -62.001s-51 -46.334 -51 -65.001
c0 -17.333 19 -36.666 57 -57.999s57 -42.333 57 -63s-17 -42 -51 -64s-51 -43.333 -51 -64c0 -17.333 19 -36.666 57 -57.999s57 -42 57 -62c0 -17.333 -17 -38.166 -51 -62.499s-51 -46.166 -51 -65.499c0 -18 19.167 -37.5 57.5 -58.5s57.5 -41.5 57.5 -61.5
c0 -17.333 -17 -38.166 -51 -62.499s-51 -44.166 -51 -59.499c0 -16 6.33301 -30.333 19 -43c7.33301 -7.33301 20.333 -15 39 -23v-5c0 -26 12.667 -47.333 38 -64c23.333 -14.667 49.666 -22 78.999 -22c30 0 55.167 10 75.5 30s30.5 45 30.5 75l-1 4l-22 10l-17 13
c-13.333 10.667 -20 25.334 -20 44.001c0 14 17 32.833 51 56.5s51 44.5 51 62.5c0 18.667 -19.333 38.667 -58 60s-58 41.333 -58 60c0 19.333 16.833 40.666 50.5 63.999s50.5 43.666 50.5 60.999c0 20.667 -12.333 38 -37 52c-52.667 29.333 -79 53.666 -79 72.999
c0 17.333 16.833 37.666 50.5 60.999s50.5 44.333 50.5 63s-19.333 38.334 -58 59.001s-58 41 -58 61c0 18.667 16.833 39.667 50.5 63s50.5 43.666 50.5 60.999c0 20.667 -12.333 37.667 -37 51c-52.667 29.333 -79 52 -79 68c0 26.667 17 48.334 51 65.001
c0 28 -13 50.667 -39 68c-22.667 15.333 -48.667 23 -78 23z" />
    <glyph glyph-name="u0628" unicode="&#x628;" horiz-adv-x="1403" arabic-form="isolated" 
d="M691 -109c-64 0 -96 -28.668 -96 -86.001c0 -25.333 9.5 -46.166 28.5 -62.499s41.5 -24.5 67.5 -24.5c63.333 0 95 28.667 95 86c0 26 -9.16699 47 -27.5 63s-40.833 24 -67.5 24zM103 384.999c4.66699 -13.333 6.99902 -28.334 6.99902 -45.001
c0 -49.333 -10.667 -74.666 -32 -75.999l-21 3l-23 3c-20.667 0 -31 -26 -31 -78c0 -47.333 13 -71 39 -71l15 3v-4l-15 -28l-3 -13l-1 -20c-0.666992 -12.667 9.33301 -22 30 -28l24 -2l29 3c24 -14.667 44.333 -25.334 61 -32.001c21.333 -8 44 -12 68 -12
c16 36 38.333 54 67 54c13.333 0 31.333 -18 54 -54s43.667 -54 63 -54c16.667 0 36.334 18 59.001 54s43.667 54 63 54c17.333 0 37.333 -18 60 -54s43.667 -54 63 -54c16.667 0 36.334 18 59.001 54s43.667 54 63 54c17.333 0 37.333 -18 60 -54s43.667 -54 63 -54
c17.333 0 37.166 18 59.499 54s41.166 54 56.499 54c28 0 50.667 -18 68 -54l19 1c8.66699 -10 17.334 -18 26.001 -24l14 -7c4.66699 -2 12.334 -3.66699 23.001 -5c11.333 0 21.666 8.66699 30.999 26c3.33301 7.33301 7.33301 22 12 44l20 16l-9 13l-9 16
c-6 9.33301 -9 21 -9 35c0 11.333 9.66699 21 29 29l22 2l27 1l1 8c32.667 17.333 49 40.333 49 69c0 14.667 -19.167 32.167 -57.5 52.5s-57.5 40.166 -57.5 59.499c0 18.667 17 39.834 51 63.501s51 44.834 51 63.501c0 18 -19.167 37.333 -57.5 58s-57.5 39 -57.5 55
c0 28.667 17 51.334 51 68.001c-11.333 76 -50 114 -116 114c-32.667 0 -60.334 -10.833 -83.001 -32.5s-34 -48.834 -34 -81.501c-30.667 -17.333 -46 -41 -46 -71c0 -57.333 21.333 -94 64 -110c0 -19.333 -6.33301 -37 -19 -53c-13.333 -18 -29.666 -27 -48.999 -27
c-16 -36 -38 -54 -66 -54c-10.667 0 -27.167 18 -49.5 54s-42.5 54 -60.5 54c-15.333 0 -34.333 -18 -57 -54s-43 -54 -61 -54c-14.667 0 -33.334 18 -56.001 54s-43 54 -61 54c-14.667 0 -33.334 -18 -56.001 -54s-43 -54 -61 -54c-15.333 0 -34.166 18 -56.499 54
s-42.5 54 -60.5 54c-15.333 0 -34.166 -18 -56.499 -54s-40.5 -54 -54.5 -54c-26 0 -47 18 -63 54l-15 1l-30 4c-13.333 1.33301 -22.333 4.33301 -27 9zM102.999 384.998c-2 7.33301 -5.83203 13.8311 -11.499 19.498s-11.834 8.83398 -18.501 9.50098
c-5.33301 0 -10.666 -1.33301 -15.999 -4c9.33301 -7.33301 24.666 -15.666 45.999 -24.999z" />
    <glyph glyph-name="u0629" unicode="&#x629;" horiz-adv-x="809" arabic-form="isolated" 
d="M84 389c0 -136 41.0029 -248.334 123.003 -337.001l-1 -5c0 -25.333 10 -47.5 30 -66.5s42.667 -28.5 68 -28.5c14 0 25.167 1 33.5 3s17.166 7 26.499 15l29 -3h14l36 1c0 24.667 11 45.334 33 62.001c20.667 14.667 43.667 22 69 22s47.666 -9.66699 66.999 -29
c20 14.667 37.333 33 52 55c24 4 43.833 16.167 59.5 36.5s23.5 42.833 23.5 67.5s-10 46.667 -30 66l1 24v56l-2 17c-52 10.667 -78 46 -78 106c0 26 11.667 49 35 69c-34.667 78 -78.667 142 -132 192c-64.667 60 -134.334 90 -209.001 90
c-70.667 0 -131.667 -10.667 -183 -32c-67.333 -28.667 -101 -64.334 -101 -107.001c0 -41.333 10.833 -75.333 32.5 -102s45.5 -39 71.5 -37l20 2c42.667 20 84 30 124 30c29.333 0 62.5 -14.333 99.5 -43s55.5 -57 55.5 -85c0 -21.333 -8.33301 -40.833 -25 -58.5
s-34.667 -26.167 -54 -25.5l-23 1l-8 1c-19.333 10.667 -40 42.334 -62 95.001c-17.333 40.667 -44 61 -80 61c-34 0 -61.667 -10.333 -83 -31s-32 -48 -32 -82zM335.003 1176l3.99805 -2.00098l13 -5l19 -10c22 5.33301 33 23 33 53c0 24 -17.333 45.333 -52 64
c-30 16.667 -58 25 -84 25c-34.667 0 -64.5 -13.333 -89.5 -40s-37.5 -57.667 -37.5 -93s13.333 -67.333 40 -96c-9.33301 -3.33301 -18.666 -5.66602 -27.999 -6.99902c-9.33301 0 -19.333 5.33301 -30 16l-27 26c-6 0 -11.167 -2.66699 -15.5 -8s-6.5 -14.333 -6.5 -27
c0 -72.667 13.333 -119.667 40 -141s52 -32 76 -32c100.667 0 142.334 -0.666992 125.001 -2c70 4 105 17.333 105 40c0 104 -6.66699 160 -20 168c-5.33301 -2 -16 -10 -32 -24c-13.333 -12 -28.333 -18 -45 -18c-44 0 -66 18.667 -66 56c0 16.667 9 30.667 27 42
c16 10 33 15 51 15z" />
    <glyph glyph-name="u062A" unicode="&#x62a;" horiz-adv-x="1403" arabic-form="isolated" 
d="M782 890c-26 0 -48.667 -8.5 -68 -25.5s-29 -38.167 -29 -63.5s10 -46.333 30 -63c18 -14.667 40.333 -22 67 -22c25.333 0 47.833 8 67.5 24s29.5 36.333 29.5 61s-10 45.667 -30 63s-42.333 26 -67 26zM549 899c-26 0 -48.167 -8.16797 -66.5 -24.501
s-27.5 -37.166 -27.5 -62.499c0 -26 9 -47 27 -63s40 -24 66 -24s48.833 8.33301 68.5 25s29.5 37.667 29.5 63c0 26 -9.66699 47.333 -29 64c-18 14.667 -40.667 22 -68 22zM103 376.999c5.33301 -14.667 8 -32.3359 8 -53.0029c0 -18 -4.66699 -35.333 -14 -52
c-6 -11.333 -13 -17 -21 -17l-19 2l-23 4c-20.667 0 -31 -26.333 -31 -79c0 -47.333 13 -71 39 -71l15 3v-4l-15 -27l-3 -14l-1 -20c-0.666992 -12 9.33301 -21.333 30 -28l24 -2l29 3c24 -14.667 44.333 -25 61 -31c21.333 -8.66699 44 -13 68 -13c16 36 38.333 54 67 54
c13.333 0 31.333 -18 54 -54s43.667 -54 63 -54c16.667 0 36.334 18 59.001 54s43.667 54 63 54c17.333 0 37.333 -18 60 -54s43.667 -54 63 -54c16.667 0 36.334 18 59.001 54s43.667 54 63 54c17.333 0 37.333 -18 60 -54s43.667 -54 63 -54c17.333 0 37.166 18 59.499 54
s41.166 54 56.499 54c28 0 50.667 -18 68 -54l19 1c8.66699 -9.33301 17.334 -17 26.001 -23l14 -8c4.66699 -1.33301 12.334 -2.66602 23.001 -3.99902c11.333 0 21.666 8.33301 30.999 25c3.33301 8 7.33301 22.667 12 44l20 16l-9 14l-9 15c-6 9.33301 -9 21 -9 35
c0 11.333 9.66699 21 29 29l22 3l27 1l1 7c32.667 17.333 49 40.333 49 69c0 14.667 -19.167 32.334 -57.5 53.001s-57.5 40.667 -57.5 60c0 18.667 17 39.834 51 63.501s51 44.5 51 62.5s-19.167 37.333 -57.5 58s-57.5 39 -57.5 55c0 28.667 17 51.667 51 69
c-11.333 75.333 -50 113 -116 113c-32.667 0 -60.334 -10.667 -83.001 -32s-34 -48.333 -34 -81c-30.667 -17.333 -46 -41 -46 -71c0 -57.333 21.333 -94 64 -110c0 -20 -6.5 -38.333 -19.5 -55s-29.167 -25 -48.5 -25c-16 -36 -38 -54 -66 -54
c-10.667 0 -27.167 18 -49.5 54s-42.5 54 -60.5 54c-15.333 0 -34.333 -18 -57 -54s-43 -54 -61 -54c-14.667 0 -33.334 18 -56.001 54s-43 54 -61 54c-14.667 0 -33.334 -18 -56.001 -54s-43 -54 -61 -54c-15.333 0 -34.166 18 -56.499 54s-42.5 54 -60.5 54
c-15.333 0 -34.166 -18 -56.499 -54s-40.5 -54 -54.5 -54c-26 0 -47 18 -63 54l-16 1l-29 3c-10.667 1.33301 -19.667 5 -27 11zM103 376.997c-7.33301 18 -17.333 27 -30 27c-6 0 -11.333 -1.33301 -16 -4z" />
    <glyph glyph-name="u062B" unicode="&#x62b;" horiz-adv-x="1403" arabic-form="isolated" 
d="M782 886c-26 0 -48.667 -8.66895 -68 -26.002s-29 -38.666 -29 -63.999s10 -46 30 -62c18 -15.333 40.333 -23 67 -23c25.333 0 47.833 8 67.5 24s29.5 36.333 29.5 61s-10 45.834 -30 63.501s-42.333 26.5 -67 26.5zM549 894.998c-26 0 -48.167 -8.16797 -66.5 -24.501
s-27.5 -37.5 -27.5 -63.5s9 -47 27 -63s40 -24 66 -24s48.833 8.33301 68.5 25s29.5 37.667 29.5 63c0 26.667 -9.33301 47.834 -28 63.501s-41.667 23.5 -69 23.5zM666 1085c-25.333 0 -48.001 -8.16797 -68.001 -24.501s-30 -37.166 -30 -62.499c0 -56.667 32 -85 96 -85
c26.667 0 49.834 8 69.501 24s29.5 36.667 29.5 62c0 26 -9.5 46.833 -28.5 62.5s-41.833 23.5 -68.5 23.5zM102.999 369.996c4.66699 -12.667 7 -27.668 7 -45.001c0 -48.667 -10.667 -73.667 -32 -75l-21 2l-23 4c-20.667 0 -31 -26 -31 -78c0 -47.333 13 -71 39 -71l15 2
v-3l-15 -28l-3 -14l-1 -20c-0.666992 -12 9.33301 -21.333 30 -28l24 -1l29 2c24 -14.667 44.333 -25 61 -31c21.333 -8.66699 44 -13 68 -13c16 36 38.333 54 67 54c13.333 0 31.333 -18 54 -54s43.667 -54 63 -54c16.667 0 36.334 18 59.001 54s43.667 54 63 54
c17.333 0 37.333 -18 60 -54s43.667 -54 63 -54c16.667 0 36.334 18 59.001 54s43.667 54 63 54c17.333 0 37.333 -18 60 -54s43.667 -54 63 -54c17.333 0 37.166 18 59.499 54s41.166 54 56.499 54c28 0 50.667 -18 68 -54l19 1c8.66699 -9.33301 17.334 -17 26.001 -23
l14 -7c4.66699 -2 12.334 -3.66699 23.001 -5c11.333 0 21.666 8.33301 30.999 25c3.33301 8 7.33301 22.667 12 44l20 17l-9 13l-9 15c-6 9.33301 -9 21.333 -9 36c0 11.333 9.66699 20.666 29 27.999l22 3l27 1l1 7c32.667 17.333 49 40.333 49 69
c0 14.667 -19.167 32.334 -57.5 53.001s-57.5 40.667 -57.5 60c0 18.667 17 39.834 51 63.501s51 44.5 51 62.5s-19.167 37.333 -57.5 58s-57.5 39.334 -57.5 56.001c0 28 17 50.667 51 68c-11.333 76 -50 114 -116 114c-32.667 0 -60.334 -10.833 -83.001 -32.5
s-34 -48.834 -34 -81.501c-30.667 -17.333 -46 -41 -46 -71c0 -57.333 21.333 -94 64 -110c0 -20 -6.5 -38.333 -19.5 -55s-29.167 -25 -48.5 -25c-16 -36 -38 -54 -66 -54c-10.667 0 -27.167 18 -49.5 54s-42.5 54 -60.5 54c-15.333 0 -34.333 -18 -57 -54s-43 -54 -61 -54
c-14.667 0 -33.334 18 -56.001 54s-43 54 -61 54c-14.667 0 -33.334 -18 -56.001 -54s-43 -54 -61 -54c-15.333 0 -34.166 18 -56.499 54s-42.5 54 -60.5 54c-15.333 0 -34.166 -18 -56.499 -54s-40.5 -54 -54.5 -54c-26 0 -47 18 -63 54l-15 1l-30 3
c-13.333 2 -22.333 5 -27 9zM102.999 369.995c-2 7.33301 -5.83203 14 -11.499 20s-11.834 9 -18.501 9c-5.33301 0.666992 -10.666 -0.333008 -15.999 -3c9.33301 -7.33301 24.666 -16 45.999 -26z" />
    <glyph glyph-name="u062C" unicode="&#x62c;" horiz-adv-x="1007" arabic-form="isolated" 
d="M681 -117c-27.333 0 -50.167 -8.16699 -68.5 -24.5s-27.5 -37.5 -27.5 -63.5s9.16699 -47 27.5 -63s40.833 -24 67.5 -24c26 0 48.333 8.33301 67 25s28 37.667 28 63c0 58 -31.333 87 -94 87zM327.999 745c0 -18.667 -3.33398 -34.334 -10.001 -47.001
c-7.33301 -17.333 -17.666 -26 -30.999 -26c-18 0 -39 10 -63 30l-24 -18l-20 -18l-21 2c-10 1.33301 -20 0 -30 -4c-19.333 -5.33301 -29 -15.333 -29 -30s2.33301 -26.667 7 -36l16 -27l-2 -23l1 -21c12 -23.333 27.5 -42.833 46.5 -58.5s40.833 -23.5 65.5 -23.5
c36.667 19.333 68.667 34.666 96 45.999l47 14c12 4 26.667 6 44 6c22.667 0 49.834 -12.167 81.501 -36.5s47.5 -47.5 47.5 -69.5c0 -14.667 -1.33301 -25.667 -4 -33l-135 2c-44 0.666992 -84.333 -6 -121 -20c0 -32 -2.33301 -52 -7 -60c-8 -14 -17.333 -20.667 -28 -20
l-17 1l-17 5l-16 6l-12 9c-6 -4 -15 -13 -27 -27l-21 -24l-8 1c-46.667 0 -70 -16.333 -70 -49c0 -13.333 11.833 -31.833 35.5 -55.5s35.5 -41.834 35.5 -54.501c0 -13.333 -7.66699 -25.333 -23 -36c-7.33301 -4.66699 -20.666 -10.334 -39.999 -17.001l-1 -25l2 -24
c-29.333 -18.667 -44 -39 -44 -61c0 -20 21.667 -36.667 65 -50c4.66699 -18.667 13.667 -40 27 -64l14 4l27 2c8.66699 0 18 -4 28 -12s15 -16.333 15 -25c0 -20.667 -5.33301 -39.667 -16 -57c51.333 -51.333 124.666 -77 219.999 -77c88.667 0 133 42.667 133 128
c0 38 -30.833 68 -92.5 90s-92.5 43.667 -92.5 65c0 30.667 9.66699 49.334 29 56.001c10 3.33301 20 5 30 5l10 -21l11 -14c10 -12.667 23.333 -19 40 -19c12.667 0 29.667 18 51 54s38.666 54 51.999 54s26.333 -6.33301 39 -19l12 -17l11 -18c180 0 266 35.667 258 107
l-24 -4c-20 0 -30 25.667 -30 77c0 20 4.33301 37.667 13 53c6 10.667 12.667 16.334 20 17.001c7.33301 0 14 -1.66699 20 -5l23 -3c8.66699 0 17 9.33301 25 28l5 19l2 27c0.666992 14.667 -2 29.334 -8 44.001c-7.33301 18 -17.666 27 -30.999 27l-15 -3h-89l-6 25l20 30
c5.33301 10 8 21.333 8 34c0 10.667 -8 20.334 -24 29.001c-16.667 6 -33.334 9 -50.001 9l-32 47l-23 -5l-24 -1l-12 1l-16 9c-8 7.33301 -12 16.333 -12 27c0 14.667 1 24.667 3 30l11 25c-56.667 52 -112 85.333 -166 100c-13.333 40.667 -30.666 61 -51.999 61
c-10.667 0 -22.334 -5.33301 -35.001 -16c-6 -4.66699 -13.667 -14.667 -23 -30l-30 1z" />
    <glyph glyph-name="u062D" unicode="&#x62d;" horiz-adv-x="1007" arabic-form="isolated" 
d="M328 745c0 -18.667 -3.33398 -34.334 -10.001 -47.001c-7.33301 -17.333 -17.666 -26 -30.999 -26c-18 0 -39 10 -63 30l-24 -18l-20 -18l-21 2c-10 1.33301 -20 0 -30 -4c-19.333 -5.33301 -29 -15.333 -29 -30s2.33301 -26.667 7 -36l16 -27l-2 -23l1 -21
c12 -23.333 27.5 -42.833 46.5 -58.5s40.833 -23.5 65.5 -23.5c36.667 19.333 68.667 34.666 96 45.999l47 14c12 4 26.667 6 44 6c22.667 0 49.834 -12.167 81.501 -36.5s47.5 -47.5 47.5 -69.5c0 -14.667 -1.33301 -25.667 -4 -33l-135 2
c-44 0.666992 -84.333 -6 -121 -20c0 -32 -2.33301 -52 -7 -60c-8 -14 -17.333 -20.667 -28 -20l-17 1l-17 5l-16 6l-12 9c-6 -4 -15 -13 -27 -27l-21 -24l-8 1c-46.667 0 -70 -16.333 -70 -49c0 -13.333 11.833 -31.833 35.5 -55.5s35.5 -41.834 35.5 -54.501
c0 -13.333 -7.66699 -25.333 -23 -36c-7.33301 -4.66699 -20.666 -10.334 -39.999 -17.001l-1 -25l2 -24c-29.333 -18.667 -44 -39 -44 -61c0 -20 21.667 -36.667 65 -50c4.66699 -18.667 13.667 -40 27 -64l14 4l27 2c8.66699 0 18 -4 28 -12s15 -16.333 15 -25
c0 -20.667 -5.33301 -39.667 -16 -57c51.333 -51.333 124.666 -77 219.999 -77c88.667 0 133 42.667 133 128c0 38 -30.833 68 -92.5 90s-92.5 43.667 -92.5 65c0 30.667 9.66699 49.334 29 56.001c10 3.33301 20 5 30 5l10 -21l11 -14c10 -12.667 23.333 -19 40 -19
c12.667 0 29.667 18 51 54s38.666 54 51.999 54s26.333 -6.33301 39 -19l12 -17l11 -18c180 0 266 35.667 258 107l-24 -4c-20 0 -30 25.667 -30 77c0 20 4.33301 37.667 13 53c6 10.667 12.667 16.334 20 17.001c7.33301 0 14 -1.66699 20 -5l23 -3
c8.66699 0 17 9.33301 25 28l5 19l2 27c0.666992 14.667 -2 29.334 -8 44.001c-7.33301 18 -17.666 27 -30.999 27l-15 -3h-89l-6 25l20 30c5.33301 10 8 21.333 8 34c0 10.667 -8 20.334 -24 29.001c-16.667 6 -33.334 9 -50.001 9l-32 47l-23 -5l-24 -1l-12 1l-16 9
c-8 7.33301 -12 16.333 -12 27c0 14.667 1 24.667 3 30l11 25c-56.667 52 -112 85.333 -166 100c-13.333 40.667 -30.666 61 -51.999 61c-10.667 0 -22.334 -5.33301 -35.001 -16c-6 -4.66699 -13.667 -14.667 -23 -30l-30 1z" />
    <glyph glyph-name="u062E" unicode="&#x62e;" horiz-adv-x="1007" arabic-form="isolated" 
d="M328 737c0 -18.667 -3.33398 -34.333 -10.001 -47c-7.33301 -17.333 -17.666 -26 -30.999 -26c-18 0 -39 10.333 -63 31l-24 -18l-20 -18l-21 1c-10 1.33301 -20 0 -30 -4c-19.333 -5.33301 -29 -15.333 -29 -30s2.33301 -26.667 7 -36l16 -27l-2 -22l1 -22
c12 -23.333 27.5 -42.833 46.5 -58.5s40.833 -23.5 65.5 -23.5c36.667 19.333 68.667 34.666 96 45.999l47 14c12 4 26.667 6 44 6c22.667 0 49.834 -12.167 81.501 -36.5s47.5 -47.5 47.5 -69.5c0 -14.667 -1.33301 -25.667 -4 -33l-135 2
c-44 0.666992 -84.333 -6 -121 -20c0 -32 -2.33301 -52 -7 -60c-8 -14 -17.333 -20.667 -28 -20l-17 1l-17 5l-16 7l-12 9c-6 -4.66699 -15 -13.667 -27 -27l-21 -25l-8 1c-46.667 0 -70 -16.333 -70 -49c0 -13.333 11.833 -31.833 35.5 -55.5s35.5 -41.834 35.5 -54.501
s-7.66699 -24.334 -23 -35.001c-7.33301 -5.33301 -20.666 -11.333 -39.999 -18l-1 -25l2 -24c-29.333 -18.667 -44 -39 -44 -61c0 -20 21.667 -36.667 65 -50c4.66699 -18.667 13.667 -40 27 -64l14 4l27 2c8.66699 0.666992 18 -3.16602 28 -11.499s15 -16.833 15 -25.5
c0 -20.667 -5.33301 -39.667 -16 -57c51.333 -51.333 124.666 -77 219.999 -77c88.667 0 133 42.667 133 128c0 38 -30.833 68 -92.5 90s-92.5 43.667 -92.5 65c0 30.667 9.66699 49.334 29 56.001c10 3.33301 20 5 30 5l10 -21l11 -14c10 -12.667 23.333 -19 40 -19
c12.667 0 29.667 18 51 54s38.666 54 51.999 54s26.333 -6 39 -18l12 -18l11 -18c180 0 266 35.667 258 107l-24 -4c-20 0 -30 26 -30 78c0 19.333 4.33301 36.666 13 51.999c6 10.667 12.667 16.334 20 17.001c7.33301 0 14 -1.66699 20 -5l23 -3
c8.66699 0 17 9.33301 25 28l5 20l2 27c0.666992 14 -2 28.333 -8 43c-7.33301 18 -17.666 27 -30.999 27l-15 -3h-89l-6 25l20 30c5.33301 10 8 21.333 8 34c0 10.667 -8 20.334 -24 29.001c-16.667 6 -33.334 9 -50.001 9l-32 47l-23 -5h-24h-12l-16 9
c-8 7.33301 -12 16.333 -12 27c0 14.667 1 24.667 3 30l11 25c-56.667 52 -112 85.333 -166 100c-13.333 41.333 -30.666 62 -51.999 62c-10.667 0 -22.334 -5.66699 -35.001 -17c-6 -4.66699 -13.667 -14.667 -23 -30l-30 1zM448.999 1096c-64.667 0 -97 -29 -97 -87
c0 -56.667 32 -85 96 -85c65.333 0 98 29 98 87c0 56.667 -32.333 85 -97 85z" />
    <glyph glyph-name="u062F" unicode="&#x62f;" horiz-adv-x="839" arabic-form="isolated" 
d="M158 617c0 -25.333 9.83398 -47.998 29.501 -67.998s42.167 -30 67.5 -30c18.667 0 34.667 3.33301 48 10l28 15l18 6l9 -1c13.333 -6.66699 30 -18.334 50 -35.001l41 -45l27 -3c7.33301 -0.666992 17.166 -3.16699 29.499 -7.5s18.5 -13.5 18.5 -27.5
c0 -12 -2.66699 -22.333 -8 -31l-10 -17l-12 -16l1 -2c-18.667 36 -44 54 -76 54c-15.333 0 -35 -18.167 -59 -54.5s-46.667 -54.5 -68 -54.5c-22.667 0 -45 18.167 -67 54.5s-42 54.5 -60 54.5s-34 -6 -48 -18c-8.66699 -8.66699 -17 -20.667 -25 -36
c-4.66699 1.33301 -12.667 2.66602 -24 3.99902c-20.667 0 -31 -20.333 -31 -61c0 -37.333 10.333 -57.666 31 -60.999c8 0 15.667 1 23 3v-115c-20.667 -22 -31 -44 -31 -66c0 -9.33301 9 -18.666 27 -27.999c8.66699 -2.66699 24 -5.66699 46 -9l2 -2
c22 18.667 43 28 63 28c11.333 0 21 -9.33301 29 -28c4 -16 6 -32 6 -48l3 -1c15.333 -36 37.333 -54 66 -54c11.333 0 28 18 50 54s42.333 54 61 54c17.333 0 37 -18 59 -54s39.667 -54 53 -54c14 0 28 6.33301 42 19c5.33301 5.33301 13 17 23 35
c42.667 7.33301 79.334 25 110.001 53c33.333 31.333 50 67.666 50 108.999v54c-41.333 14 -62 32 -62 54c0 11.333 13.833 29.666 41.5 54.999s41.5 45.333 41.5 60c0 16.667 -8.33301 29.334 -25 38.001c-8 4 -22.667 8 -44 12l-12 29c-52 0 -78 13 -78 39
c0 14 7 32.667 21 56s21 42 21 56c0 28 -16 42 -48 42c-14.667 0 -27 -1.33301 -37 -4c-4 5.33301 -9.66699 11.666 -17 18.999l-30 28l-30 -17c-12.667 -4 -24 -6 -34 -6c-12.667 0 -22 8.33301 -28 25c-3.33301 16 -5 28 -5 36l1 19
c-10 3.33301 -24.333 6.66602 -43 9.99902l-48 3c-20.667 24 -41.334 37.333 -62.001 40c-9.33301 0 -18 -5.5 -26 -16.5s-14.667 -28.167 -20 -51.5l-12 -7c14.667 -22 22 -43 22 -63c0 -11.333 -10 -20.666 -30 -27.999l-31 -4l-18 1v-5z" />
    <glyph glyph-name="u0630" unicode="&#x630;" horiz-adv-x="839" arabic-form="isolated" 
d="M158 609c0 -25.333 9.83496 -47.835 29.502 -67.502s42.167 -29.5 67.5 -29.5c18.667 0 34.667 3.33301 48 10l29 14l17 6l9 -1c13.333 -6.66699 30 -18.334 50 -35.001l41 -45l28 -2c6.66699 -1.33301 16.167 -4.16602 28.5 -8.49902s18.5 -13.5 18.5 -27.5
c0 -12 -2.66699 -22.333 -8 -31l-10 -16l-11 -17v-2c-18.667 36 -44 54 -76 54c-15.333 0 -35 -18 -59 -54s-46.667 -54 -68 -54c-22.667 0 -45 18 -67 54s-42 54 -60 54s-34 -5.66699 -48 -17c-8.66699 -9.33301 -17 -21.666 -25 -36.999
c-4.66699 1.33301 -12.667 2.66602 -24 3.99902c-20.667 0 -31 -20.333 -31 -61c0 -36.667 10.333 -57 31 -61c8 0 15.667 1 23 3v-115c-20.667 -22 -31 -44 -31 -66c0 -9.33301 9 -18.666 27 -27.999c8.66699 -2.66699 24 -5.66699 46 -9l2 -1c22 18.667 43 28 63 28
c11.333 0 21 -9.66699 29 -29c4 -16 6 -32 6 -48l3 -1c15.333 -36 37.333 -54 66 -54c11.333 0 28.166 18 50.499 54s42.5 54 60.5 54c17.333 0 37 -18 59 -54s39.667 -54 53 -54c14 0 28 6.33301 42 19c5.33301 5.33301 13 17 23 35c38.667 6 74.334 22.333 107.001 49
c36 30.667 54 64.667 54 102v47l-1 11c-40 14 -60 32.333 -60 55c0 10.667 5.66699 21.667 17 33c6 6 16.667 14 32 24l-4 14l23 27l8 15c1.33301 4.66699 2.66602 12 3.99902 22c0 12 -8.33301 22.667 -25 32c-7.33301 3.33301 -22 7 -44 11l-10 24
c-23.333 0 -42 2.66699 -56 8c-15.333 8 -23 17.667 -23 29c0 12 9.33301 35.333 28 70c9.33301 16.667 14 31.667 14 45c0 26.667 -16 40 -48 40c-14.667 0 -27 -1.33301 -37 -4l-24 23l-23 23l-30 -16c-12.667 -4.66699 -24 -7 -34 -7c-12.667 0 -22 8.66699 -28 26
c-3.33301 15.333 -5 27.333 -5 36l1 19c-10 2.66699 -24.333 5.66699 -43 9l-48 3c-20.667 24 -41.334 37.333 -62.001 40c-9.33301 0 -18 -5.5 -26 -16.5s-14.667 -28.167 -20 -51.5l-12 -7c14.667 -21.333 22 -42.333 22 -63c0 -11.333 -10 -20.666 -30 -27.999l-31 -4
l-18 1v-5zM386.002 1089c-24 0 -44 -8.33203 -60 -24.999s-24 -37.334 -24 -62.001c0 -24 8.16699 -44.167 24.5 -60.5s36.5 -24.5 60.5 -24.5c22 0 42.167 7.83301 60.5 23.5s27.5 34.167 27.5 55.5c0 46 -18.333 75 -55 87l-15 4z" />
    <glyph glyph-name="u0631" unicode="&#x631;" horiz-adv-x="526" arabic-form="isolated" 
d="M38 -188c48.667 0 73 -13.6729 73 -41.0059c0 -18 -10.333 -38.667 -31 -62l5 -7l-2 -29c-2 -33.333 9.33301 -50 34 -50c12.667 0 23 2 31 6l30 17l12 -1l29 3l-1 9c0 46 12.333 69 37 69c10.667 0 21.667 -2.66699 33 -8l30 -19l25 25l25 26c50 0 75 13.667 75 41
c0 11.333 -3 21.666 -9 30.999l-19 29l5 41l-1 3c-38.667 16 -58 39 -58 69c0 14 16.167 33.333 48.5 58s48.5 47.334 48.5 68.001c0 18 -19.5 37.833 -58.5 59.5s-58.5 42.5 -58.5 62.5c0 18 16.333 39.667 49 65s49 48 49 68c0 18 -19.5 37.833 -58.5 59.5
s-58.5 42.5 -58.5 62.5c0 18.667 16.167 40.334 48.5 65.001s48.5 45 48.5 61c0 32 -19.333 54.667 -58 68c0 34.667 -9.66699 65.334 -29 92.001c-22 28.667 -50 43 -84 43c-26.667 0 -53.667 -9.66699 -81 -29c-30.667 -20.667 -46 -43.667 -46 -69
c0 -20.667 0.666992 -32.667 2 -36c16.667 -5.33301 30.5 -13.666 41.5 -24.999s16.5 -26.666 16.5 -45.999c0 -15.333 -15.833 -35.166 -47.5 -59.499s-47.5 -47.5 -47.5 -69.5c0 -19.333 19.833 -40.333 59.5 -63s59.5 -44.334 59.5 -65.001
c0 -19.333 -16.167 -41.5 -48.5 -66.5s-48.5 -48.833 -48.5 -71.5c0 -19.333 20 -40.166 60 -62.499s60 -42.166 60 -59.499c0 -28.667 -16 -53.667 -48 -75c0 -28 -14 -55.667 -42 -83l-95 -70l-4 -11z" />
    <glyph glyph-name="u0632" unicode="&#x632;" horiz-adv-x="526" arabic-form="isolated" 
d="M38 -199c49.333 0 74 -12.3369 74 -37.0039c0 -22.667 -9.66699 -44.334 -29 -65.001l5 -6l-2 -29c-2 -33.333 9.33301 -50 34 -50c12.667 0 23 2 31 6l29 17l10 -1l29 3l-1 8c0 46.667 12.333 70 37 70c10.667 0 21.667 -2.66699 33 -8l30 -19l25 25l25 26
c50 0 75 13.667 75 41c0 11.333 -3 21.666 -9 30.999l-19 29l5 41l-1 3c-38.667 16 -58 39 -58 69c0 14 16.167 33.333 48.5 58s48.5 47.334 48.5 68.001c0 18 -19.5 37.833 -58.5 59.5s-58.5 42.5 -58.5 62.5c0 18 16.333 39.667 49 65s49 47.666 49 66.999
c0 18.667 -19.5 38.667 -58.5 60s-58.5 42.333 -58.5 63c0 18.667 16.167 40.334 48.5 65.001s48.5 45 48.5 61c0 32 -19.333 54.667 -58 68c0 34.667 -9.66699 65 -29 91c-22 29.333 -49.667 44 -83 44c-25.333 0 -52.333 -10 -81 -30c-31.333 -21.333 -47 -44 -47 -68
c0 -20.667 0.666992 -32.667 2 -36c16.667 -5.33301 30.5 -13.666 41.5 -24.999s16.5 -26.666 16.5 -45.999c0 -15.333 -15.833 -35.166 -47.5 -59.499s-47.5 -47.5 -47.5 -69.5c0 -19.333 19.833 -40.333 59.5 -63s59.5 -44.667 59.5 -66c0 -20 -16.167 -42.333 -48.5 -67
s-48.5 -48 -48.5 -70c0 -19.333 20 -40.166 60 -62.499s60 -42.166 60 -59.499c0 -29.333 -16 -54.333 -48 -75c0 -28 -14 -56 -42 -84l-95 -69c-3.33301 -6 -5 -18 -5 -36zM218 1145c-28.667 0 -53.332 -9.16602 -73.999 -27.499s-31 -41.833 -31 -70.5
s10.167 -51.834 30.5 -69.501s44.833 -26.5 73.5 -26.5s53.5 9.16699 74.5 27.5s31.5 41.833 31.5 70.5c0 28 -10.333 51 -31 69s-45.334 27 -74.001 27z" />
    <glyph glyph-name="u0633" unicode="&#x633;" horiz-adv-x="1732" arabic-form="isolated" 
d="M1609 165c33.333 18 50.002 37.665 50.002 58.998c0 18 -18.833 36.167 -56.5 54.5s-56.5 36.833 -56.5 55.5c0 18 17.167 37.333 51.5 58s51.5 40.334 51.5 59.001c0 20.667 -18.833 38.667 -56.5 54s-56.5 34 -56.5 56s17.333 41.333 52 58c0 36 -10.5 66.667 -31.5 92
s-49.5 38 -85.5 38c-35.333 0 -63.666 -13 -84.999 -39c-18.667 -24 -28 -54.333 -28 -91c-30 -17.333 -45 -39.333 -45 -66c0 -50 21.333 -82.333 64 -97c0 -24.667 -9 -45.834 -27 -63.501s-38 -26.5 -60 -26.5c-21.333 0 -42.333 8.33301 -63 25
c-8.66699 8.66699 -15.667 18.667 -21 30c-2.66699 12 -4 23.333 -4 34c-40 14.667 -60 42.334 -60 83.001c0 32.667 17 59.667 51 81c0 33.333 -11 64.333 -33 93c-22.667 24.667 -50.334 37 -83.001 37c-69.333 0 -104 -43.333 -104 -130c-33.333 -17.333 -50 -43 -50 -77
c0 -36 19.333 -61.667 58 -77c0 -25.333 -7.66699 -46.666 -23 -63.999c-20.667 -16.667 -41.334 -25 -62.001 -25c-23.333 0 -44 9 -62 27s-27 38.333 -27 61c-41.333 16.667 -61 37.667 -59 63l3 33c4 23.333 19.667 43 47 59c0 36.667 -10.333 67.5 -31 92.5
s-49 37.5 -85 37.5c-34 0 -61.333 -12 -82 -36s-31 -55.333 -31 -94c-34 -17.333 -51 -39.666 -51 -66.999c0 -23.333 19.667 -43.833 59 -61.5s59 -38.834 59 -63.501c0 -23.333 -16.333 -45.666 -49 -66.999s-49 -44 -49 -68c0 -23.333 19.5 -44 58.5 -62
s58.5 -39 58.5 -63c0 -24.667 -16 -47.667 -48 -69c-50 0 -75 -11.667 -75 -35c0 -20.667 10 -42.667 30 -66l-3 -3c0 -48 -12.333 -72 -37 -72c-19.333 0 -41.333 10.667 -66 32l-3 -1l-4 1c0 48.667 -12.667 73 -38 73c-21.333 0 -43.333 -11 -66 -33l-1 2
c-50 0 -75 11.667 -75 35c0 21.333 10 43 30 65c0 92.667 -2.66699 152.334 -8 179.001c-15.333 73.333 -52 110 -110 110c-32.667 0 -60 -14.333 -82 -43c-20 -26 -30 -56 -30 -90l21 5c6 0 13.333 -7.33301 22 -22l7 -23l3 -29c0 -21.333 -3.33301 -39 -10 -53
s-16.334 -21 -29.001 -21l-14 4l-23 4c-21.333 0 -32 -24 -32 -72c0 -20 3.5 -37.667 10.5 -53s16.833 -23 29.5 -23c4 0 6.66699 0.666992 8 2l7 2l1 -21v-17c-28 -20 -42 -40.667 -42 -62c0 -20 22.333 -35.667 67 -47l42 1c24.667 0.666992 37 -9.66602 37 -30.999
c0 -22 -7.33301 -44.333 -22 -67l26 -29l25 -23l-2 -44c-0.666992 -24 10 -36 32 -36c20 0 42 7 66 21c20.667 27.333 41.667 41 63 41c18.667 0 33.667 -22.667 45 -68h18l18 -2l37 3c21.333 -26.667 42.333 -40 63 -40c19.333 0 34.666 22 45.999 66l-1 48
c-1.33301 21.333 9.33398 32 32.001 32c21.333 0 43.333 -7.33301 66 -22l29 26l25 28l47 -1c21.333 -0.666992 32 10 32 32c0 19.333 -7.33301 40.666 -22 63.999c-26.667 22 -40 43.667 -40 65c0 19.333 22.333 34 67 44l2 38v75l20 -5l27 -2l13 -12l13 -12
c22.667 21.333 44.667 32 66 32c24.667 0 37 -25 37 -75h21l15 1c22 -20.667 44 -31 66 -31c24.667 0 37 24.333 37 73l13 12l10 12c-20 23.333 -30 45.666 -30 66.999c0 22.667 25.667 34 77 34v6l1 9l2 -13c-17.333 -22 -26 -43.667 -26 -65s22 -32 66 -32h13l12 -12
l13 -10c22 22.667 44 34 66 34c24.667 0 37 -24.667 37 -74h40c22 -20.667 44 -31 66 -31c24.667 0 37 24.333 37 73l15 14l9 11c-20 23.333 -30 45.666 -30 66.999c0 22 25.333 33 76 33z" />
    <glyph glyph-name="u0634" unicode="&#x634;" horiz-adv-x="1732" arabic-form="isolated" 
d="M1609 153c33.333 18 50.002 38 50.002 60c0 18 -18.833 36 -56.5 54s-56.5 36.333 -56.5 55s17.167 38.334 51.5 59.001s51.5 40.334 51.5 59.001c0 20.667 -18.833 38.667 -56.5 54s-56.5 33.666 -56.5 54.999c0 22 17.333 41.333 52 58c0 36.667 -10.5 67.667 -31.5 93
s-49.5 38 -85.5 38c-35.333 0 -63.666 -13.333 -84.999 -40c-18.667 -24 -28 -54.333 -28 -91c-30 -17.333 -45 -39.333 -45 -66c0 -50 21.333 -82.333 64 -97c0 -24.667 -9 -45.834 -27 -63.501s-38 -26.5 -60 -26.5c-21.333 0 -42.333 8.33301 -63 25
c-8.66699 9.33301 -15.667 19.333 -21 30c-2.66699 12 -4 23.333 -4 34c-40 14.667 -60 42.334 -60 83.001c0 32.667 17 59.667 51 81c0 33.333 -11 64.666 -33 93.999c-22.667 24.667 -50.334 37 -83.001 37c-69.333 0 -104 -43.667 -104 -131
c-33.333 -17.333 -50 -42.666 -50 -75.999c0 -36.667 19.333 -62.667 58 -78c0 -25.333 -7.66699 -46.666 -23 -63.999c-20.667 -16.667 -41.334 -25 -62.001 -25c-23.333 0 -44 9 -62 27s-27 38.333 -27 61c-41.333 17.333 -61 38.333 -59 63l3 34
c4 23.333 19.667 42.666 47 57.999c0 36.667 -10 67 -30 91c-21.333 26.667 -50 40 -86 40c-34 0 -61.333 -12.167 -82 -36.5s-31 -55.833 -31 -94.5c-34 -17.333 -51 -39.666 -51 -66.999c0 -23.333 19.667 -43.833 59 -61.5s59 -38.834 59 -63.501
c0 -23.333 -16.333 -45.666 -49 -66.999s-49 -44 -49 -68c0 -23.333 19.5 -43.833 58.5 -61.5s58.5 -38.834 58.5 -63.501s-16 -47.334 -48 -68.001c-50 0 -75 -12 -75 -36c0 -20.667 10 -42.334 30 -65.001l-3 -4c0 -48 -12.333 -72 -37 -72
c-19.333 0 -41.333 10.667 -66 32h-3h-4c0 48.667 -12.667 73 -38 73c-21.333 0 -43.333 -11 -66 -33l-1 2c-50 0 -75 11.667 -75 35c0 21.333 10 43.333 30 66c0 92 -2.66699 151.667 -8 179c-15.333 72.667 -52 109 -110 109c-32.667 0 -60 -14.333 -82 -43
c-20 -26 -30 -55.667 -30 -89l21 4c6 0 13.333 -7.33301 22 -22l7 -23l3 -29c0 -21.333 -3.33301 -39 -10 -53s-16.334 -21 -29.001 -21l-14 4l-23 4c-21.333 0 -32 -24 -32 -72c0 -19.333 3.5 -36.666 10.5 -51.999s16.833 -23 29.5 -23c4 0 6.66699 0.666992 8 2l7 1
l1 -20v-17c-28 -20.667 -42 -41.667 -42 -63c0 -19.333 22.333 -34.666 67 -45.999h42c24.667 0.666992 37 -9.66602 37 -30.999s-7.33301 -43.666 -22 -66.999l26 -29l25 -23l-2 -44c-0.666992 -24 10 -36 32 -36c20 0 42 7.33301 66 22c20.667 26.667 41.667 40 63 40
c18.667 0 33.667 -22.667 45 -68h18l18 -1l37 2c21.333 -26.667 42.333 -40 63 -40c19.333 0 34.666 22.333 45.999 67l-1 47c-1.33301 22 9.33398 33 32.001 33c21.333 0 43.333 -7.66699 66 -23l29 26l25 28l47 -1c21.333 0 32 11 32 33
c0 19.333 -7.33301 40.666 -22 63.999c-26.667 21.333 -40 42.666 -40 63.999c0 19.333 22.333 34.333 67 45l2 37v75l20 -5l27 -2l13 -12l13 -11c22.667 20.667 44.667 31 66 31c24.667 0 37 -25 37 -75h21l15 1c22 -20 44 -30 66 -30c24.667 0 37 24.333 37 73l13 11
l10 12c-20 23.333 -30 46 -30 68s25.667 33 77 33v6l1 9l2 -12c-17.333 -22.667 -26 -44.667 -26 -66s22 -32 66 -32h13l12 -11l13 -10c22 22 44 33 66 33c24.667 0 37 -24.667 37 -74h40c22 -20 44 -30 66 -30c24.667 0 37 24 37 72l15 14l9 11
c-20 23.333 -30 45.666 -30 66.999c0 22.667 25.333 34 76 34zM1202 1002c-26 0 -48.333 -8.5 -67 -25.5s-28 -38.167 -28 -63.5c0 -26 9 -47 27 -63s40.333 -24 67 -24s49.667 8.16699 69 24.5s29 37.5 29 63.5c0 25.333 -9.83301 46.333 -29.5 63s-42.167 25 -67.5 25z
M954.002 1002c-26 0 -48.834 -8.33398 -68.501 -25.001s-29.5 -38 -29.5 -64c0 -25.333 9.66699 -46.166 29 -62.499s42 -24.5 68 -24.5c26.667 0 49.5 8.16699 68.5 24.5s28.5 37.5 28.5 63.5c0 25.333 -9.66699 46.333 -29 63s-41.666 25 -66.999 25zM1079 1201
c-64.667 0 -97 -28 -97 -84c0 -25.333 9.66699 -46.333 29 -63s42 -25 68 -25c26.667 0 49.5 7.83301 68.5 23.5s28.5 36.5 28.5 62.5c0 24.667 -9.83301 45.167 -29.5 61.5s-42.167 24.5 -67.5 24.5z" />
    <glyph glyph-name="u0635" unicode="&#x635;" horiz-adv-x="1810" arabic-form="isolated" 
d="M988 374c44.667 57.333 93.332 98.333 145.999 123c11.333 -14.667 22 -25 32 -31l14 -6l17 -3c10.667 0 21 8.33301 31 25c4 6 9 19.667 15 41l13 1l56 -2l39 -8c30 -6 52 -17 66 -33l9 1c45.333 0 68 -12.333 68 -37c0 -11.333 -2.33301 -22 -7 -32
c-1.33301 -5.33301 -4 -10 -8 -14l-10 -16l1 -9c-16.667 36.667 -39.667 55 -69 55c-11.333 0 -28.166 -18.167 -50.499 -54.5s-43.166 -54.5 -62.499 -54.5c-16 0 -35.333 18.167 -58 54.5s-41.667 54.5 -57 54.5c-14 0 -28 -6.33301 -42 -19
c-6.66699 -7.33301 -14.334 -19.333 -23.001 -36h-120zM822.998 -9l9.99805 20.9961l11 14c11.333 12.667 24.666 19 39.999 19c12.667 0 29.834 -18 51.501 -54s40.5 -54 56.5 -54c15.333 0 34 18 56 54s41 54 57 54c15.333 0 33.833 -18 55.5 -54s40.5 -54 56.5 -54
c15.333 0 34 18 56 54s41 54 57 54c15.333 0 33.833 -18 55.5 -54s38.834 -54 51.501 -54c13.333 0 26.666 6.66699 39.999 20c6.66699 8.66699 14 20 22 34l30 1c7.33301 44 23.666 66 48.999 66c8.66699 0 20 -4.33301 34 -13c3.33301 -2 7 -5.66699 11 -11l15 -16l16 12
l12 14c46.667 4.66699 70 21.334 70 50.001c0 15.333 -9 31 -27 47c-39.333 35.333 -59 58.333 -59 69c0 22 19.333 39.333 58 52v22c32.667 20 49 42.333 49 67c0 14 -21.167 29.167 -63.5 45.5s-63.5 31.5 -63.5 45.5c0 14.667 11 34.834 33 60.501s33 45.834 33 60.501
c0 15.333 -9.33301 27.666 -28 36.999c-14 4 -30 6 -48 6c-6.66699 12.667 -16.667 26.334 -30 41.001l-26 -8l-29 -3c-8.66699 0 -17 4.16699 -25 12.5s-11.667 19.166 -11 32.499l1 22l6 18c-4.66699 47.333 -19 71 -43 71c-22 0 -42.667 -11.667 -62 -35l-22 2h-33
c-9.33301 0 -16 -0.666992 -20 -2c-10 -43.333 -27 -65 -51 -65c-10.667 0 -28.834 12.167 -54.501 36.5s-46.167 36.5 -61.5 36.5c-14.667 0 -27 -9 -37 -27c-6 -14.667 -9 -30.334 -9 -47.001l-25 -12l-35 -19l2 -32c2 -32.667 -10.333 -49 -37 -49
c-8.66699 0 -19 1.66699 -31 5l-28 15c-16.667 -10.667 -33 -23.334 -49 -38.001l-26 9l-29 4c-24.667 0 -37 -13.333 -37 -40l3 -27l5 -21l-22 -23c-40 16 -60 42 -60 78c0 33.333 17 59 51 77c0 35.333 -10.667 66 -32 92s-49.333 39 -84 39
c-36 0 -64.333 -13.333 -85 -40c-19.333 -24 -29 -54.333 -29 -91c-33.333 -20 -50 -44 -50 -72c0 -16 12.667 -31.333 38 -46c53.333 -31.333 80 -56.666 80 -75.999c0 -20 -10.667 -38 -32 -54c-44 -33.333 -66 -60.666 -66 -81.999c0 -17.333 19.5 -37 58.5 -59
s58.5 -41.333 58.5 -58c0 -29.333 -16.333 -54 -49 -74c-50 0 -75 -13.333 -75 -40c0 -9.33301 3 -19.333 9 -30l11 -19l11 -12l-4 -3c0 -18 -3.33301 -33.333 -10 -46c-6.66699 -17.333 -16.667 -26 -30 -26c-20 0 -40.667 10.667 -62 32l-4 -1l-4 1
c0 18.667 -3 34.334 -9 47.001c-7.33301 17.333 -17.666 26 -30.999 26c-21.333 0 -42.333 -11 -63 -33l-3 2c-49.333 0 -74 12.333 -74 37c0 12.667 2.66699 23.667 8 33l23 30c0 93.333 -2.33301 152.666 -7 177.999c-15.333 74 -51.666 111 -108.999 111
c-34.667 0 -62.5 -13.333 -83.5 -40s-31.5 -57.667 -31.5 -93l22 5c21.333 0 32 -24.333 32 -73c0 -17.333 -2.66699 -33 -8 -47c-6 -16.667 -14 -26 -24 -28c-6 0 -14 1.16699 -24 3.5s-17 3.83301 -21 4.5c-8 0 -15.167 -8.16699 -21.5 -24.5s-9.5 -33.833 -9.5 -52.5
c0 -46.667 13.333 -70 40 -70l14 3l1 -20v-18c-27.333 -20 -41 -41.667 -41 -65c0 -19.333 18.333 -32.666 55 -39.999c15.333 0 39.333 -3.66699 72 -11c12.667 -5.33301 19 -14.666 19 -27.999s-2.33301 -24 -7 -32l-16 -30l25 -27l27 -25l-2 -27
c-2.66699 -36 12.333 -54 45 -54c15.333 0 34.833 10.5 58.5 31.5s41.5 31.5 53.5 31.5s23.333 -8.33301 34 -25c4 -6 8.66699 -20.333 14 -43h24l24 -1h13l14 2l28 -27c8.66699 -8.66699 21 -13 37 -13c12.667 0 24 11.667 34 35
c0.666992 24.667 6.33398 57.334 17.001 98.001c6.66699 10.667 15.334 16 26.001 16c22 0 42.333 -7.33301 61 -22c24 22.667 43.333 43.334 58 62.001c52.667 0 79 14 79 42c0 15.333 -6.66699 31.666 -20 48.999c-30 35.333 -45 58.666 -45 69.999c0 20 22.333 35 67 45z
" />
    <glyph glyph-name="u0636" unicode="&#x636;" horiz-adv-x="1812" arabic-form="isolated" 
d="M988 364c44.667 56.667 93.332 97.333 145.999 122c7.33301 44.667 23.666 67 48.999 67c8.66699 0 20 -4.33301 34 -13c3.33301 -2.66699 7.33301 -6.33398 12 -11.001l14 -16h13l56 -1l39 -9c30 -6 52 -17 66 -33l-10 -13l-9 -16c-4.66699 -8 -7 -18.333 -7 -31
c0 -25.333 26 -38 78 -38l1 -8c-11.333 -25.333 -25.333 -41.666 -42 -48.999c-8 -3.33301 -17 -5 -27 -5c-11.333 0 -28.166 18 -50.499 54s-43.166 54 -62.499 54c-16 0 -35.333 -18 -58 -54s-41.667 -54 -57 -54c-14.667 0 -28.667 6.33301 -42 19
c-5.33301 6 -13 17.667 -23 35h-120zM822.998 -20.001l8.99805 -17.9961c12 -24 29.333 -36 52 -36c12.667 0 29.834 18 51.501 54s40.5 54 56.5 54c15.333 0 34 -18 56 -54s41 -54 57 -54c15.333 0 33.833 18 55.5 54s40.5 54 56.5 54c15.333 0 34 -18 56 -54
s41 -54 57 -54c15.333 0 33.833 18 55.5 54s39.167 54 52.5 54s26.333 -6.33301 39 -19l11 -17l11 -18l30 1c10.667 -14 21 -24 31 -30l15 -7l17 -2c8.66699 0 19 8 31 24c4.66699 7.33301 9.66699 21 15 41l16 13l12 13l-24 27c-7.33301 14 -11 27.333 -11 40
s21.167 26.167 63.5 40.5s63.5 29.5 63.5 45.5c0 18.667 -6 33 -18 43l-13 11l-19 11l1 9l-1 14c-39.333 16 -59 34.667 -59 56c0 12.667 14.667 31 44 55s44 43.333 44 58c0 16 -9.33301 29.667 -28 41c-17.333 7.33301 -33.333 11 -48 11c-45.333 0 -68 12.667 -68 38
c0 12.667 2.66699 24.667 8 36c4.66699 8.66699 11 17.334 19 26.001c-6.66699 12.667 -16.667 26.667 -30 42l5 21l1 22c2.66699 29.333 -9.33301 44 -36 44c-12.667 0 -22.667 -1.33301 -30 -4l-24 -9l-19 -17c-13.333 -12 -27.666 -18 -42.999 -18
c-24 0 -38.333 23.667 -43 71l-37 2l-38 -2c-8 11.333 -16.667 20.666 -26 27.999l-20 10l-24 4c-13.333 0 -25.666 -23.333 -36.999 -70s-24.666 -70 -39.999 -70c-16.667 0 -30 3.33301 -40 10c-7.33301 4 -16 11 -26 21l-25 -12l-35 -19l-28 16
c-9.33301 3.33301 -21.333 5 -36 5c-12.667 0 -22.334 -10 -29.001 -30l-3 -24v-13l2 -15c-16.667 -10.667 -33 -23.334 -49 -38.001l6 -22l1 -36c1.33301 -18.667 -7 -28 -25 -28c-19.333 0 -32.666 1 -39.999 3l-21 7c14 16 21 33.333 21 52c0 38 -19 65 -57 81
c0 36 -10.333 66.333 -31 91c-22 27.333 -50.333 41 -85 41c-36 0 -64 -12.833 -84 -38.5s-30 -56.834 -30 -93.501c38.667 -13.333 58 -35.666 58 -66.999c0 -17.333 -10.667 -34 -32 -50c-44 -34 -66 -60.667 -66 -80c0 -20 12.667 -37 38 -51
c53.333 -30.667 80 -56 80 -76c0 -18.667 -10.667 -36.334 -32 -53.001c-44.667 -35.333 -67 -61 -67 -77c0 -30 19.667 -52 59 -66l20 -28c6.66699 -12 10 -24.333 10 -37c0 -11.333 -9 -21 -27 -29c-5.33301 -2 -21 -4.33301 -47 -7l-4 -4c-19.333 22 -41 33 -65 33
c-14 0 -23.667 -9 -29 -27l-7 -19l-1 -27h-4h-4c-21.333 -21.333 -42.666 -32 -63.999 -32c-12 0 -22 9 -30 27c-6 13.333 -9 28.333 -9 45l-3 3l11 14l11 18c5.33301 9.33301 8 20 8 32c0 24 -24.333 36 -73 36l2 129c1.33301 106.667 -28.334 160 -89.001 160
c-53.333 0 -91 -13.667 -113 -41c-20.667 -24.667 -31 -55.334 -31 -92.001c-6 2.66699 -13.667 4 -23 4c-8 0 -15.167 -8.16699 -21.5 -24.5s-9.5 -34.5 -9.5 -54.5c0 -22 4.33301 -39.333 13 -52c5.33301 -10.667 12.333 -16.334 21 -17.001l19 3l23 5
c21.333 0 32 -27.333 32 -82c0 -39.333 -13 -60.666 -39 -63.999l-15 2l1 -19v-18c24 -4 41 -10.5 51 -19.5s15 -19.167 15 -30.5c0 -8.66699 -10.667 -25.5 -32 -50.5s-32 -46.167 -32 -63.5c0 -28.667 26.667 -43 80 -43l25 -27l27 -25l27 16l18 5l19 2
c12.667 0 22 -10 28 -30c-2 -18.667 4 -50.334 18 -95.001c10 -15.333 20.667 -23 32 -23s23 4.66699 35 14l26 25h18h14h37l6 1c6.66699 45.333 23 68 49 68c9.33301 0 26.666 -10 51.999 -30s46 -30 62 -30c19.333 0 32 9.33301 38 28l2 15l1 19l-1 18
c24 22 43.333 42.333 58 61l-17 31c-4.66699 8 -7 19.667 -7 35c0 12.667 9.66699 22 29 28l41 3c21.333 2 38.666 7.33301 51.999 16c16 10.667 24 21.667 24 33c0 20.667 -13.667 40.667 -41 60zM1133 1201c-64 0 -96 -28.333 -96 -85c0 -58 32 -87 96 -87
c62.667 0 94 29 94 87c0 25.333 -9.16699 45.833 -27.5 61.5s-40.5 23.5 -66.5 23.5z" />
    <glyph glyph-name="u0637" unicode="&#x637;" horiz-adv-x="1451" arabic-form="isolated" 
d="M549 352c114 110.667 233.334 166 358.001 166c120 0 187.667 -55.333 203 -166c-18.667 -36 -54.667 -54 -108 -54c-22.667 0 -48.834 18 -78.501 54s-61.5 54 -95.5 54c-31.333 0 -61.833 -18 -91.5 -54s-56.834 -54 -81.501 -54c-53.333 0 -88.666 18 -105.999 54z
M118.001 353c-7.33301 0 -16.335 2.00391 -27.002 6.00391l-27 10l-23 13c0 -232 20 -360 60 -384c32.667 -20 74 -30 124 -30c8 -16.667 20.333 -29.834 37 -39.501s39.334 -14.5 68.001 -14.5c24.667 0 51.5 18 80.5 54s60.167 54 93.5 54c30 0 60.167 -18 90.5 -54
s61.833 -54 94.5 -54c30.667 0 61 18 91 54s61.667 54 95 54c30.667 0 60.834 -18 90.501 -54s56.834 -54 81.501 -54c54.667 0 90 18 106 54c40 0 80.333 14.667 121 44c43.333 31.333 65 66.333 65 105v35c-0.666992 6 -1 10.333 -1 13l-6 53l-3 82
c-23.333 5.33301 -41.333 17.666 -54 36.999s-19 42.666 -19 69.999c0 25.333 12.333 48.333 37 69c-1.33301 11.333 -4.66602 20.333 -9.99902 27c10 16.667 15 36.334 15 59.001c0 23.333 -11 45.666 -33 66.999c-18 18.667 -42.667 28 -74 28l-11 12
c-16.667 -13.333 -37.334 -20 -62.001 -20c-26 0 -48.167 9.83301 -66.5 29.5s-27.5 42.5 -27.5 68.5l-22 -1h-17c-18.667 24 -41.667 36 -69 36c-58.667 0 -93.667 -25 -105 -75l-43 -18l-38 -20l1 -13c1.33301 -26 -9 -49 -31 -69s-44 -30 -66 -30
c-23.333 0 -41.333 4.33301 -54 13l-22 -17c15.333 15.333 24.666 38.333 27.999 69c0.666992 10.667 1 24.667 1 42c0 28 -20.167 59.333 -60.5 94s-60.5 72 -60.5 112c0 40.667 16 76.834 48 108.501s48 61.5 48 89.5c0 72 -20 115.333 -60 130c0 22 -12.667 41 -38 57
c-22.667 14.667 -45.667 22 -69 22s-46 -5.66699 -68 -17c-26 -13.333 -39 -31 -39 -53c39.333 -16 59 -57.333 59 -124c0 -25.333 -16.5 -54.333 -49.5 -87s-49.5 -68.334 -49.5 -107.001c0 -38 19.667 -73.5 59 -106.5s59 -69.5 59 -109.5c0 -38.667 -16.5 -74 -49.5 -106
s-49.5 -61 -49.5 -87c0 -64.667 19.667 -106.334 59 -125.001l1 -3zM539.999 537.004z" />
    <glyph glyph-name="u0638" unicode="&#x638;" horiz-adv-x="1476" arabic-form="isolated" 
d="M778 1198c-27.333 0 -49.832 -8.99902 -67.499 -26.999s-26.5 -40.667 -26.5 -68c0 -63.333 31.333 -95 94 -95c28 0 51.5 9.16699 70.5 27.5s28.5 41.166 28.5 68.499c0 28 -9.33301 50.667 -28 68s-42.334 26 -71.001 26zM601.001 400.001
c99.333 78.667 204.334 117.999 315.001 117.999c104 0 168.333 -55.333 193 -166c-8 16.667 -20.833 29.834 -38.5 39.501s-40.834 14.5 -69.501 14.5c-22.667 0 -48.834 -18 -78.501 -54s-61.5 -54 -95.5 -54c-31.333 0 -61.666 18 -90.999 54s-55.333 54 -78 54
c-26 0 -45 -2 -57 -6zM117.002 353c-6.66699 0 -15.665 2.00195 -26.998 6.00195l-27 10l-23 13c0 -232 20 -360 60 -384c33.333 -20 75 -30 125 -30c7.33301 16.667 19.5 29.834 36.5 39.501s39.5 14.5 67.5 14.5c24.667 0 51.667 -18 81 -54s60.333 -54 93 -54
c30 0 60.167 18 90.5 54s61.833 54 94.5 54c30.667 0 61.167 -18 91.5 -54s61.833 -54 94.5 -54c31.333 0 61.666 18 90.999 54s56.666 54 81.999 54c52.667 0 87.667 -18 105 -54c41.333 0 82 14.333 122 43c43.333 30.667 65 66 65 106v35c-1.33301 6 -2 10.333 -2 13
l-6 53l-2 82c24.667 19.333 37 42.666 37 69.999c0 55.333 -24.333 90.666 -73 105.999c-2 11.333 -5.33301 20.333 -10 27c-34 0 -60.5 10.5 -79.5 31.5s-28.5 40.833 -28.5 59.5c0 29.333 5 50.333 15 63l-11 12c0 25.333 -9.33301 48.166 -28 68.499
s-40.667 30.5 -66 30.5c-23.333 0 -44 -7 -62 -21l-21 -1h-17c-12.667 -49.333 -48.334 -74 -107.001 -74c-27.333 0 -50 11.667 -68 35l-42 -18l-39 -20c-14.667 8.66699 -34 13 -58 13c-22.667 0 -44.167 -10.5 -64.5 -31.5s-29.5 -43.833 -27.5 -68.5v-12
c-12.667 -9.33301 -25.667 -20.333 -39 -33c-20.667 8.66699 -36.667 24 -48 46c-9.33301 25.333 -14 53.333 -14 84c0 27.333 16 57.166 48 89.499s48 68.833 48 109.5s-20.333 78.334 -61 113.001s-61 67 -61 97c0 64.667 16.333 105.334 49 122.001
c0 24.667 -12 44.667 -36 60c-21.333 12.667 -45 19 -71 19c-23.333 0 -45.666 -5.66699 -66.999 -17c-26 -14 -39 -31.667 -39 -53c-16 -6.66699 -28.5 -20.334 -37.5 -41.001s-13.5 -46.667 -13.5 -78c0 -29.333 19.667 -60.5 59 -93.5s59 -69.167 59 -108.5
c0 -38 -16.333 -73 -49 -105s-49 -67 -49 -105c0 -44 20.167 -80.333 60.5 -109s59.5 -59.334 57.5 -92.001l-3 -45c-0.666992 -9.33301 -4 -20.666 -10 -33.999c-8.66699 -19.333 -21 -33 -37 -41l1 -3z" />
    <glyph glyph-name="u0639" unicode="&#x639;" horiz-adv-x="824" arabic-form="isolated" 
d="M705 652c0 32.667 -11.9951 65.667 -35.9951 99c-22.667 30.667 -49.334 53.667 -80.001 69c-6.66699 56 -41.334 84 -104.001 84c-24.667 0 -46.667 -10 -66 -30c-90.667 0 -169.334 -28 -236.001 -84c-70.667 -58.667 -106 -132.667 -106 -222
c0 -136.667 38 -237.334 114 -302.001l-7 -4l4 -19l2 -26c1.33301 -18 -8.66699 -37.333 -30 -58s-41 -31 -59 -31c-18.667 0 -31.667 1 -39 3l-26 -82c-8 -34.667 -12 -58.334 -12 -71.001c0 -22 1.33301 -38 4 -48l3 -20l4 -16c-12.667 -15.333 -19 -35 -19 -59
c0 -26 10.333 -48.667 31 -68s44.334 -29 71.001 -29c20.667 -19.333 43.667 -36 69 -50c17.333 22.667 39.666 34 66.999 34c61.333 0 96.666 -26.333 105.999 -79h20c10.667 0 18 -0.666992 22 -2c85.333 0 128 44.667 128 134c0 40.667 -37.5 69.334 -112.5 86.001
s-112.5 40 -112.5 70c0 34 24.667 53 74 57l170 -4c61.333 -2 107.333 12 138 42c24.667 24.667 38.667 49.334 42 74.001v288l-30 -13l-28 -6c-109.333 0 -178.333 2.66699 -207 8c-88.667 17.333 -133 59 -133 125c0 30 10.833 52.5 32.5 67.5s50.167 22.5 85.5 22.5
c25.333 0 49.666 -4 72.999 -12l65 -23c12.667 -3.33301 24 -5 34 -5c24 0 44.333 11 61 33c15.333 20 23 42.333 23 67z" />
    <glyph glyph-name="u063A" unicode="&#x63a;" horiz-adv-x="816" arabic-form="isolated" 
d="M697 645c0 32.667 -11.9971 65.6631 -35.9971 98.9961c-22 30.667 -48.667 54 -80 70c-18 -19.333 -40.333 -29 -67 -29s-49.334 7.16699 -68.001 21.5s-30.334 34.833 -35.001 61.5c-90.667 0 -169.334 -28.667 -236.001 -86c-70.667 -60 -106 -134.667 -106 -224
c0 -134.667 38 -234.334 114 -299.001l-7 -4l-15 4l-25 1c-18.667 0.666992 -38.334 -9.33301 -59.001 -30s-30.667 -40.667 -30 -60l1 -27c1.33301 -6 3.33301 -12 6 -18l-26 -82c-8 -35.333 -12 -59.333 -12 -72c0 -22 1.33301 -38 4 -48l3 -20l4 -15l6 1
c24.667 0 46.667 -9.83301 66 -29.5s29 -42.167 29 -67.5c0 -23.333 -6 -43.666 -18 -60.999c21.333 -19.333 44.333 -36 69 -50c4 -22.667 17 -41.667 39 -57c20 -14 42 -21 66 -21c26.667 0 49.334 11 68.001 33h20c10.667 0 18 -0.333008 22 -1
c85.333 0 128 44.333 128 133c0 40.667 -37.5 69.334 -112.5 86.001s-112.5 40.334 -112.5 71.001c0 33.333 24.667 52 74 56l170 -4c61.333 -2 107.333 12 138 42c25.333 24.667 39.333 49.334 42 74.001v288l-30 -12l-28 -7c-109.333 0 -178.333 3 -207 9
c-88.667 16.667 -133 58.334 -133 125.001c0 30 10.833 52.333 32.5 67s50.167 22 85.5 22c25.333 0 49.333 -3.83301 72 -11.5l66 -22.5c12.667 -4 24 -6 34 -6c24 0 44.333 11 61 33c15.333 20 23 42.333 23 67zM363.003 1197c-27.333 0 -50.5 -8.16797 -69.5 -24.501
s-28.5 -38.166 -28.5 -65.499c0 -23.333 6 -45.333 18 -66c13.333 -24.667 31 -37 53 -37c81.333 0 122 32.333 122 97c0 64 -31.667 96 -95 96z" />
    <glyph glyph-name="u0641" unicode="&#x641;" horiz-adv-x="1376" arabic-form="isolated" 
d="M927 1172c-27.333 0 -51.332 -7.33105 -71.999 -21.998c-23.333 -16.667 -35 -38.334 -35 -65.001s11.333 -47.667 34 -63c20 -14 43.667 -21 71 -21c28 0 52.333 7.33301 73 22c23.333 16 35 37.667 35 65c0 25.333 -11.667 46.666 -35 63.999
c-18.667 13.333 -42.334 20 -71.001 20zM1004 557.002c31.333 0 58.667 -17 82 -51c20 -30 30 -59.333 30 -88c0 -48.667 -27.667 -73 -83 -73c-22 0 -35.667 11.667 -41 35l3 63l-16 15l-13 17c-10 16 -15 29.333 -15 40c0 28 17.667 42 53 42zM1305 174.002
c0.666992 10.667 0.665039 25.332 -0.00195312 43.999c-0.666992 22.667 -1 37.667 -1 45v55c-1.33301 9.33301 -2 16 -2 20v41c-2 12.667 -3.33301 22 -4 28c0 12.667 -3 37 -9 73c16 18 24 39.667 24 65c0 24.667 -8.33301 47.334 -25 68.001
c-18.667 21.333 -40.334 32 -65.001 32c-18 25.333 -37.667 49 -59 71c-16 -10.667 -36 -16 -60 -16s-46.333 10.333 -67 31c-8 8 -15 18.667 -21 32c-4 17.333 -6 31 -6 41l-26 3h-19c-18.667 17.333 -40.667 26 -66 26c-39.333 0 -69.333 -18.667 -90 -56
c-4.66699 -10.667 -7 -22.334 -7 -35.001l-13 -14c16.667 -17.333 25 -38.666 25 -63.999c0 -58 -30.333 -91 -91 -99c0 -37.333 11.667 -73 35 -107l61 -88c-14.667 19.333 -41.667 31.333 -81 36c-14 2 -28.667 3 -44 3c-27.333 0 -59 -18 -95 -54s-75 -54 -117 -54
c-45.333 0 -83.666 18 -114.999 54c-26 30 -58.667 45 -98 45h-25l-23 1l-21 -1c-6.66699 -0.666992 -12.667 -2.33398 -18 -5.00098c-19.333 -7.33301 -34.333 -20.666 -45 -39.999l-27 1c-26 3.33301 -55 15.666 -87 36.999c0 -226.667 23.667 -354.334 71 -383.001
c42.667 -26 83 -39 121 -39c7.33301 16.667 19.5 29.834 36.5 39.501s39.5 14.5 67.5 14.5c22.667 0 48.834 -18 78.501 -54s60.834 -54 93.501 -54c30.667 0 61 18 91 54s61.333 54 94 54c31.333 0 61.666 -18 90.999 -54s56.333 -54 81 -54c53.333 0 88.333 18 105 54
c36 0 67 0.333008 93 1l75 2c36.667 0 61.334 3.33301 74.001 10c43.333 20.667 73.333 45.334 90 74.001c8 14 14 31.667 18 53z" />
    <glyph glyph-name="u0642" unicode="&#x642;" horiz-adv-x="1065" arabic-form="isolated" 
d="M742 325c-26 6 -52.168 24.833 -78.501 56.5s-39.5 60.5 -39.5 86.5c0 42 17.333 63 52 63c19.333 0 37 -20.667 53 -62c12.667 -33.333 18.334 -59 17.001 -77l-2 -46zM913.999 530c10 15.333 15.001 35 15.001 59c0 23.333 -10.333 45.666 -31 66.999
c-18.667 18.667 -43.334 28 -74.001 28l-9 10l-7 7c-20 -14 -41.333 -21 -64 -21c-25.333 0 -47.5 9.83301 -66.5 29.5s-28.5 42.5 -28.5 68.5h-20c-16 14 -37 21 -63 21s-48.333 -9.5 -67 -28.5s-28 -41.5 -28 -67.5l-8 -9l-8 -9c18 -18 27 -40 27 -66
c0 -25.333 -8.16699 -48 -24.5 -68s-36.833 -31.333 -61.5 -34v-27c0 -12 0.666992 -19.667 2 -23c-19.333 -17.333 -29 -39.333 -29 -66c0 -61.333 29 -96 87 -104c6.66699 -12.667 17.667 -27.667 33 -45c13.333 9.33301 32 14 56 14c23.333 0 44.666 -10.5 63.999 -31.5
s28 -42.833 26 -65.5v-14l19 -2l17 3l14 4c-10.667 -8 -20.334 -20 -29.001 -36l-7 -23l-3 -28c0 -19.333 8 -38 24 -56l-7 -6c0 -26.667 -9.33301 -49.5 -28 -68.5s-41.334 -28.5 -68.001 -28.5c-23.333 0 -43.333 6.66699 -60 20c-135.333 0 -211 71.333 -227 214
c-11.333 94 -17.666 143.667 -18.999 149c-14.667 44.667 -43.667 67 -87 67c-88.667 0 -133 -46.333 -133 -139v-25c0 -2.66699 0.666992 -11.334 2 -26.001l7 -87v-35l4 -23c6 -42 22 -87.667 48 -137c13.333 -24.667 28 -47 44 -67c-4 -9.33301 -6 -23.333 -6 -42
c0 -19.333 10.167 -39.166 30.5 -59.499s39.833 -30.5 58.5 -30.5c17.333 0 32 2 44 6l49 -33c17.333 19.333 39.333 29 66 29c60.667 0 95 -29 103 -87c36.667 0 71 2.66699 103 8c16.667 -13.333 37.334 -20 62.001 -20s47.334 9.66699 68.001 29s31 42 31 68l44 40
c10.667 9.33301 18 17.333 22 24c-10 15.333 -15 35.333 -15 60c0 23.333 10 45 30 65c15.333 12.667 38.333 22 69 28c26 4.66699 45 16.334 57 35.001c14.667 22 22 47 22 75c0 25.333 -13.333 47.666 -40 66.999v156c-1.33301 140.667 -11.333 236.334 -30 287.001z
M735 180l7 3l-1 -3h-6zM753 1127c-32.667 0 -60.165 -10.167 -82.498 -30.5s-33.5 -46.5 -33.5 -78.5c0 -30.667 11.167 -55.667 33.5 -75s49.166 -29 80.499 -29s59 10.167 83 30.5s36 45.833 36 76.5c0 30 -11.833 55.167 -35.5 75.5s-50.834 30.5 -81.501 30.5z
M484.002 1136c-31.333 0 -58.667 -10.1689 -82 -30.502s-35 -45.833 -35 -76.5c0 -31.333 11.333 -56.666 34 -75.999s49.667 -29 81 -29s58.833 10.167 82.5 30.5s35.5 45.833 35.5 76.5s-11.5 55.834 -34.5 75.501s-50.167 29.5 -81.5 29.5z" />
    <glyph glyph-name="u0643" unicode="&#x643;" horiz-adv-x="1342" arabic-form="isolated" 
d="M624 408c-34 0 -67.1699 -18.001 -99.5029 -54.001s-66.5 -54 -102.5 -54c-34.667 0 -67.834 18 -99.501 54s-60.5 54 -86.5 54c-60.667 0 -99.334 -18 -116.001 -54l-30 2c-10 2 -18.667 4.66699 -26 8l-27 10l-33 18c0 -227.333 24 -355 72 -383
c44 -26 84.333 -39 121 -39c7.33301 16.667 19.5 29.834 36.5 39.501s39.5 14.5 67.5 14.5c22.667 0 48.834 -18 78.501 -54s60.834 -54 93.501 -54c30.667 0 61.167 18 91.5 54s61.5 54 93.5 54c30.667 0 61 -18 91 -54s61.333 -54 94 -54c30.667 0 60.834 18 90.501 54
s56.834 54 81.501 54c52.667 0 87.667 -18 105 -54c5.33301 0 16 11 32 33l29 40c23.333 38 35 74.667 35 110v60l-1 21c-0.666992 9.33301 -2 19.666 -4 30.999c14.667 17.333 22 38.333 22 63c0 26.667 -9.33301 50 -28 70s-41 30 -67 30l-13 18l-14 23l-38 -2
c-17.333 -0.666992 -35.666 10.5 -54.999 33.5s-29 43.5 -29 61.5c0 21.333 3.33301 37.333 10 48c-14 18 -30.667 36.333 -50 55l-58 57c-24.667 24.667 -65 56 -121 94c52 23.333 96 42 132 56l263 100c40 14 68.667 26.667 86 38c27.333 18 41 42 41 72
c0 23.333 -9.66699 47.5 -29 72.5s-40.333 37.5 -63 37.5h-20c-4.66699 0 -11 -1 -19 -3l-25 -9c-17.333 18 -39.666 27 -66.999 27c-28 0 -53.667 -9 -77 -27s-35.666 -40.667 -36.999 -68s-16.333 -50.666 -45 -69.999c-25.333 -17.333 -52.333 -26 -81 -26
c-26.667 0 -48.334 7 -65.001 21l-104 -46l-83 -35c-34 -14.667 -51 -42 -51 -82c0 -68 11.667 -113.333 35 -136c-2 -5.33301 -3 -16.666 -3 -33.999c0 -18 12.833 -38.167 38.5 -60.5s47.5 -33.5 65.5 -33.5c20.667 0 38 3 52 9l192 -162c40.667 -38.667 61 -64 61 -76
c0 -10.667 -3.33301 -18.334 -10 -23.001l-22 -4c-17.333 -36 -53.333 -54 -108 -54c-41.333 0 -75.333 18 -102 54s-60.334 54 -101.001 54z" />
    <glyph glyph-name="u0644" unicode="&#x644;" horiz-adv-x="893" arabic-form="isolated" 
d="M67 -82c24 0 45.0039 -10.667 63.0039 -32s27 -44 27 -68c0 -22.667 -8 -44.667 -24 -66c18 -26.667 44 -54.334 78 -83.001c0 -25.333 10 -47.333 30 -66s42.667 -28 68 -28c26 0 47.667 7.33301 65 22l48 -4h24l10 1l29 4c0 26 9.83301 48.667 29.5 68s42.5 29 68.5 29
c24 0 45 -7 63 -21c9.33301 8 14.666 12.667 15.999 14c7.33301 6.66699 15.666 16 24.999 28l39 49c24 0 44.667 11.333 62 34c17.333 18.667 26 41.334 26 68.001c0 26 -8.33301 47.667 -25 65l2 31c0 16.667 0.666992 27.667 2 33c-20.667 8 -36.334 22.333 -47.001 43
s-16 47 -16 79c0 24.667 15.5 52.834 46.5 84.501s46.5 65.834 46.5 102.501c0 36 -20.833 70.833 -62.5 104.5s-62.5 68.834 -62.5 105.501c0 34 15.5 67.667 46.5 101s46.5 67.666 46.5 102.999s-20.667 70 -62 104s-62 69 -62 105s15.5 69.667 46.5 101s46.5 60 46.5 86
c0 65.333 -20.667 105.666 -62 120.999c0 32.667 -22.667 56.667 -68 72c-12 4.66699 -24.667 7 -38 7c-25.333 0 -48.333 -6.66699 -69 -20c-23.333 -15.333 -35 -35 -35 -59c39.333 -16 59 -52.333 59 -109c0 -22.667 -15.833 -49 -47.5 -79s-47.5 -61.667 -47.5 -95
c0 -31.333 20 -62.333 60 -93s60 -62.667 60 -96c0 -32.667 -15.833 -64 -47.5 -94s-47.5 -61.667 -47.5 -95s20.167 -65.166 60.5 -95.499s60.5 -61.5 60.5 -93.5s-16 -62.833 -48 -92.5s-48 -56.834 -48 -81.501c0 -28.667 5 -51.334 15 -68.001s25 -30.334 45 -41.001
c0 -39.333 -15.167 -71.833 -45.5 -97.5s-65.833 -38.5 -106.5 -38.5c-39.333 0 -73 14 -101 42c-30.667 31.333 -46 80 -46 146v23c0 28 -1.66699 51.333 -5 70c0 19.333 -3.66699 41.333 -11 66c-14.667 50.667 -42.334 76 -83.001 76
c-36.667 0 -67.167 -11.667 -91.5 -35s-36.5 -53.333 -36.5 -90c24 -7.33301 42 -31.666 54 -72.999c9.33301 -33.333 14 -63.333 14 -90c0 -62 -13.667 -103.667 -41 -125l1 -29v-17c1.33301 -6.66699 2.33301 -11 3 -13z" />
    <glyph glyph-name="u0645" unicode="&#x645;" horiz-adv-x="1103" arabic-form="isolated" 
d="M240 -355c32.667 0 62.332 13.333 88.999 40c20 19.333 30 39 30 59c0 8.66699 -1.33301 16.667 -4 24c29.333 16.667 44 51 44 103c0 60 -21 99.333 -63 118h25c20.667 0 43 1.33301 67 4c13.333 0.666992 33.333 5 60 13s48.334 28.667 65.001 62l53 140
c24 64.667 46.667 112 68 142c23.333 32.667 46.666 49 69.999 49s43 -15.333 59 -46c12 -23.333 18 -47.666 18 -72.999c0 -24.667 -2.33301 -44 -7 -58c-3.33301 -10.667 -8 -16.667 -14 -18l-99 -12c-68.667 -8 -103 -39.667 -103 -95c0 -54 24.667 -95 74 -123
c40 -22 89.333 -33 148 -33c66 0 123 39.333 171 118c40 65.333 60 128 60 188c0 57.333 -2 100.333 -6 129c-22.667 0 -43 11.333 -61 34c-16 19.333 -24 43 -24 71c0 26 10 48 30 66c-8.66699 16.667 -20.667 36 -36 58c-13.333 19.333 -27.333 35.666 -42 48.999
c0 27.333 -9.16699 51.833 -27.5 73.5s-41.166 32.5 -68.499 32.5c-21.333 0 -40.666 -5.66699 -57.999 -17l-42 4h-35c0 -24.667 -10.667 -45.834 -32 -63.501s-44.333 -26.5 -69 -26.5c-22.667 0 -44 8.33301 -64 25l-39 -37l-11 1
c-24.667 2 -47.334 -8.66699 -68.001 -32c-19.333 -20.667 -29 -42.667 -29 -66c0 -22.667 5 -41 15 -55c-20 -60 -53.333 -90 -100 -90c-21.333 0 -49.333 9.66699 -84 29s-61.334 29 -80.001 29c-19.333 0 -32.333 -9.33301 -39 -28
c-1.33301 -5.33301 -2 -24.666 -2 -57.999v-22c40.667 -16 61 -53.667 61 -113c0 -24 -15.5 -50.833 -46.5 -80.5s-46.5 -62.167 -46.5 -97.5c0 -38 20.667 -70.333 62 -97c43.333 -28.667 64.333 -57.667 63 -87l-3 -40c-0.666992 -10 -4 -20.333 -10 -31
c-7.33301 -16 -18.333 -28.667 -33 -38c0 -34 10.333 -62.667 31 -86c22.667 -25.333 50.334 -38 83.001 -38z" />
    <glyph glyph-name="u0646" unicode="&#x646;" horiz-adv-x="920" arabic-form="isolated" 
d="M324 732c-25.333 0 -47.335 -8.33203 -66.002 -24.999s-28 -37.667 -28 -63c0 -24.667 8.83301 -44.834 26.5 -60.501s39.834 -23.5 66.501 -23.5s49.834 7.83301 69.501 23.5s29.5 36.5 29.5 62.5c0 25.333 -9.83301 46 -29.5 62s-42.5 24 -68.5 24zM58.998 -104.999
c-16 -16 -23.998 -36.667 -23.998 -62c0 -26 9.33301 -49.5 28 -70.5s40.667 -31.5 66 -31.5l10 -12l21 -23l38 -33c16.667 15.333 37.667 23 63 23c26 0 49.333 -9.33301 70 -28s31 -40.667 31 -66l29 -2h29c18 -18 39.667 -27 65 -27s47.833 8 67.5 24
s31.167 36.333 34.5 61l11 7l11 9c-4.66699 11.333 -7 26.666 -7 45.999c0 18.667 10 38.334 30 59.001s39.333 31 58 31c16.667 0 30.334 -2 41.001 -6c20.667 33.333 36.667 67.5 48 102.5s17 69.5 17 103.5c30 20.667 45 61.334 45 122.001c0 28 -20.667 59.167 -62 93.5
s-62 71.166 -62 110.499c0 38 15.333 72.833 46 104.5s46 60.834 46 87.501c0 34.667 -5.33301 62 -16 82c-8.66699 22.667 -23.667 38 -45 46c-11.333 46.667 -25 78 -41 94c-16.667 13.333 -39.334 20 -68.001 20c-30.667 0 -56.834 -11.333 -78.501 -34
s-32.5 -49.334 -32.5 -80.001c42 -14.667 63 -67.334 63 -158.001c0 -32 -14.833 -65.5 -44.5 -100.5s-44.5 -69.167 -44.5 -102.5c0 -87.333 21.333 -140 64 -158c0 -49.333 -16.833 -89.166 -50.5 -119.499s-75.5 -45.5 -125.5 -45.5c-56 0 -93 35.667 -111 107l-21 199
c-8 71.333 -37 107 -87 107c-44.667 0 -76.334 -10.333 -95.001 -31s-28 -48.334 -28 -83.001c20 -9.33301 35.667 -34.333 47 -75c6.66699 -27.333 10 -57.666 10 -90.999c0 -80 -16.333 -130 -49 -150z" />
    <glyph glyph-name="u0647" unicode="&#x647;" horiz-adv-x="812" arabic-form="isolated" 
d="M84 402c0 -136 41.001 -248.335 123.001 -337.002c16.667 13.333 37 20 61 20c25.333 0 47.666 -10.667 66.999 -32s29 -44.666 29 -69.999l43 -2h36c17.333 -18.667 39 -28 65 -28c59.333 0 94 27.667 104 83c20 14.667 37.333 33 52 55
c-20.667 18.667 -31 41.334 -31 68.001c0 59.333 28 93.333 84 102v48l-1 49c22.667 19.333 34 42.333 34 69c0 61.333 -25.667 96.333 -77 105c-34.667 78.667 -78.667 143 -132 193c-64.667 60 -134.334 90 -209.001 90c-70.667 0 -131.667 -10.667 -183 -32
c-67.333 -28.667 -101 -64.334 -101 -107.001c0 -41.333 10.833 -75.333 32.5 -102s45.5 -39 71.5 -37l20 2c42.667 20 84 30 124 30c29.333 0 62.5 -14.333 99.5 -43s55.5 -57 55.5 -85c0 -21.333 -8.33301 -40.833 -25 -58.5s-34.667 -26.167 -54 -25.5l-23 1l-8 1
c-19.333 10.667 -40 42.334 -62 95.001c-17.333 40.667 -44.333 61 -81 61c-33.333 0 -60.666 -10.333 -81.999 -31s-32 -48 -32 -82z" />
    <glyph glyph-name="u0648" unicode="&#x648;" horiz-adv-x="742" arabic-form="isolated" 
d="M309 -258c0 -30 16.165 -64.332 48.498 -102.999s63.166 -58 92.499 -58c22.667 0 43 4.16699 61 12.5s32.333 16.166 43 23.499c38.667 27.333 69.667 69.666 93 126.999c7.33301 18.667 14.333 42.334 21 71.001c4.66699 19.333 9.66699 49.666 15 90.999l5 72l3 86
l1 238c-52.667 8.66699 -79 44.334 -79 107.001c0 27.333 11.333 49.666 34 66.999l-10 22l-8 18c6.66699 14 10 32.667 10 56c0 22 -11.667 44 -35 66c-17.333 16.667 -37.666 25 -60.999 25l-19 -1l-12 10l-11 10c-19.333 -16 -41.333 -24 -66 -24
c-26 0 -48.833 8.66699 -68.5 26s-29.5 39 -29.5 65l-27 -1c-7.33301 0 -15 -0.666992 -23 -2c-16.667 13.333 -37 20 -61 20c-25.333 0 -47.666 -10.333 -66.999 -31s-29 -43.667 -29 -69c-11.333 -9.33301 -22.333 -20.666 -33 -33.999c-12 -15.333 -21 -29 -27 -41
c18.667 -18 28 -40 28 -66c0 -25.333 -8 -48 -24 -68s-36.333 -32 -61 -36l-2 -26l-1 -28l1 -30l2 -26c-18 -17.333 -27 -39 -27 -65c0 -60.667 29.333 -95 88 -103c4 -8.66699 12.667 -20.334 26 -35.001l31 -34c18.667 12.667 41.667 19 69 19c22 0 42.5 -11 61.5 -33
s28.5 -44.333 28.5 -67c8.66699 0 15 -0.333008 19 -1l22 -1c8 -0.666992 24 7.33301 48 24l51 34c8.66699 0 15 -7.66699 19 -23l3 -23l1 -42c0.666992 -31.333 -23.166 -72.666 -71.499 -123.999s-72.5 -83 -72.5 -95zM424.998 193.001
c-10.667 27.333 -26.332 44 -46.999 50l-75 6c-19.333 2 -37 14.667 -53 38c-13.333 24.667 -20 49 -20 73c0 56 27.333 84 82 84c29.333 0 62.166 -20.833 98.499 -62.5s54.5 -77.5 54.5 -107.5c0 -26 -6.5 -45 -19.5 -57s-19.833 -20 -20.5 -24z" />
    <glyph glyph-name="u0649" unicode="&#x649;" horiz-adv-x="1170" arabic-form="isolated" 
d="M761 520c0 11.333 4.33301 24.335 13 39.002c44.667 37.333 104 64.333 178 81c4.66699 0 13.334 -1.66699 26.001 -5l26 -6c21.333 -5.33301 35.333 -11.333 42 -18l9 -1c16.667 0 31.334 17.333 44.001 52c10.667 28.667 16 54.667 16 78c0 24 -13.667 45 -41 63
c-25.333 16 -50.666 24 -75.999 24c-28 0 -50 -1.33301 -66 -4c-8.66699 -53.333 -44.334 -80 -107.001 -80c-26.667 0 -48.667 10.667 -66 32l-78 -41l-20 -14c-12 2.66699 -25.667 4 -41 4c-18.667 0 -37.5 -10.5 -56.5 -31.5s-28.5 -40.833 -28.5 -59.5
c0 -18 2.66699 -33.667 8 -47l-15 -39l-4 -28l-2 -40c-1.33301 -29.333 32.667 -64.333 102 -105c42 -24.667 98.333 -47 169 -67c20.667 -6 31 -23 31 -51c0 -20.667 -30.667 -37 -92 -49c-27.333 -6 -74 -9 -140 -9c-63.333 0 -118 7 -164 21
c-70 21.333 -105 56.666 -105 105.999c-20.667 8.66699 -36 23.667 -46 45l-11 33l-3 34c0 50.667 16.667 85 50 103c0 76.667 -48 115 -144 115c-50.667 0 -76 -36.333 -76 -109c-18 -8.66699 -30.667 -28 -38 -58c-7.33301 -25.333 -10.333 -50 -9 -74l3 -44
c0.666992 -8 4 -22.667 10 -44c11.333 -37.333 28 -61 50 -71l1 -26l5 -28l10 1c24.667 0 47 -9.83301 67 -29.5s30 -41.5 30 -65.5c0 -22.667 -5 -41.667 -15 -57l15 -14l29 -21c0 -26 10 -48.833 30 -68.5s43 -29.5 69 -29.5c20 0 43.667 10.667 71 32s50.333 32 69 32
c50.667 0 84 -22 100 -66l3 -1l8 1c18 -30 47.333 -45 88 -45c35.333 0 66.166 25.667 92.499 77s55.166 77 86.499 77c35.333 0 61.666 -8.33301 78.999 -25l23 14l22 17l14 -1c35.333 -2 65 18 89 60c4.66699 11.333 7 22.666 7 33.999c0 23.333 -4.33301 41.333 -13 54
l3 25l2 88c0.666992 49.333 -28.333 94.333 -87 135c-27.333 18 -80.666 33 -159.999 45c-57.333 8 -86 24.667 -86 50z" />
    <glyph glyph-name="u064A" unicode="&#x64a;" horiz-adv-x="1125" arabic-form="isolated" 
d="M1048 221c0 97.333 -28.6689 165 -86.002 203c-28.667 18.667 -82.334 33.667 -161.001 45c-57.333 8 -86 21.333 -86 40c0 18 4.33301 34.333 13 49c44.667 37.333 104 64.333 178 81c4.66699 0 13.334 -1.66699 26.001 -5l26 -6c21.333 -5.33301 35.333 -11.333 42 -18
l9 -1c16.667 0 31.667 17.333 45 52c10.667 28.667 16 57.667 16 87c0 28.667 -23 51 -69 67c-25.333 8.66699 -50.333 12 -75 10l-40 -2c-18 21.333 -40.333 32 -67 32c-61.333 0 -96.666 -27 -105.999 -81l-77 -40l-21 -15c4.66699 -11.333 7 -27 7 -47
c0 -17.333 -9.66699 -36.833 -29 -58.5s-37.666 -32.5 -54.999 -32.5c-18 0 -31.667 1.33301 -41 4l-14 -39l-5 -28l-2 -40c-1.33301 -29.333 32.667 -64.333 102 -105c42 -24 98.333 -46.333 169 -67c20.667 -6 31 -23 31 -51c0 -20.667 -30.667 -37 -92 -49
c-26.667 -5.33301 -73 -8 -139 -8c-64 0 -118.667 6.66699 -164 20c-70.667 21.333 -106 57 -106 107c14.667 7.33301 27 21 37 41l7 24c3.33301 10.667 5 23.334 5 38.001c0 58 -19.667 95 -59 111c0 76.667 -48 115 -144 115c-50 0 -75 -36.333 -75 -109
c21.333 -6.66699 37.333 -30 48 -70c8.66699 -30.667 13 -59.334 13 -86.001c0 -73.333 -15.333 -118.333 -46 -135l1 -26l5 -28c-10.667 -14 -16 -33 -16 -57c0 -41.333 22.333 -70.666 67 -87.999c16.667 -4 30.334 -6 41.001 -6l15 -13l29 -22
c16.667 14 42.334 21 77.001 21c30.667 0 57.667 -27.333 81 -82s48.666 -82 75.999 -82c52.667 0 88 14.333 106 43l2 -1l9 1c6.66699 20 19 35.667 37 47s39 17 63 17c18.667 0 41.5 -11.667 68.5 -35s51.833 -35 74.5 -35c25.333 0 47.833 8.66699 67.5 26
s31.167 38.666 34.5 63.999l24 14l21 17c-9.33301 18 -14 37.333 -14 58c0 23.333 11.333 45 34 65c21.333 18 42.666 26.333 63.999 25l14 -1l2 25z" />
    </font>
</defs>
</svg>
