<?xml version="1.0" standalone="no"?>
<!DOCTYPE svg PUBLIC "-//W3C//DTD SVG 1.1//EN" "http://www.w3.org/Graphics/SVG/1.1/DTD/svg11.dtd" >
<svg>
<metadata>
Created by FontForge 20090914 at Wed Oct 19 00:49:23 2011
 By www-data
(c) by Abolfazl Seilsepour - +98 912 591 3420  -  seilsepor@yahoo.com
</metadata>
<defs>
<font id="FarAria" horiz-adv-x="0" >
  <font-face 
    font-family="Far.Aria"
    font-weight="400"
    font-stretch="normal"
    units-per-em="2048"
    panose-1="0 0 4 0 0 0 0 0 0 0"
    ascent="1638"
    descent="-410"
    bbox="-219 -1044 1840 2350"
    underline-thickness="60"
    underline-position="-650"
    unicode-range="U+0020-U+FEFC"
  />
<missing-glyph horiz-adv-x="1024" 
d="M128 0v1415h768v-1415h-768zM256 128h512v1159h-512v-1159z" />
    <glyph glyph-name="uE818" unicode="&#x651;&#x64b;" 
d="M229 1805v-189c0 -36 -18 -54 -54 -54h-281v156c0 30 -7.66699 46.333 -23 49c33.333 0 50 -15.667 50 -47c0 31.333 17 47 51 47c-16 -2.66699 -24 -19 -24 -49v-102h87v145c0 30 -8 46.333 -24 49c34 0 51 -15.667 51 -47c0 31.333 16.667 47 50 47
c-15.333 -2 -23 -18.333 -23 -49v-145h86v189c0 29.333 -7.66699 45.333 -23 48c33.333 0 50 -15.333 50 -46c0 30.667 16.667 46 50 46c-15.333 -2 -23 -18 -23 -48zM-59 1890c-22 -13.333 -33 -26.668 -33 -40.001c0 -2.66699 0.333008 -5.33398 1 -8.00098
c-10.667 19.333 -11.667 36.333 -3 51c4.66699 8 11.334 14.667 20.001 20c-17.333 -9.33301 -33.333 -9.66602 -48 -0.999023c-8 4.66699 -15.333 12 -22 22c1.33301 -1.33301 3.33301 -2.66602 6 -3.99902c12 -7.33301 29 -4.33301 51 9l224 129c22 12.667 33 26 33 40
c0 2.66699 -0.333008 5 -1 7c10.667 -18.667 11.667 -35.667 3 -51c-4.66699 -8 -11.334 -14.667 -20.001 -20c17.333 9.33301 33.333 9.66602 48 1c8 -4 15.333 -11.333 22 -22c-1.33301 2 -3.33301 3.66699 -6 5c-12 6.66699 -29 3.66699 -51 -9zM-91 2039
c-22 -12.667 -33 -25.667 -33 -39c0 -3.33301 0.333008 -6 1 -8c-6 10.667 -9 20.667 -9 30c0 17.333 8.66699 31 26 41c-17.333 -9.33301 -33.333 -9.66602 -48 -1c-8 4.66699 -15.333 12 -22 22c1.33301 -1.33301 3.33301 -3 6 -5c12 -6.66699 29 -3.66699 51 9l224 130
c22 12.667 33 25.667 33 39c0 3.33301 -0.666992 6 -2 8c6 -10.667 9 -20.667 9 -30c0 -17.333 -8.33301 -31 -25 -41c17.333 9.33301 33.333 9.66602 48 1c8 -4.66699 15.333 -12 22 -22c-1.33301 1.33301 -3.33301 3 -6 5c-12 6.66699 -29 3.66699 -51 -9z" />
    <glyph glyph-name="uFC5E" unicode="&#x651;&#x64c;" arabic-form="isolated" 
d="M196 1817v-189c0 -36 -18 -54 -54 -54h-280v156c0 30 -8 46.333 -24 49c33.333 0 50 -15.667 50 -47c0 31.333 17 47 51 47c-16 -2.66699 -24 -19 -24 -49v-102h87v145c0 30 -7.66699 46.333 -23 49c33.333 0 50 -15.667 50 -47c0 31.333 16.667 47 50 47
c-15.333 -2.66699 -23 -19 -23 -49v-145h86v189c0 29.333 -7.66699 45.333 -23 48c33.333 0 50 -15.667 50 -47c0 31.333 17 47 51 47c-16 -2 -24 -18 -24 -48zM189 2262v-289c0 -29.333 -13 -44 -39 -44h-95c-21.333 0 -33 -6.33301 -35 -19c0 27.333 11.333 41 34 41
c-22.667 0 -34 13.667 -34 41c1.33301 -12.667 13 -19 35 -19h95v251h-24c-22.667 0 -41.5 -8.66699 -56.5 -26s-22.5 -37.666 -22.5 -61v-28h62c22 0 33.667 6.33301 35 19c0 -26.667 -11.333 -40 -34 -40c22.667 0 34 -13.667 34 -41c-1.33301 12.667 -13 19 -35 19h-62
c-26 0 -39 14.333 -39 43v28c0 34.667 11 65 33 91s50.333 39 85 39h24c0 21.333 -5.66699 33 -17 35c24.667 0 37 -12.667 37 -38c0 25.333 12 38 36 38c-11.333 -2 -17 -15.333 -17 -40zM-178 1939v289c0 29.333 13 44 39 44h95c21.333 0 33 6.33301 35 19
c0 -27.333 -11.333 -41 -34 -41c22.667 0 34 -13.667 34 -41c-1.33301 12.667 -13 19 -35 19h-95v-251h24c23.333 0 42.333 8.83301 57 26.5s22 37.834 22 60.501v28h-62c-21.333 0 -33 -6.33301 -35 -19c0 27.333 11.333 41 34 41c-22.667 0 -34 13.333 -34 40
c1.33301 -12.667 13 -19 35 -19h62c26 0 39 -14.333 39 -43v-28c0 -34.667 -11 -64.834 -33 -90.501s-50.333 -38.5 -85 -38.5h-24c0 -22 5.66699 -33.667 17 -35c-24 0 -36 12.333 -36 37c0 -24.667 -12.333 -37 -37 -37c11.333 1.33301 17 14.333 17 39z" />
    <glyph glyph-name="uFC5F" unicode="&#x651;&#x64d;" arabic-form="isolated" 
d="M250 2302v-189c0 -36 -17.667 -54 -53 -54h-281v156c0 30 -8 46.333 -24 49c34 0 51 -15.667 51 -47c0 31.333 16.667 47 50 47c-15.333 -2.66699 -23 -19 -23 -49v-102h86v146c0 29.333 -7.66699 45.333 -23 48c33.333 0 50 -15.667 50 -47c0 31.333 16.667 47 50 47
c-15.333 -2 -23 -18 -23 -48v-146h87v189c0 30 -8 46 -24 48c34 0 51 -15.333 51 -46c0 30.667 16.667 46 50 46c-16 -2 -24 -18 -24 -48zM4 1617c-22.667 -13.333 -34.001 -26.667 -34.001 -40c0 -2.66699 0.666992 -5 2 -7c-11.333 18.667 -12.666 35.667 -3.99902 51
c4.66699 7.33301 11.334 13.666 20.001 18.999c-17.333 -9.33301 -33.333 -9.66602 -48 -0.999023c-8 4.66699 -15 12.334 -21 23.001c0.666992 -2 2.33398 -3.66699 5.00098 -5c12 -7.33301 29 -4.33301 51 9l224 129c22 12.667 33 26 33 40c0 2.66699 -0.333008 5 -1 7
c10.667 -18.667 11.667 -35.667 3 -51c-4.66699 -8 -11.334 -14.667 -20.001 -20c17.333 9.33301 33.666 10 48.999 2c8 -4.66699 15 -12.334 21 -23.001c-1.33301 2 -3.33301 3.66699 -6 5c-11.333 6.66699 -28.333 3.66699 -51 -9zM-28.001 1766
c-22.667 -12.667 -34.001 -25.668 -34.001 -39.001c0 -2.66699 0.666992 -5.33398 2 -8.00098c-11.333 19.333 -12.666 36.333 -3.99902 51c4.66699 8 11.334 14.667 20.001 20c-17.333 -9.33301 -33.333 -9.66602 -48 -0.999023c-8 4.66699 -15 12 -21 22
c0.666992 -1.33301 2.33398 -3 5.00098 -5c12 -6.66699 29 -3.66699 51 9l224 130c22 12.667 33 25.667 33 39c0 3.33301 -0.333008 6 -1 8c10.667 -19.333 11.667 -36.666 3 -51.999c-4.66699 -7.33301 -11.334 -13.666 -20.001 -18.999
c17.333 9.33301 33.666 9.66602 48.999 0.999023c7.33301 -4.66699 14.333 -12 21 -22c-1.33301 2 -3.33301 3.66699 -6 5c-12 6.66699 -29 3.66699 -51 -9z" />
    <glyph glyph-name="uFC60" unicode="&#x651;&#x64e;" arabic-form="isolated" 
d="M240 1808v-189c0 -35.333 -18 -53 -54 -53h-281v156c0 29.333 -7.66699 45.333 -23 48c33.333 0 50 -15.667 50 -47c0 31.333 16.667 47 50 47c-15.333 -2 -23 -18 -23 -48v-103h87v146c0 30 -8 46.333 -24 49c33.333 0 50 -15.667 50 -47c0 31.333 17 47 51 47
c-16 -2.66699 -24 -19 -24 -49v-146h87v189c0 30 -7.66699 46.333 -23 49c33.333 0 50 -15.667 50 -47c0 31.333 16.667 47 50 47c-15.333 -2.66699 -23 -19 -23 -49zM-49 1878c-22.667 -12.667 -34.002 -25.667 -34.002 -39c0 -2.66699 0.666992 -5.33398 2 -8.00098
c-11.333 19.333 -12.666 36.333 -3.99902 51c4.66699 8 11.334 14.667 20.001 20c-17.333 -9.33301 -33.333 -9.66602 -48 -0.999023c-8 4.66699 -15 12 -21 22c0.666992 -1.33301 2.33398 -3 5.00098 -5c12 -6.66699 29 -3.66699 51 9l224 130c22 12.667 33 25.667 33 39
c0 3.33301 -0.333008 6 -1 8c10.667 -19.333 11.667 -36.666 3 -52c-4.66699 -7.33301 -11.334 -13.666 -20.001 -18.999c17.333 9.33301 33.333 9.66602 48 0.999023c8 -4.66699 15.333 -12 22 -22c-1.33301 2 -3.33301 3.66699 -6 5c-12 6.66699 -29 3.66699 -51 -9z" />
    <glyph glyph-name="uFC61" unicode="&#x651;&#x64f;" arabic-form="isolated" 
d="M218 1815v-189c0 -36 -17.667 -54 -53 -54h-281v156c0 30 -8 46.333 -24 49c34 0 51 -15.667 51 -47c0 31.333 16.667 47 50 47c-15.333 -2.66699 -23 -19 -23 -49v-102h86v145c0 30 -7.66699 46.333 -23 49c33.333 0 50 -15.667 50 -47c0 31.333 16.667 47 50 47
c-15.333 -2 -23 -18.333 -23 -49v-145h87v189c0 29.333 -8 45.333 -24 48c33.333 0 50 -15.333 50 -46c0 30.667 17 46 51 46c-16 -2 -24 -18 -24 -48zM112 2247l0.000976562 -290c0 -28.667 -13 -43 -39 -43h-95c-22 0 -33.667 -6.33301 -35 -19c0 27.333 11.333 41 34 41
c-22.667 0 -34 13.333 -34 40c1.33301 -12.667 13 -19 35 -19h95v252h-25c-22.667 0 -41.334 -8.83301 -56.001 -26.5s-22 -37.834 -22 -60.5v-28h62c21.333 0 33 6.33301 35 19c0 -27.333 -11.333 -41 -34 -41c22.667 0 34 -13.333 34 -40c-1.33301 12 -13 18 -35 18h-62
c-26 0 -39 14.667 -39 44v28c0 34.667 11 64.834 33 90.5c22 25.667 50 38.5 84 38.5h25c0 22 -5.66699 33.667 -17 35c24 0 36 -12.667 36 -38c0 25.333 12.333 38 37 38c-11.333 -1.33301 -17 -14.333 -17 -39z" />
    <glyph glyph-name="uFC62" unicode="&#x651;&#x650;" arabic-form="isolated" 
d="M250 2131v-189c0 -36 -17.667 -54 -53 -54h-281v156c0 30 -8 46.333 -24 49c34 0 51 -15.667 51 -47c0 31.333 16.667 47 50 47c-15.333 -2.66699 -23 -19 -23 -49v-102h86v145c0 30 -7.66699 46.333 -23 49c33.333 0 50 -15.667 50 -47c0 31.333 16.667 47 50 47
c-15.333 -2.66699 -23 -19 -23 -49v-145h87v189c0 29.333 -8 45.333 -24 48c34 0 51 -15.667 51 -47c0 31.333 16.667 47 50 47c-16 -2 -24 -18 -24 -48zM-9 1608c-28 -16 -38.6689 -31.668 -32.002 -47.001c-11.333 18.667 -12.666 35.667 -3.99902 51
c4.66699 8 11.334 14.333 20.001 19c-17.333 -9.33301 -33.333 -9.66602 -48 -0.999023c-8 4.66699 -15 12.334 -21 23.001c0.666992 -2 2.33398 -3.66699 5.00098 -5c12 -6.66699 29 -3.66699 51 9l224 129c22 12.667 33 26 33 40c0 2.66699 -0.333008 5 -1 7
c10.667 -18.667 11.667 -35.667 3 -51c-4.66699 -8 -11.334 -14.667 -20.001 -20c17.333 9.33301 33.333 10 48 2c8 -4.66699 15.333 -12.334 22 -23.001c-1.33301 2 -3.33301 3.66699 -6 5c-12 6.66699 -29 3.66699 -51 -9z" />
    <glyph glyph-name="uFDF2" unicode="&#xfedf;&#xfee0;&#xfeea;" horiz-adv-x="1622" arabic-form="isolated" 
d="M1515 1128v-1042c0 -42 -20.333 -75.667 -61 -101c-35.333 -21.333 -75 -32 -119 -32h-753v482h-82c-74 0 -136.667 -25.833 -188 -77.5s-77 -114.167 -77 -187.5v-84h208c73.333 0 113.333 19 120 57c0 -82.667 -38.667 -124 -116 -124c77.333 0 116 -41.333 116 -124
c-6 38.667 -46 58 -120 58h-208c-36.667 0 -68 13 -94 39s-39 57.333 -39 94v84c0 110.667 38.5 204.167 115.5 280.5s171.167 114.5 282.5 114.5h82c0 73.333 -19 113.333 -57 120c82.667 0 124 -38.667 124 -116c0 77.333 41.333 116 124 116c-38.667 -6 -58 -46 -58 -120
v-479h267v866c0 73.333 -19 113.333 -57 120c82.667 0 124 -38.667 124 -116c0 77.333 41.333 116 124 116c-38.667 -6 -58 -46 -58 -120v-866h268v1042c0 73.333 -19.333 113.333 -58 120c82.667 0 124 -38.667 124 -116c0 77.333 41.333 116 124 116
c-38.667 -6 -58 -46 -58 -120zM1210 1404v-188c0 -36 -18 -54 -54 -54h-280v156c0 29.333 -8 45.333 -24 48c34 0 51 -15.333 51 -46c0 30.667 16.667 46 50 46c-16 -2 -24 -18 -24 -48v-102h87v145c0 30 -7.66699 46.333 -23 49c33.333 0 50 -15.667 50 -47
c0 31.333 16.667 47 50 47c-15.333 -2.66699 -23 -19 -23 -49v-145h86v188c0 30 -7.66699 46.333 -23 49c33.333 0 50 -15.667 50 -47c0 31.333 17 47 51 47c-16 -2 -24 -18.333 -24 -49z" />
    <glyph glyph-name="uFEF5" unicode="&#xfedf;&#xfe82;" horiz-adv-x="799" arabic-form="isolated" 
d="M595 -138l-210 212.999l-213 -213c-35.333 -35.333 -53 -67 -53 -95c0 -12 3 -22 9 -30c-27.333 28 -41 57 -41 87c0 29.333 11.667 56.666 35 81.999c-25.333 -23.333 -53 -35 -83 -35c-29.333 0 -58 14 -86 42c6 -6.66699 16 -10 30 -10c27.333 0 59 18 95 54l214 211
l-212 212l1 751c0 74 -19.333 114 -58 120c83.333 0 125 -38.333 125 -115c0 76.667 41.333 115 124 115c-38.667 -5.33301 -58 -45.333 -58 -120l-1 -698l172 -171l174 174v841c0 73.333 -19 113.333 -57 120c82.667 0 124 -38.667 124 -116c0 77.333 41.333 116 124 116
c-38.667 -6 -58 -46 -58 -120v-897l-215 -212l212 -211c35.333 -36 67.333 -54 96 -54c11.333 0 21.333 3.33301 30 10c-28 -28 -57.333 -42 -88 -42c-28.667 0 -56 11.667 -82 35c23.333 -23.333 35 -50.666 35 -81.999c0 -30 -13.667 -59 -41 -87
c6.66699 7.33301 10 17.333 10 30c0 26.667 -18 58.334 -54 95.001zM218 1307l-138.999 80.999v-60c0 -27.333 7.66699 -42.333 23 -45c-32 0 -48 14.667 -48 44c0 -29.333 -15.333 -44 -46 -44c14.667 2.66699 22 17.667 22 45v91c-14.667 14.667 -26.334 22 -35.001 22
c-5.33301 0 -9.33301 -1.66699 -12 -5c10 8.66699 21 13.667 33 15c10 0 20 -4 30 -12c-8.66699 8 -13 18.333 -13 31c0 10.667 5.33301 21.334 16 32.001c2 -13.333 7.33301 -29 16 -47l138 -82v60c0 28 -7 43 -21 45c30.667 0 46 -14.333 46 -43c0 28.667 15.667 43 47 43
c-14.667 -2 -22 -17 -22 -45v-91c14 -14 26 -21 36 -21c4 0 8 1.33301 12 4c-10 -8.66699 -21.333 -13.667 -34 -15c-10 0 -20.333 4.33301 -31 13c9.33301 -9.33301 14 -19.666 14 -30.999c0 -10.667 -5.33301 -21.334 -16 -32.001c-2.66699 12 -8 27.667 -16 47z" />
    <glyph glyph-name="uFEF6" unicode="&#xfee0;&#xfe82;" horiz-adv-x="796" arabic-form="final" 
d="M553 109h349.999v-133h-217c35.333 -35.333 67.333 -53 96 -53c11.333 0 21.333 3 30 9c-27.333 -28 -56.666 -42 -87.999 -42c-28.667 0 -56 12 -82 36c23.333 -24 35 -51.667 35 -83c0 -30 -13.667 -58.667 -41 -86c6.66699 6.66699 10 16.667 10 30
c0 26 -18 57.667 -54 95l-210 213l-213 -213c-35.333 -36 -53 -67.667 -53 -95c0 -12.667 3 -22.667 9 -30c-27.333 27.333 -41 56 -41 86c0 29.333 11.667 57 35 83c-23.333 -24 -51 -36 -83 -36c-29.333 0 -58 14 -86 42c6 -6 16 -9 30 -9c27.333 0 59 17.667 95 53
l214 212l-212 212l1 751c0 73.333 -19.333 113.333 -58 120c83.333 0 125 -38.667 125 -116c0 77.333 41.333 116 124 116c-38.667 -6 -58 -46 -58 -120l-1 -699l172 -171l175 174v841c0 74 -19.333 114 -58 120c82.667 0 124 -38.333 124 -115c0 76.667 41.333 115 124 115
c-38.667 -5.33301 -58 -45.333 -58 -120v-896l-215 -212zM214.999 1326l-138.999 82v-60c0 -28 7.66699 -43 23 -45c-32 0 -48 14.667 -48 44c0 -29.333 -15.333 -44 -46 -44c14.667 2 22 17 22 45v91c-14.667 14 -26.334 21 -35.001 21
c-5.33301 0 -9.33301 -1.33301 -12 -4c10 8.66699 21 13.667 33 15c10 0 20 -4.33301 30 -13c-8.66699 8.66699 -13 19 -13 31c0 10.667 5.33301 21.334 16 32.001c2 -12.667 7.33301 -28.334 16 -47.001l138 -81v60c0 27.333 -7 42.333 -21 45c30.667 0 46 -14.333 46 -43
c0 28.667 15.667 43 47 43c-14.667 -2.66699 -22 -17.667 -22 -45v-91c14 -14.667 26 -22 36 -22c4 0 8 1.66699 12 5c-10 -8.66699 -21.333 -13.667 -34 -15c-10 0 -20.333 4 -31 12c9.33301 -8.66699 14 -19 14 -31c0 -10.667 -5.33301 -21.334 -16 -32.001
c-2.66699 12.667 -8 28.334 -16 47.001z" />
    <glyph glyph-name="uFEF7" unicode="&#xfedf;&#xfe84;" horiz-adv-x="799" arabic-form="isolated" 
d="M595 -138l-210 212.999l-213 -213c-35.333 -36 -53 -68 -53 -96c0 -12 3 -21.667 9 -29c-27.333 27.333 -41 56 -41 86c0 29.333 11.667 57 35 83c-25.333 -24 -53 -36 -83 -36c-29.333 0 -58 14 -86 42c6 -6.66699 16 -10 30 -10c27.333 0 59 18 95 54l214 212l-212 212
l1 751c0 73.333 -19.333 113.333 -58 120c83.333 0 125 -38.667 125 -116c0 77.333 41.333 116 124 116c-38.667 -6 -58 -46 -58 -120l-1 -699l172 -171l174 174v841c0 73.333 -19 113.333 -57 120c82.667 0 124 -38.333 124 -115c0 76.667 41.333 115 124 115
c-38.667 -5.33301 -58 -45.333 -58 -120v-896l-215 -212l212 -212c35.333 -36 67.333 -54 96 -54c11.333 0 21.333 3.33301 30 10c-28 -28 -57.333 -42 -88 -42c-28.667 0 -56 12 -82 36c23.333 -24 35 -51.667 35 -83c0 -30 -13.667 -58.667 -41 -86
c6.66699 6.66699 10 16.334 10 29.001c0 26.667 -18 58.667 -54 96zM-4 1283v49.999h138l-111 109c-14 14 -25.667 21 -35 21c-4.66699 0 -8.66699 -1.33301 -12 -4c10 8.66699 21.333 13.667 34 15c9.33301 0 19 -4.33301 29 -13c-8 8.66699 -12 19 -12 31
c0 10.667 5.33301 21.334 16 32.001c2 -11.333 7.33301 -27 16 -47h166c27.333 0 42.333 7.33301 45 22c0 -30.667 -14.333 -46 -43 -46c28.667 0 43 -15.667 43 -47c-2.66699 14.667 -17.667 22 -45 22h-117l96 -95h57c28 0 43 7 45 21c0 -31.333 -14.333 -47 -43 -47
c28.667 0 43 -15.333 43 -46c-2 14.667 -17 22 -45 22h-265z" />
    <glyph glyph-name="uFEF8" unicode="&#xfee0;&#xfe84;" horiz-adv-x="796" arabic-form="final" 
d="M553 109h349.999v-133h-217c35.333 -36 67.333 -54 96 -54c11.333 0 21.333 3.33301 30 10c-27.333 -28 -56.666 -42 -87.999 -42c-28.667 0 -56 12 -82 36c23.333 -24 35 -51.667 35 -83c0 -30 -13.667 -58.667 -41 -86c6.66699 6.66699 10 16.667 10 30
c0 26 -18 57.667 -54 95l-210 213l-213 -213c-35.333 -36 -53 -67.667 -53 -95c0 -12.667 3 -22.667 9 -30c-27.333 27.333 -41 56 -41 86c0 29.333 11.667 57 35 83c-23.333 -24 -51 -36 -83 -36c-29.333 0 -58 14 -86 42c6 -6.66699 16 -10 30 -10c27.333 0 59 18 95 54
l214 212l-212 212l1 751c0 73.333 -19.333 113.333 -58 120c83.333 0 125 -38.667 125 -116c0 77.333 41.333 116 124 116c-38.667 -6 -58 -46 -58 -120l-1 -699l172 -171l175 174v841c0 74 -19.333 114 -58 120c82.667 0 124 -38.333 124 -115c0 76.667 41.333 115 124 115
c-38.667 -5.33301 -58 -45.333 -58 -120v-896l-215 -212zM-7.00098 1303v50h138l-111 109c-14 14.667 -25.667 22 -35 22c-4.66699 0 -8.66699 -1.66699 -12 -5c10 8.66699 21.333 13.667 34 15c10 0 19.667 -4.33301 29 -13c-8 8.66699 -12 19 -12 31
c0 11.333 5.33301 22.333 16 33c2 -12 7.33301 -28 16 -48h166c27.333 0 42.333 7.33301 45 22c0 -30.667 -14.333 -46 -43 -46c28.667 0 43 -15.667 43 -47c-2.66699 14.667 -17.667 22 -45 22h-117l96 -95h57c28 0 43 7 45 21c0 -31.333 -14.333 -47 -43 -47
c28.667 0 43 -15.333 43 -46c-2 14.667 -17 22 -45 22h-265z" />
    <glyph glyph-name="uFEF9" unicode="&#xfedf;&#xfe88;" horiz-adv-x="799" arabic-form="isolated" 
d="M595 -132l-210 212.999l-213 -213c-35.333 -35.333 -53 -67 -53 -95c0 -12 3 -22 9 -30c-27.333 28 -41 57 -41 87c0 29.333 11.667 56.666 35 81.999c-25.333 -23.333 -53 -35 -83 -35c-29.333 0 -58 13.667 -86 41c6 -6 16 -9 30 -9c27.333 0 59 17.667 95 53l214 212
l-212 212l1 897c0 73.333 -19.333 113.333 -58 120c83.333 0 125 -38.667 125 -116c0 77.333 41.333 116 124 116c-38.667 -6 -58 -46 -58 -120l-1 -845l172 -171l174 175v841c0 73.333 -19 113.333 -57 120c82.667 0 124 -38.667 124 -116c0 77.333 41.333 116 124 116
c-38.667 -6 -58 -46 -58 -120v-897l-215 -212l212 -212c35.333 -35.333 67.333 -53 96 -53c11.333 0 21.333 3 30 9c-28 -27.333 -57.333 -41 -88 -41c-28.667 0 -56 11.667 -82 35c23.333 -23.333 35 -50.666 35 -81.999c0 -30 -13.667 -59 -41 -87
c6.66699 7.33301 10 17.333 10 30c0 26.667 -18 58.334 -54 95.001zM243 -305.001l0.000976562 49h138l-109 110c-14.667 14.667 -26.667 22 -36 22c-4.66699 0 -8.33398 -1.66699 -11.001 -5c8 8.66699 18.667 13.667 32 15c10 0 20.333 -4 31 -12
c-8.66699 8 -13 18.333 -13 31c0 11.333 5 22 15 32c2 -11.333 7.33301 -27 16 -47h167c28 0 43 7 45 21c0 -30.667 -14.667 -46 -44 -46c29.333 0 44 -15.667 44 -47c-2 14.667 -17 22 -45 22h-117l95 -96h58c28 0 43 7.66699 45 23c0 -32 -14.667 -48 -44 -48
c29.333 0 44 -15.333 44 -46c-2 14.667 -17 22 -45 22h-266z" />
    <glyph glyph-name="uFEFA" unicode="&#xfee0;&#xfe88;" horiz-adv-x="796" arabic-form="final" 
d="M553 109h349.999v-133h-217c35.333 -35.333 67.333 -53 96 -53c11.333 0 21.333 3 30 9c-27.333 -28 -56.666 -42 -87.999 -42c-28.667 0 -56 12 -82 36c23.333 -24 35 -51.667 35 -83c0 -30 -13.667 -58.667 -41 -86c6.66699 6.66699 10 16.667 10 30
c0 26 -18 57.667 -54 95l-210 213l-213 -213c-35.333 -36 -53 -67.667 -53 -95c0 -12.667 3 -22.667 9 -30c-27.333 27.333 -41 56 -41 86c0 29.333 11.667 57 35 83c-23.333 -24 -51 -36 -83 -36c-29.333 0 -58 14 -86 42c6 -6 16 -9 30 -9c27.333 0 59 17.667 95 53
l214 212l-212 212l1 896c0 74 -19.333 114 -58 120c83.333 0 125 -38.333 125 -115c0 76.667 41.333 115 124 115c-38.667 -5.33301 -58 -45.333 -58 -120l-1 -844l172 -171l175 174v841c0 74 -19.333 114 -58 120c82.667 0 124 -38.333 124 -115
c0 76.667 41.333 115 124 115c-38.667 -5.33301 -58 -45.333 -58 -120v-896l-215 -212zM239.999 -291l0.000976562 49h138l-109 110c-14.667 14 -26.667 21 -36 21c-4.66699 0 -8.33398 -1.33301 -11.001 -4c8 8.66699 18.667 13.667 32 15c10 0 20.333 -4.33301 31 -13
c-8.66699 8.66699 -13 19 -13 31c0 11.333 5 22 15 32c2 -11.333 7.33301 -27 16 -47h167c28 0 43 7.33301 45 22c0 -30.667 -14.667 -46 -44 -46c29.333 0 44 -15.667 44 -47c-2 14.667 -17 22 -45 22h-117l95 -96h58c28 0 43 7.33301 45 22c0 -31.333 -14.667 -47 -44 -47
c29.333 0 44 -15.333 44 -46c-2 14.667 -17 22 -45 22h-266z" />
    <glyph glyph-name="uFEFB" unicode="&#xfedf;&#xfe8e;" horiz-adv-x="797" arabic-form="isolated" 
d="M594 -134l-210.999 213.001l-212 -213c-36 -36.667 -54 -68.334 -54 -95.001c0 -13.333 3.33301 -23.333 10 -30c-27.333 27.333 -41 56 -41 86c0 29.333 11.667 57 35 83c-25.333 -24 -53 -36 -83 -36c-29.333 0 -58 14 -86 42c6 -6 15.667 -9 29 -9
c28 0 60 17.667 96 53l214 212l-212 212l1 896c0 74 -19.333 114 -58 120c83.333 0 125 -38.333 125 -115c0 76.667 41.333 115 124 115c-38.667 -5.33301 -58 -45.333 -58 -120l-1 -844l171 -171l174 174v841c0 74 -19 114 -57 120c82.667 0 124 -38.333 124 -115
c0 76.667 41.333 115 124 115c-38.667 -5.33301 -58 -45.333 -58 -120v-896l-214 -212l212 -212c35.333 -35.333 67 -53 95 -53c12 0 22 3 30 9c-26.667 -28 -55.334 -42 -86.001 -42c-29.333 0 -57 12 -83 36c23.333 -24 35 -51.667 35 -83c0 -30 -13.667 -58.667 -41 -86
c6 6 9 16 9 30c0 27.333 -17.667 59 -53 95z" />
    <glyph glyph-name="uFEFC" unicode="&#xfee0;&#xfe8e;" horiz-adv-x="796" arabic-form="final" 
d="M553 109h349.999v-133h-217c35.333 -36 67.333 -54 96 -54c11.333 0 21.333 3.33301 30 10c-27.333 -28 -56.666 -42 -87.999 -42c-28.667 0 -56 12 -82 36c23.333 -24 35 -51.667 35 -83c0 -30 -13.667 -58.667 -41 -86c6.66699 6.66699 10 16.667 10 30
c0 26 -18 57.667 -54 95l-210 213l-213 -213c-35.333 -36 -53 -67.667 -53 -95c0 -12.667 3 -22.667 9 -30c-27.333 27.333 -41 56 -41 86c0 29.333 11.667 57 35 83c-23.333 -24 -51 -36 -83 -36c-29.333 0 -58 14 -86 42c6 -6.66699 16 -10 30 -10c27.333 0 59 18 95 54
l214 212l-212 212l1 896c0 74 -19.333 114 -58 120c83.333 0 125 -38.333 125 -115c0 76.667 41.333 115 124 115c-38.667 -5.33301 -58 -45.333 -58 -120l-1 -844l172 -171l175 174v841c0 74 -19.333 114 -58 120c82.667 0 124 -38.333 124 -115
c0 76.667 41.333 115 124 115c-38.667 -5.33301 -58 -45.333 -58 -120v-896l-215 -212z" />
    <glyph glyph-name="u0652_u064E.liga" unicode="&#x652;&#x64e;" horiz-adv-x="1" 
d="M152 1179c0 -32 9.99805 -49 29.998 -51c-42 0 -63.333 16.667 -64 50c-1.33301 -32.667 -22.666 -49.334 -63.999 -50.001c20 0.666992 30 17.667 30 51l-1 259c0 31.333 -10 48.333 -30 51c42.667 0 64.334 -16.667 65.001 -50c0.666992 32 22 48.667 64 50
c-20 -1.33301 -30 -18.666 -30 -51.999v-258z" />
    <glyph glyph-name="u0652_u064B.liga" unicode="&#x652;&#x64b;" horiz-adv-x="1" 
d="M487 823c0 44.667 22.333 67 67 67c44 0 66 -22.333 66 -67c0 -44 -22 -66 -66 -66c-44.667 0 -67 22 -67 66zM355 823c0 44.667 22 67 66 67s66 -22.333 66 -67c0 -44 -22 -66 -66 -66s-66 22 -66 66z" />
    <glyph glyph-name="u0652_u064D.liga" unicode="&#x652;&#x64d;" horiz-adv-x="1" 
d="M535 -723c0 44.667 22.333 67 67 67c44 0 66 -22.333 66 -67c0 -44 -22 -66 -66 -66c-44.667 0 -67 22 -67 66zM403 -723c0 44.667 22 67 66 67s66 -22.333 66 -67c0 -44 -22 -66 -66 -66s-66 22 -66 66z" />
    <glyph glyph-name="u0622" unicode="&#x622;" horiz-adv-x="336" arabic-form="isolated" 
d="M234 1304l-139 81v-60c0 -28 7.33301 -43 22 -45c-31.333 0 -47 14.667 -47 44c0 -29.333 -15.333 -44 -46 -44c14.667 2 22 17 22 45v91c-14.667 14 -26.667 21 -36 21c-4.66699 0 -8.33398 -1.33301 -11.001 -4c10 8.66699 21 13.667 33 15c10 0 20 -4.33301 30 -13
c-8.66699 8.66699 -13 19 -13 31c0 10.667 5.33301 21.334 16 32.001c2 -12.667 7.33301 -28.334 16 -47.001l138 -81v60c0 28 -7 43 -21 45c30.667 0 46 -14.333 46 -43c0 28.667 15.667 43 47 43c-14.667 -2 -22 -17 -22 -45v-91c14 -14 26 -21 36 -21
c4 0 7.66699 1.33301 11 4c-10 -8.66699 -21 -13.667 -33 -15c-10 0 -20.333 4.33301 -31 13c9.33301 -9.33301 14 -19.666 14 -30.999c0 -10.667 -5.33301 -21.334 -16 -32.001c-3.33301 12 -8.66602 27.667 -15.999 47zM286 -166c-82.667 0 -124 38.333 -124 115
c0 -76.667 -41.333 -115 -124 -115c38.667 5.33301 58 45 58 119v1175c0 73.333 -19.333 113.333 -58 120c82.667 0 124 -38.333 124 -115c0 76.667 41.333 115 124 115c-38 -5.33301 -57 -45.333 -57 -120v-1175c0 -73.333 19 -113 57 -119z" />
    <glyph glyph-name="u0623" unicode="&#x623;" horiz-adv-x="335" arabic-form="isolated" 
d="M228 -47c0 -74 19.333 -114 58 -120c-82.667 0 -124 38.333 -124 115c0 -76.667 -41.333 -115 -124 -115c38.667 5.33301 58 45.333 58 120v1174c0 74 -19.333 114 -58 120c82.667 0 124 -38.333 124 -115c0 76.667 41.333 115 124 115
c-38.667 -5.33301 -58 -45.333 -58 -120v-1174zM17 1279l-0.000976562 51.001h140l-111 109c-14 14 -25.667 21 -35 21c-4.66699 0 -8.66699 -1.33301 -12 -4c8.66699 8.66699 19.334 13.667 32.001 15c10 0 20.333 -4.33301 31 -13c-8 8.66699 -12 19 -12 31
c0 11.333 4.66699 22 14 32c4 -12.667 10 -28.334 18 -47.001h165c28 0 43 7.33301 45 22c0 -30.667 -14 -46 -42 -46c28 0 42 -16 42 -48c-2 15.333 -17 23 -45 23h-116l95 -95h58c28 0 43 7 45 21c0 -31.333 -14.333 -47 -43 -47c28.667 0 43 -15.333 43 -46
c-2 14 -17 21 -45 21h-267z" />
    <glyph glyph-name="u0624" unicode="&#x624;" horiz-adv-x="797" arabic-form="isolated" 
d="M690 582v-947.001c0 -88.667 -44.333 -133 -133 -133h-321c-73.333 0 -113 -19.333 -119 -58c0 83.333 38.333 125 115 125c-76.667 0 -115 41.333 -115 124c5.33301 -38.667 45 -58 119 -58h321v830h-82c-73.333 0 -135.833 -25.833 -187.5 -77.5
s-77.5 -114.167 -77.5 -187.5v-85h208c74 0 114 19.333 120 58c0 -82.667 -38.333 -124 -115 -124c76.667 0 115 -41.333 115 -124c-5.33301 38.667 -45.333 58 -120 58h-208c-36.667 0 -68 12.833 -94 38.5s-39 56.834 -39 93.501v85c0 110.667 38.667 204.167 116 280.5
s171.333 114.5 282 114.5h82c0 65.333 -19 101 -57 107c82.667 0 124 -38.667 124 -116c0 77.333 41.333 116 124 116c-38.667 -6 -58 -46 -58 -120zM470 808.999v50.001h138l-110 109c-14.667 14.667 -26.667 22 -36 22c-4 0 -8 -1.66699 -12 -5
c10 8.66699 21.333 13.667 34 15c10 0 20.333 -4.33301 31 -13c-9.33301 9.33301 -14 19.666 -14 30.999c0 10.667 5.33301 21.667 16 33c2 -12 7.33301 -28 16 -48h167c27.333 0 42.333 7.33301 45 22c0 -30.667 -14.667 -46 -44 -46c29.333 0 44 -15.667 44 -47
c-2.66699 14.667 -17.667 22 -45 22h-118l96 -95h57c28 0 43 7 45 21c0 -31.333 -14.333 -47 -43 -47c28.667 0 43 -15.333 43 -46c-2 14.667 -17 22 -45 22h-265z" />
    <glyph glyph-name="u0625" unicode="&#x625;" horiz-adv-x="335" arabic-form="isolated" 
d="M228 1284v-1321h-132v1321c0 73.333 -19.333 113.333 -58 120c82.667 0 124 -38.667 124 -116c0 77.333 41.333 116 124 116c-38.667 -6 -58 -46 -58 -120zM17 -338v49.001h140l-111 110c-14 14.667 -25.667 22 -35 22c-4 0 -8 -2 -12 -6c10 10.667 20.667 16 32 16
c10 0 20.333 -4.33301 31 -13c-8 8.66699 -12 18.667 -12 30s4.66699 22.666 14 33.999c4 -13.333 10 -29.333 18 -48h165c28 0 43 7.33301 45 22c0 -30.667 -14 -46 -42 -46c28 0 42 -15.667 42 -47c-2 14.667 -17 22 -45 22h-116l95 -96h58c28 0 43 7.33301 45 22
c0 -31.333 -14.333 -47 -43 -47c28.667 0 43 -15.333 43 -46c-2 14.667 -17 22 -45 22h-267z" />
    <glyph glyph-name="u0626" unicode="&#x626;" horiz-adv-x="1216" arabic-form="isolated" 
d="M1109 -352c0 -37.333 -13.1689 -68.834 -39.502 -94.501s-58.166 -38.5 -95.499 -38.5h-775c-88 0 -132 44.333 -132 133v481c0 73.333 -19.333 113 -58 119c82.667 0 124 -38.333 124 -115c0 76.667 41.333 115 124 115c-38.667 -5.33301 -58 -45 -58 -119v-481h775v348
h-408c-36 -36 -54 -67.667 -54 -95c0 -13.333 3.33301 -23.333 10 -30c-27.333 26.667 -41 55.334 -41 86.001c0 29.333 11.667 57 35 83c-25.333 -24 -52.666 -36 -81.999 -36s-58.666 14 -87.999 42c8.66699 -7.33301 18.667 -11 30 -11c27.333 0 59.333 18.333 96 55
l426 425h130c74 0 114 19.333 120 58c0 -83.333 -38.333 -125 -115 -125c76.667 0 115 -41.333 115 -124c-5.33301 38.667 -45.333 58 -120 58h-76l-253 -253h272c37.333 0 69.666 -12.833 96.999 -38.5s41 -57.167 41 -94.5v-348zM26.998 360.999v49.001h138l-109 110
c-14 14.667 -26 22 -36 22c-4 0 -7.66699 -2 -11 -6c10 10.667 20.667 16 32 16c10.667 0 21 -4.66699 31 -14c-8.66699 10 -13 20.333 -13 31c0 11.333 5 22.666 15 33.999c2 -13.333 7.66699 -29.333 17 -48h166c28 0 43 7.33301 45 22c0 -30.667 -14.667 -46 -44 -46
c29.333 0 44 -15.667 44 -47c-2 14.667 -17 22 -45 22h-117l96 -96h57c28 0 43 7 45 21c0 -30.667 -14.667 -46 -44 -46c29.333 0 44 -15.667 44 -47c-2 15.333 -17 23 -45 23h-266z" />
    <glyph glyph-name="u0627" unicode="&#x627;" horiz-adv-x="335" arabic-form="isolated" 
d="M228 -43c0 -73.333 19.333 -113.333 58 -120c-82.667 0 -124 38.667 -124 116c0 -77.333 -41.333 -116 -124 -116c38.667 6 58 46 58 120v1320c0 73.333 -19.333 113.333 -58 120c82.667 0 124 -38.667 124 -116c0 77.333 41.333 116 124 116
c-38.667 -6 -58 -46 -58 -120v-1320z" />
    <glyph glyph-name="u0628" unicode="&#x628;" horiz-adv-x="1480" arabic-form="isolated" 
d="M781 -189c0 -44 -22 -66 -66 -66s-66 22 -66 66s22 66 66 66s66 -22 66 -66zM1373 117c0 -36.667 -13 -68 -39 -94s-57.333 -39 -94 -39h-1050c-88.667 0 -133 44.333 -133 133v467c0 73.333 -19.333 113 -58 119c82.667 0 124 -38.333 124 -115
c0 76.667 41.333 115 124 115c-38 -5.33301 -57 -45 -57 -119v-467h1050v467c0 73.333 -19 113 -57 119c82.667 0 124 -38.333 124 -115c0 76.667 41.333 115 124 115c-38.667 -5.33301 -58 -45 -58 -119v-467z" />
    <glyph glyph-name="u0629" unicode="&#x629;" horiz-adv-x="798" arabic-form="isolated" 
d="M211 -28c-36.667 0 -68 13 -94 39s-39 57.333 -39 94v84c0 111.333 38.667 205 116 281s171.333 114 282 114h82c36.667 0 68 -13 94 -39s39 -57 39 -93v-480c0 -73.333 19.333 -113.333 58 -120c-82.667 0 -124 38.667 -124 116c0 -77.333 -41.333 -116 -124 -116
c38 6 57 46 57 120v483h-82c-73.333 0 -135.833 -25.833 -187.5 -77.5s-77.5 -114.5 -77.5 -188.5v-84h208c74 0 114 19.333 120 58c0 -82.667 -38.333 -124 -115 -124c76.667 0 115 -41.667 115 -125c-5.33301 38.667 -45.333 58 -120 58h-208zM260 701l0.000976562 49h138
l-110 110c-14.667 14.667 -26.667 22 -36 22c-4 0 -7.66699 -2 -11 -6c10.667 10.667 21.667 16 33 16c10.667 0 21 -4.66699 31 -14c-8.66699 10 -13.334 20.333 -14.001 31c0 10 5.33301 21.333 16 34c2 -11.333 7.33301 -27 16 -47h166c28 0 43 7 45 21
c0 -30.667 -14.333 -46 -43 -46c28.667 0 43 -15.667 43 -47c-2 14.667 -17 22 -45 22h-117l97 -96h56c28 0 43 7 45 21c0 -30.667 -14.333 -46 -43 -46c28.667 0 43 -15.667 43 -47c-2 15.333 -17 23 -45 23h-265z" />
    <glyph glyph-name="u062A" unicode="&#x62a;" horiz-adv-x="1480" arabic-form="isolated" 
d="M1373 101c0 -36.667 -13 -67.833 -39 -93.5s-57.333 -38.5 -94 -38.5h-1050c-88.667 0 -133 44 -133 132v467c0 73.333 -19.333 113.333 -58 120c82.667 0 124 -38.667 124 -116c0 77.333 41.333 116 124 116c-38 -6 -57 -46 -57 -120v-467h1050v467
c0 73.333 -19 113.333 -57 120c82.667 0 124 -38.667 124 -116c0 77.333 41.333 116 124 116c-38.667 -6 -58 -46 -58 -120v-467zM582 861.001c0 44 22.333 66 67 66c44 0 66 -22 66 -66s-22 -66 -66 -66c-44.667 0 -67 22 -67 66zM715 861.001c0 44 22 66 66 66
c44.667 0 67 -22 67 -66s-22.333 -66 -67 -66c-44 0 -66 22 -66 66z" />
    <glyph glyph-name="u062B" unicode="&#x62b;" horiz-adv-x="1480" arabic-form="isolated" 
d="M1373 97c0 -36.667 -13 -68 -39 -94s-57.333 -39 -94 -39h-1050c-88.667 0 -133 44.333 -133 133v466c0 74 -19.333 114 -58 120c82.667 0 124 -38.333 124 -115c0 76.667 41.333 115 124 115c-38 -5.33301 -57 -45.333 -57 -120v-466h1050v466c0 74 -19 114 -57 120
c82.667 0 124 -38.333 124 -115c0 76.667 41.333 115 124 115c-38.667 -5.33301 -58 -45.333 -58 -120v-466zM582 857c0 44 22.333 66 67 66c44 0 66 -22 66 -66c0 -44.667 -22 -67 -66 -67c-44.667 0 -67 22.333 -67 67zM715 857c0 44 22 66 66 66c44.667 0 67 -22 67 -66
c0 -44.667 -22.333 -67 -67 -67c-44 0 -66 22.333 -66 67zM651 995c0 44 22 66 66 66s66 -22 66 -66c0 -44.667 -22 -67 -66 -67s-66 22.333 -66 67z" />
    <glyph glyph-name="u062C" unicode="&#x62c;" horiz-adv-x="1203" arabic-form="isolated" 
d="M67 -6c0 36.667 12.832 68 38.499 94s56.834 39 93.501 39h587l-404 400h-208c-73.333 0 -113.333 -19.333 -120 -58c0 82.667 38.333 124 115 124c-76.667 0 -115 41.333 -115 124c5.33301 -38.667 45.333 -58 120 -58h269l533 -532c73.333 0 113.333 19 120 57
c0 -82.667 -38.333 -124 -115 -124c76.667 0 115 -41.333 115 -124c-5.33301 38.667 -45.333 58 -120 58h-777v-348h777c73.333 0 113.333 19.333 120 58c0 -82.667 -38.333 -124 -115 -124c76.667 0 115 -41.333 115 -124c-5.33301 38.667 -45.333 58 -120 58h-777
c-88 0 -132 44 -132 132v348zM468.999 -179c0 44 22 66 66 66c44.667 0 67 -22 67 -66c0 -44.667 -22.333 -67 -67 -67c-44 0 -66 22.333 -66 67z" />
    <glyph glyph-name="u062D" unicode="&#x62d;" horiz-adv-x="1203" arabic-form="isolated" 
d="M67 -6c0 36.667 12.832 68 38.499 94s56.834 39 93.501 39h587l-404 400h-208c-73.333 0 -113.333 -19.333 -120 -58c0 82.667 38.333 124 115 124c-76.667 0 -115 41.333 -115 124c5.33301 -38.667 45.333 -58 120 -58h269l533 -532c73.333 0 113.333 19 120 57
c0 -82.667 -38.333 -124 -115 -124c76.667 0 115 -41.333 115 -124c-5.33301 38.667 -45.333 58 -120 58h-777v-348h777c73.333 0 113.333 19.333 120 58c0 -82.667 -38.333 -124 -115 -124c76.667 0 115 -41.333 115 -124c-5.33301 38.667 -45.333 58 -120 58h-777
c-88 0 -132 44 -132 132v348z" />
    <glyph glyph-name="u062E" unicode="&#x62e;" horiz-adv-x="1203" arabic-form="isolated" 
d="M67 -14c0 36.667 12.832 68 38.499 94s56.834 39 93.501 39h587l-404 400h-208c-73.333 0 -113.333 -19.333 -120 -58c0 82.667 38.333 124 115 124c-76.667 0 -115 41.667 -115 125c5.33301 -38.667 45.333 -58 120 -58h269l533 -533c73.333 0 113.333 19.333 120 58
c0 -82.667 -38.333 -124 -115 -124c76.667 0 115 -41.667 115 -125c-5.33301 38.667 -45.333 58 -120 58h-777v-348h777c73.333 0 113.333 19.333 120 58c0 -82.667 -38.333 -124 -115 -124c76.667 0 115 -41.333 115 -124c-5.33301 38.667 -45.333 58 -120 58h-777
c-88 0 -132 44 -132 132v348zM275.999 879c0 44 22.333 66 67 66c44 0 66 -22 66 -66c0 -44.667 -22 -67 -66 -67c-44.667 0 -67 22.333 -67 67z" />
    <glyph glyph-name="u062F" unicode="&#x62f;" horiz-adv-x="1186" arabic-form="isolated" 
d="M947 -22h-759.999c-73.333 0 -113.333 -19.333 -120 -58c0 82.667 38.333 124 115 124c-76.667 0 -115 41.333 -115 124c5.33301 -38.667 45.333 -58 120 -58h705l-385 386c-36.667 36 -69 54 -97 54c-12 0 -22 -3.33301 -30 -10c28 27.333 57.333 41 88 41
c29.333 0 57 -11.667 83 -35c-24 24.667 -36 52 -36 82c0 30.667 13.667 59.667 41 87c-6.66699 -6.66699 -10 -16.667 -10 -30c0 -28 18 -59.667 54 -95l479 -480c0 -36 -12.833 -67 -38.5 -93s-56.834 -39 -93.501 -39z" />
    <glyph glyph-name="u0630" unicode="&#x630;" horiz-adv-x="1186" arabic-form="isolated" 
d="M947 -29h-759.999c-73.333 0 -113.333 -19.333 -120 -58c0 82.667 38.333 124 115 124c-76.667 0 -115 41.333 -115 124c5.33301 -38.667 45.333 -58 120 -58h705l-385 385c-36.667 36.667 -69 55 -97 55c-12 0 -22 -3.66699 -30 -11c28 28 57.333 42 88 42
c29.333 0 57 -11.667 83 -35c-24 24.667 -36 52 -36 82c0 30.667 13.667 59.667 41 87c-6.66699 -6.66699 -10 -16.667 -10 -30c0 -28 18 -59.667 54 -95l479 -480c0 -36 -12.833 -67 -38.5 -93s-56.834 -39 -93.501 -39zM255.001 863c0 44 22.333 66 67 66
c44 0 66 -22 66 -66s-22 -66 -66 -66c-44.667 0 -67 22 -67 66z" />
    <glyph glyph-name="u0631" unicode="&#x631;" horiz-adv-x="444" arabic-form="isolated" 
d="M337 593v-947c0 -88 -44 -132 -132 -132h-214c-74 0 -114 -19.333 -120 -58c0 82.667 38.333 124 115 124c-76.667 0 -115 41.333 -115 124c5.33301 -38.667 45.333 -58 120 -58h214v947c0 73.333 -19.333 113.333 -58 120c82.667 0 124 -38.333 124 -115
c0 76.667 41.333 115 124 115c-38.667 -5.33301 -58 -45.333 -58 -120z" />
    <glyph glyph-name="u0632" unicode="&#x632;" horiz-adv-x="444" arabic-form="isolated" 
d="M337 585v-947c0 -88 -44 -132 -132 -132h-214c-74 0 -114 -19.333 -120 -58c0 82.667 38.333 124 115 124c-76.667 0 -115 41.333 -115 124c5.33301 -38.667 45.333 -58 120 -58h214v947c0 74 -19.333 114 -58 120c82.667 0 124 -38.333 124 -115
c0 76.667 41.333 115 124 115c-38.667 -5.33301 -58 -45.333 -58 -120zM205 879c0 44 22 66 66 66s66 -22 66 -66c0 -44.667 -22 -67 -66 -67s-66 22.333 -66 67z" />
    <glyph glyph-name="u0633" unicode="&#x633;" horiz-adv-x="1472" arabic-form="isolated" 
d="M1018 484v-359h-133v359c0 74 -19 114 -57 120c82.667 0 124 -38.333 124 -115c0 76.667 41.333 115 124 115c-38.667 -5.33301 -58 -45.333 -58 -120zM190 125l0.000976562 -481h349v733c0 74 -19.333 114 -58 120c82.667 0 124 -38.333 124 -115
c0 76.667 41.333 115 124 115c-38.667 -5.33301 -58 -45.333 -58 -120v-252h561v466c0 74 -19.333 114 -58 120c82.667 0 124 -38.333 124 -115c0 76.667 41.667 115 125 115c-38.667 -5.33301 -58 -45.333 -58 -120v-466c0 -36.667 -13 -68 -39 -94s-57.333 -39 -94 -39
h-561v-348c0 -36 -12.833 -67 -38.5 -93s-56.834 -39 -93.501 -39h-349c-88.667 0 -133 44 -133 132v481c0 73.333 -19.333 113.333 -58 120c83.333 0 125 -38.667 125 -116c0 77.333 41.333 116 124 116c-38.667 -6 -58 -46 -58 -120z" />
    <glyph glyph-name="u0634" unicode="&#x634;" horiz-adv-x="1472" arabic-form="isolated" 
d="M1018 476v-360h-133v360c0 73.333 -19 113.333 -57 120c82.667 0 124 -38.667 124 -116c0 77.333 41.333 116 124 116c-38.667 -6 -58 -46 -58 -120zM190 116l0.000976562 -479.999h349v733c0 73.333 -19.333 113.333 -58 120c82.667 0 124 -38.667 124 -116
c0 77.333 41.333 116 124 116c-38.667 -6 -58 -46 -58 -120v-253h561v467c0 73.333 -19.333 113.333 -58 120c82.667 0 124 -38.667 124 -116c0 77.333 41.667 116 125 116c-38.667 -6 -58 -46 -58 -120v-467c0 -36.667 -13 -67.834 -39 -93.501s-57.333 -38.5 -94 -38.5
h-561v-348c0 -36.667 -12.833 -68 -38.5 -94s-56.834 -39 -93.501 -39h-349c-88.667 0 -133 44.333 -133 133v480c0 73.333 -19.333 113.333 -58 120c83.333 0 125 -38.333 125 -115c0 76.667 41.333 115 124 115c-38.667 -5.33301 -58 -45.333 -58 -120zM799.001 769.001
c0 44 22 66 66 66s66 -22 66 -66c0 44 22.333 66 67 66c44 0 66 -22 66 -66s-22 -66 -66 -66c-44.667 0 -67 22 -67 66c0 -44 -22 -66 -66 -66s-66 22 -66 66zM866.001 899.001c0 44.667 22 67 66 67c44.667 0 67 -22.333 67 -67c0 -44 -22.333 -66 -67 -66
c-44 0 -66 22 -66 66z" />
    <glyph glyph-name="u0635" unicode="&#x635;" horiz-adv-x="1740" arabic-form="isolated" 
d="M1500 526h-552.999c-64.667 0 -127.334 -27.333 -188.001 -82c-63.333 -56 -95 -115.667 -95 -179v-140h836v401zM1500 658c36.667 0 68.001 -13 94.001 -39s39 -57.333 39 -94v-400c0 -36.667 -13 -68 -39 -94s-57.333 -39 -94 -39h-836v-348
c0 -36 -12.833 -67 -38.5 -93s-56.834 -39 -93.501 -39h-349c-88.667 0 -133 44 -133 132v481c0 73.333 -19.333 113.333 -58 120c82.667 0 124 -38.667 124 -116c0 77.333 41.667 116 125 116c-38.667 -6 -58 -46 -58 -120v-481h349l2 947c0 74 -20 114 -60 120
c82.667 0 124 -38.333 124 -115c0 76.667 41.333 115 124 115c-38.667 -5.33301 -58 -45.333 -58 -120v-89c60 104 154.333 156 283 156h553z" />
    <glyph glyph-name="u0636" unicode="&#x636;" horiz-adv-x="1740" arabic-form="isolated" 
d="M1500 518h-552.999c-64.667 0 -127.334 -27 -188.001 -81c-63.333 -56.667 -95 -116.667 -95 -180v-140h836v401zM1500 650c36.667 0 68.001 -13 94.001 -39s39 -57.333 39 -94v-400c0 -36.667 -13 -68 -39 -94s-57.333 -39 -94 -39h-836v-347
c0 -36.667 -12.833 -68 -38.5 -94s-56.834 -39 -93.501 -39h-349c-88.667 0 -133 44.333 -133 133v480c0 73.333 -19.333 113.333 -58 120c82.667 0 124 -38.667 124 -116c0 77.333 41.667 116 125 116c-38.667 -6 -58 -46 -58 -120v-480h349l2 947
c0 73.333 -20 113 -60 119c82.667 0 124 -38.333 124 -115c0 76.667 41.333 115 124 115c-38.667 -5.33301 -58 -45 -58 -119v-90c60 104 154.333 156 283 156h553zM983.002 877c0 44 22 66 66 66s66 -22 66 -66c0 -44.667 -22 -67 -66 -67s-66 22.333 -66 67z" />
    <glyph glyph-name="u0637" unicode="&#x637;" horiz-adv-x="1594" arabic-form="isolated" 
d="M1354 491h-554c-65.333 0 -128 -27.333 -188 -82c-62 -56 -93 -116 -93 -180v-140h835v402zM173 89h214v1188c0 73.333 -19.667 113.333 -59 120c82.667 0 124 -38.667 124 -116c0 77.333 41.333 116 124 116c-38 -6 -57 -46 -57 -120v-811c59.333 104 153 156 281 156
h554c36.667 0 68 -13 94 -39s39 -57 39 -93v-401c0 -36 -13 -67 -39 -93s-57.333 -39 -94 -39h-835c0 -73.333 19 -113.333 57 -120c-82.667 0 -124 38.667 -124 116c0 -77.333 -41.333 -116 -124 -116c38.667 6 58 46 58 120h-213c-73.333 0 -113.333 -19.333 -120 -58
c0 82.667 38.667 124 116 124c-77.333 0 -116 41.333 -116 124c6 -38.667 46 -58 120 -58z" />
    <glyph glyph-name="u0638" unicode="&#x638;" horiz-adv-x="1594" arabic-form="isolated" 
d="M963 849c0 44.667 22 67 66 67s66 -22.333 66 -67c0 -44 -22 -66 -66 -66s-66 22 -66 66zM1354 491h-554c-65.333 0 -128 -27.333 -188 -82c-62 -56 -93 -116 -93 -180v-140h835v402zM173 89h214v1188c0 73.333 -19.667 113.333 -59 120c82.667 0 124 -38.667 124 -116
c0 77.333 41.333 116 124 116c-38 -6 -57 -46 -57 -120v-811c59.333 104 153 156 281 156h554c36.667 0 68 -13 94 -39s39 -57 39 -93v-401c0 -36 -13 -67 -39 -93s-57.333 -39 -94 -39h-835c0 -73.333 19 -113.333 57 -120c-82.667 0 -124 38.667 -124 116
c0 -77.333 -41.333 -116 -124 -116c38.667 6 58 46 58 120h-213c-73.333 0 -113.333 -19.333 -120 -58c0 82.667 38.667 124 116 124c-77.333 0 -116 41.333 -116 124c6 -38.667 46 -58 120 -58z" />
    <glyph glyph-name="u0639" unicode="&#x639;" horiz-adv-x="1306" arabic-form="isolated" 
d="M636 124l-439 438.998c-36 36.667 -68 55 -96 55c-12 0 -22 -3.66699 -30 -11c28 28 57.333 42 88 42c29.333 0 56.666 -12 81.999 -36c-23.333 25.333 -35 53 -35 83c0 30.667 13.667 59.334 41 86.001c-6.66699 -6 -10 -15.667 -10 -29c0 -28 17.667 -60 53 -96h547
c73.333 0 113.333 19.333 120 58c0 -82.667 -38.333 -124 -115 -124c76.667 0 115 -41.333 115 -124c-5.33301 39.333 -45.333 59 -120 59h-415l401 -402h256c73.333 0 113.333 19.333 120 58c0 -82.667 -38.667 -124 -116 -124c77.333 0 116 -41.333 116 -124
c-6 39.333 -46 59 -120 59l-777 -1v-348h777c73.333 0 113.333 19.333 120 58c0 -82.667 -38.667 -124 -116 -124c77.333 0 116 -41.333 116 -124c-6 38 -46 57 -120 57h-777c-88 0 -132 44.333 -132 133v348c0 36.667 12.833 67.834 38.5 93.501s56.834 38.5 93.501 38.5
h334z" />
    <glyph glyph-name="u063A" unicode="&#x63a;" horiz-adv-x="1306" arabic-form="isolated" 
d="M636 119l-439 439c-36 36 -68 54 -96 54c-12 0 -22 -3.66699 -30 -11c28 28 57.333 42 88 42c29.333 0 56.666 -11.667 81.999 -35c-23.333 24.667 -35 52 -35 82c0 30.667 13.667 59.667 41 87c-6.66699 -6.66699 -10 -16.667 -10 -30c0 -28 17.667 -59.667 53 -95h547
c73.333 0 113.333 19.333 120 58c0 -83.333 -38.333 -125 -115 -125c76.667 0 115 -41.333 115 -124c-5.33301 39.333 -45.333 59 -120 59h-415l401 -401h256c73.333 0 113.333 19.333 120 58c0 -82.667 -38.667 -124 -116 -124c77.333 0 116 -41.667 116 -125
c-6 39.333 -46 59 -120 59l-777 -1v-348h777c73.333 0 113.333 19.333 120 58c0 -82.667 -38.667 -124 -116 -124c77.333 0 116 -41.333 116 -124c-6 38.667 -46 58 -120 58h-777c-88 0 -132 44 -132 132v348c0 36.667 12.833 68 38.5 94s56.834 39 93.501 39h334zM534 879
c0 44 22.333 66 67 66c44 0 66 -22 66 -66c0 -44.667 -22 -67 -66 -67c-44.667 0 -67 22.333 -67 67z" />
    <glyph glyph-name="u0641" unicode="&#x641;" horiz-adv-x="1476" arabic-form="isolated" 
d="M1369 101c0 -36.667 -13.001 -67.833 -39.001 -93.5s-57.333 -38.5 -94 -38.5h-1046c-88.667 0 -133 44 -133 132v467c0 73.333 -19.333 113.333 -58 120c82.667 0 124 -38.667 124 -116c0 77.333 41.667 116 125 116c-38.667 -6 -58 -46 -58 -120v-467h1046v350h-83
c-63.333 0 -118.833 -19.667 -166.5 -59s-78.5 -90.333 -92.5 -153c0 -73.333 19.333 -113 58 -119c-83.333 0 -125 38.667 -125 116c0 -77.333 -41.333 -116 -124 -116c38.667 5.33301 58 45 58 119c10.667 98 53.834 179.5 129.501 244.5s163.167 97.5 262.5 97.5h83
c0 73.333 -19.333 113.333 -58 120c83.333 0 125 -38.667 125 -116c0 77.333 41.333 116 124 116c-38.667 -6 -58 -46 -58 -120v-480zM1095 861.001c0 44 22 66 66 66s66 -22 66 -66s-22 -66 -66 -66s-66 22 -66 66z" />
    <glyph glyph-name="u0642" unicode="&#x642;" horiz-adv-x="1134" arabic-form="isolated" 
d="M1027 -363c0 -36.667 -12.999 -68 -38.999 -94s-57 -39 -93 -39h-694c-88 0 -132 44.333 -132 133v480c0 73.333 -19.333 113.333 -58 120c82.667 0 124 -38.667 124 -116c0 77.333 41.333 116 124 116c-38.667 -6 -58 -46 -58 -120v-480h694v827h-350v-83
c0 -63.333 19.667 -119 59 -167s90.333 -78.667 153 -92c73.333 0 113 19.333 119 58c0 -82.667 -38.667 -124 -116 -124c77.333 0 116 -41.333 116 -124c-5.33301 38.667 -45 58 -119 58c-98.667 10.667 -180.334 53.667 -245.001 129s-97 162.666 -97 261.999v83
c0 36.667 12.333 67.834 37 93.501s55.667 38.5 93 38.5h350c0 74 -19.333 114 -58 120c82.667 0 124 -38.333 124 -115c0 76.667 41.333 115 124 115c-38.667 -5.33301 -58 -45.333 -58 -120v-959zM806.001 877c0 44 22 66 66 66s66 -22 66 -66c0 -44.667 -22 -67 -66 -67
s-66 22.333 -66 67zM651.001 877c0 44 22.333 66 67 66c44 0 66 -22 66 -66c0 -44.667 -22 -67 -66 -67c-44.667 0 -67 22.333 -67 67z" />
    <glyph glyph-name="u0643" unicode="&#x643;" horiz-adv-x="1574" arabic-form="isolated" 
d="M186 -38c-90 0 -135.001 44.332 -135.001 132.999v345l135 1v-346h1214v347h-709c-36 -36 -54 -67.667 -54 -95c0 -13.333 3.33301 -23.333 10 -30c-27.333 26.667 -41 55.334 -41 86.001c0 29.333 11.667 57 35 83c-24.667 -24 -52 -36 -82 -36s-59 14 -87 42
c7.33301 -7.33301 17.333 -11 30 -11c27.333 0 59 18.333 95 55l519 518h279c74 0 114 19.333 120 58c0 -83.333 -38.333 -125 -115 -125c76.667 0 115 -41.333 115 -124c-5.33301 38.667 -45.333 58 -120 58h-224l-348 -347h577c90 0 135 -44 135 -132v-347
c0 -37.333 -13.167 -68.833 -39.5 -94.5s-58.166 -38.5 -95.499 -38.5h-1214z" />
    <glyph glyph-name="u0644" unicode="&#x644;" horiz-adv-x="804" arabic-form="isolated" 
d="M697 -379c0 -36.667 -13 -68 -39 -94s-57 -39 -93 -39h-353c-88 0 -132 44.333 -132 133v480c0 73.333 -19.333 113.333 -58 120c82.667 0 124 -38.333 124 -115c0 76.667 41.333 115 124 115c-38.667 -5.33301 -58 -45.333 -58 -120v-480h353v1668
c0 73.333 -19.333 113.333 -58 120c82.667 0 124 -38.667 124 -116c0 77.333 41.333 116 124 116c-38.667 -6 -58 -46 -58 -120v-1668z" />
    <glyph glyph-name="u0645" unicode="&#x645;" horiz-adv-x="1382" arabic-form="isolated" 
d="M62 -365l0.000976562 840c0 88.667 44.333 133 133 133h565c110 0 203.333 -38.667 280 -116s115 -171 115 -281v-83c73.333 0 113.333 19.333 120 58c0 -82.667 -38.667 -124 -116 -124c77.333 0 116 -41.333 116 -124c-6 38.667 -46 58 -120 58h-480
c-36.667 0 -67.834 12.833 -93.501 38.5s-38.5 56.834 -38.5 93.501v208c0 73.333 -19.333 113.333 -58 120c82.667 0 124 -38.667 124 -116c0 77.333 41.333 116 124 116c-38.667 -6 -58 -46 -58 -120v-208h350v83c0 73.333 -25.833 135.666 -77.5 186.999
s-114.167 77 -187.5 77h-565v-840c0 -73.333 19.333 -113.333 58 -120c-82.667 0 -124 38.667 -124 116c0 -77.333 -41.667 -116 -125 -116c38.667 6 58 46 58 120z" />
    <glyph glyph-name="u0646" unicode="&#x646;" horiz-adv-x="804" arabic-form="isolated" 
d="M697 -356c0 -36 -13 -67 -39 -93s-57 -39 -93 -39h-353c-88 0 -132 44 -132 132v481c0 73.333 -19.333 113.333 -58 120c82.667 0 124 -38.667 124 -116c0 77.333 41.333 116 124 116c-38.667 -6 -58 -46 -58 -120v-481h353v947c0 74 -19.333 114 -58 120
c82.667 0 124 -38.333 124 -115c0 76.667 41.333 115 124 115c-38.667 -5.33301 -58 -45.333 -58 -120v-947zM80 400c0 44 22 66 66 66s66 -22 66 -66s-22 -66 -66 -66s-66 22 -66 66z" />
    <glyph glyph-name="u0647" unicode="&#x647;" horiz-adv-x="798" arabic-form="isolated" 
d="M211 -16c-36.667 0 -68 13 -94 39s-39 57.333 -39 94v84c0 110.667 38.667 204.167 116 280.5s171.333 114.5 282 114.5h82c36.667 0 68 -13 94 -39s39 -57.333 39 -94v-479c0 -73.333 19.333 -113.333 58 -120c-82.667 0 -124 38.667 -124 116
c0 -77.333 -41.333 -116 -124 -116c38 6 57 46 57 120v482h-82c-73.333 0 -135.833 -25.667 -187.5 -77s-77.5 -114 -77.5 -188v-84h208c74 0 114 19 120 57c0 -82.667 -38.333 -124 -115 -124c76.667 0 115 -41.333 115 -124c-5.33301 38.667 -45.333 58 -120 58h-208z" />
    <glyph glyph-name="u0648" unicode="&#x648;" horiz-adv-x="798" arabic-form="isolated" 
d="M691 593v-947c0 -88 -44.333 -132 -133 -132h-321c-73.333 0 -113 -19.333 -119 -58c0 82.667 38.333 124 115 124c-76.667 0 -115 41.333 -115 124c5.33301 -38.667 45 -58 119 -58h321v831h-82c-73.333 0 -135.833 -25.833 -187.5 -77.5s-77.5 -114.5 -77.5 -188.5v-84
h208c74 0 114 19.333 120 58c0 -83.333 -38.333 -125 -115 -125c76.667 0 115 -41.333 115 -124c-5.33301 38.667 -45.333 58 -120 58h-208c-36.667 0 -68 13 -94 39s-39 57.333 -39 94v84c0 111.333 38.667 205 116 281s171.333 114 282 114h82c0 66 -19 101.667 -57 107
c82.667 0 124 -38.333 124 -115c0 76.667 41.333 115 124 115c-38.667 -5.33301 -58 -45.333 -58 -120z" />
    <glyph glyph-name="u0649" unicode="&#x649;" horiz-adv-x="1216" arabic-form="isolated" 
d="M1109 -351c0 -37.333 -13.1699 -68.834 -39.5029 -94.501s-58.166 -38.5 -95.499 -38.5h-775c-88 0 -132 44.333 -132 133v481c0 73.333 -19.333 113 -58 119c82.667 0 124 -38.333 124 -115c0 76.667 41.333 115 124 115c-38.667 -5.33301 -58 -45 -58 -119v-481h775
v348h-408c-36 -36 -54 -67.667 -54 -95c0 -13.333 3.33301 -23.333 10 -30c-27.333 26.667 -41 55.334 -41 86.001c0 29.333 11.667 57 35 83c-25.333 -24 -52.666 -36 -81.999 -36s-58.666 14 -87.999 42c8.66699 -7.33301 18.667 -11 30 -11c27.333 0 59.333 18.333 96 55
l426 425h130c74 0 114 19.333 120 58c0 -83.333 -38.333 -125 -115 -125c76.667 0 115 -41.333 115 -124c-5.33301 38.667 -45.333 58 -120 58h-76l-253 -253h264c38 0 71.833 -12.833 101.5 -38.5s44.5 -57.167 44.5 -94.5v-348z" />
    <glyph glyph-name="u064A" unicode="&#x64a;" horiz-adv-x="1208" arabic-form="isolated" 
d="M1109 -351c0 -37.333 -13.1699 -68.834 -39.5029 -94.501s-58.166 -38.5 -95.499 -38.5h-775c-88 0 -132 44.333 -132 133v481c0 73.333 -19.333 113 -58 119c82.667 0 124 -38.333 124 -115c0 76.667 41.333 115 124 115c-38.667 -5.33301 -58 -45 -58 -119v-481h775
v348h-408c-36 -36 -54 -67.667 -54 -95c0 -13.333 3.33301 -23.333 10 -30c-27.333 26.667 -41 55.334 -41 86.001c0 29.333 11.667 57 35 83c-25.333 -24 -52.666 -36 -81.999 -36s-58.666 14 -87.999 42c8.66699 -7.33301 18.667 -11 30 -11c27.333 0 59.333 18.333 96 55
l426 425h130c74 0 114 19.333 120 58c0 -83.333 -38.333 -125 -115 -125c76.667 0 115 -41.333 115 -124c-5.33301 38.667 -45.333 58 -120 58h-76l-253 -253h262c36.667 0 70.5 -13.167 101.5 -39.5s46.5 -57.5 46.5 -93.5v-348z" />
    <glyph glyph-name="u067E" unicode="&#x67e;" horiz-adv-x="1480" arabic-form="isolated" 
d="M1373 123c0 -36.667 -13 -68 -39 -94s-57.333 -39 -94 -39h-1050c-88.667 0 -133 44.333 -133 133v467c0 73.333 -19.333 113 -58 119c82.667 0 124 -38.333 124 -115c0 76.667 41.333 115 124 115c-38 -5.33301 -57 -45 -57 -119v-467h1050v467
c0 73.333 -19 113 -57 119c82.667 0 124 -38.333 124 -115c0 76.667 41.333 115 124 115c-38.667 -5.33301 -58 -45 -58 -119v-467zM824 -230c0 -44 -22 -66 -66 -66c-44.667 0 -67 22 -67 66s22.333 66 67 66c44 0 66 -22 66 -66zM691 -230c0 -44 -22 -66 -66 -66
s-66 22 -66 66s22 66 66 66s66 -22 66 -66zM756 -368c0 -44 -22.333 -66 -67 -66c-44 0 -66 22 -66 66s22 66 66 66c44.667 0 67 -22 67 -66z" />
    <glyph glyph-name="u0686" unicode="&#x686;" horiz-adv-x="1203" arabic-form="isolated" 
d="M67 -4c0 36.667 12.832 68 38.499 94s56.834 39 93.501 39h587l-404 400h-208c-73.333 0 -113.333 -19.333 -120 -58c0 82.667 38.333 124 115 124c-76.667 0 -115 41.333 -115 124c5.33301 -38 45.333 -57 120 -57h269l533 -533c73.333 0 113.333 19.333 120 58
c0 -83.333 -38.333 -125 -115 -125c76.667 0 115 -41.333 115 -124c-5.33301 38.667 -45.333 58 -120 58h-777v-412h777c73.333 0 113.333 19.333 120 58c0 -82.667 -38.333 -124 -115 -124c76.667 0 115 -41.333 115 -124c-5.33301 38 -45.333 57 -120 57h-777
c-88 0 -132 44.333 -132 133v412zM651.999 -148c0 -44.667 -22 -67 -66 -67c-44.667 0 -67 22.333 -67 67c0 44 22.333 66 67 66c44 0 66 -22 66 -66zM518.999 -148c0 -44.667 -22 -67 -66 -67s-66 22.333 -66 67c0 44 22 66 66 66s66 -22 66 -66zM583.999 -286
c0 -44.667 -22.333 -67 -67 -67c-44 0 -66 22.333 -66 67c0 44 22 66 66 66c44.667 0 67 -22 67 -66z" />
    <glyph glyph-name="u0698" unicode="&#x698;" horiz-adv-x="444" arabic-form="isolated" 
d="M337 581v-947c0 -88 -44.333 -132 -133 -132h-214c-73.333 0 -113.333 -19.333 -120 -58c0 82.667 38.667 124 116 124c-77.333 0 -116 41.333 -116 124c6 -38.667 46 -58 120 -58h214v947c0 73.333 -19.333 113.333 -58 120c83.333 0 125 -38.667 125 -116
c0 77.333 41.333 116 124 116c-38.667 -6 -58 -46 -58 -120zM142 874c0 44.667 22.333 67 67 67c44 0 66 -22.333 66 -67c0 44.667 22 67 66 67c44.667 0 67 -22.333 67 -67c0 -44 -22.333 -66 -67 -66c-44 0 -66 22 -66 66c0 -44 -22 -66 -66 -66c-44.667 0 -67 22 -67 66z
M210 1005c0 44 22 66 66 66s66 -22 66 -66s-22 -66 -66 -66s-66 22 -66 66z" />
    <glyph glyph-name="u06AF" unicode="&#x6af;" horiz-adv-x="1574" arabic-form="isolated" 
d="M186 -44c-90 0 -135.001 44.334 -135.001 133.001v344l135 1v-345h1214v346h-709c-36 -35.333 -54 -67 -54 -95c0 -12.667 3.33301 -22.667 10 -30c-27.333 27.333 -41 56.333 -41 87c0 29.333 11.667 56.666 35 81.999c-24.667 -23.333 -52 -35 -82 -35s-59 14 -87 42
c7.33301 -7.33301 17.333 -11 30 -11c27.333 0 59 18.333 95 55l519 518h279c74 0 114 19 120 57c0 -82.667 -38.333 -124 -115 -124c76.667 0 115 -41.333 115 -124c-5.33301 38.667 -45.333 58 -120 58h-224l-348 -347h577c90 0 135 -44.333 135 -133v-346
c0 -37.333 -13.167 -68.833 -39.5 -94.5s-58.166 -38.5 -95.499 -38.5h-1214zM672.999 756.001c-29.333 -11.333 -43.999 -37.333 -43.999 -78c0 -10 3 -18 9 -24c-22.667 22 -34 45.333 -34 70c0 24 9.66699 46.333 29 67c-20.667 -19.333 -43 -29 -67 -29
c-24.667 0 -48 11.333 -70 34c5.33301 -5.33301 13.333 -8 24 -8c22 0 47.667 14.667 77 44l420 419h218c59.333 0 91.666 15.667 96.999 47c0 -66.667 -31.333 -100 -94 -100c62.667 0 94 -33.667 94 -101c-4.66699 31.333 -37 47 -97 47h-173z" />
    <glyph glyph-name="uFB57" unicode="&#x67e;" horiz-adv-x="1475" arabic-form="final" 
d="M1368 575v-466h214v-133h-1397c-88.667 0 -133 44.333 -133 133v466c0 73.333 -19.333 113.333 -58 120c82.667 0 124 -38.667 124 -116c0 77.333 41.333 116 124 116c-38 -6 -57 -46 -57 -120v-466h1050v466c0 73.333 -19.333 113.333 -58 120
c83.333 0 125 -38.667 125 -116c0 77.333 41.333 116 124 116c-38.667 -6 -58 -46 -58 -120zM819 -244c0 -44.667 -22 -67 -66 -67c-44.667 0 -67 22.333 -67 67c0 44 22.333 66 67 66c44 0 66 -22 66 -66zM686 -244c0 -44.667 -22 -67 -66 -67s-66 22.333 -66 67
c0 44 22 66 66 66s66 -22 66 -66zM751 -382c0 -44.667 -22.333 -67 -67 -67c-44 0 -66 22.333 -66 67c0 44 22 66 66 66c44.667 0 67 -22 67 -66z" />
    <glyph glyph-name="uFB58" unicode="&#x67e;" horiz-adv-x="340" arabic-form="initial" 
d="M233 575v-466c0 -88.667 -44 -133 -132 -133h-214v133h214v466c0 73.333 -19.333 113.333 -58 120c82.667 0 124 -38.333 124 -115c0 76.667 41.333 115 124 115c-38.667 -5.33301 -58 -45.333 -58 -120zM249 -219c0 -44 -22 -66 -66 -66s-66 22 -66 66
c0 44.667 22 67 66 67s66 -22.333 66 -67zM117 -219c0 -44 -22.333 -66 -67 -66c-44 0 -66 22 -66 66c0 44.667 22 67 66 67c44.667 0 67 -22.333 67 -67zM181 -357c0 -44 -22 -66 -66 -66c-44.667 0 -67 22 -67 66c0 44.667 22.333 67 67 67c44 0 66 -22.333 66 -67z" />
    <glyph glyph-name="uFB59" unicode="&#x67e;" horiz-adv-x="335" arabic-form="medial" 
d="M228 575v-466h214v-133h-560v133h214v466c0 73.333 -19.333 113.333 -58 120c82.667 0 124 -38.333 124 -115c0 76.667 41.333 115 124 115c-38.667 -5.33301 -58 -45.333 -58 -120zM309 -219c0 -44 -22.333 -66 -67 -66c-44 0 -66 22 -66 66c0 44.667 22 67 66 67
c44.667 0 67 -22.333 67 -67zM176 -219c0 -44 -22 -66 -66 -66c-44.667 0 -67 22 -67 66c0 44.667 22.333 67 67 67c44 0 66 -22.333 66 -67zM240 -357c0 -44 -22 -66 -66 -66c-44.667 0 -67 22 -67 66c0 44.667 22.333 67 67 67c44 0 66 -22.333 66 -67z" />
    <glyph glyph-name="uFB7B" unicode="&#x686;" horiz-adv-x="1080" arabic-form="final" 
d="M64 -24c0 36.667 12.832 68 38.499 94s56.834 39 93.501 39h587l-404 400h-208c-74 0 -114 -19.333 -120 -58c0 82.667 38.333 124 115 124c-76.667 0 -115 41.333 -115 124c5.33301 -38 45.333 -57 120 -57h269l533 -533h214v-133h-991v-401h777
c73.333 0 113.333 19.333 120 58c0 -83.333 -38.667 -125 -116 -125c77.333 0 116 -41.333 116 -124c-6 38.667 -46 58 -120 58h-777c-88 0 -132 44.333 -132 133v401zM648.999 -168c0 -44.667 -22 -67 -66 -67c-44.667 0 -67 22.333 -67 67c0 44 22.333 66 67 66
c44 0 66 -22 66 -66zM515.999 -168c0 -44.667 -22 -67 -66 -67s-66 22.333 -66 67c0 44 22 66 66 66s66 -22 66 -66zM579.999 -306c0 -44.667 -22 -67 -66 -67s-66 22.333 -66 67c0 44 22 66 66 66s66 -22 66 -66z" />
    <glyph glyph-name="uFB7C" unicode="&#x686;" horiz-adv-x="1326" arabic-form="initial" 
d="M1099 -24h-1244v133h1053l-403 403h-316c-73.333 0 -113.333 -20.333 -120 -61c0 82.667 38.667 124 116 124c-77.333 0 -116 41.333 -116 124c6 -38 46 -57 120 -57h377l533 -533c73.333 0 113.333 19 120 57c0 -82.667 -38.667 -124 -116 -124
c77.333 0 116 -41.333 116 -124c-6 38.667 -46 58 -120 58zM669 -220c0 -44 -22.333 -66 -67 -66c-44 0 -66 22 -66 66c0 44.667 22 67 66 67c44.667 0 67 -22.333 67 -67zM536 -220c0 -44 -22 -66 -66 -66c-44.667 0 -67 22 -67 66c0 44.667 22.333 67 67 67
c44 0 66 -22.333 66 -67zM600 -358c0 -44 -22 -66 -66 -66c-44.667 0 -67 22 -67 66c0 44.667 22.333 67 67 67c44 0 66 -22.333 66 -67z" />
    <glyph glyph-name="uFB7D" unicode="&#x686;" horiz-adv-x="1203" arabic-form="medial" 
d="M186 642h377l533 -533h214v-133h-1458v133h1053l-403 403h-316c-73.333 0 -113.333 -20.333 -120 -61c0 82.667 38.667 124 116 124c-77.333 0 -116 41.333 -116 124c6 -38 46 -57 120 -57zM644 -235c0 -44 -22 -66 -66 -66c-44.667 0 -67 22 -67 66
c0 44.667 22.333 67 67 67c44 0 66 -22.333 66 -67zM511 -235c0 -44 -22 -66 -66 -66s-66 22 -66 66c0 44.667 22 67 66 67s66 -22.333 66 -67zM576 -373c0 -44 -22.333 -66 -67 -66c-44 0 -66 22 -66 66c0 44.667 22 67 66 67c44.667 0 67 -22.333 67 -67z" />
    <glyph glyph-name="uFB8B" unicode="&#x698;" horiz-adv-x="439" arabic-form="final" 
d="M332 109h214v-133h-214v-348c0 -88 -44 -132 -132 -132h-214c-74 0 -114 -19.333 -120 -58c0 82.667 38.333 124 115 124c-76.667 0 -115 41.333 -115 124c5.33301 -38.667 45.333 -58 120 -58h214v947c0 73.333 -19.333 113.333 -58 120c82.667 0 124 -38.667 124 -116
c0 77.333 41.333 116 124 116c-38.667 -6 -58 -46 -58 -120v-466zM138 868c0 44.667 22 67 66 67s66 -22.333 66 -67c0 44.667 22.333 67 67 67c44 0 66 -22.333 66 -67c0 -44 -22 -66 -66 -66c-44.667 0 -67 22 -67 66c0 -44 -22 -66 -66 -66s-66 22 -66 66zM205 999
c0 44 22 66 66 66c44.667 0 67 -22 67 -66s-22.333 -66 -67 -66c-44 0 -66 22 -66 66z" />
    <glyph glyph-name="uFEDA" unicode="&#x6a9;" horiz-adv-x="1658" arabic-form="final" 
d="M179 -24c-90 0 -135.001 44.334 -135.001 133.001v344l135 1v-345h1224v346h-719c-36.667 -35.333 -55 -67 -55 -95c0 -12.667 3.66699 -22.667 11 -30c-28 27.333 -42 56.333 -42 87c0 29.333 12 56.666 36 81.999c-25.333 -23.333 -53 -35 -83 -35s-58.667 14 -86 42
c6.66699 -7.33301 16.667 -11 30 -11c26.667 0 58.334 18.333 95.001 55l519 517h268c74 0 114 19.333 120 58c0 -82.667 -38.333 -124 -115 -124c76.667 0 115 -41.333 115 -124c-5.33301 38.667 -45.333 58 -120 58h-214l-347 -347h587c90 0 135 -44.333 135 -133v-346
h214v-133h-1573z" />
    <glyph glyph-name="uFEDB" unicode="&#x6a9;" horiz-adv-x="1711" arabic-form="initial" 
d="M1604 109c0 -37.333 -13.168 -68.832 -39.501 -94.499s-58.166 -38.5 -95.499 -38.5h-1627v133h1627v346h-1211c-36.667 -35.333 -55 -67 -55 -95c0 -12.667 3.66699 -22.667 11 -30c-28 27.333 -42 56.333 -42 87c0 29.333 11.667 56.666 35 81.999
c-24.667 -23.333 -52 -35 -82 -35s-59 14 -87 42c7.33301 -7.33301 17.333 -11 30 -11c27.333 0 59 18.333 95 55l519 517h526c73.333 0 113.333 19.333 120 58c0 -82.667 -38.667 -124 -116 -124c77.333 0 116 -41.333 116 -124c-6 38.667 -46 58 -120 58h-471l-348 -347
h1080c90 0 135 -44.333 135 -133v-346z" />
    <glyph glyph-name="uFEDC" unicode="&#x6a9;" horiz-adv-x="1704" arabic-form="medial" 
d="M1597 109l214 0.000976562v-133h-1976v133h1627v346h-1211c-36.667 -35.333 -55 -67 -55 -95c0 -12.667 3.66699 -22.667 11 -30c-28 27.333 -42 56.333 -42 87c0 29.333 11.667 56.666 35 81.999c-24.667 -23.333 -52 -35 -82 -35s-59 14 -87 42
c7.33301 -7.33301 17.333 -11 30 -11c27.333 0 59 18.333 95 55l519 517h526c73.333 0 113.333 19.333 120 58c0 -82.667 -38.667 -124 -116 -124c77.333 0 116 -41.333 116 -124c-6 38.667 -46 58 -120 58h-471l-348 -347h1080c90 0 135 -44.333 135 -133v-346z" />
    <glyph glyph-name="uFB93" unicode="&#x6af;" horiz-adv-x="1658" arabic-form="final" 
d="M179 -24c-90 0 -135.001 44.334 -135.001 133.001v344l135 1v-345h1224v346h-719c-36.667 -35.333 -55 -67 -55 -95c0 -12.667 3.66699 -22.667 11 -30c-28 27.333 -42 56.333 -42 87c0 29.333 12 56.666 36 81.999c-25.333 -23.333 -53 -35 -83 -35s-58.667 14 -86 42
c6.66699 -7.33301 16.667 -11 30 -11c26.667 0 58.334 18.333 95.001 55l519 517h268c74 0 114 19.333 120 58c0 -82.667 -38.333 -124 -115 -124c76.667 0 115 -41.333 115 -124c-5.33301 38.667 -45.333 58 -120 58h-214l-347 -347h587c90 0 135 -44.333 135 -133v-346
h214v-133h-1573zM665.999 775.001c-29.333 -10.667 -43.999 -36.333 -43.999 -77c0 -10 2.66699 -18 8 -24c-22 22 -33 45.333 -33 70c0 24 9.33301 46.333 28 67c-20 -19.333 -42.333 -29 -67 -29c-24 0 -47.333 11.333 -70 34c6 -6 14.333 -9 25 -9c21.333 0 47 15 77 45
l420 419h218c59.333 0 91.666 15.667 96.999 47c0 -67.333 -31.333 -101 -94 -101c62.667 0 94 -33.333 94 -100c-4.66699 31.333 -37 47 -97 47h-174z" />
    <glyph glyph-name="uFB94" unicode="&#x6af;" horiz-adv-x="1711" arabic-form="initial" 
d="M1604 109c0 -37.333 -13.168 -68.832 -39.501 -94.499s-58.166 -38.5 -95.499 -38.5h-1627v133h1627v346h-1211c-36.667 -35.333 -55 -67 -55 -95c0 -12.667 3.66699 -22.667 11 -30c-28 27.333 -42 56.333 -42 87c0 29.333 11.667 56.666 35 81.999
c-24.667 -23.333 -52 -35 -82 -35s-59 14 -87 42c7.33301 -7.33301 17.333 -11 30 -11c27.333 0 59 18.333 95 55l519 517h526c73.333 0 113.333 19.333 120 58c0 -82.667 -38.667 -124 -116 -124c77.333 0 116 -41.333 116 -124c-6 38.667 -46 58 -120 58h-471l-348 -347
h1080c90 0 135 -44.333 135 -133v-346zM249.999 782.001c-29.333 -11.333 -43.999 -37 -43.999 -77c0 -10.667 3 -19 9 -25c-22.667 22 -34 45.667 -34 71c0 23.333 9.33301 45.333 28 66c-20 -18.667 -42 -28 -66 -28c-24.667 0 -48 11.333 -70 34
c5.33301 -6 13.333 -9 24 -9c22 0 47.667 14.667 77 44l420 420h426c59.333 0 91.666 15.333 96.999 46c0 -66.667 -31.333 -100 -94 -100c62.667 0 94 -33.667 94 -101c-4.66699 31.333 -37 47 -97 47h-382z" />
    <glyph glyph-name="uFB95" unicode="&#x6af;" horiz-adv-x="1704" arabic-form="medial" 
d="M1597 109l214 0.000976562v-133h-1976v133h1627v346h-1211c-36.667 -35.333 -55 -67 -55 -95c0 -12.667 3.66699 -22.667 11 -30c-28 27.333 -42 56.333 -42 87c0 29.333 11.667 56.666 35 81.999c-24.667 -23.333 -52 -35 -82 -35s-59 14 -87 42
c7.33301 -7.33301 17.333 -11 30 -11c27.333 0 59 18.333 95 55l519 517h526c73.333 0 113.333 19.333 120 58c0 -82.667 -38.667 -124 -116 -124c77.333 0 116 -41.333 116 -124c-6 38.667 -46 58 -120 58h-471l-348 -347h1080c90 0 135 -44.333 135 -133v-346z
M243 782.001c-29.333 -10.667 -43.999 -36.333 -43.999 -77c0 -10.667 3 -19 9 -25c-22.667 22 -34 45.667 -34 71c0 23.333 9.33301 45.333 28 66c-20 -18.667 -42 -28 -66 -28c-24.667 0 -48 11.333 -70 34c5.33301 -6 13.333 -9 24 -9c22 0 47.667 14.667 77 44l420 420
h426c59.333 0 91.666 15.333 96.999 46c0 -66.667 -31.333 -100 -94 -100c62.667 0 94 -33.667 94 -101c-4.66699 31.333 -37 47 -97 47h-382z" />
    <glyph glyph-name="uFE94" unicode="&#x6c0;" horiz-adv-x="793" arabic-form="final" 
d="M686 109h214v-133h-347v483h-82c-73.333 0 -135.833 -25.833 -187.5 -77.5s-77.5 -114.5 -77.5 -188.5v-84h208c73.333 0 113.333 19 120 57c0 -82.667 -38.333 -124 -115 -124c76.667 0 115 -41.333 115 -124c-5.33301 38.667 -45.333 58 -120 58h-208
c-36.667 0 -68 13 -94 39s-39 57.333 -39 94v84c0 110.667 38.5 204.167 115.5 280.5s171.167 114.5 282.5 114.5h82c0 73.333 -19 113.333 -57 120c82.667 0 124 -38.667 124 -116c0 77.333 41.333 116 124 116c-38.667 -6 -58 -46 -58 -120v-479zM201 801
l0.000976562 49.001h138l-110 110c-14 14.667 -25.667 22 -35 22c-4.66699 0 -8.66699 -2 -12 -6c10.667 10.667 21.667 16 33 16c10.667 0 21 -4.33301 31 -13c-8.66699 9.33301 -13.334 19.666 -14.001 30.999c0 9.33301 5.33301 20.333 16 33
c2.66699 -11.333 8 -27 16 -47h166c28 0 43 7 45 21c0 -30.667 -14.333 -46 -43 -46c28.667 0 43 -15.667 43 -47c-2 14.667 -17 22 -45 22h-116l96 -96h57c27.333 0 42.333 7.33301 45 22c0 -30.667 -14.333 -46 -43 -46c28.667 0 43 -16 43 -48
c-2.66699 15.333 -17.667 23 -45 23h-266z" />
    <glyph glyph-name="uFEF2" unicode="&#x6cc;" horiz-adv-x="1215" arabic-form="final" 
d="M1096 -372c73.333 0 113 19.333 119 58c0 -82.667 -38.333 -124 -115 -124c76.667 0 115 -41.333 115 -124c-5.33301 38.667 -45 58 -119 58h-851c-88.667 0 -133 44 -133 132v481c0 73.333 -19 113 -57 119c82.667 0 124 -38.333 124 -115c0 76.667 41.333 115 124 115
c-38.667 -5.33301 -58 -45 -58 -119v-481h663l-386 386c-35.333 36 -67.333 54 -96 54c-11.333 0 -21.333 -3.33301 -30 -10c28 28 57.333 42 88 42c28.667 0 56 -11.667 82 -35c-23.333 24.667 -35 52 -35 82c0 30.667 13.333 59.667 40 87c-6 -6.66699 -9 -16.667 -9 -30
c0 -28 17.667 -59.667 53 -95h707v-133h-574z" />
    <glyph glyph-name="uFEF3" unicode="&#x6cc;" horiz-adv-x="340" arabic-form="initial" 
d="M167 -197c0 44 22 66 66 66c44.667 0 67 -22 67 -66c0 -44.667 -22.333 -67 -67 -67c-44 0 -66 22.333 -66 67zM233 575v-465.999c0 -42.667 -20.333 -76.334 -61 -101.001c-34.667 -21.333 -74.667 -32 -120 -32h-166v133h214v466c0 73.333 -19 113.333 -57 120
c82.667 0 124 -38.667 124 -116c0 77.333 41.333 116 124 116c-38.667 -6 -58 -46 -58 -120zM34 -196.999c0 44 22 66 66 66c44.667 0 67 -22 67 -66c0 -44.667 -22.333 -67 -67 -67c-44 0 -66 22.333 -66 67z" />
    <glyph glyph-name="uFEF4" unicode="&#x6cc;" horiz-adv-x="335" arabic-form="medial" 
d="M228 575v-466h214v-133h-560v133h214v466c0 73.333 -19.333 113.333 -58 120c82.667 0 124 -38.667 124 -116c0 77.333 41.333 116 124 116c-38.667 -6 -58 -46 -58 -120zM162 -197c0 44 22 66 66 66c44.667 0 67 -22 67 -66c0 -44.667 -22.333 -67 -67 -67
c-44 0 -66 22.333 -66 67zM29 -197c0 44 22.333 66 67 66c44 0 66 -22 66 -66c0 -44.667 -22 -67 -66 -67c-44.667 0 -67 22.333 -67 67z" />
    <glyph glyph-name="Hcircumflex" unicode="&#x622;" horiz-adv-x="332" arabic-form="final" 
d="M225 109h214v-133h-214c0 -73.333 19 -113.333 57 -120c-82.667 0 -124 38.667 -124 116c0 -77.333 -41.333 -116 -124 -116c38.667 6 58 46 58 120v1175c0 73.333 -19.333 113.333 -58 120c82.667 0 124 -38.667 124 -116c0 77.333 41.333 116 124 116
c-38 -6 -57 -46 -57 -120v-1042zM230 1326l-139.001 81.999v-60c0 -28 7.33301 -43 22 -45c-31.333 0 -47 14.667 -47 44c0 -29.333 -15.333 -44 -46 -44c14.667 2 22 17 22 45v91c-14.667 14 -26.667 21 -36 21c-4.66699 0 -8.66699 -1.33301 -12 -4
c10 8.66699 21.333 13.667 34 15c10 0 20 -4.33301 30 -13c-8.66699 8.66699 -13 19 -13 31c0 10.667 5.33301 21.334 16 32.001c2 -12.667 7.33301 -28.334 16 -47.001l138 -81v60c0 27.333 -7.33301 42.333 -22 45c31.333 0 47 -14.333 47 -43c0 28.667 15.667 43 47 43
c-14.667 -2.66699 -22 -17.667 -22 -45v-91c14 -14.667 25.667 -22 35 -22c4.66699 0 8.66699 1.66699 12 5c-10 -8.66699 -21 -13.667 -33 -15c-10 0 -20.333 4 -31 12c9.33301 -9.33301 14 -19.666 14 -30.999c0 -10.667 -5.33301 -21.334 -16 -32.001
c-3.33301 12.667 -8.66602 28.334 -15.999 47.001z" />
    <glyph glyph-name="uFE84" unicode="&#x623;" horiz-adv-x="331" arabic-form="final" 
d="M14 1303l0.000976562 49.999h139l-110 109c-14.667 14.667 -26.667 22 -36 22c-4.66699 0 -8.33398 -1.66699 -11.001 -5c8 8.66699 18.667 13.667 32 15c10 0 20.333 -4.33301 31 -13c-8.66699 8.66699 -13 19.334 -13 32.001c0 11.333 5 22 15 32
c3.33301 -13.333 9 -29 17 -47h166c27.333 0 42.333 7 45 21c0 -30.667 -14.333 -46 -43 -46c28.667 0 43 -15.667 43 -47c-2.66699 14.667 -17.667 22 -45 22h-117l95 -95h58c28 0 43 7 45 21c0 -31.333 -14.333 -47 -43 -47c28.667 0 43 -15.333 43 -46
c-2 14.667 -17 22 -45 22h-266zM224.001 108.999h214v-133h-214c0 -73.333 19.333 -113.333 58 -120c-82.667 0 -124 38.667 -124 116c0 -77.333 -41.333 -116 -124 -116c38.667 6 58 46 58 120v1175c0 73.333 -19.333 113.333 -58 120c82.667 0 124 -38.667 124 -116
c0 77.333 41.333 116 124 116c-38.667 -6 -58 -46 -58 -120v-1042z" />
    <glyph glyph-name="uFE86" unicode="&#x624;" horiz-adv-x="793" arabic-form="final" 
d="M686 109h214v-133h-214v-348c0 -88 -44.333 -132 -133 -132h-321c-73.333 0 -113 -19.333 -119 -58c0 82.667 38.333 124 115 124c-76.667 0 -115 41.333 -115 124c5.33301 -38.667 45 -58 119 -58h321v831h-82c-73.333 0 -135.833 -25.833 -187.5 -77.5
s-77.5 -114.5 -77.5 -188.5v-84h208c73.333 0 113.333 19 120 57c0 -82.667 -38.333 -124 -115 -124c76.667 0 115 -41.333 115 -124c-5.33301 38.667 -45.333 58 -120 58h-208c-36.667 0 -68 13 -94 39s-39 57.333 -39 94v84c0 110.667 38.5 204.167 115.5 280.5
s171.167 114.5 282.5 114.5h82c0 65.333 -19 101 -57 107c82.667 0 124 -38.667 124 -116c0 77.333 41.333 116 124 116c-38.667 -6 -58 -46 -58 -120v-466zM466 802v50h138l-111 109c-14 14.667 -25.667 22 -35 22c-4 0 -8 -1.33301 -12 -4c10 8 21.333 13 34 15
c10 0 20.333 -4.33301 31 -13c-9.33301 9.33301 -14 19.666 -14 30.999c0 10.667 5.33301 21.334 16 32.001c2 -11.333 7.33301 -27 16 -47h167c27.333 0 42.333 7 45 21c0 -30.667 -14.667 -46 -44 -46c29.333 0 44 -15.667 44 -47c-2.66699 15.333 -17.667 23 -45 23h-118
l96 -96h57c28 0 43 7.33301 45 22c0 -31.333 -14.333 -47 -43 -47c28.667 0 43 -15.333 43 -46c-2 14 -17 21 -45 21h-265z" />
    <glyph glyph-name="uFE88" unicode="&#x625;" horiz-adv-x="331" arabic-form="final" 
d="M224 109h214v-133h-346v1320c0 74 -19.333 114 -58 120c82.667 0 124 -38.333 124 -115c0 76.667 41.333 115 124 115c-38.667 -5.33301 -58 -45.333 -58 -120v-1187zM14 -326v49.001h139l-110 111c-14.667 14 -26.667 21 -36 21c-4 0 -7.66699 -1.66699 -11 -5
c9.33301 10.667 20 16 32 16c10 0 20.333 -4.33301 31 -13c-8.66699 8.66699 -13 18.667 -13 30c0 10.667 5 21.667 15 33c3.33301 -12.667 9 -28.334 17 -47.001h166c27.333 0 42.333 7 45 21c0 -30.667 -14.333 -46 -43 -46c28.667 0 43 -15.667 43 -47
c-2.66699 15.333 -17.667 23 -45 23h-117l95 -97h58c28 0 43 7.66699 45 23c0 -31.333 -14.333 -47 -43 -47c28.667 0 43 -15.333 43 -46c-2 14 -17 21 -45 21h-266z" />
    <glyph glyph-name="uFE8A" unicode="&#x626;" horiz-adv-x="1167" arabic-form="final" 
d="M1047 -372c73.333 0 113.333 19.333 120 58c0 -82.667 -38.667 -124 -116 -124c77.333 0 116 -41.333 116 -124c-6 38.667 -46 58 -120 58h-850c-88.667 0 -133 44 -133 132v481c0 73.333 -19.333 113 -58 119c82.667 0 124 -38.333 124 -115
c0 76.667 41.333 115 124 115c-38 -5.33301 -57 -45 -57 -119v-481h663l-386 386c-36 36 -68.333 54 -97 54c-11.333 0 -21.333 -3.33301 -30 -10c28 28 57.333 42 88 42c29.333 0 57 -11.667 83 -35c-24 24.667 -36 52 -36 82c0 30.667 13.667 59.667 41 87
c-6.66699 -6.66699 -10 -16.667 -10 -30c0 -28 18 -59.667 54 -95h707v-133h-575zM-22 341l0.000976562 49h138l-110 110c-14 14.667 -25.667 22 -35 22c-4.66699 0 -8.66699 -2 -12 -6c10.667 10.667 21.667 16 33 16c10.667 0 21 -4.66699 31 -14
c-8.66699 10 -13.334 20.333 -14.001 31c0 10 5.33301 21.333 16 34c2.66699 -11.333 8 -27 16 -47h166c28 0 43 7 45 21c0 -30.667 -14.333 -46 -43 -46c28.667 0 43 -15.667 43 -47c-2 14.667 -17 22 -45 22h-116l96 -96h57c27.333 0 42.333 7 45 21
c0 -30.667 -14.333 -46 -43 -46c28.667 0 43 -15.667 43 -47c-2.66699 15.333 -17.667 23 -45 23h-266z" />
    <glyph glyph-name="uFE8B" unicode="&#x626;" horiz-adv-x="339" arabic-form="initial" 
d="M232 575l0.000976562 -465.999c0 -42.667 -20.333 -76.334 -61 -101.001c-34.667 -21.333 -74.334 -32 -119.001 -32h-166v133h214v466c0 73.333 -19.333 113.333 -58 120c82.667 0 124 -38.667 124 -116c0 77.333 41.333 116 124 116c-38.667 -6 -58 -46 -58 -120z
M12.001 802.001l0.000976562 49.999h138l-110 109c-14.667 14.667 -26.667 22 -36 22c-4.66699 0 -8.33398 -1.33301 -11.001 -4c10 8 21 13 33 15c10 0 20 -4.33301 30 -13c-8.66699 8.66699 -13 19 -13 31c0 10.667 5.33301 21.334 16 32.001
c2 -11.333 7.33301 -27 16 -47h166c28 0 43 7 45 21c0 -30.667 -14.333 -46 -43 -46c28.667 0 43 -15.667 43 -47c-2 15.333 -17 23 -45 23h-117l97 -96h56c28 0 43 7.33301 45 22c0 -31.333 -14.333 -47 -43 -47c28.667 0 43 -15.333 43 -46c-2 14 -17 21 -45 21h-265z" />
    <glyph glyph-name="uFE8C" unicode="&#x626;" horiz-adv-x="335" arabic-form="medial" 
d="M228 575v-466h214v-133h-560v133h214v466c0 73.333 -19.333 113.333 -58 120c82.667 0 124 -38.667 124 -116c0 77.333 41.333 116 124 116c-38.667 -6 -58 -46 -58 -120zM8 802l0.000976562 49.999h138l-110 109c-14.667 14.667 -26.667 22 -36 22
c-4.66699 0 -8.33398 -1.33301 -11.001 -4c10 8 21 13 33 15c10 0 20 -4.33301 30 -13c-8.66699 8.66699 -13 19 -13 31c0 10.667 5.33301 21.334 16 32.001c2 -11.333 7.33301 -27 16 -47h166c28 0 43 7 45 21c0 -30.667 -14.333 -46 -43 -46c28.667 0 43 -15.667 43 -47
c-2 15.333 -17 23 -45 23h-117l97 -96h56c28 0 43 7.33301 45 22c0 -31.333 -14.333 -47 -43 -47c28.667 0 43 -15.333 43 -46c-2 14 -17 21 -45 21h-265z" />
    <glyph glyph-name="uFE8E" unicode="&#x627;" horiz-adv-x="330" arabic-form="final" 
d="M223 109h214v-133h-214c0 -73.333 19.333 -113.333 58 -120c-82.667 0 -124 38.667 -124 116c0 -77.333 -41.333 -116 -124 -116c38.667 6 58 46 58 120v1320c0 74 -19.333 114 -58 120c82.667 0 124 -38.333 124 -115c0 76.667 41.333 115 124 115
c-38.667 -5.33301 -58 -45.333 -58 -120v-1187z" />
    <glyph glyph-name="uFE90" unicode="&#x628;" horiz-adv-x="1475" arabic-form="final" 
d="M1368 575v-466h214v-133h-1397c-88.667 0 -133 44.333 -133 133v466c0 73.333 -19.333 113.333 -58 120c82.667 0 124 -38.667 124 -116c0 77.333 41.333 116 124 116c-38 -6 -57 -46 -57 -120v-466h1050v466c0 73.333 -19.333 113.333 -58 120
c83.333 0 125 -38.667 125 -116c0 77.333 41.333 116 124 116c-38.667 -6 -58 -46 -58 -120zM644 -197c0 44 22 66 66 66s66 -22 66 -66c0 -44.667 -22 -67 -66 -67s-66 22.333 -66 67z" />
    <glyph glyph-name="uFE91" unicode="&#x628;" horiz-adv-x="340" arabic-form="initial" 
d="M47 -197c0 44 22.333 66 67 66c44 0 66 -22 66 -66c0 -44.667 -22 -67 -66 -67c-44.667 0 -67 22.333 -67 67zM233 575v-466c0 -88.667 -44 -133 -132 -133h-214v133h214v466c0 73.333 -19.333 113.333 -58 120c82.667 0 124 -38.667 124 -116
c0 77.333 41.333 116 124 116c-38.667 -6 -58 -46 -58 -120z" />
    <glyph glyph-name="uFE92" unicode="&#x628;" horiz-adv-x="335" arabic-form="medial" 
d="M228 575v-466h214v-133h-560v133h214v466c0 73.333 -19.333 113.333 -58 120c82.667 0 124 -38.667 124 -116c0 77.333 41.333 116 124 116c-38.667 -6 -58 -46 -58 -120zM96 -197c0 44 22 66 66 66s66 -22 66 -66c0 -44.667 -22 -67 -66 -67s-66 22.333 -66 67z" />
    <glyph glyph-name="uFE96" unicode="&#x62a;" horiz-adv-x="1475" arabic-form="final" 
d="M1368 575v-466h214v-133h-1397c-88.667 0 -133 44.333 -133 133v466c0 73.333 -19.333 113.333 -58 120c82.667 0 124 -38.333 124 -115c0 76.667 41.333 115 124 115c-38 -5.33301 -57 -45.333 -57 -120v-466h1050v466c0 73.333 -19.333 113.333 -58 120
c83.333 0 125 -38.333 125 -115c0 76.667 41.333 115 124 115c-38.667 -5.33301 -58 -45.333 -58 -120zM577 868c0 44.667 22.333 67 67 67c44 0 66 -22.333 66 -67c0 -44 -22 -66 -66 -66c-44.667 0 -67 22 -67 66zM710 868c0 44.667 22 67 66 67
c44.667 0 67 -22.333 67 -67c0 -44 -22.333 -66 -67 -66c-44 0 -66 22 -66 66z" />
    <glyph glyph-name="uFE97" unicode="&#x62a;" horiz-adv-x="340" arabic-form="initial" 
d="M34 868c0 44.667 22 67 66 67c44.667 0 67 -22.333 67 -67c0 -44 -22.333 -66 -67 -66c-44 0 -66 22 -66 66zM233 575v-466c0 -88.667 -44.333 -133 -133 -133h-214v133h214v466c0 73.333 -19 113.333 -57 120c82.667 0 124 -38.333 124 -115
c0 76.667 41.333 115 124 115c-38.667 -5.33301 -58 -45.333 -58 -120zM167 868c0 44.667 22 67 66 67c44.667 0 67 -22.333 67 -67c0 -44 -22.333 -66 -67 -66c-44 0 -66 22 -66 66z" />
    <glyph glyph-name="uFE98" unicode="&#x62a;" horiz-adv-x="335" arabic-form="medial" 
d="M228 575v-466h214v-133h-560v133h214v466c0 73.333 -19.333 113.333 -58 120c82.667 0 124 -38.333 124 -115c0 76.667 41.333 115 124 115c-38.667 -5.33301 -58 -45.333 -58 -120zM29 868c0 44.667 22.333 67 67 67c44 0 66 -22.333 66 -67c0 -44 -22 -66 -66 -66
c-44.667 0 -67 22 -67 66zM162 868c0 44.667 22 67 66 67c44.667 0 67 -22.333 67 -67c0 -44 -22.333 -66 -67 -66c-44 0 -66 22 -66 66z" />
    <glyph glyph-name="uFE9A" unicode="&#x62b;" horiz-adv-x="1475" arabic-form="final" 
d="M1368 575v-466h214v-133h-1397c-88.667 0 -133 44.333 -133 133v466c0 73.333 -19.333 113.333 -58 120c82.667 0 124 -38.333 124 -115c0 76.667 41.333 115 124 115c-38 -5.33301 -57 -45.333 -57 -120v-466h1050v466c0 73.333 -19.333 113.333 -58 120
c83.333 0 125 -38.333 125 -115c0 76.667 41.333 115 124 115c-38.667 -5.33301 -58 -45.333 -58 -120zM577 868c0 44.667 22.333 67 67 67c44 0 66 -22.333 66 -67c0 -44 -22 -66 -66 -66c-44.667 0 -67 22 -67 66zM710 868c0 44.667 22 67 66 67
c44.667 0 67 -22.333 67 -67c0 -44 -22.333 -66 -67 -66c-44 0 -66 22 -66 66zM646 1006c0 44.667 22 67 66 67s66 -22.333 66 -67c0 -44 -22 -66 -66 -66s-66 22 -66 66z" />
    <glyph glyph-name="uFE9B" unicode="&#x62b;" horiz-adv-x="340" arabic-form="initial" 
d="M34 868c0 44.667 22 67 66 67c44.667 0 67 -22.333 67 -67c0 -44 -22.333 -66 -67 -66c-44 0 -66 22 -66 66zM233 575v-466c0 -88.667 -44.333 -133 -133 -133h-214v133h214v466c0 73.333 -19 113.333 -57 120c82.667 0 124 -38.333 124 -115
c0 76.667 41.333 115 124 115c-38.667 -5.33301 -58 -45.333 -58 -120zM167 868c0 44.667 22 67 66 67c44.667 0 67 -22.333 67 -67c0 -44 -22.333 -66 -67 -66c-44 0 -66 22 -66 66zM104 1006c0 44.667 22 67 66 67s66 -22.333 66 -67c0 -44 -22 -66 -66 -66s-66 22 -66 66
z" />
    <glyph glyph-name="uFE9C" unicode="&#x62b;" horiz-adv-x="335" arabic-form="medial" 
d="M228 575v-466h214v-133h-560v133h214v466c0 73.333 -19.333 113.333 -58 120c82.667 0 124 -38.333 124 -115c0 76.667 41.333 115 124 115c-38.667 -5.33301 -58 -45.333 -58 -120zM29 868c0 44.667 22.333 67 67 67c44 0 66 -22.333 66 -67c0 -44 -22 -66 -66 -66
c-44.667 0 -67 22 -67 66zM162 868c0 44.667 22 67 66 67c44.667 0 67 -22.333 67 -67c0 -44 -22.333 -66 -67 -66c-44 0 -66 22 -66 66zM99 1006c0 44.667 22 67 66 67c44.667 0 67 -22.333 67 -67c0 -44 -22.333 -66 -67 -66c-44 0 -66 22 -66 66z" />
    <glyph glyph-name="uFE9E" unicode="&#x62c;" horiz-adv-x="1080" arabic-form="final" 
d="M64 -24c0 36.667 12.832 68 38.499 94s56.834 39 93.501 39h587l-404 400h-208c-74 0 -114 -19.333 -120 -58c0 82.667 38.333 124 115 124c-76.667 0 -115 41.333 -115 124c5.33301 -38 45.333 -57 120 -57h269l533 -533h214v-133h-991v-348h777
c73.333 0 113.333 19.333 120 58c0 -82.667 -38.667 -124 -116 -124c77.333 0 116 -41.333 116 -124c-6 38.667 -46 58 -120 58h-777c-88 0 -132 44 -132 132v348zM465.999 -197c0 44 22 66 66 66c44.667 0 67 -22 67 -66c0 -44.667 -22.333 -67 -67 -67
c-44 0 -66 22.333 -66 67z" />
    <glyph glyph-name="uFE9F" unicode="&#x62c;" horiz-adv-x="1326" arabic-form="initial" 
d="M1099 -24h-1244v133h1053l-403 403h-316c-73.333 0 -113.333 -20.333 -120 -61c0 82.667 38.667 124 116 124c-77.333 0 -116 41.333 -116 124c6 -38 46 -57 120 -57h377l533 -533c73.333 0 113.333 19 120 57c0 -82.667 -38.667 -124 -116 -124
c77.333 0 116 -41.333 116 -124c-6 38.667 -46 58 -120 58zM434 -197c0 44 22.333 66 67 66c44 0 66 -22 66 -66c0 -44.667 -22 -67 -66 -67c-44.667 0 -67 22.333 -67 67z" />
    <glyph glyph-name="uFEA0" unicode="&#x62c;" horiz-adv-x="1203" arabic-form="medial" 
d="M186 642h377l533 -533h214v-133h-1458v133h1053l-403 403h-316c-73.333 0 -113.333 -20.333 -120 -61c0 82.667 38.667 124 116 124c-77.333 0 -116 41.333 -116 124c6 -38 46 -57 120 -57zM431 -197c0 44 22.333 66 67 66c44 0 66 -22 66 -66c0 -44.667 -22 -67 -66 -67
c-44.667 0 -67 22.333 -67 67z" />
    <glyph glyph-name="uFEA2" unicode="&#x62d;" horiz-adv-x="1080" arabic-form="final" 
d="M64 -24c0 36.667 12.832 68 38.499 94s56.834 39 93.501 39h587l-404 400h-208c-74 0 -114 -19.333 -120 -58c0 82.667 38.333 124 115 124c-76.667 0 -115 41.333 -115 124c5.33301 -38 45.333 -57 120 -57h269l533 -533h214v-133h-991v-348h777
c73.333 0 113.333 19.333 120 58c0 -82.667 -38.667 -124 -116 -124c77.333 0 116 -41.333 116 -124c-6 38.667 -46 58 -120 58h-777c-88 0 -132 44 -132 132v348z" />
    <glyph glyph-name="uFEA3" unicode="&#x62d;" horiz-adv-x="1326" arabic-form="initial" 
d="M1099 -24h-1244v133h1053l-403 403h-316c-73.333 0 -113.333 -20.333 -120 -61c0 82.667 38.667 124 116 124c-77.333 0 -116 41.333 -116 124c6 -38 46 -57 120 -57h377l533 -533c73.333 0 113.333 19 120 57c0 -82.667 -38.667 -124 -116 -124
c77.333 0 116 -41.333 116 -124c-6 38.667 -46 58 -120 58z" />
    <glyph glyph-name="uFEA4" unicode="&#x62d;" horiz-adv-x="1203" arabic-form="medial" 
d="M186 642h377l533 -533h214v-133h-1458v133h1053l-403 403h-316c-73.333 0 -113.333 -20.333 -120 -61c0 82.667 38.667 124 116 124c-77.333 0 -116 41.333 -116 124c6 -38 46 -57 120 -57z" />
    <glyph glyph-name="uFEA6" unicode="&#x62e;" horiz-adv-x="1080" arabic-form="final" 
d="M64 -24c0 36.667 12.832 68 38.499 94s56.834 39 93.501 39h587l-404 400h-208c-74 0 -114 -19.333 -120 -58c0 82.667 38.333 124 115 124c-76.667 0 -115 41.333 -115 124c5.33301 -38 45.333 -57 120 -57h269l533 -533h214v-133h-991v-348h777
c73.333 0 113.333 19.333 120 58c0 -82.667 -38.667 -124 -116 -124c77.333 0 116 -41.333 116 -124c-6 38.667 -46 58 -120 58h-777c-88 0 -132 44 -132 132v348zM272.999 868c0 44.667 22.333 67 67 67c44 0 66 -22.333 66 -67c0 -44 -22 -66 -66 -66
c-44.667 0 -67 22 -67 66z" />
    <glyph glyph-name="uFEA7" unicode="&#x62e;" horiz-adv-x="1326" arabic-form="initial" 
d="M1099 -24h-1244v133h1053l-403 403h-316c-73.333 0 -113.333 -20.333 -120 -61c0 82.667 38.667 124 116 124c-77.333 0 -116 41.333 -116 124c6 -38 46 -57 120 -57h377l533 -533c73.333 0 113.333 19 120 57c0 -82.667 -38.667 -124 -116 -124
c77.333 0 116 -41.333 116 -124c-6 38.667 -46 58 -120 58zM279 868c0 44.667 22 67 66 67c44.667 0 67 -22.333 67 -67c0 -44 -22.333 -66 -67 -66c-44 0 -66 22 -66 66z" />
    <glyph glyph-name="uFEA8" unicode="&#x62e;" horiz-adv-x="1203" arabic-form="medial" 
d="M186 642h377l533 -533h214v-133h-1458v133h1053l-403 403h-316c-73.333 0 -113.333 -20.333 -120 -61c0 82.667 38.667 124 116 124c-77.333 0 -116 41.333 -116 124c6 -38 46 -57 120 -57zM276 868c0 44.667 22 67 66 67c44.667 0 67 -22.333 67 -67
c0 -44 -22.333 -66 -67 -66c-44 0 -66 22 -66 66z" />
    <glyph glyph-name="uFEAA" unicode="&#x62f;" horiz-adv-x="1179" arabic-form="final" 
d="M1072 109l214 -0.000976562v-133h-1106c-73.333 0 -113.333 -19.333 -120 -58c0 82.667 38.333 124 115 124c-76.667 0 -115 41.333 -115 124c5.33301 -38 45.333 -57 120 -57h705l-385 385c-36.667 36 -69 54 -97 54c-12 0 -22 -3.33301 -30 -10
c28 27.333 57.333 41 88 41c29.333 0 57 -11.667 83 -35c-24 25.333 -36 53 -36 83c0 30.667 13.667 59.334 41 86.001c-6.66699 -6 -10 -16 -10 -30c0 -27.333 18 -59 54 -95z" />
    <glyph glyph-name="uFEAC" unicode="&#x630;" horiz-adv-x="1179" arabic-form="final" 
d="M1072 109l214 -0.000976562v-133h-1106c-73.333 0 -113.333 -19.333 -120 -58c0 82.667 38.333 124 115 124c-76.667 0 -115 41.333 -115 124c5.33301 -38 45.333 -57 120 -57h705l-385 385c-36.667 36 -69 54 -97 54c-12 0 -22 -3.33301 -30 -10c28 28 57.333 42 88 42
c29.333 0 57 -12 83 -36c-24 25.333 -36 53 -36 83c0 30.667 13.667 59.334 41 86.001c-6.66699 -6 -10 -16 -10 -30c0 -27.333 18 -59 54 -95zM248 867.999c0 44.667 22.333 67 67 67c44 0 66 -22.333 66 -67c0 -44 -22 -66 -66 -66c-44.667 0 -67 22 -67 66z" />
    <glyph glyph-name="uFEAE" unicode="&#x631;" horiz-adv-x="439" arabic-form="final" 
d="M332 109h214v-133h-214v-348c0 -88 -44 -132 -132 -132h-214c-74 0 -114 -19.333 -120 -58c0 82.667 38.333 124 115 124c-76.667 0 -115 41.333 -115 124c5.33301 -38.667 45.333 -58 120 -58h214v947c0 73.333 -19.333 113.333 -58 120c82.667 0 124 -38.667 124 -116
c0 77.333 41.333 116 124 116c-38.667 -6 -58 -46 -58 -120v-466z" />
    <glyph glyph-name="uFEB0" unicode="&#x632;" horiz-adv-x="439" arabic-form="final" 
d="M332 109h214v-133h-214v-348c0 -88 -44 -132 -132 -132h-214c-74 0 -114 -19.333 -120 -58c0 82.667 38.333 124 115 124c-76.667 0 -115 41.333 -115 124c5.33301 -38.667 45.333 -58 120 -58h214v947c0 73.333 -19.333 113.333 -58 120c82.667 0 124 -38.333 124 -115
c0 76.667 41.333 115 124 115c-38.667 -5.33301 -58 -45.333 -58 -120v-466zM200 868c0 44.667 22 67 66 67s66 -22.333 66 -67c0 -44 -22 -66 -66 -66s-66 22 -66 66z" />
    <glyph glyph-name="uFEB2" unicode="&#x633;" horiz-adv-x="1467" arabic-form="final" 
d="M1013 468v-359h-133v359c0 73.333 -19 113.333 -57 120c82.667 0 124 -38.667 124 -116c0 77.333 41.333 116 124 116c-38.667 -6 -58 -46 -58 -120zM1360 109l214.001 0.000976562v-133h-908v-348c0 -36.667 -12.833 -67.834 -38.5 -93.501s-56.834 -38.5 -93.501 -38.5
h-349c-88.667 0 -133 44 -133 132v481c0 73.333 -19.333 113.333 -58 120c82.667 0 124 -38.667 124 -116c0 77.333 41.667 116 125 116c-38.667 -6 -58 -46 -58 -120v-481h349v733c0 73.333 -19.333 113.333 -58 120c82.667 0 124 -38.667 124 -116
c0 77.333 41.333 116 124 116c-38.667 -6 -58 -46 -58 -120v-252h561v466c0 73.333 -19.333 113.333 -58 120c82.667 0 124 -38.667 124 -116c0 77.333 41.333 116 124 116c-38 -6 -57 -46 -57 -120v-466z" />
    <glyph glyph-name="uFEB3" unicode="&#x633;" horiz-adv-x="1011" arabic-form="initial" 
d="M904 575v-466c0 -88.667 -44.333 -133 -133 -133h-907v133h214v252c0 73.333 -19.333 113.333 -58 120c82.667 0 124 -38.667 124 -116c0 77.333 41.667 116 125 116c-38.667 -6 -58 -46 -58 -120v-252h214v359c0 73.333 -19.333 113.333 -58 120
c82.667 0 124 -38.667 124 -116c0 77.333 41.333 116 124 116c-38.667 -6 -58 -46 -58 -120v-359h214v466c0 73.333 -19 113.333 -57 120c82.667 0 124 -38.667 124 -116c0 77.333 41.333 116 124 116c-38.667 -6 -58 -46 -58 -120z" />
    <glyph glyph-name="uFEB4" unicode="&#x633;" horiz-adv-x="1006" arabic-form="medial" 
d="M899 109h214v-133h-1254v133h214v252c0 73.333 -19.333 113.333 -58 120c82.667 0 124 -38.667 124 -116c0 77.333 41.333 116 124 116c-38 -6 -57 -46 -57 -120v-252h214v359c0 73.333 -19.333 113.333 -58 120c82.667 0 124 -38.667 124 -116
c0 77.333 41.333 116 124 116c-38.667 -6 -58 -46 -58 -120v-359h214v466c0 73.333 -19 113.333 -57 120c82.667 0 124 -38.667 124 -116c0 77.333 41.333 116 124 116c-38.667 -6 -58 -46 -58 -120v-466z" />
    <glyph glyph-name="uFEB6" unicode="&#x634;" horiz-adv-x="1467" arabic-form="final" 
d="M1013 468v-359h-133v359c0 73.333 -19 113.333 -57 120c82.667 0 124 -38.667 124 -116c0 77.333 41.333 116 124 116c-38.667 -6 -58 -46 -58 -120zM1360 109l214.001 0.000976562v-133h-908v-348c0 -36.667 -12.833 -67.834 -38.5 -93.501s-56.834 -38.5 -93.501 -38.5
h-349c-88.667 0 -133 44 -133 132v481c0 73.333 -19.333 113.333 -58 120c82.667 0 124 -38.667 124 -116c0 77.333 41.667 116 125 116c-38.667 -6 -58 -46 -58 -120v-481h349v733c0 73.333 -19.333 113.333 -58 120c82.667 0 124 -38.667 124 -116
c0 77.333 41.333 116 124 116c-38.667 -6 -58 -46 -58 -120v-252h561v466c0 73.333 -19.333 113.333 -58 120c82.667 0 124 -38.667 124 -116c0 77.333 41.333 116 124 116c-38 -6 -57 -46 -57 -120v-466zM794.001 761.001c0 44.667 22 67 66 67s66 -22.333 66 -67
c0 44.667 22.333 67 67 67c44 0 66 -22.333 66 -67c0 -44 -22 -66 -66 -66c-44.667 0 -67 22 -67 66c0 -44 -22 -66 -66 -66s-66 22 -66 66zM861.001 892.001c0 44 22 66 66 66c44.667 0 67 -22 67 -66s-22.333 -66 -67 -66c-44 0 -66 22 -66 66z" />
    <glyph glyph-name="uFEB7" unicode="&#x634;" horiz-adv-x="1011" arabic-form="initial" 
d="M904 575v-466c0 -88.667 -44.333 -133 -133 -133h-907v133h214v252c0 73.333 -19.333 113.333 -58 120c82.667 0 124 -38.667 124 -116c0 77.333 41.667 116 125 116c-38.667 -6 -58 -46 -58 -120v-252h214v359c0 73.333 -19.333 113.333 -58 120
c82.667 0 124 -38.667 124 -116c0 77.333 41.333 116 124 116c-38.667 -6 -58 -46 -58 -120v-359h214v466c0 73.333 -19 113.333 -57 120c82.667 0 124 -38.667 124 -116c0 77.333 41.333 116 124 116c-38.667 -6 -58 -46 -58 -120zM358 761c0 44.667 22.333 67 67 67
c44 0 66 -22.333 66 -67c0 44.667 22 67 66 67c44.667 0 67 -22.333 67 -67c0 -44 -22.333 -66 -67 -66c-44 0 -66 22 -66 66c0 -44 -22 -66 -66 -66c-44.667 0 -67 22 -67 66zM426 892c0 44 22 66 66 66c44.667 0 67 -22 67 -66s-22.333 -66 -67 -66c-44 0 -66 22 -66 66z
" />
    <glyph glyph-name="uFEB8" unicode="&#x634;" horiz-adv-x="1006" arabic-form="medial" 
d="M899 109h214v-133h-1254v133h214v252c0 73.333 -19.333 113.333 -58 120c82.667 0 124 -38.667 124 -116c0 77.333 41.333 116 124 116c-38 -6 -57 -46 -57 -120v-252h214v359c0 73.333 -19.333 113.333 -58 120c82.667 0 124 -38.667 124 -116
c0 77.333 41.333 116 124 116c-38.667 -6 -58 -46 -58 -120v-359h214v466c0 73.333 -19 113.333 -57 120c82.667 0 124 -38.667 124 -116c0 77.333 41.333 116 124 116c-38.667 -6 -58 -46 -58 -120v-466zM353 761c0 44.667 22.333 67 67 67c44 0 66 -22.333 66 -67
c0 44.667 22 67 66 67c44.667 0 67 -22.333 67 -67c0 -44 -22.333 -66 -67 -66c-44 0 -66 22 -66 66c0 -44 -22 -66 -66 -66c-44.667 0 -67 22 -67 66zM421 892c0 44 22 66 66 66s66 -22 66 -66s-22 -66 -66 -66s-66 22 -66 66z" />
    <glyph glyph-name="uFEBA" unicode="&#x635;" horiz-adv-x="1733" arabic-form="final" 
d="M1493 510h-552.999c-64.667 0 -127.334 -27.333 -188.001 -82c-63.333 -56 -95 -115.667 -95 -179v-140h836v401zM1626 109l214.001 0.000976562v-133h-1183v-348c0 -36.667 -12.833 -67.834 -38.5 -93.501s-56.834 -38.5 -93.501 -38.5h-349c-88.667 0 -133 44 -133 132
v481c0 73.333 -19.333 113.333 -58 120c82.667 0 124 -38.667 124 -116c0 77.333 41.667 116 125 116c-38.667 -6 -58 -46 -58 -120v-481h349l2 947c0 73.333 -20 113.333 -60 120c82.667 0 124 -38.667 124 -116c0 77.333 41.333 116 124 116c-38.667 -6 -58 -46 -58 -120
v-90c60 104.667 154.333 157 283 157h553c36.667 0 68 -13 94 -39s39 -57.333 39 -94v-400z" />
    <glyph glyph-name="uFEBB" unicode="&#x635;" horiz-adv-x="1278" arabic-form="initial" 
d="M1038 510h-554c-64.667 0 -127.667 -27.667 -189 -83s-92 -115 -92 -179v-139h835v401zM1038 642c36.667 0 68 -13.167 94 -39.5s39 -57.5 39 -93.5v-400c0 -36.667 -13 -68 -39 -94s-57.333 -39 -94 -39h-1181v133h214v466c0 73.333 -19.667 113.333 -59 120
c82.667 0 124 -38.667 124 -116c0 77.333 41.333 116 124 116c-38 -6 -57 -46 -57 -120v-90c60 104.667 153.667 157 281 157h554zM203 -24c0 -73.333 19 -113.333 57 -120c-82.667 0 -124 40 -124 120c0 -80 -41.333 -120 -124 -120c38.667 6 58 46 58 120h133z" />
    <glyph glyph-name="uFEBC" unicode="&#x635;" horiz-adv-x="1271" arabic-form="medial" 
d="M1031 510h-554c-64.667 0 -127.667 -27.667 -189 -83s-92 -115 -92 -179v-139h835v401zM1164 109h214v-133h-1182c0 -73.333 19 -113.333 57 -120c-82.667 0 -124 38.667 -124 116c0 -77.333 -41.333 -116 -124 -116c38.667 6 58 46 58 120h-213v133h214v466
c0 73.333 -19.667 113.333 -59 120c82.667 0 124 -38.667 124 -116c0 77.333 41.333 116 124 116c-38 -6 -57 -46 -57 -120v-90c60 104.667 153.667 157 281 157h554c36.667 0 68 -13.167 94 -39.5s39 -57.5 39 -93.5v-400z" />
    <glyph glyph-name="uFEBE" unicode="&#x636;" horiz-adv-x="1733" arabic-form="final" 
d="M1493 510h-552.999c-64.667 0 -127.334 -27.333 -188.001 -82c-63.333 -56 -95 -115.667 -95 -179v-140h836v401zM1626 109l214.001 0.00195312v-133h-1183v-348c0 -36.667 -12.833 -67.834 -38.5 -93.501s-56.834 -38.5 -93.501 -38.5h-349c-88.667 0 -133 44 -133 132
v481c0 73.333 -19.333 113 -58 119c82.667 0 124 -38.333 124 -115c0 76.667 41.667 115 125 115c-38.667 -5.33301 -58 -45 -58 -119v-481h349l2 947c0 73.333 -20 113.333 -60 120c82.667 0 124 -38.667 124 -116c0 77.333 41.333 116 124 116
c-38.667 -6 -58 -46 -58 -120v-90c60 104 154.333 156 283 156h553c36.667 0 68 -12.833 94 -38.5s39 -56.834 39 -93.501v-400zM976.002 868.002c0 44.667 22 67 66 67s66 -22.333 66 -67c0 -44 -22 -66 -66 -66s-66 22 -66 66z" />
    <glyph glyph-name="uFEBF" unicode="&#x636;" horiz-adv-x="1278" arabic-form="initial" 
d="M1038 510h-554c-64.667 0 -127.667 -27.667 -189 -83s-92 -115 -92 -179v-139h835v401zM1038 641c36.667 0 68 -13 94 -39s39 -57 39 -93v-400c0 -36.667 -13 -68 -39 -94s-57.333 -39 -94 -39h-1181v133h214v466c0 73.333 -19.667 113.333 -59 120
c82.667 0 124 -38.667 124 -116c0 77.333 41.333 116 124 116c-38 -6 -57 -46 -57 -120v-90c60 104 153.667 156 281 156h554zM203 -24c0 -73.333 19 -113.333 57 -120c-82.667 0 -124 40 -124 120c0 -80 -41.333 -120 -124 -120c38.667 6 58 46 58 120h133zM526 868
c0 44.667 22.333 67 67 67c44 0 66 -22.333 66 -67c0 -44 -22 -66 -66 -66c-44.667 0 -67 22 -67 66z" />
    <glyph glyph-name="uFEC0" unicode="&#x636;" horiz-adv-x="1271" arabic-form="medial" 
d="M1031 510h-554c-64.667 0 -127.667 -27.667 -189 -83s-92 -115 -92 -179v-139h835v401zM1164 109h214v-133h-1182c0 -73.333 19 -113.333 57 -120c-82.667 0 -124 38.667 -124 116c0 -77.333 -41.333 -116 -124 -116c38.667 6 58 46 58 120h-213v133h214v466
c0 73.333 -19.667 113.333 -59 120c82.667 0 124 -38.667 124 -116c0 77.333 41.333 116 124 116c-38 -6 -57 -46 -57 -120v-90c60 104 153.667 156 281 156h554c36.667 0 68 -13 94 -39s39 -57 39 -93v-400zM519 868c0 44.667 22.333 67 67 67c44 0 66 -22.333 66 -67
c0 -44 -22 -66 -66 -66c-44.667 0 -67 22 -67 66z" />
    <glyph glyph-name="uFEC2" unicode="&#x637;" horiz-adv-x="1587" arabic-form="final" 
d="M1347 510h-554c-65.333 0 -128 -27.333 -188 -82c-62 -56 -93 -116 -93 -180v-139h835v401zM1480 109h214v-133h-1182c0 -73.333 19 -113.333 57 -120c-82.667 0 -124 38.667 -124 116c0 -77.333 -41.333 -116 -124 -116c38.667 6 58 46 58 120h-213
c-73.333 0 -113.333 -19.333 -120 -58c0 82.667 38.667 124 116 124c-77.333 0 -116 41.333 -116 124c6 -38 46 -57 120 -57h214v1187c0 73.333 -19.667 113.333 -59 120c82.667 0 124 -38.333 124 -115c0 76.667 41.333 115 124 115c-38 -5.33301 -57 -45.333 -57 -120
v-811c59.333 104.667 153 157 281 157h554c36.667 0 68 -13.167 94 -39.5s39 -57.5 39 -93.5v-400z" />
    <glyph glyph-name="uFEC3" unicode="&#x637;" horiz-adv-x="1490" arabic-form="initial" 
d="M1142 510h-554.001c-65.333 0 -128.666 -27.667 -189.999 -83s-92 -115 -92 -179v-139h836v401zM1142 642c36 0 67.001 -13.167 93.001 -39.5s39 -57.5 39 -93.5v-400c0 -36.667 -12.833 -68 -38.5 -94s-56.834 -39 -93.501 -39h-1288v133h321v1187
c0 73.333 -19.667 113.333 -59 120c82.667 0 124 -38.333 124 -115c0 76.667 41.333 115 124 115c-38.667 -5.33301 -58 -45.333 -58 -120v-811c60 104.667 154 157 282 157h554zM306 -24c0 -73.333 19.333 -113.333 58 -120c-82.667 0 -124 40 -124 120
c0 -80 -41.333 -120 -124 -120c38 6 57 46 57 120h133z" />
    <glyph glyph-name="uFEC4" unicode="&#x637;" horiz-adv-x="1271" arabic-form="medial" 
d="M1031 510h-554c-64.667 0 -127.667 -27.667 -189 -83s-92 -115 -92 -179v-139h835v401zM1164 109h214v-133h-1182c0 -73.333 19 -113.333 57 -120c-82.667 0 -124 38.667 -124 116c0 -77.333 -41.333 -116 -124 -116c38.667 6 58 46 58 120h-213v133h214v1187
c0 73.333 -19.667 113.333 -59 120c82.667 0 124 -38.333 124 -115c0 76.667 41.333 115 124 115c-38 -5.33301 -57 -45.333 -57 -120v-811c60 104.667 153.667 157 281 157h554c36.667 0 68 -13.167 94 -39.5s39 -57.5 39 -93.5v-400z" />
    <glyph glyph-name="uFEC6" unicode="&#x638;" horiz-adv-x="1587" arabic-form="final" 
d="M1347 510h-554c-65.333 0 -128 -27.333 -188 -82c-62 -56 -93 -116 -93 -180v-139h835v401zM1480 109h214v-133h-1182c0 -73.333 19 -113.333 57 -120c-82.667 0 -124 38.667 -124 116c0 -77.333 -41.333 -116 -124 -116c38.667 6 58 46 58 120h-213
c-73.333 0 -113.333 -19.333 -120 -58c0 82.667 38.667 124 116 124c-77.333 0 -116 41.333 -116 124c6 -38 46 -57 120 -57h214v1187c0 73.333 -19.667 113.333 -59 120c82.667 0 124 -38.333 124 -115c0 76.667 41.333 115 124 115c-38 -5.33301 -57 -45.333 -57 -120
v-811c59.333 104.667 153 157 281 157h554c36.667 0 68 -13.167 94 -39.5s39 -57.5 39 -93.5v-400zM956 868c0 44.667 22 67 66 67s66 -22.333 66 -67c0 -44 -22 -66 -66 -66s-66 22 -66 66z" />
    <glyph glyph-name="uFEC7" unicode="&#x638;" horiz-adv-x="1490" arabic-form="initial" 
d="M1142 510h-554.001c-65.333 0 -128.666 -27.667 -189.999 -83s-92 -115 -92 -179v-139h836v401zM1142 642c36 0 67.001 -13.167 93.001 -39.5s39 -57.5 39 -93.5v-400c0 -36.667 -12.833 -68 -38.5 -94s-56.834 -39 -93.501 -39h-1288v133h321v1187
c0 73.333 -19.667 113.333 -59 120c82.667 0 124 -38.333 124 -115c0 76.667 41.333 115 124 115c-38.667 -5.33301 -58 -45.333 -58 -120v-811c60 104.667 154 157 282 157h554zM306 -24c0 -73.333 19.333 -113.333 58 -120c-82.667 0 -124 40 -124 120
c0 -80 -41.333 -120 -124 -120c38 6 57 46 57 120h133zM745 868c0 44.667 22 67 66 67c44.667 0 67 -22.333 67 -67c0 -44 -22.333 -66 -67 -66c-44 0 -66 22 -66 66z" />
    <glyph glyph-name="uFEC8" unicode="&#x638;" horiz-adv-x="1271" arabic-form="medial" 
d="M1031 510h-554c-64.667 0 -127.667 -27.667 -189 -83s-92 -115 -92 -179v-139h835v401zM1164 109h214v-133h-1182c0 -73.333 19 -113.333 57 -120c-82.667 0 -124 38.667 -124 116c0 -77.333 -41.333 -116 -124 -116c38.667 6 58 46 58 120h-213v133h214v1187
c0 73.333 -19.667 113.333 -59 120c82.667 0 124 -38.333 124 -115c0 76.667 41.333 115 124 115c-38 -5.33301 -57 -45.333 -57 -120v-811c60 104.667 153.667 157 281 157h554c36.667 0 68 -13.167 94 -39.5s39 -57.5 39 -93.5v-400zM634 868c0 44.667 22.333 67 67 67
c44 0 66 -22.333 66 -67c0 -44 -22 -66 -66 -66c-44.667 0 -67 22 -67 66z" />
    <glyph glyph-name="uFECA" unicode="&#x639;" horiz-adv-x="1299" arabic-form="final" 
d="M296 -24l0.00195312 -348.001h776c74 0 114 19.333 120 58c0 -82.667 -38.333 -124 -115 -124c76.667 0 115 -41.333 115 -124c-5.33301 38.667 -45.333 58 -120 58h-776c-88.667 0 -133 44 -133 132v348c0 36.667 13 68 39 94s57.333 39 94 39h169l78 78l-362 360
c-36.667 36.667 -68.334 55 -95.001 55c-12 0 -22 -3.66699 -30 -11c28 28 57 42 87 42c28.667 0 56 -11.667 82 -35c-23.333 24.667 -35 52 -35 82s13.667 59 41 87c-6 -6.66699 -9 -16.667 -9 -30c0 -28 17.667 -59.667 53 -95h722c36 35.333 54 67 54 95
c0 12 -3.33301 22 -10 30c28 -27.333 42 -56.333 42 -87c0 -29.333 -11.667 -56.666 -35 -81.999c23.333 23.333 50.666 35 81.999 35c30 0 59 -14 87 -42c-8.66699 7.33301 -18.667 11 -30 11c-27.333 0 -59 -18.333 -95 -55l-362 -360l78 -78h598v-133h-654l-115 117
l-117 -117h-224zM865.002 508.999h-457l229 -229z" />
    <glyph glyph-name="uFECB" unicode="&#x639;" horiz-adv-x="1305" arabic-form="initial" 
d="M-144 -24l0.000976562 133h778l-439 438c-36 36.667 -67.667 55 -95 55c-12 0 -22 -3.66699 -30 -11c28 28 57 42 87 42c29.333 0 56.666 -11.667 81.999 -35c-23.333 24.667 -35 52 -35 82s14 59 42 87c-6.66699 -6.66699 -10 -16.667 -10 -30
c0 -28 17.667 -59.667 53 -95h547c73.333 0 113.333 19 120 57c0 -82.667 -38.333 -124 -115 -124c76.667 0 115 -41.333 115 -124c-5.33301 39.333 -45.333 59 -120 59h-415l401 -401h256c73.333 0 113.333 19 120 57c0 -82.667 -38.667 -124 -116 -124
c77.333 0 116 -41.333 116 -124c-6 39.333 -46 59 -120 59z" />
    <glyph glyph-name="uFECC" unicode="&#x639;" horiz-adv-x="1330" arabic-form="medial" 
d="M414 509l229 -229l228 229h-457zM526 -24l-677.996 -0.000976562v133h623l78 78l-362 360c-36.667 36.667 -68.334 55 -95.001 55c-12 0 -22 -3.66699 -30 -11c28 28 57 42 87 42c29.333 0 56.666 -11.667 81.999 -35c-23.333 24.667 -35 52 -35 82s14 59 42 87
c-6.66699 -6.66699 -10 -16.667 -10 -30c0 -28 17.667 -59.667 53 -95h723c35.333 35.333 53 67 53 95c0 12 -3.33301 22 -10 30c28 -27.333 42 -56.333 42 -87c0 -29.333 -11.667 -56.666 -35 -81.999c23.333 23.333 50.666 35 81.999 35c30 0 59 -14 87 -42
c-8.66699 7.33301 -18.667 11 -30 11c-26.667 0 -58.334 -18.333 -95.001 -55l-362 -360l78 -78h623v-133h-678l-116 117z" />
    <glyph glyph-name="uFECE" unicode="&#x63a;" horiz-adv-x="1299" arabic-form="final" 
d="M296 -24l0.00195312 -348.001h776c74 0 114 19.333 120 58c0 -82.667 -38.333 -124 -115 -124c76.667 0 115 -41.333 115 -124c-5.33301 38.667 -45.333 58 -120 58h-776c-88.667 0 -133 44 -133 132v348c0 36.667 13 68 39 94s57.333 39 94 39h169l78 78l-362 360
c-36.667 36.667 -68.334 55 -95.001 55c-12 0 -22 -3.66699 -30 -11c28 28 57 42 87 42c28.667 0 56 -11.667 82 -35c-23.333 24.667 -35 52 -35 82s13.667 59 41 87c-6 -6.66699 -9 -16.667 -9 -30c0 -28 17.667 -59.667 53 -95h722c36 35.333 54 67 54 95
c0 12 -3.33301 22 -10 30c28 -27.333 42 -56.333 42 -87c0 -29.333 -11.667 -56.666 -35 -81.999c23.333 23.333 50.666 35 81.999 35c30 0 59 -14 87 -42c-8.66699 7.33301 -18.667 11 -30 11c-27.333 0 -59 -18.333 -95 -55l-362 -360l78 -78h598v-133h-654l-115 117
l-117 -117h-224zM865.002 508.999h-457l229 -229zM571.002 867.999c0 44.667 22 67 66 67s66 -22.333 66 -67c0 -44 -22 -66 -66 -66s-66 22 -66 66z" />
    <glyph glyph-name="uFECF" unicode="&#x63a;" horiz-adv-x="1287" arabic-form="initial" 
d="M-143 -24v133h759l-438 438c-36.667 36.667 -68.667 55 -96 55c-12.667 0 -22.334 -3.66699 -29.001 -11c26.667 28 55.334 42 86.001 42c29.333 0 57 -11.667 83 -35c-24 24.667 -36 52 -36 82s14 59 42 87c-7.33301 -7.33301 -11 -17.333 -11 -30
c0 -27.333 18.333 -59 55 -95h547c73.333 0 113 19 119 57c0 -82.667 -38.667 -124 -116 -124c77.333 0 116 -41.333 116 -124c-5.33301 39.333 -45 59 -119 59h-416l401 -401h256c74 0 114 19 120 57c0 -82.667 -38.333 -124 -115 -124c76.667 0 115 -41.333 115 -124
c-5.33301 39.333 -45.333 59 -120 59zM510 868c0 44.667 22.333 67 67 67c44 0 66 -22.333 66 -67c0 -44 -22 -66 -66 -66c-44.667 0 -67 22 -67 66z" />
    <glyph glyph-name="uFED0" unicode="&#x63a;" horiz-adv-x="1330" arabic-form="medial" 
d="M414 509l229 -229l228 229h-457zM526 -24l-677.996 -0.000976562v133h623l78 78l-362 360c-36.667 36.667 -68.334 55 -95.001 55c-12 0 -22 -3.66699 -30 -11c28 28 57 42 87 42c29.333 0 56.666 -11.667 81.999 -35c-23.333 24.667 -35 52 -35 82s14 59 42 87
c-6.66699 -6.66699 -10 -16.667 -10 -30c0 -28 17.667 -59.667 53 -95h723c35.333 35.333 53 67 53 95c0 12 -3.33301 22 -10 30c28 -27.333 42 -56.333 42 -87c0 -29.333 -11.667 -56.666 -35 -81.999c23.333 23.333 50.666 35 81.999 35c30 0 59 -14 87 -42
c-8.66699 7.33301 -18.667 11 -30 11c-26.667 0 -58.334 -18.333 -95.001 -55l-362 -360l78 -78h623v-133h-678l-116 117zM577.004 867.999c0 44.667 22 67 66 67s66 -22.333 66 -67c0 -44 -22 -66 -66 -66s-66 22 -66 66z" />
    <glyph glyph-name="uFED2" unicode="&#x641;" horiz-adv-x="1471" arabic-form="final" 
d="M1090 868c0 44.667 22 67 66 67s66 -22.333 66 -67c0 -44 -22 -66 -66 -66s-66 22 -66 66zM1364 109h213.999v-133h-1393c-88.667 0 -133 44.333 -133 133v466c0 73.333 -19.333 113.333 -58 120c82.667 0 124 -38.333 124 -115c0 76.667 41.333 115 124 115
c-38 -5.33301 -57 -45.333 -57 -120v-466h1046v350h-83c-63.333 0 -118.833 -19.833 -166.5 -59.5s-78.5 -90.5 -92.5 -152.5c0 -73.333 19 -113.333 57 -120c-82.667 0 -124 39 -124 117c0 -78 -41.333 -117 -124 -117c38.667 5.33301 58 45.333 58 120
c10.667 98 53.834 179.333 129.501 244s163.167 97 262.5 97h83c0 73.333 -19.333 113.333 -58 120c82.667 0 124 -38.667 124 -116c0 77.333 41.667 116 125 116c-38.667 -6 -58 -46 -58 -120v-479z" />
    <glyph glyph-name="uFED3" unicode="&#x641;" horiz-adv-x="801" arabic-form="initial" 
d="M694 109c0 -36.667 -13 -68 -39 -94s-57.333 -39 -94 -39h-690v133h690v350h-82c-63.333 0 -119 -19.833 -167 -59.5s-78.667 -90.5 -92 -152.5c0 -73.333 19.333 -113.333 58 -120c-82.667 0 -124 39 -124 117c0 -78 -41.333 -117 -124 -117
c38 5.33301 57 45.333 57 120c11.333 98.667 54.5 180.167 129.5 244.5s162.5 96.5 262.5 96.5h82c0 73.333 -19 113.333 -57 120c82.667 0 124 -38.667 124 -116c0 77.333 41.333 116 124 116c-38.667 -6 -58 -46 -58 -120v-479zM421 868c0 44.667 22 67 66 67
c44.667 0 67 -22.333 67 -67c0 -44 -22.333 -66 -67 -66c-44 0 -66 22 -66 66z" />
    <glyph glyph-name="uFED4" unicode="&#x641;" horiz-adv-x="852" arabic-form="medial" 
d="M471 868c0 44.667 22 67 66 67s66 -22.333 66 -67c0 -44 -22 -66 -66 -66s-66 22 -66 66zM745 109h213.999v-133h-1095v133h748v350h-82c-64 0 -119.833 -19.833 -167.5 -59.5s-78.5 -90.5 -92.5 -152.5c0 -73.333 19.333 -113.333 58 -120c-83.333 0 -125 39 -125 117
c0 -78 -41.333 -117 -124 -117c38.667 5.33301 58 45.333 58 120c10.667 98 54.334 179.667 131.001 245c74.667 64 162 96 262 96h82c0 73.333 -19.333 113.333 -58 120c82.667 0 124 -38.667 124 -116c0 77.333 41.667 116 125 116c-38.667 -6 -58 -46 -58 -120v-479z" />
    </font>
</defs>
</svg>
