<?xml version="1.0" standalone="no"?>
<!DOCTYPE svg PUBLIC "-//W3C//DTD SVG 1.1//EN" "http://www.w3.org/Graphics/SVG/1.1/DTD/svg11.dtd" >
<svg>
<metadata>
Created by FontForge 20090914 at Wed Oct 19 01:38:11 2011
 By www-data
(c) by Abolfazl Seilsepour - +98 912 591 3420  -  seilsepor@yahoo.com
</metadata>
<defs>
<font id="FarNarm" horiz-adv-x="0" >
  <font-face 
    font-family="Far.Narm"
    font-weight="400"
    font-stretch="normal"
    units-per-em="2048"
    panose-1="0 0 4 0 0 0 0 0 0 0"
    ascent="1638"
    descent="-410"
    bbox="-244 -973.998 1891 2332"
    underline-thickness="60"
    underline-position="-650"
    unicode-range="U+0020-U+FEFC"
  />
<missing-glyph horiz-adv-x="1024" 
d="M128 0v1426h768v-1426h-768zM256 128h512v1170h-512v-1170z" />
    <glyph glyph-name="uE818" unicode="&#x651;&#x64b;" 
d="M388 2251c-10 -42.667 -29.667 -70 -59 -82l-266 -109c10.667 40.667 31 67.334 61 80zM388 2147c-6.66699 -36 -22.333 -60 -47 -72l-280 -110c13.333 38 40.333 67 81 87zM393.001 1984c2 -40 -7.66602 -76.333 -28.999 -109c-19.333 -30 -43 -45 -71 -45
c-12.667 0 -24.334 2.66699 -35.001 8l-28 16c-22 -54.667 -55 -82 -99 -82c-23.333 0 -42 8.5 -56 25.5s-20 39.5 -18 67.5l2 27l4 31l27 18c6 -49.333 23 -74 51 -74c35.333 0 63 42 83 126l21 6c16.667 -46 35 -69 55 -69c16.667 0 31 10.667 43 32
c4 7.33301 8.33301 19 13 35l5 31l1 18l26 8l3 -30z" />
    <glyph glyph-name="uFC5E" unicode="&#x651;&#x64c;" arabic-form="isolated" 
d="M458 2065c0 -5.33301 -2.33105 -11.333 -6.99805 -18l-43 11l-46 18c-48.667 -24 -86.667 -41.333 -114 -52c-24.667 -10 -52.334 -15 -83.001 -15h-23l-14 2l-17 4l-24 7c40.667 21.333 61 45 61 71c0 34 -15.667 51 -47 51l-35 -6c15.333 48 38 72 68 72
c17.333 0 31.5 -7.66699 42.5 -23s16.5 -31.666 16.5 -49c0 -20.667 -5.33301 -44 -16 -70l37 3c6.66699 1.33301 16 4 28 8c18 6.66699 38.333 17.334 61 32c-33.333 24 -50 48.667 -50 74c0 22.667 14.167 46.167 42.5 70.5s54.166 36.5 77.499 36.5
c15.333 0 30 -8 44 -24s21 -31.667 21 -47c0 -10 -2.33301 -20.667 -7 -32l-17 -43c29.333 -16.667 44 -43.667 44 -81zM432.002 1959c2.66699 -44 -6.33301 -82.666 -27 -115.999c-18.667 -28.667 -43 -43 -73 -43c-14 0 -36.667 7.66699 -68 23
c-28.667 -53.333 -61.667 -80 -99 -80c-22.667 0 -41 9.66699 -55 29c-16 21.333 -23 44.666 -21 69.999l3 37l6 21l13 33l19 2c0 -63.333 15.667 -95 47 -95c28.667 0 55.667 43 81 129l18 2c11.333 -46.667 32 -70 62 -70s53.333 35 70 105h19l4 -30zM375.002 2210
c0 22 -9.66699 35 -29 39c-7.33301 0 -14.333 -2 -21 -6c-2 -2 -4.66699 -7.66699 -8 -17c0 -15.333 15 -33 45 -53l8 16z" />
    <glyph glyph-name="uFC5F" unicode="&#x651;&#x64d;" arabic-form="isolated" 
d="M379 2199c3.33301 -44 -5.33398 -82.667 -26.001 -116c-17.333 -28.667 -41.666 -43 -72.999 -43c-20.667 0 -41 6.66699 -61 20c-3.33301 -21.333 -15.166 -40.333 -35.499 -57s-41.166 -25 -62.499 -25c-52 0 -78 34.333 -78 103c0 19.333 3.33301 40 10 62l11 34l21 3
c0 -70 12.667 -105 38 -105c39.333 0 67.666 51.333 84.999 154l17 6c13.333 -62 31.666 -93 54.999 -93c42.667 0 64 46.333 64 139l22 10l10 -51zM371 2041c-5.33301 -25.333 -12 -42.999 -20 -52.999c-8.66699 -12.667 -20.667 -22.334 -36 -29.001l-268 -121
c18.667 47.333 45.667 79 81 95zM371 1930c-8.66699 -38.667 -29.332 -65.334 -61.999 -80.001l-262 -116c8 26.667 16.333 46.334 25 59.001c7.33301 10 21.666 19.333 42.999 28z" />
    <glyph glyph-name="uFC60" unicode="&#x651;&#x64e;" arabic-form="isolated" 
d="M371 2252c-6 -36 -21.333 -60 -46 -72l-280 -111c13.333 38 40.333 67.333 81 88zM393 2041c2 -40 -7.66602 -76.333 -28.999 -109c-19.333 -30 -43 -45 -71 -45c-12.667 0 -24.334 2.66699 -35.001 8l-28 16c-22 -54.667 -55 -82 -99 -82c-23.333 0 -42 8.5 -56 25.5
s-20 39.5 -18 67.5l2 27l4 31l27 18c6 -49.333 23 -74 51 -74c35.333 0 63 42 83 126l21 6c16.667 -46 35 -69 55 -69c16.667 0 31 10.667 43 32c4 7.33301 8.33301 19 13 35l5 31l1 18l26 8l3 -30z" />
    <glyph glyph-name="uFC61" unicode="&#x651;&#x64f;" arabic-form="isolated" 
d="M403 2088l-30.001 3l-19 5l-56 20c-80 -62 -138.333 -93 -175 -93c-16 0 -36.667 6.33301 -62 19c53.333 16.667 94.333 32.667 123 48l38 20l18 11l19 14c-12.667 10 -24.667 22.333 -36 37c-6.66699 12.667 -10 27 -10 43c0 26.667 12.333 52.834 37 78.5
c24.667 25.667 50.334 38.5 77.001 38.5c12.667 0 27.5 -7.5 44.5 -22.5s25.5 -28.833 25.5 -41.5c0 -29.333 -11.333 -57.333 -34 -84l33 -21l5 -14l2 -26v-35zM396.999 2047c0 -136 -34.3311 -203.999 -102.998 -203.999c-26 0 -48 8 -66 24
c-10 -23.333 -23.333 -41.833 -40 -55.5s-36.334 -20.5 -59.001 -20.5s-40.667 8.66699 -54 26c-15.333 19.333 -22 41.666 -20 66.999l3 38c2 10 8 24 18 42l20 2c0 -52 15 -78 45 -78c26 0 53.667 37.667 83 113l23 6c6 -42.667 23 -64 51 -64
c33.333 0 58.666 33 75.999 99zM335.001 2244c0 31.333 -13.667 47 -41 47c-15.333 0 -23 -9.66699 -23 -29c0 -10 3.33301 -18.333 10 -25l46 -34c5.33301 15.333 8 29 8 41z" />
    <glyph glyph-name="uFC62" unicode="&#x651;&#x650;" arabic-form="isolated" 
d="M399 2085c3.33301 -44 -5.33203 -82.667 -25.999 -116c-17.333 -28.667 -41.666 -43 -72.999 -43c-12.667 0 -22.334 1 -29.001 3l-16 6l-16 11c-3.33301 -21.333 -15 -40.333 -35 -57s-41 -25 -63 -25c-22.667 0 -41.334 9.33301 -56.001 28s-22 43.667 -22 75
c0 19.333 3.33301 40 10 62l11 34l21 3c0 -70 12.333 -105 37 -105c37.333 0 66 51.333 86 154l17 6c14 -62 32.333 -93 55 -93c42.667 0 64 46.333 64 139l22 10l10 -51zM391.002 1927c-5.33301 -21.333 -11.999 -38.999 -19.999 -52.999l-14 -15l-22 -14l-269 -121
c11.333 27.333 21.666 46.666 30.999 57.999c10.667 14 27.667 26.333 51 37z" />
    <glyph glyph-name="uFDF2" unicode="&#xfedf;&#xfee0;&#xfeea;" horiz-adv-x="1905" arabic-form="isolated" 
d="M977 1137c-17.333 0.666992 -28.001 11.0029 -32.001 31.0029v161c0 3.33301 4.33301 8.66602 13 15.999l10 2l17 4c26.667 0 40 -7.33301 40 -22v-116c0 -4 3.33301 -8 10 -12l21 -4l17 2c4 1.33301 8.66699 6 14 14v116c2 3.33301 6 8.66602 12 15.999l29 6
c26.667 0 40 -7.33301 40 -22v-116c0 -4 3 -8 9 -12l21 -4l17 2c6.66699 2 11.334 6.66699 14.001 14v116c0 3.33301 4.33301 8.66602 13 15.999l27 6c8.66699 0 18 -2 28 -6c5.33301 -2 9 -7.33301 11 -16v-161c0 -10 -4.66699 -18.333 -14 -25
c-2.66699 -2.66699 -11.667 -4.66699 -27 -6l-28 -2h-46c-8.66699 0 -19 2.66699 -31 8c-14 4 -25.333 13 -34 27l-17 -15l-27 -15l-18 -4l-26 -1h-24zM1328 468.003c0 -18 6.00195 -31.668 18.002 -41.001c8.66699 -11.333 24 -18.666 46 -21.999h70
c30 0 54.667 7.66699 74 23c28 18.667 41 45 39 79l-32 486c0 21.333 12.333 41.666 37 60.999c28.667 15.333 56.667 23 84 23c24 0 45.833 -9.33301 65.5 -28s31.5 -40 35.5 -64l51 -829c0 -40 -15.667 -76.667 -47 -110l-26 -21l-27 -14
c-16 -7.33301 -36.333 -11 -61 -11h-213c-78 0 -127.667 17.667 -149 53c-4 -15.333 -20.333 -28.666 -49 -39.999c-32.667 -8.66699 -66.334 -13 -101.001 -13h-432c-32.667 0 -61.334 12.667 -86.001 38c-22.667 23.333 -38 54.666 -46 93.999
c-20 -36.667 -52 -69 -96 -97c-46 -30 -89.333 -45 -130 -45c-84 0 -151.667 39.333 -203 118c-45.333 68.667 -68 147 -68 235c0 94 32.667 177.5 98 250.5s136.666 108.5 213.999 106.5l35 -1c6 0 18 -2.66699 36 -8c3.33301 0 8 -1.33301 14 -4l16 -7l16 -8
c6.66699 -2.66699 12.334 -6.33398 17.001 -11.001v59c0 26.667 10.667 51 32 73c22 19.333 48.333 29 79 29c28 0 54 -9.66699 78 -29c20 -15.333 31 -39.666 33 -72.999l20 -254c2 -25.333 7.66699 -41.666 17 -48.999c6 -3.33301 15 -6.33301 27 -9l47 -3h124
c29.333 0 54 7.66699 74 23c27.333 21.333 39.666 47.666 36.999 78.999l-30 414c-2 26.667 10.667 49.334 38 68.001c22 15.333 50 23 84 23c22.667 0 44.834 -10.333 66.501 -31s32.5 -40.667 32.5 -60zM548.001 425.002l-9 81.999c-30.667 16 -61 24 -91 24
c-22.667 0 -42.5 -5 -59.5 -15s-28.833 -26.667 -35.5 -50v-8c0 -15.333 9.66699 -30.666 29 -45.999c18.667 -12 42 -18 70 -18c32 0 64 10.333 96 31z" />
    <glyph glyph-name="uFEF5" unicode="&#xfedf;&#xfe82;" horiz-adv-x="918" arabic-form="isolated" 
d="M41 1375l46 6.99902l46 2l44 -2l42 -5l52 -2h21l28 4l23 3l30 9l15 2l11 2c20 0 34.333 -10 43 -30c0 -9.33301 -5.66699 -20 -17 -32c-8 -8.66699 -28 -17.667 -60 -27l-41 -6l-44 -3l-129 7h-30l-27 -3l-25 -3l-19 -5l-6 -1h-8c-26.667 0 -40 12.333 -40 37
c0 6.66699 3.66699 15.334 11 26.001l13 11zM498 1238c-2.66699 32 7.33301 62.666 30 91.999c20.667 26.667 47.667 40 81 40s62 -13.5 86 -40.5s36 -57.5 36 -91.5l91 -984c0 -81.333 -33 -146.666 -99 -195.999c-60 -45.333 -132 -68 -216 -68
c-84.667 0 -156.667 30.667 -216 92c-52.667 54.667 -89 125.667 -109 213l-24 110c9.33301 -13.333 21.333 -23.333 36 -30l20 -5l23 -3l30 3l25 4l76 16l15 -2l6 -6l5 -9c10.667 -28.667 31.334 -43 62.001 -43c35.333 0 62.666 19 81.999 57c14.667 30 22 64.333 22 103
v11l-1 27zM102 1111c0 21.333 1.99902 38.3311 5.99902 50.998c2 12 9.66699 26.667 23 44c20 25.333 47.667 38 83 38c34 0 63.333 -12.333 88 -37c28 -28 43.667 -60 47 -96l45 -543c2.66699 -30.667 -8.66602 -61 -33.999 -91c-22.667 -27.333 -51 -41 -85 -41
c-33.333 0 -63 12.667 -89 38c-10.667 12.667 -19 26.834 -25 42.501s-9 32.834 -9 51.501z" />
    <glyph glyph-name="uFEF6" unicode="&#xfee0;&#xfe82;" horiz-adv-x="794" arabic-form="final" 
d="M41 1375l46 6.99902l46 2l44 -2l42 -5l52 -2h21l28 4l23 3l30 9l15 2l11 2c20 0 34.333 -10 43 -30c0 -9.33301 -5.66699 -20 -17 -32c-8 -8.66699 -28 -17.667 -60 -27l-41 -6l-44 -3l-129 7h-30l-27 -3l-25 -3l-19 -5l-6 -1h-8c-26.667 0 -40 12.333 -40 37
c0 6.66699 3.66699 15.334 11 26.001l13 11zM498 1238c-2.66699 32 7.33301 62.666 30 91.999c20.667 26.667 47.667 40 81 40s62 -13.5 86 -40.5s36 -57.5 36 -91.5l91 -984c0 -81.333 -33 -146.666 -99 -195.999c-60 -45.333 -132 -68 -216 -68
c-84.667 0 -156.667 30.667 -216 92c-52.667 54.667 -89 125.667 -109 213l-24 110c9.33301 -13.333 21.333 -23.333 36 -30l20 -5l23 -3l30 3l25 4l76 16l15 -2l6 -6l5 -9c10.667 -28.667 31.334 -43 62.001 -43c35.333 0 62.666 19 81.999 57c14.667 30 22 64.333 22 103
v11l-1 27zM102 1111c0 21.333 1.99902 38.3311 5.99902 50.998c2 12 9.66699 26.667 23 44c20 25.333 47.667 38 83 38c34 0 63.333 -12.333 88 -37c28 -28 43.667 -60 47 -96l45 -543c2.66699 -30.667 -8.66602 -61 -33.999 -91c-22.667 -27.333 -51 -41 -85 -41
c-33.333 0 -63 12.667 -89 38c-10.667 12.667 -19 26.834 -25 42.501s-9 32.834 -9 51.501z" />
    <glyph glyph-name="uFEF7" unicode="&#xfedf;&#xfe84;" horiz-adv-x="918" arabic-form="isolated" 
d="M254 1298l-18 -2.00098c-6 0 -13.333 -4.33301 -22 -13c-10 -5.33301 -15.667 -14.666 -17 -27.999c0 -8.66699 4.66699 -17.667 14 -27s21.333 -14 36 -14c6.66699 0 15 3 25 9l16 12c4 4.66699 9.66699 7.66699 17 9l10 -13l2 -16l1 -17v-78
c0 -8 -6.33301 -15.333 -19 -22l-24 -5l-28 -1h-104c-16 0 -33.5 7.83301 -52.5 23.5s-28.5 31.167 -28.5 46.5v61l1 17l11 7l11 -4l14 -14c3.33301 -7.33301 10.666 -11 21.999 -11c6.66699 0 12.667 1.66699 18 5c-10 5.33301 -16.667 14.333 -20 27l-6 19l-2 24
c-2 25.333 7.33301 48.333 28 69c18.667 19.333 42 29 70 29c42 0 74 -21 96 -63l1 -14c0.666992 -6.66699 -1.66602 -12.667 -6.99902 -18l-20 -11l-13 9zM498 1238c-2.66699 32 7.33301 62.666 30 91.999c20.667 26.667 47.667 40 81 40s62 -13.5 86 -40.5
s36 -57.5 36 -91.5l91 -984c0 -81.333 -33 -146.666 -99 -195.999c-60 -45.333 -132 -68 -216 -68c-84.667 0 -156.667 30.667 -216 92c-52.667 54.667 -89 125.667 -109 213l-24 110c9.33301 -13.333 21.333 -23.333 36 -30l20 -5l23 -3l30 3l25 4l76 16l15 -2l6 -6l5 -9
c10.667 -28.667 31.334 -43 62.001 -43c35.333 0 62.666 19 81.999 57c14.667 30 22 64.333 22 103v11l-1 27zM111 909.998c0 25.333 1.66699 42.998 5 52.998l7 22l13 23c17.333 30 43.333 45 78 45s66.5 -14 95.5 -42s43.5 -59 43.5 -93l41 -350
c0 -34.667 -11 -65 -33 -91c-24 -27.333 -52.667 -41 -86 -41s-63 12.667 -89 38c-10.667 12.667 -19 26.834 -25 42.501s-9 32.834 -9 51.501z" />
    <glyph glyph-name="uFEF8" unicode="&#xfee0;&#xfe84;" horiz-adv-x="794" arabic-form="final" 
d="M254 1298l-17.999 -2.00098c-6 0 -13.333 -4.33301 -22 -13c-10 -5.33301 -15.667 -14.666 -17 -27.999c0 -8.66699 4.66699 -17.667 14 -27s21.333 -14 36 -14c6.66699 0 15 3 25 9l16 12l8 8l7 1c3.33301 0 6.66602 -4.33301 9.99902 -13l5 -33v-78
c0 -8 -6.33301 -15.333 -19 -22l-24 -5l-28 -1h-104c-16 0 -33.5 7.83301 -52.5 23.5s-28.5 31.167 -28.5 46.5v61l1 17l11 7l11 -4l14 -14c3.33301 -7.33301 10.666 -11 21.999 -11c6.66699 0 12.667 1.66699 18 5c-10 5.33301 -16.667 14.333 -20 27l-6 19l-2 24
c-2 25.333 7.33301 48.333 28 69c18.667 19.333 42 29 70 29c42 0 74 -21 96 -63l1 -14c0.666992 -6.66699 -1.66602 -12.667 -6.99902 -18l-20 -11l-13 9zM498.001 1238c-2.66699 32 7.33301 62.666 30 91.999c20.667 26.667 47.667 40 81 40s62 -13.5 86 -40.5
s36 -57.5 36 -91.5l91 -984c0 -81.333 -33 -146.666 -99 -195.999c-60 -45.333 -132 -68 -216 -68c-84.667 0 -156.667 30.667 -216 92c-52.667 54.667 -89 125.667 -109 213l-24 110c9.33301 -13.333 21.333 -23.333 36 -30l20 -5l23 -3l30 3l25 4l76 16l15 -2l6 -6l5 -9
c10.667 -28.667 31.334 -43 62.001 -43c35.333 0 62.666 19 81.999 57c14.667 30 22 64.333 22 103v11l-1 27zM111.001 909.998c0 25.333 1.66699 42.998 5 52.998l7 22l13 23c17.333 30 43.333 45 78 45s66.5 -14 95.5 -42s43.5 -59 43.5 -93l41 -350
c0 -34.667 -11 -65 -33 -91c-24 -27.333 -52.667 -41 -86 -41s-63 12.667 -89 38c-10.667 12.667 -19 26.834 -25 42.501s-9 32.834 -9 51.501z" />
    <glyph glyph-name="uFEF9" unicode="&#xfedf;&#xfe88;" horiz-adv-x="918" arabic-form="isolated" 
d="M498 1238c-2.66699 32 7.33301 62.666 30 91.999c20.667 26.667 47.667 40 81 40s62 -13.5 86 -40.5s36 -57.5 36 -91.5l91 -984c0 -81.333 -33 -146.666 -99 -195.999c-60 -45.333 -132 -68 -216 -68c-84.667 0 -156.667 30.667 -216 92
c-52.667 54.667 -89 125.667 -109 213l-24 110c9.33301 -13.333 21.333 -23.333 36 -30l20 -5l23 -3l30 3l25 4l76 16l15 -2l6 -6l5 -9c10.667 -28.667 31.334 -43 62.001 -43c35.333 0 62.666 19 81.999 57c14.667 30 22 64.333 22 103v11l-1 27zM91 1229
c0 34.667 11 64.998 33 90.998s52 39 90 39c50 0 87 -26.667 111 -80l6 -24l2 -26l61 -661c0 -34.667 -11 -65 -33 -91c-24 -27.333 -52.667 -41 -86 -41s-63 12.667 -89 38c-10.667 12.667 -19 26.834 -25 42.501s-9 32.834 -9 51.501zM371 -133.003
c-12 0 -25.333 -4.66699 -40 -14c-10 -8 -16 -18.333 -18 -31c0 -10.667 5.5 -20 16.5 -28s22.167 -12 33.5 -12c9.33301 0 17.666 2.33301 24.999 7c4 1.33301 9.66699 5.33301 17 12l9 7l6 3c4.66699 0 8.33398 -5 11.001 -15l5 -33v-76
c0 -5.33301 -6.66699 -12.333 -20 -21l-22 -6l-31 -1h-99c-16.667 0 -35.167 8 -55.5 24s-30.5 32 -30.5 48v55l3 19c4 4 8.66699 6.33301 14 7l10 -5c4.66699 -2 8.66699 -6.33301 12 -13l8 -6l17 -5h9l5 3l-18 30c-6 14 -9 28 -9 42c0 26.667 8.66699 50.667 26 72
c17.333 17.333 42 26 74 26c18.667 0 36.667 -4.66699 54 -14l15 -11l8 -8l18 -31l1 -11c0 -8 -2.66699 -14.667 -8 -20l-18 -9l-13 9z" />
    <glyph glyph-name="uFEFA" unicode="&#xfee0;&#xfe88;" horiz-adv-x="794" arabic-form="final" 
d="M498 1238c-2.66699 32 7.33301 62.666 30 91.999c20.667 26.667 47.667 40 81 40s62 -13.5 86 -40.5s36 -57.5 36 -91.5l91 -984c0 -81.333 -33 -146.666 -99 -195.999c-60 -45.333 -132 -68 -216 -68c-84.667 0 -156.667 30.667 -216 92
c-52.667 54.667 -89 125.667 -109 213l-24 110c9.33301 -13.333 21.333 -23.333 36 -30l20 -5l23 -3l30 3l25 4l76 16l15 -2l6 -6l5 -9c10.667 -28.667 31.334 -43 62.001 -43c35.333 0 62.666 19 81.999 57c14.667 30 22 64.333 22 103v11l-1 27zM91 1229
c0 34.667 11 64.998 33 90.998s52 39 90 39c50 0 87 -26.667 111 -80l6 -24l2 -26l61 -661c0 -34.667 -11 -65 -33 -91c-24 -27.333 -52.667 -41 -86 -41s-63 12.667 -89 38c-10.667 12.667 -19 26.834 -25 42.501s-9 32.834 -9 51.501zM390 -134.003
c-12 0 -25.333 -4.66699 -40 -14c-10 -8 -16 -18.333 -18 -31c0 -10.667 5.5 -20 16.5 -28s22.167 -12 33.5 -12c9.33301 0 17.666 2.33301 24.999 7c4 2 9.33301 6.33301 16 13l16 9c4.66699 0 8.33398 -5 11.001 -15l5 -33v-76c0 -5.33301 -6.66699 -12.333 -20 -21
l-22 -6l-31 -1h-99c-16.667 0 -35.167 8 -55.5 24s-30.5 32 -30.5 48v55l3 19c4 4 8.66699 6.33301 14 7l10 -5c4.66699 -2 8.66699 -6.33301 12 -13l8 -6l17 -5h9l5 3l-18 30c-6 14 -9 28 -9 42c0 26.667 8.66699 50.667 26 72c17.333 17.333 42 26 74 26
c18.667 0 36.667 -4.66699 54 -14l15 -11l8 -8l18 -31l1 -11c0 -8 -2.66699 -14.667 -8 -20l-18 -9l-13 9z" />
    <glyph glyph-name="uFEFB" unicode="&#xfedf;&#xfe8e;" horiz-adv-x="918" arabic-form="isolated" 
d="M498 1238c-2.66699 32 7.33301 62.666 30 91.999c20.667 26.667 47.667 40 81 40s62 -13.5 86 -40.5s36 -57.5 36 -91.5l91 -984c0 -81.333 -33 -146.666 -99 -195.999c-60 -45.333 -132 -68 -216 -68c-84.667 0 -156.667 30.667 -216 92
c-52.667 54.667 -89 125.667 -109 213l-24 110c9.33301 -13.333 21.333 -23.333 36 -30l20 -5l23 -3l30 3l25 4l76 16l15 -2l6 -6l5 -9c10.667 -28.667 31.334 -43 62.001 -43c35.333 0 62.666 19 81.999 57c14.667 30 22 64.333 22 103v11l-1 27zM91 1229
c0 34.667 11 64.998 33 90.998s52 39 90 39c50 0 87 -26.667 111 -80l6 -24l2 -26l61 -661c0 -34.667 -11 -65 -33 -91c-24 -27.333 -52.667 -41 -86 -41s-63 12.667 -89 38c-10.667 12.667 -19 26.834 -25 42.501s-9 32.834 -9 51.501z" />
    <glyph glyph-name="uFEFC" unicode="&#xfee0;&#xfe8e;" horiz-adv-x="794" arabic-form="final" 
d="M498 1238c-2.66699 32 7.33301 62.666 30 91.999c20.667 26.667 47.667 40 81 40s62 -13.5 86 -40.5s36 -57.5 36 -91.5l91 -984c0 -81.333 -33 -146.666 -99 -195.999c-60 -45.333 -132 -68 -216 -68c-84.667 0 -156.667 30.667 -216 92
c-52.667 54.667 -89 125.667 -109 213l-24 110c9.33301 -13.333 21.333 -23.333 36 -30l20 -5l23 -3l30 3l25 4l76 16l15 -2l6 -6l5 -9c10.667 -28.667 31.334 -43 62.001 -43c35.333 0 62.666 19 81.999 57c14.667 30 22 64.333 22 103v11l-1 27zM91 1229
c0 34.667 11 64.998 33 90.998s52 39 90 39c50 0 87 -26.667 111 -80l6 -24l2 -26l61 -661c0 -34.667 -11 -65 -33 -91c-24 -27.333 -52.667 -41 -86 -41s-63 12.667 -89 38c-10.667 12.667 -19 26.834 -25 42.501s-9 32.834 -9 51.501z" />
    <glyph glyph-name="u0652_u064E.liga" unicode="&#x652;&#x64e;" horiz-adv-x="1" 
d="M180 1120c0 -18 -9.00098 -34.334 -27.001 -49.001c-10.667 -9.33301 -18 -14 -22 -14s-6 5.66699 -6 17c0 50.667 -22 174.334 -66 371.001l89 34c8 2.66699 13.333 4 16 4s4.33398 -2.33301 5.00098 -7c7.33301 -57.333 11 -176 11 -356z" />
    <glyph glyph-name="u0652_u064B.liga" unicode="&#x652;&#x64b;" horiz-adv-x="1" 
d="M194 1287c26.667 0 50.167 -8.33301 70.5 -25s30.5 -38 30.5 -64c0 -27.333 -9.83301 -49.333 -29.5 -66s-43.5 -25 -71.5 -25c-68.667 0 -103 30.333 -103 91c0 27.333 10.667 49.333 32 66c19.333 15.333 43 23 71 23zM436 1287c27.333 0 51.333 -8.16797 72 -24.501
s31 -37.833 31 -64.5c0 -28 -10.167 -50.167 -30.5 -66.5s-44.5 -24.5 -72.5 -24.5s-52.167 8.33301 -72.5 25s-30.5 38.667 -30.5 66c0 20.667 8.66699 41.334 26 62.001c20 18 45.667 27 77 27z" />
    <glyph glyph-name="u0652_u064D.liga" unicode="&#x652;&#x64d;" horiz-adv-x="1" 
d="M489 -462c28.667 2.66699 52.834 -6 72.501 -26s29.5 -45.333 29.5 -76c0 -68.667 -34 -103 -102 -103c-29.333 0 -53.833 9.66699 -73.5 29s-29.5 44 -29.5 74c0 31.333 9.33301 56.333 28 75c7.33301 6.66699 18.666 13.667 33.999 21l19 4zM854 -564
c0 -68.667 -34.333 -103 -103 -103c-66 0 -99 34.333 -99 103c0 29.333 8.66699 54.333 26 75c10 7.33301 21.333 14.333 34 21c15.333 4 28.333 6 39 6c68.667 0 103 -34 103 -102z" />
    <glyph glyph-name="u0622" unicode="&#x622;" horiz-adv-x="563" arabic-form="isolated" 
d="M362 1287l71 -1176c1.33301 -24 -7 -47.333 -25 -70c-21.333 -27.333 -50.333 -41 -87 -41c-28.667 0 -57 8.66699 -85 26c-24 18 -36.333 39.667 -37 65l-60 1186c-1.33301 19.333 8 42 28 68l15 15l17 11l12 5l27 3l19 -1c7.33301 0 14.333 -1.33301 21 -4l38 -16
c28.667 -16.667 44 -40.334 46 -71.001zM123 1544l86.001 -8l50 -2h22l25 4c6.66699 0 15.667 1.66699 27 5l29 7l13 2l13 1c13.333 1.33301 23.666 -1.66699 30.999 -9c5.33301 -4 9.33301 -11 12 -21c0 -8.66699 -6.33301 -19.334 -19 -32.001
c-14 -8.66699 -29.333 -16 -46 -22l-50 -11l-47 -2l-80 5l-50 4l-27 -1l-23 -2l-28 -5l-21 -4l-9 -1h-7c-19.333 0 -32.333 11.667 -39 35c0 4.66699 3.66699 13.334 11 26.001c6 8 16.667 15 32 21l49 7z" />
    <glyph glyph-name="u0623" unicode="&#x623;" horiz-adv-x="563" arabic-form="isolated" 
d="M313 1293c-14 0 -26.665 -4.33398 -37.998 -13.001l-12 -14l-7 -19c0 -9.33301 5 -17.666 15 -24.999l13 -8l25 -5c7.33301 0 15.333 2 24 6l16 14l14 10c4 0 8 -4.66699 12 -14l4 -33v-81c0 -7.33301 -5.66699 -13.666 -17 -18.999l-21 -3l-32 -2h-103
c-17.333 0 -35.333 7.33301 -54 22s-29 30.667 -31 48v57l2 17c3.33301 5.33301 6.66602 8.33301 9.99902 9c6 0 9.66699 -1.33301 11 -4l14 -13c2.66699 -8.66699 11.334 -13 26.001 -13h8l7 4l-11 16l-7 14c-5.33301 18 -8 31.667 -8 41
c0 25.333 8.66699 49.666 26 72.999c21.333 17.333 44.666 26 69.999 26c49.333 0 80.666 -21.667 93.999 -65l4 -13c0 -8 -1.33301 -14 -4 -18s-10 -7.66699 -22 -11l-15 10zM238.002 1047c26 0 51.998 -7.33301 77.998 -22c28.667 -15.333 44 -38.333 46 -69l71 -967
c2 -24.667 -6.33301 -48.667 -25 -72c-21.333 -26.667 -50.333 -40 -87 -40c-30 0 -57.333 8.33301 -82 25c-21.333 15.333 -34.666 37.333 -39.999 66l-60 984c0 24.667 10.333 46.667 31 66s43.334 29 68.001 29z" />
    <glyph glyph-name="u0624" unicode="&#x624;" horiz-adv-x="954" arabic-form="isolated" 
d="M551 -102c19.333 34 28.999 68.335 28.999 103.002v12c0 15.333 -3 27.666 -9 36.999c-3.33301 8 -8.33301 12 -15 12l-13 -8c-8.66699 -5.33301 -20 -13.333 -34 -24c-27.333 -20 -47.666 -30 -60.999 -30c-96 0 -176.667 42.333 -242 127
c-61.333 78.667 -92 167.667 -92 267c0 103.333 29.333 195 88 275c64.667 87.333 146.667 131 246 131c64.667 0 128 -25.667 190 -77c52 -42.667 97.667 -105.334 137 -188.001s58.666 -159.334 57.999 -230.001l-4 -306l-7 -88l-6 -45l-6 -37c-0.666992 -8 -3 -20 -7 -36
c-2 -12.667 -5.33301 -24 -10 -34c-6 -21.333 -14.333 -41 -25 -59l-18 -28l-21 -27c-10 -12 -24 -25 -42 -39l-31 -19l-23 -12l-17 -4l-19 -3c-38 0 -75.667 19.333 -113 58s-56 76 -56 112c0 20.667 6.66699 36.667 20 48l62 53
c16.667 14.667 30.334 34.334 41.001 59.001zM592.999 280.002l0.000976562 12.001l-1 13c-4 14 -9 26.667 -15 38l-2 6c-2.66699 7.33301 -6.33398 13 -11.001 17l-7 14l-9 13l-7 14l-12 13c-33.333 38.667 -68.333 58 -105 58c-13.333 0 -21.666 -0.666992 -24.999 -2
c-6 -0.666992 -13.667 -4 -23 -10c-10.667 -8.66699 -18.334 -19.667 -23.001 -33l-4 -22l-3 -23c0 -15.333 0.666992 -24.333 2 -27l10 -32c13.333 -30 36.333 -48.667 69 -56l38 -4c26 0 46.333 -4.66699 61 -14c8 -6.66699 16.333 -20.334 25 -41.001
c0 2.66699 9.33301 12.667 28 30c9.33301 8.66699 14 20.667 14 36zM406 1150c0 -10 3.33301 -19.665 10 -28.998c13.333 -19.333 33.666 -29 60.999 -29c17.333 0 29.333 3 36 9l11 9l13 12c3.33301 6 9.66602 10.667 18.999 14c14 0 21 -21.667 21 -65v-112
c0 -28 -33.333 -42 -100 -42h-142c-26 0 -52.833 11.667 -80.5 35s-41.5 45.666 -41.5 66.999v82c0 24.667 8 37 24 37c3.33301 0 12 -9 26 -27l15 -12l22 -6c8.66699 0 17 2.66699 25 8l-14 19l-16 25c-7.33301 18 -11 36.667 -11 56c0 61.333 28.333 104.666 85 129.999
c18 8 37 12 57 12c28.667 0 55.334 -7.33301 80.001 -22c20.667 -14 37.334 -37.667 50.001 -71l4 -15c0 -12 -3.33301 -22.333 -10 -31l-24 -13l-21 14l-17 6c-16.667 0 -34 -5.66699 -52 -17c-20 -13.333 -30 -28 -30 -44z" />
    <glyph glyph-name="u0625" unicode="&#x625;" horiz-adv-x="563" arabic-form="isolated" 
d="M238 1379l19 -0.999023c7.33301 0 14.333 -1.33301 21 -4l38 -16c28.667 -16.667 44 -40.334 46 -71.001l71 -1176c1.33301 -24 -7 -47.333 -25 -70c-21.333 -27.333 -50.333 -41 -87 -41c-28.667 0 -57 8.66699 -85 26c-24 18 -36.333 39.667 -37 65l-60 1186
c-1.33301 19.333 8 42 28 68l15 15l17 11l12 5zM371 -132.999c-12 0 -25.332 -4.66699 -39.999 -14c-10 -8 -16 -18.333 -18 -31c0 -10.667 5.5 -20 16.5 -28s22.167 -12 33.5 -12c9.33301 0 17.666 2.33301 24.999 7c4 1.33301 9.66699 5.33301 17 12l14 10
c4 0 8 -4 12 -12l4 -20l1 -16v-76c0 -5.33301 -6.66699 -12.333 -20 -21l-22 -6l-31 -1h-99c-16.667 0 -35.167 8 -55.5 24s-30.5 32 -30.5 48v55c0 8.66699 0.666992 13.667 2 15l14 11l10 -5l13 -13l9 -8l15 -3h9l6 3l-18 30c-6 14 -9 28 -9 42
c0 26.667 8.66699 50.667 26 72c17.333 17.333 42 26 74 26c18.667 0 36.667 -4.66699 54 -14l15 -11l8 -8l18 -31l1 -11c0 -8 -2.66699 -14.667 -8 -20l-18 -9l-13 9z" />
    <glyph glyph-name="u0626" unicode="&#x626;" horiz-adv-x="1286" arabic-form="isolated" 
d="M516 962c-18 0 -35.332 -5.33301 -51.999 -16c-20 -12 -30 -26.333 -30 -43c0 -14 7 -28.333 21 -43c14.667 -11.333 31.667 -17 51 -17c9.33301 0 21 3.66699 35 11l14 10l7 8c6 6.66699 13 11.667 21 15c3.33301 0 8.66602 -6.66699 15.999 -20l4 -21l3 -24v-111
c0 -13.333 -9 -24.333 -27 -33l-31 -5l-23 -3h-161c-26.667 0 -53.834 11.833 -81.501 35.5s-41.5 45.5 -41.5 65.5v81c0 7.33301 2 15.666 6 24.999c2 5.33301 6.66699 9.33301 14 12l15 -6l8 -8l9 -14l13 -11l22 -5c10.667 0 19.334 2.33301 26.001 7
c-5.33301 6 -15.333 20.333 -30 43l-10 27l-2 31c0 40 13.5 73.5 40.5 100.5s60.833 40.5 101.5 40.5c30 0 56.667 -7.66699 80 -23c21.333 -14.667 38.333 -37.667 51 -69l4 -15c0 -7.33301 -3.66699 -16.666 -11 -27.999c-7.33301 -8 -15.333 -13 -24 -15l-21 13z
M958.001 222c42 0 80.666 -8.00098 115.999 -24.001c28.667 -13.333 51.667 -30.666 69 -51.999c32.667 -39.333 49 -98.333 49 -177c0 -112 -63.667 -197.667 -191 -257c-98.667 -45.333 -211 -68 -337 -68c-144 0 -265 35.667 -363 107
c-92.667 67.333 -141.667 151.333 -147 252l-17 308c-2 33.333 7 61.333 27 84c18.667 20.667 47 31 85 31c32 0 60 -12 84 -36c22 -21.333 34 -50 36 -86l10 -226c2 -46 32.667 -81.667 92 -107l41 -12l57 -9c22.667 -4 56.334 -6 101.001 -6c66 0 124.333 4.66699 175 14
c41.333 20 62 43 62 69c0 14 -10.667 24.333 -32 31l-60 18l-36 12l-26 13c-54.667 26 -93 49.333 -115 70c-32.667 30.667 -49 64 -49 100c0 10.667 1.66699 21.667 5 33c24.667 90.667 90.667 165.334 198 224.001c96 52.667 195.333 79 298 79
c24.667 -3.33301 42 -6.83301 52 -10.5s22.667 -10.834 38 -21.501c23.333 -16.667 35 -38.667 35 -66l-3 -13c-16.667 -78.667 -37 -118 -61 -118l-9 1l-10 7l-42 15l-48 8l-10 -1l-13 -2l-38 -10c-13.333 -3.33301 -27 -9 -41 -17
c-13.333 -5.33301 -26.333 -12.666 -39 -21.999l-27 -19l-19 -14c-9.33301 -16.667 -14 -30.334 -14 -41.001c0 -12 7.33301 -23.333 22 -34l15 -8l21 -6z" />
    <glyph glyph-name="u0627" unicode="&#x627;" horiz-adv-x="563" arabic-form="isolated" 
d="M238 1379l19 -0.999023c7.33301 0 14.333 -1.33301 21 -4l38 -16c28.667 -16.667 44 -40.334 46 -71.001l71 -1176c1.33301 -24 -7 -47.333 -25 -70c-21.333 -27.333 -50.333 -41 -87 -41c-28.667 0 -57 8.66699 -85 26c-24 18 -36.333 39.667 -37 65l-60 1186
c-1.33301 19.333 8 42 28 68l15 15l17 11l12 5z" />
    <glyph glyph-name="u0628" unicode="&#x628;" horiz-adv-x="1519" arabic-form="isolated" 
d="M218 405h870c26.667 0 47.334 16.667 62.001 50c4.66699 10 7 21 7 33l-20 192c0 34 11.667 62.5 35 85.5s52 34.5 86 34.5c58 0 96.333 -23.667 115 -71l5 -21l5 -28l30 -517c2 -40 -17.5 -77.167 -58.5 -111.5s-90.167 -51.5 -147.5 -51.5h-909
c-24.667 0 -46.334 3.66699 -65.001 11l-35 15l-16 7l-16 12c-46.667 32.667 -70 65 -70 97v304l22 -15l30 -14l32 -9zM766 -102c29.333 0 53.167 -8.66699 71.5 -26s27.5 -39.333 27.5 -66c0 -60 -33 -90 -99 -90c-26 0 -50.333 8.66699 -73 26
c-19.333 16.667 -29 38 -29 64c0 27.333 9.66699 50 29 68c18.667 16 43 24 73 24z" />
    <glyph glyph-name="u0629" unicode="&#x629;" horiz-adv-x="846" arabic-form="isolated" 
d="M111 446c0 34.667 12.3359 65.333 37.0029 92c22 18 48 27 78 27l25 -3l13 -3c25.333 -7.33301 42.666 -26 51.999 -56l13 -38l14 -32c8 -10.667 16.333 -19.334 25 -26.001l14 -7l22 -2c20.667 -2 42 6 64 24c20 16 30 32 30 48v7c-10 44.667 -31.833 80 -65.5 106
s-71.834 39 -114.501 39c-32.667 0 -64.334 -7.66699 -95.001 -23l-19 -9l-22 -2c-28 -2.66699 -53.5 10 -76.5 38s-33.833 56.333 -32.5 85l1 21c3.33301 11.333 6 17.333 8 18c15.333 38.667 41.333 68.667 78 90c18 10.667 52.667 22.667 104 36l45 5l54 1h31
c45.333 0 98.333 -21.333 159 -64c64 -45.333 116 -106.666 156 -183.999c48 -94 72 -191 72 -291c0 -228.667 -108.333 -343 -325 -343c-152.667 0 -258 89.667 -316 269c-19.333 58 -29 117 -29 177zM461.003 1247c-18 0 -35.6641 -5.33301 -52.9971 -16
c-19.333 -12 -29 -26.333 -29 -43c0 -14 7 -28.333 21 -43c14.667 -11.333 31.667 -17 51 -17c8.66699 0 20.334 3.66699 35.001 11c6.66699 3.33301 14 9 22 17c5.33301 7.33301 12.666 12.666 21.999 15.999c3.33301 0 7.66602 -5.33301 12.999 -16l7 -23l1 -26v-111
c0 -13.333 -9.33301 -24.333 -28 -33l-30 -5l-23 -3h-161c-26.667 0 -53.834 11.833 -81.501 35.5s-41.5 45.5 -41.5 65.5v81c0 24.667 7.66699 37 23 37c4 0 13.333 -8.66699 28 -26c4 -6 8.66699 -10.333 14 -13l24 -5c7.33301 0 15.333 2.33301 24 7
c-6 6 -16 20.333 -30 43l-10 27l-3 31c0 40 13.667 73.5 41 100.5s61.333 40.5 102 40.5c30 0 56.667 -7.66699 80 -23c21.333 -14.667 38.333 -37.667 51 -69l4 -16c0 -8 -4 -17.667 -12 -29c-4.66699 -5.33301 -12.334 -9.66602 -23.001 -12.999l-21 13z" />
    <glyph glyph-name="u062A" unicode="&#x62a;" horiz-adv-x="1547" arabic-form="isolated" 
d="M643 972c30.667 0 56 -8.99902 76 -26.999l9 -12l10 -16c5.33301 -10 8 -22 8 -36c0 -28 -10 -50.5 -30 -67.5s-44.333 -25.5 -73 -25.5c-66.667 0 -100 31 -100 93c0 24.667 9.33301 46 28 64c5.33301 5.33301 15.333 11.666 30 18.999l16 5zM888 962.001
c26.667 0 50.499 -9 71.499 -27s31.5 -40 31.5 -66c0 -22.667 -9.66699 -44.334 -29 -65.001l-13 -9l-20 -10l-19 -5l-22 -2c-23.333 -2 -47.666 6.66699 -72.999 26c-18.667 18.667 -28 40.334 -28 65.001c0 26 10.333 48 31 66s44 27 70 27zM245.999 405.001h869.001
c27.333 0 48.333 16.667 63 50c4.66699 10 7 21 7 33l-20 192c0 34 11.667 62.5 35 85.5s51.666 34.5 84.999 34.5c58 0 96.333 -23.667 115 -71l6 -21l5 -28l29 -517c2.66699 -40 -17.333 -77.667 -60 -113c-40 -33.333 -88.333 -50 -145 -50h-909
c-25.333 0 -47.333 3.66699 -66 11l-35 15l-15 7l-16 12c-47.333 32.667 -71 65 -71 97v304l55 -29l37 -10z" />
    <glyph glyph-name="u062B" unicode="&#x62b;" horiz-adv-x="1532" arabic-form="isolated" 
d="M767 1172c28 0 53.333 -9.66895 76 -29.002c16.667 -15.333 25 -35.666 25 -60.999c0 -24 -9.66699 -45.667 -29 -65c-18 -16.667 -42 -25 -72 -25c-27.333 0 -52.333 8.33301 -75 25c-19.333 17.333 -29 39 -29 65c0 26.667 10.333 48.334 31 65.001s45 25 73 25z
M643 971.998c30.667 0 56 -8.99902 76 -26.999l9 -12l10 -16c5.33301 -10 8 -22 8 -36c0 -28 -10 -50.5 -30 -67.5s-44.333 -25.5 -73 -25.5c-66.667 0 -100 31 -100 93c0 24.667 9.33301 46 28 64c5.33301 5.33301 15.333 11.666 30 18.999l16 5zM888 961.999
c26.667 0 50.499 -9 71.499 -27s31.5 -40 31.5 -66c0 -22.667 -9.66699 -44.334 -29 -65.001l-13 -9l-20 -10l-19 -5l-22 -2c-23.333 -2 -47.666 6.66699 -72.999 26c-18.667 18.667 -28 40.334 -28 65.001c0 26 10.333 48 31 66s44 27 70 27zM245.999 404.999h869.001
c27.333 0 48.333 16.667 63 50c4.66699 10 7 21 7 33l-20 192c0 34 11.667 62.5 35 85.5s51.666 34.5 84.999 34.5c58 0 96.333 -23.667 115 -71l6 -21l5 -28l29 -517c2.66699 -40 -17.333 -77.667 -60 -113c-40 -33.333 -88.333 -50 -145 -50h-909
c-25.333 0 -47.333 3.66699 -66 11l-35 15l-15 7l-16 12c-47.333 32.667 -71 65 -71 97v304l22 -15l31 -14l32 -9z" />
    <glyph glyph-name="u062C" unicode="&#x62c;" horiz-adv-x="1042" arabic-form="isolated" 
d="M390 800c58 0 111 -7.33496 159 -22.002c30 -9.33301 52 -19 66 -29c22 -10 42.667 -26.333 62 -49c41.333 -31.333 81.333 -76.333 120 -135c42 -63.333 65.667 -116.666 71 -159.999h94v-294c-4 -32 -22.667 -59 -56 -81c-30.667 -20 -63.334 -30 -98.001 -30h-365
c-36 0 -54 -18 -54 -54c0 -13.333 5 -27.333 15 -42c9.33301 -12 22.333 -20.333 39 -25l58 -16l34 -15c8 -2 14 -5.33301 18 -10l18 -24l9 -24l4 -28l-2 -21c0 -8 -2 -16.333 -6 -25c-8 -24 -25 -44.667 -51 -62c-17.333 -11.333 -41.666 -17 -72.999 -17
c-84.667 0 -155 19.333 -211 58c-48.667 34 -87.334 83 -116.001 147c-24 55.333 -36 118.333 -36 189c0 192.667 93.667 317.334 281 374.001h216l2 6l2 13c0 23.333 -12.333 48.333 -37 75c-22 23.333 -45 39.666 -69 48.999l-25 3h-8c-30.667 0 -60.667 -6.33301 -90 -19
c-23.333 -7.33301 -50 -22 -80 -44l-10 -4l-15 -2c-23.333 0 -46 8 -68 24c-19.333 14.667 -35.666 35.334 -48.999 62.001v10l-1 11c-4 46 22.667 93.333 80 142c52.667 46 110 69 172 69zM728 -111.002c66 0 99 -31 99 -93c0 -25.333 -9 -46.666 -27 -63.999
c-20 -18 -44 -27 -72 -27s-51.833 8.33301 -71.5 25s-29.5 38.667 -29.5 66s9.83301 49.666 29.5 66.999s43.5 26 71.5 26z" />
    <glyph glyph-name="u062D" unicode="&#x62d;" horiz-adv-x="1083" arabic-form="isolated" 
d="M418 800c57.333 0 110.331 -7.33398 158.998 -22.001c30 -9.33301 51.667 -19 65 -29c22 -10 43 -26.333 63 -49c40.667 -31.333 80.667 -76.333 120 -135c41.333 -63.333 65 -116.666 71 -159.999h94v-294c-4.66699 -32 -23.667 -59 -57 -81
c-30.667 -20 -63 -30 -97 -30h-366c-35.333 0 -53 -18 -53 -54c0 -13.333 4.66699 -27.333 14 -42c10 -12 23 -20.333 39 -25l58 -16l34 -15c8.66699 -2 14.667 -5.33301 18 -10l18 -24l10 -24l4 -28l-2 -21c0 -8 -2.33301 -16.333 -7 -25c-7.33301 -24 -24 -44.667 -50 -62
c-18 -11.333 -42.333 -17 -73 -17c-85.333 0 -155.666 19.333 -210.999 58c-49.333 34 -88 83 -116 147c-24 55.333 -36 118.333 -36 189c0 192.667 93.667 317.334 281 374.001h216l2 6l1 13c0 23.333 -12 48.333 -36 75c-22 23.333 -45.333 39.666 -70 48.999l-25 3h-7
c-31.333 0 -61.333 -6.33301 -90 -19c-24 -7.33301 -50.667 -22 -80 -44l-11 -4l-14 -2c-23.333 0 -45.5 7.66699 -66.5 23s-38.167 36.333 -51.5 63v10l-1 11c-3.33301 46 23.334 93.333 80.001 142c53.333 46 111 69 173 69z" />
    <glyph glyph-name="u062E" unicode="&#x62e;" horiz-adv-x="1083" arabic-form="isolated" 
d="M511 1177c20.667 0 34.667 -2.33594 42 -7.00293c9.33301 -1.33301 20 -7.66602 32 -18.999c19.333 -17.333 29 -38.666 29 -63.999c0 -60.667 -34.333 -91 -103 -91c-18.667 0 -32 0.666992 -40 2l-14 6l-22 17c-18 18 -27 40 -27 66c0 26.667 10.333 48.334 31 65.001
s44.667 25 72 25zM418 799.997c57.333 0 110.331 -7.33398 158.998 -22.001c30 -9.33301 51.667 -19 65 -29c22 -10 43 -26.333 63 -49c40.667 -31.333 80.667 -76.333 120 -135c41.333 -63.333 65 -116.666 71 -159.999h94v-294c-4.66699 -32 -23.667 -59 -57 -81
c-30.667 -20 -63 -30 -97 -30h-366c-35.333 0 -53 -18 -53 -54c0 -13.333 4.66699 -27.333 14 -42c10 -12 23 -20.333 39 -25l58 -16l34 -15c8.66699 -2 14.667 -5.33301 18 -10l18 -24l10 -24l4 -28l-2 -21c0 -8 -2.33301 -16.333 -7 -25c-7.33301 -24 -24 -44.667 -50 -62
c-18 -11.333 -42.333 -17 -73 -17c-85.333 0 -155.666 19.333 -210.999 58c-49.333 34 -88 83 -116 147c-24 55.333 -36 118.333 -36 189c0 192.667 93.667 317.334 281 374.001h216l2 6l1 13c0 23.333 -12 48.333 -36 75c-22 23.333 -45.333 39.666 -70 48.999l-25 3h-7
c-31.333 0 -61.333 -6.33301 -90 -19c-24 -7.33301 -50.667 -22 -80 -44l-11 -4l-14 -2c-23.333 0 -45.5 7.66699 -66.5 23s-38.167 36.333 -51.5 63v10l-1 11c-3.33301 46 23.334 93.333 80.001 142c53.333 46 111 69 173 69z" />
    <glyph glyph-name="u062F" unicode="&#x62f;" horiz-adv-x="885" arabic-form="isolated" 
d="M187 671c8 46.667 29.9961 82 65.9961 106c40.667 26 84.334 37.667 131.001 35l34 -2c60 -3.33301 124.333 -40 193 -110c58.667 -60 106.667 -135 144 -225c38.667 -94.667 58 -182.667 58 -264c0 -36 -2.33301 -62.333 -7 -79c-21.333 -70 -75.333 -114 -162 -132
h-375c-38 0 -72.833 17 -104.5 51s-47.5 71.333 -47.5 112v242h426c0 35.333 -16 72 -48 110l-23 26l-25 24c-13.333 13.333 -29.666 24.666 -48.999 33.999l-9 1c-7.33301 0 -16.666 -3.33301 -27.999 -10c-23.333 -14.667 -40.666 -22 -51.999 -22
c-34 0 -63.667 9.66699 -89 29c-22 16.667 -33 41.334 -33 74.001z" />
    <glyph glyph-name="u0630" unicode="&#x630;" horiz-adv-x="858" arabic-form="isolated" 
d="M401 1177c10.667 0 17.833 -0.333984 21.5 -1.00098s8.16699 -2.66699 13.5 -6c9.33301 -1.33301 19.333 -7.66602 30 -18.999c18.667 -18 28 -39.333 28 -64c0 -26.667 -8.83301 -48.5 -26.5 -65.5s-39.834 -25.5 -66.501 -25.5c-21.333 0 -42.666 8.33301 -63.999 25
c-16.667 20.667 -25 42.667 -25 66c0 22 8.33301 43.333 25 64c18.667 17.333 40 26 64 26zM159.999 670.999c7.33301 46.667 29.332 82.001 65.999 106.001c40 26 83.333 37.667 130 35l34 -2c60.667 -3.33301 125 -40 193 -110c61.333 -62.667 110 -137.334 146 -224.001
c38 -92 57 -179.333 57 -262v-33l-2 -11c0 -12 -2 -24.667 -6 -38c-19.333 -69.333 -73 -113.333 -161 -132h-376c-37.333 0 -72 17 -104 51s-48 71.333 -48 112v242h427c0 35.333 -16.333 72 -49 110l-22 26l-25 24c-14 13.333 -30.667 24.666 -50 33.999l-9 1
c-7.33301 0 -16.666 -3.33301 -27.999 -10c-22.667 -14.667 -40 -22 -52 -22c-34 0 -63.333 9.66699 -88 29c-22 16.667 -33 41.334 -33 74.001z" />
    <glyph glyph-name="u0631" unicode="&#x631;" horiz-adv-x="569" arabic-form="isolated" 
d="M123 -132c15.333 8 27.998 16 37.998 24l37 27c31.333 30.667 47 60.667 47 90l-64 716c0 32.667 13.667 62.667 41 90l9 7l10 6l23 15l25 5l26 3c30 0 59 -13.333 87 -40c18.667 -22.667 29.667 -56 33 -100l62 -813c4.66699 -60 -23.666 -121 -84.999 -183
c-51.333 -52 -103.666 -78 -156.999 -78h-9c-36.667 0 -71.667 21.333 -105 64c-31.333 40 -47 79 -47 117c0 23.333 9.66699 40 29 50z" />
    <glyph glyph-name="u0632" unicode="&#x632;" horiz-adv-x="611" arabic-form="isolated" 
d="M326 1229c30.667 0 56.6689 -9.99902 78.002 -29.999c21.333 -16.667 32 -40.334 32 -71.001s-10.667 -55.5 -32 -74.5s-47.333 -28.5 -78 -28.5s-57.334 9.66699 -80.001 29c-20.667 17.333 -31 42 -31 74c0 28.667 11.167 52.667 33.5 72s48.166 29 77.499 29z
M164.002 -131.999c14 6.66699 27 14.668 39 24.001l36 27c32 30.667 48 60.667 48 90l-64 716c0 34 13.667 63.333 41 88c19.333 18 41.666 29.667 66.999 35c8.66699 2 17.334 3 26.001 3c30 0 59 -13.333 87 -40c18.667 -22.667 29.667 -56 33 -100l62 -813
c4.66699 -60 -23.666 -121 -84.999 -183c-51.333 -52 -104 -78 -158 -78h-7c-34.667 0 -68.834 21 -102.501 63s-50.5 80.667 -50.5 116c0 27.333 9.33301 44.666 28 51.999z" />
    <glyph glyph-name="u0633" unicode="&#x633;" horiz-adv-x="1868" arabic-form="isolated" 
d="M1769 182c2 -45.333 -17.667 -89.3291 -59 -131.996c-39.333 -40 -87.666 -60 -144.999 -60c-54 0 -100.667 17.167 -140 51.5s-64.333 78.166 -75 131.499c0 -52 -20.5 -97.333 -61.5 -136s-87.5 -58 -139.5 -58c-53.333 0 -101 19.167 -143 57.5s-63 83.833 -63 136.5
v-194c0 -113.333 -39.167 -209 -117.5 -287s-173.833 -117 -286.5 -117c-110.667 0 -204.167 39.667 -280.5 119s-114.5 174.333 -114.5 285v296c0 36 11.333 68.333 34 97s51.667 43 87 43c36 0 65.5 -14.167 88.5 -42.5s34.5 -60.833 34.5 -97.5v-164
c0 -42.667 16 -78.667 48 -108s69.667 -44 113 -44c45.333 0 84 15 116 45c34.667 32.667 50.334 68.334 47.001 107.001l-40 550c-2.66699 36.667 8.33301 70 33 100c21.333 26 50.666 39 87.999 39c43.333 0 76.666 -19.667 99.999 -59c12 -20.667 19 -47.334 21 -80.001
l9 -163c2 -26.667 11.333 -48.834 28 -66.501s38.667 -26.5 66 -26.5c24.667 0 46.334 8.66699 65.001 26s27.334 39.666 26.001 66.999l-10 163c-2 39.333 8 73 30 101c20 25.333 47.333 38 82 38c34 0 62.667 -13.333 86 -40c20.667 -24 32 -57 34 -99l9 -173
c1.33301 -14.667 3.16602 -26.5 5.49902 -35.5s9.5 -19.5 21.5 -31.5c21.333 -18 43.666 -27 66.999 -27c26 0 47.833 9.16699 65.5 27.5s26.5 40.5 26.5 66.5l-21 173c0 39.333 10.333 71.666 31 96.999c22.667 28 53 42 91 42c34.667 0 63 -13 85 -39s34 -59.333 36 -100z
" />
    <glyph glyph-name="u0634" unicode="&#x634;" horiz-adv-x="1826" arabic-form="isolated" 
d="M1196 1287c26.667 0 50.333 -8.33301 71 -25s31 -38 31 -64c0 -22.667 -9.66699 -44.667 -29 -66c-18.667 -16.667 -43 -25 -73 -25c-27.333 0 -51.333 8.33301 -72 25s-31 38.667 -31 66c0 26 9.5 47.333 28.5 64s43.833 25 74.5 25zM1064 1077
c28.667 0 52.668 -9.33301 72.001 -28s29 -40 29 -64c0 -27.333 -10 -49.666 -30 -66.999s-43.667 -26 -71 -26c-26.667 0 -51.334 8.66699 -74.001 26c-20 17.333 -30 39.666 -30 66.999c0 24.667 10.333 46.167 31 64.5s45 27.5 73 27.5zM1325 1077
c30 0 54.667 -9.00098 74 -27.001s29 -39.667 29 -65c0 -23.333 -9.66699 -45.333 -29 -66c-19.333 -18 -44 -27 -74 -27c-66.667 0 -100 31 -100 93c0 22.667 9.33301 44.334 28 65.001c21.333 18 45.333 27 72 27zM1755 181.999
c2 -45.333 -17.665 -89.3291 -58.998 -131.996c-39.333 -40 -88 -60 -146 -60c-54 0 -100.667 17.167 -140 51.5s-64 78.166 -74 131.499c0 -52 -20.5 -97.333 -61.5 -136s-87.833 -58 -140.5 -58s-100 19.167 -142 57.5s-63 83.833 -63 136.5v-194
c0 -113.333 -39.167 -209 -117.5 -287s-174.166 -117 -287.499 -117c-110 0 -203.167 39.667 -279.5 119s-114.5 174.333 -114.5 285v296c0 36 11.333 68.333 34 97s51.667 43 87 43c36 0 65.333 -14.167 88 -42.5s34 -60.833 34 -97.5v-164
c0 -42.667 16.167 -78.667 48.5 -108s70.166 -44 113.499 -44c44.667 0 83 15 115 45c35.333 32.667 51.333 68.334 48 107.001l-41 550c-2.66699 36.667 8.66602 70 33.999 100c21.333 26 50.666 39 87.999 39c43.333 0 76.666 -19.667 99.999 -59
c12 -20.667 19 -47.334 21 -80.001l9 -163c1.33301 -26.667 10.5 -48.834 27.5 -66.501s39.167 -26.5 66.5 -26.5c24 0 45.5 8.66699 64.5 26s27.5 39.666 25.5 66.999l-9 163c-2 39.333 8 73 30 101c20 25.333 47.333 38 82 38c34 0 62.667 -13.333 86 -40
c20 -24 31.333 -57 34 -99l9 -173c0.666992 -14.667 2.33398 -26.5 5.00098 -35.5s10 -19.5 22 -31.5c21.333 -18 43.333 -27 66 -27c26 0 47.833 9.16699 65.5 27.5s26.5 40.5 26.5 66.5l-20 173c0 39.333 10.333 71.666 31 96.999c22.667 28 53 42 91 42
c34 0 62.667 -13.333 86 -40c21.333 -25.333 33 -58.333 35 -99z" />
    <glyph glyph-name="u0635" unicode="&#x635;" horiz-adv-x="1975" arabic-form="isolated" 
d="M929 0c0 -116.667 -37.9951 -216 -113.995 -298c-78 -84.667 -175 -127 -291 -127c-110 0 -203.167 39.667 -279.5 119s-114.5 174.333 -114.5 285v296c0 36 11.333 68.333 34 97s51.667 43 87 43c36 0 65.333 -14.167 88 -42.5s34 -60.833 34 -97.5v-164
c0 -42.667 16.167 -78.667 48.5 -108s70.166 -44 113.499 -44c44.667 0 83 15 115 45c35.333 32.667 51.333 68.334 48 107.001l-41 550c-2.66699 36.667 8.66602 70 33.999 100c21.333 26 50.666 39 87.999 39c43.333 0 76.666 -19.667 99.999 -59
c12 -20.667 19 -47.334 21 -80.001l9 -163c89.333 91.333 186.333 165.333 291 222c111.333 60 211.333 90 300 90c119.333 0 212.666 -58.667 279.999 -176c56 -97.333 84 -210.333 84 -339c0 -124.667 -16.667 -207 -50 -247c-27.333 -32 -84.333 -48 -171 -48h-714z
M1103 405h509.001c-8.66699 50 -29.334 89 -62.001 117l-40 21l-23 9l-28 7l-58 3c-59.333 0 -115.333 -13.333 -168 -40l-34 -24l-32 -26c-16 -12 -37.333 -34.333 -64 -67z" />
    <glyph glyph-name="u0636" unicode="&#x636;" horiz-adv-x="1999" arabic-form="isolated" 
d="M1284 1287c28.667 0 52.667 -7.99902 72 -23.999c7.33301 -6.66699 14 -16.334 20 -29.001l5 -16l2 -20c0 -60.667 -33 -91 -99 -91c-26 0 -50.333 8.33301 -73 25c-18.667 17.333 -28 39.333 -28 66c0 24 9.33301 45.667 28 65c16.667 16 41 24 73 24zM957 0.000976562
c0 -116.667 -37.998 -216 -113.998 -298c-78 -84.667 -175 -127 -291 -127c-110.667 0 -204 39.667 -280 119s-114 174.333 -114 285v296c0 36 11.167 68.333 33.5 97s51.166 43 86.499 43c36 0 66 -14.667 90 -44c22 -27.333 33 -59.333 33 -96v-164
c0 -42.667 16 -78.667 48 -108s69.667 -44 113 -44c45.333 0 84 15 116 45c34.667 32.667 50.667 68.334 48 107.001l-41 550c-2.66699 36.667 8.33301 70 33 100c22 26 51.667 39 89 39c43.333 0 76.333 -19.667 99 -59c12 -20.667 19 -47.334 21 -80.001l10 -163
c88.667 91.333 185.334 165.333 290.001 222c111.333 60 211.666 90 300.999 90c119.333 0 212.666 -58.667 279.999 -176c55.333 -97.333 83 -210.333 83 -339c0 -124.667 -16.667 -207 -50 -247c-27.333 -32 -84 -48 -170 -48h-714zM1130 405.001h509.999
c-9.33301 50 -30 89 -62 117l-40 21l-24 9l-27 7l-58 3c-60 0 -116 -13.333 -168 -40l-35 -24l-32 -26c-15.333 -12 -36.666 -34.333 -63.999 -67z" />
    <glyph glyph-name="u0637" unicode="&#x637;" horiz-adv-x="1597" arabic-form="isolated" 
d="M249 405h190.001l-41 903c-0.666992 18 10 34.333 32 49s45.667 22 71 22l5 1h11c25.333 0 49 -8 71 -24s33.667 -35.333 35 -58l41 -699c171.333 148.667 341 223 509 223c57.333 0 113 -28.333 167 -85c50.667 -52 91.334 -124.333 122.001 -217
c20 -58.667 31.667 -121 35 -187l11 -181c1.33301 -29.333 -19.334 -62 -62.001 -98s-87.334 -54 -134.001 -54h-982c-51.333 0 -95 10.667 -131 32c-41.333 25.333 -62 62 -62 110v294l9 -5l28 -14l37 -9zM674.001 405l590 -0.00195312
c-12.667 58.667 -36.667 103.334 -72 134.001c-32 27.333 -74.333 41 -127 41h-12l-13 -1c-19.333 -0.666992 -48 -4.66699 -86 -12l-44 -14c-10.667 -3.33301 -25.667 -9.66602 -45 -18.999l-49 -24l-21 -11l-31 -20c-28 -18 -58 -42.667 -90 -74z" />
    <glyph glyph-name="u0638" unicode="&#x638;" horiz-adv-x="1624" arabic-form="isolated" 
d="M249 405h190.001l-41 903c-0.666992 18 10 34.333 32 49s45.667 22 71 22l5 1h11c25.333 0 49 -8 71 -24s33.667 -35.333 35 -58l41 -699c171.333 148.667 341 223 509 223c57.333 0 113 -28.333 167 -85c50.667 -52 91.334 -124.667 122.001 -218
c20 -58 31.667 -120 35 -186l11 -181c1.33301 -29.333 -19.334 -62 -62.001 -98s-87.334 -54 -134.001 -54h-982c-51.333 0 -95 10.667 -131 32c-41.333 25.333 -62 62 -62 110v294l9 -5l28 -14l37 -9zM674.001 405l590 -0.00195312
c-12.667 58.667 -36.667 103.334 -72 134.001c-32 27.333 -74.333 41 -127 41h-12l-13 -1c-19.333 -0.666992 -48 -4.66699 -86 -12l-44 -14c-10.667 -3.33301 -25.667 -9.66602 -45 -18.999l-49 -24l-21 -11l-31 -20c-28 -18 -58 -42.667 -90 -74zM916.001 1298
c68.667 0 103 -33.333 103 -100c0 -29.333 -9.83301 -53.666 -29.5 -72.999s-44.167 -29 -73.5 -29c-26.667 0 -51 9.66699 -73 29c-18 21.333 -27 45.666 -27 72.999c0 28 9 51.667 27 71s42.333 29 73 29z" />
    <glyph glyph-name="u0639" unicode="&#x639;" horiz-adv-x="978" arabic-form="isolated" 
d="M837 639c-17.333 -27.333 -45 -40.998 -83 -40.998l-24 2l-12 2l-13 6l-13 7l-18 7c-27.333 11.333 -47 17 -59 17h-26l-27 -2c-18.667 -1.33301 -32 -3.66602 -40 -6.99902c-39.333 -12.667 -60.333 -36.334 -63 -71.001l-1 -13
c-2.66699 -30.667 9.83301 -61.834 37.5 -93.501s57.167 -47.5 88.5 -47.5h232c10 0 20 2 30 6l31 14v-304c0 -28.667 -16.333 -56 -49 -82s-63.667 -39 -93 -39h-245c-16.667 0 -31.334 -7 -44.001 -21c-6.66699 -10 -12 -25.333 -16 -46
c0 -18.667 9.66699 -33.334 29 -44.001l63 -16l81 -15c42.667 -8 64 -41.333 64 -100v-10l-3 -12c-8.66699 -66 -52.667 -99 -132 -99c-106.667 0 -194 23.667 -262 71c-77.333 54 -121.666 134.667 -132.999 242l-3 26v8c0 132.667 58.667 236.334 176 311.001
c-32 27.333 -59.333 63.666 -82 108.999c-26 50.667 -39 106.667 -39 168v28l4 35c2 18.667 7 40 15 64c14.667 44.667 38 88.667 70 132c71.333 71.333 156 107 254 107c74 0 145.833 -22.667 215.5 -68s104.5 -101 104.5 -167c0 -16 -5 -37.333 -15 -64z" />
    <glyph glyph-name="u063A" unicode="&#x63a;" horiz-adv-x="992" arabic-form="isolated" 
d="M514 1285c66.667 0 100 -34.001 100 -102.001c0 -67.333 -33.333 -101 -100 -101h-29l-18 6l-14 6l-14 15c-19.333 18.667 -29 43.334 -29 74.001c0 32 9.66699 56.667 29 74c17.333 18.667 42.333 28 75 28zM851 638.999
c-17.333 -27.333 -44.6709 -40.998 -82.0039 -40.998l-25 2l-12 2l-13 6l-13 7l-18 7c-27.333 11.333 -47 17 -59 17h-26l-26 -2c-18.667 -1.33301 -32 -3.66602 -40 -6.99902c-40 -12.667 -61.333 -36.334 -64 -71.001l-1 -13c-2 -30.667 10.833 -61.834 38.5 -93.501
s56.834 -47.5 87.501 -47.5h232c10 0 20.333 2 31 6l30 14v-304c0 -28.667 -16.333 -56 -49 -82s-63.334 -39 -92.001 -39h-246c-16.667 0 -31 -7 -43 -21c-7.33301 -10 -12.666 -25.333 -15.999 -46c0 -18.667 9.33301 -33.334 28 -44.001l64 -16l80 -15
c42.667 -8 64 -41.333 64 -100v-10l-3 -12c-8.66699 -66 -52.667 -99 -132 -99c-106.667 0 -194 23.667 -262 71c-77.333 54 -121.666 134.667 -132.999 242l-3 26v8c0 132.667 58.667 236.334 176 311.001c-31.333 27.333 -58.666 63.666 -81.999 108.999
c-26 50.667 -39 106.667 -39 168v28l4 35c2 18.667 7 40 15 64c14.667 44.667 38.334 88.667 71.001 132c70.667 71.333 155 107 253 107c74 0 145.833 -22.667 215.5 -68s104.5 -101 104.5 -167c0 -16 -5 -37.333 -15 -64z" />
    <glyph glyph-name="u0641" unicode="&#x641;" horiz-adv-x="1587" arabic-form="isolated" 
d="M1071 1267c16 1.33301 29.666 0.00195312 40.999 -3.99805c8.66699 -2 21 -9 37 -21c22.667 -18 34 -39.667 34 -65c0 -24.667 -11 -46.334 -33 -65.001c-19.333 -16.667 -45.666 -25 -78.999 -25c-32.667 0 -59.667 8.16699 -81 24.5s-32 38.166 -32 65.499
c0 24.667 10.667 45.667 32 63c11.333 8.66699 22 14.667 32 18l25 7zM1467 142.002c0 -32.667 -20.5 -64.498 -61.5 -95.498s-78.5 -46.5 -112.5 -46.5h-974c-42 0 -86.167 15 -132.5 45s-69.5 62.333 -69.5 97v304l27 -17l27 -13c22.667 -7.33301 44.667 -11 66 -11h731
l-70 100l-20 34c-15.333 25.333 -23 51.666 -23 78.999c0 75.333 25.667 138.166 77 188.499s114.333 75.5 189 75.5c76 0 151 -41 225 -123c66 -73.333 103 -167.333 111 -282l9 -119l4 -185zM1151 618.004c-17.333 0 -30.833 -4.16602 -40.5 -12.499
s-14.5 -19.5 -14.5 -33.5c0 -20.667 15.333 -45.334 46 -74.001l-1 -13l-3 -33c-0.666992 -12 2.33301 -26.667 9 -44c6.66699 -9.33301 18.667 -14 36 -14c28 0 49.333 5.66699 64 17c17.333 12 25 29.667 23 53l-1 13l-5 30c-3.33301 24 -17 48.5 -41 73.5
s-48 37.5 -72 37.5z" />
    <glyph glyph-name="u0642" unicode="&#x642;" horiz-adv-x="1166" arabic-form="isolated" 
d="M594 1219c33.333 0 61.999 -10.5 85.999 -31.5s36 -47.833 36 -80.5c0 -30.667 -12.167 -57.167 -36.5 -79.5s-52.833 -32.833 -85.5 -31.5l-28 1c-21.333 0.666992 -42.666 11.5 -63.999 32.5s-32 46.833 -32 77.5c0 32.667 12.333 59.5 37 80.5s53.667 31.5 87 31.5z
M876.999 1209c32.667 0 61.333 -10.667 86 -32s37 -48.333 37 -81c0 -31.333 -12.5 -57.666 -37.5 -78.999s-53.5 -32 -85.5 -32c-34 0 -62.833 10.167 -86.5 30.5s-35.5 47.166 -35.5 80.499c0 31.333 11.833 58 35.5 80s52.5 33 86.5 33zM1051 568l10.9971 -67.001l10 -69
l3 -65l2 -75l3 -171c2.66699 -138.667 -42.666 -260 -135.999 -364c-90.667 -100.667 -197.667 -151 -321 -151c-73.333 0 -150.333 28 -231 84c-72 49.333 -131 108.333 -177 177c-37.333 54.667 -61.666 114.667 -72.999 180c-1.33301 10.667 -3 32 -5 64l-11 164
c-1.33301 29.333 10 58.333 34 87s53.667 43 89 43c73.333 0 113.333 -36.667 120 -110l10 -122c5.33301 -64.667 28.333 -116.667 69 -156c46 -44.667 101.333 -67 166 -67c62 0 119.333 28.333 172 85s79 116.334 79 179.001l-37 -19l-53 -13
c-74 0 -139.667 43.667 -197 131c-51.333 78.667 -77 157 -77 235c0 76.667 22.667 143.667 68 201c49.333 61.333 111.333 92 186 92c67.333 0 130.333 -30.333 189 -91c50.667 -51.333 86.334 -112 107.001 -182zM864.995 362.999l4.99902 50.999
c0 44.667 -8.33301 84 -25 118s-35.667 50 -57 48l-13 -1c-11.333 -0.666992 -19.666 -7 -24.999 -19c-6 -9.33301 -9 -20.666 -9 -33.999c0 -32 13 -65.333 39 -100s54.333 -55.667 85 -63z" />
    <glyph glyph-name="u0643" unicode="&#x643;" horiz-adv-x="1601" arabic-form="isolated" 
d="M200 407l-37.001 10l-54 29v-304c0 -32 23.667 -64.333 71 -97l16 -12l15 -7l35 -15c10.667 -6 53.334 -9.33301 128.001 -10c51.333 -0.666992 122.333 0 213 2c97.333 2.66699 148.666 4 153.999 4h524c54.667 0 97.334 21.333 128.001 64
c34.667 47.333 50.334 105 47.001 173l-4 68c-11.333 54 -38.666 115 -81.999 183c-60.667 96 -137.334 188 -230.001 276l-22 21l-29 26l-28 23l-24 19c-12 12 -29.333 25 -52 39l85 38l78 32l254 94l83 35c34 20 51 48.667 51 86c0 26 -11.5 51.5 -34.5 76.5
s-49.167 36.833 -78.5 35.5l-16 -1l-15 -4l-21 -8l-190 -70l-202 -82l-110 -47l-95 -43c-17.333 -7.33301 -29.333 -20 -36 -38c-8.66699 -22 -12.334 -44.333 -11.001 -67l2 -36l8 -36c10.667 -25.333 19.667 -41 27 -47l268 -210l76 -66c56.667 -49.333 85 -86 85 -110
c0 -4.66699 -3.33301 -8 -10 -10c-12 -4 -20 -7.33301 -24 -10z" />
    <glyph glyph-name="u0644" unicode="&#x644;" horiz-adv-x="961" arabic-form="isolated" 
d="M118 0l-30.002 304.999c0 35.333 11.5 66 34.5 92s51.833 39 86.5 39c33.333 0 61.333 -13.667 84 -41c17.333 -21.333 27 -51.333 29 -90l10 -163c2 -42 16.667 -77.333 44 -106c28.667 -30.667 64.334 -46 107.001 -46c40.667 0 78.5 13.833 113.5 41.5
s51.167 61.167 48.5 100.5l-80 1197c-1.33301 20 9.33398 39 32.001 57c20.667 17.333 47 26 79 26c28 0 53.167 -8 75.5 -24s34.5 -35.667 36.5 -59l99 -1308c0.666992 -9.33301 1 -18.333 1 -27c0 -95.333 -37.333 -185.666 -112 -270.999s-165.667 -128 -273 -128
c-108.667 0 -200.667 40.667 -276 122c-72.667 78.667 -109 173 -109 283z" />
    <glyph glyph-name="u0645" unicode="&#x645;" horiz-adv-x="1198" arabic-form="isolated" 
d="M150 -234l-49 693.002c0.666992 26 17 39 49 39c11.333 0 37.333 -10.667 78 -32l45 -22c6.66699 -2.66699 16.334 -5.33398 29.001 -8.00098c55.333 0 92 20.667 110 62c24 85.333 65.667 155.666 125 210.999c64.667 60.667 138.667 91 222 91
c109.333 0 199.666 -53.667 270.999 -161c63.333 -95.333 95 -200.333 95 -315c0 -70 -9.66699 -128.333 -29 -175c-20.667 -52 -48 -98.667 -82 -140c-10 -8 -21.333 -16 -34 -24c-8 -5.33301 -21 -11.666 -39 -18.999c-26 -10.667 -56.667 -16 -92 -16
c-46 0 -89.667 13.333 -131 40c-46.667 30.667 -70 68 -70 112c0 31.333 11 57.833 33 79.5s48 32.5 78 32.5c11.333 0 20 1 26 3l27 1l49 8c10 4 16 13.333 18 28l3 24l1 21c1.33301 36 -7 67.667 -25 95c-16.667 25.333 -36 38 -58 38c-11.333 0 -25 -5.66699 -41 -17
c-26 -18.667 -50.333 -55.334 -73 -110.001l-31 -74l-28 -89c-21.333 -94.667 -79 -142 -173 -142h-83l22 -251c0 -32 -12.167 -58.667 -36.5 -80s-52.5 -32 -84.5 -32c-33.333 0 -62 12 -86 36c-20.667 20.667 -32.667 51.667 -36 93z" />
    <glyph glyph-name="u0646" unicode="&#x646;" horiz-adv-x="961" arabic-form="isolated" 
d="M106 -50l-9.00195 334.001c-1.33301 34.667 8.33398 63.5 29.001 86.5s48 34.5 82 34.5c31.333 0 58.333 -11.667 81 -35c16.667 -17.333 26.667 -46 30 -86l12 -142c4 -52.667 17 -93.334 39 -122.001c26.667 -34 63.667 -51 111 -51c42.667 0 80.667 17 114 51
c36 37.333 52.333 78 49 122l-41 549c-2 26.667 9.33301 55.334 34 86.001c24.667 22 54.334 33 89.001 33c32 0 58 -10.667 78 -32l9 -15l10 -22l12 -50l48 -733c-0.666992 -14 -4.33398 -30 -11.001 -48l-18 -49l-26 -53c-38 -64.667 -86.667 -118.334 -146 -161.001
c-66.667 -48 -133.667 -72 -201 -72c-99.333 0 -186.666 37.333 -261.999 112c-72 71.333 -109.667 159 -113 263zM388.998 781.001c26.667 0 50.333 -8.33203 71 -24.999s31 -38.334 31 -65.001c0 -23.333 -9.33301 -45.333 -28 -66c-19.333 -17.333 -44 -26 -74 -26
c-24.667 0 -49 8.33301 -73 25c-18 17.333 -27 39.666 -27 66.999c0 22.667 9.33301 43.334 28 62.001s42.667 28 72 28z" />
    <glyph glyph-name="u0647" unicode="&#x647;" horiz-adv-x="882" arabic-form="isolated" 
d="M111 446c0 34.667 12.3359 65.333 37.0029 92c22 18 48 27 78 27l25 -3l13 -3c25.333 -7.33301 42.666 -26 51.999 -56l13 -38l14 -32c8 -10.667 16.333 -19.334 25 -26.001l14 -7l22 -2c20.667 -2 42 6 64 24c20 16 30 32 30 48v7c-10 44.667 -31.833 80 -65.5 106
s-71.834 39 -114.501 39c-32.667 0 -64.334 -7.66699 -95.001 -23l-19 -9l-22 -2c-28 -2.66699 -53.5 10 -76.5 38s-33.833 56.333 -32.5 85l1 21c3.33301 11.333 6 17.333 8 18c15.333 38.667 41.333 68.667 78 90c18 10.667 52.667 22.667 104 36l45 5l54 1h31
c45.333 0 98.333 -21.333 159 -64c64 -45.333 116 -106.666 156 -183.999c48 -94 72 -191 72 -291c0 -228.667 -108.333 -343 -325 -343c-152.667 0 -258 89.667 -316 269c-19.333 58 -29 117 -29 177z" />
    <glyph glyph-name="u0648" unicode="&#x648;" horiz-adv-x="882" arabic-form="isolated" 
d="M409 -214l61.999 53.002c16.667 14.667 30.334 34.334 41.001 59.001c19.333 34 29 68.333 29 103v12c0 15.333 -3 27.666 -9 36.999c-3.33301 8 -8.33301 12 -15 12l-13 -8c-8.66699 -5.33301 -20 -13.333 -34 -24c-27.333 -20 -47.666 -30 -60.999 -30
c-96 0 -176.667 42.333 -242 127c-61.333 78.667 -92 167.667 -92 267c0 103.333 29.333 195 88 275c64.667 87.333 146.667 131 246 131c64.667 0 128 -25.667 190 -77c52 -42.667 97.667 -105.334 137 -188.001s58.666 -159.334 57.999 -230.001l-4 -306l-7 -88l-6 -45
l-6 -37c-0.666992 -8 -3 -20 -7 -36c-2 -12.667 -5.33301 -24 -10 -34c-6 -21.333 -14.333 -41 -25 -59l-17 -28l-22 -27c-10 -12 -24 -25 -42 -39l-31 -19l-23 -12l-17 -4l-19 -3c-38 0 -75.667 19.333 -113 58s-56 76 -56 112c0 20.667 6.66699 36.667 20 48z
M511.999 214.002c0 2.66699 9.33398 12.668 28.001 30.001c9.33301 8.66699 14 20.667 14 36v12l-1 13c-4 14 -9 26.667 -15 38l-2 6c-2.66699 7.33301 -6.33398 13 -11.001 17l-7 14l-9 13l-7 14l-12 13c-32.667 38.667 -67.667 58 -105 58
c-13.333 0 -21.666 -0.666992 -24.999 -2c-6 -0.666992 -13.667 -4 -23 -10c-10.667 -8.66699 -18.334 -19.667 -23.001 -33l-4 -22l-3 -23c0 -15.333 0.666992 -24.333 2 -27l10 -32c13.333 -30 36.333 -48.667 69 -56l38 -4c26 0 46.333 -4.66699 61 -14
c8 -6.66699 16.333 -20.334 25 -41.001z" />
    <glyph glyph-name="u0649" unicode="&#x649;" horiz-adv-x="1218" arabic-form="isolated" 
d="M902 222c42 0 81 -8.00098 117 -24.001c28.667 -13.333 51.667 -30.666 69 -51.999c32.667 -39.333 49 -98.333 49 -177c0 -112 -63.667 -197.667 -191 -257c-98.667 -45.333 -211 -68 -337 -68c-144 0 -265 35.667 -363 107c-92.667 67.333 -141.667 151.333 -147 252
l-17 308c-2 33.333 7 61.333 27 84c18.667 20.667 47 31 85 31c32 0 60 -12 84 -36c22 -21.333 33.667 -50 35 -86l11 -226c2 -46 32.667 -81.667 92 -107l41 -12l57 -9c22.667 -4 56.334 -6 101.001 -6c65.333 0 123.666 4.66699 174.999 14c41.333 20 62 43 62 69
c0 14 -10.667 24.333 -32 31l-60 18l-36 12l-26 13c-54.667 26 -93 49.333 -115 70c-32.667 30.667 -49 64 -49 100c0 10.667 1.66699 21.667 5 33c24.667 90.667 90.667 165.334 198 224.001c96 52.667 195.333 79 298 79c24.667 -3.33301 42 -6.83301 52 -10.5
s22.667 -10.834 38 -21.501c23.333 -16.667 35 -38.667 35 -66l-3 -13c-16.667 -78.667 -37 -118 -61 -118l-9 1l-10 7l-42 15l-48 8l-10 -1l-13 -2l-38 -10c-13.333 -3.33301 -27.333 -9 -42 -17c-12.667 -5.33301 -25.667 -12.666 -39 -21.999l-26 -19l-19 -14
c-9.33301 -16.667 -14 -30.334 -14 -41.001c0 -12 7 -23.333 21 -34l16 -8l21 -6z" />
    <glyph glyph-name="u064A" unicode="&#x64a;" horiz-adv-x="1236" arabic-form="isolated" 
d="M1155 -31c0 -112 -63.667 -197.667 -191 -257c-98.667 -45.333 -211 -68 -337 -68c-144 0 -265 35.667 -363 107c-92.667 67.333 -141.667 151.333 -147 252l-17 308c-2 33.333 7 61.333 27 84c18.667 20.667 47 31 85 31c32 0 60 -12 84 -36c22 -21.333 34 -50 36 -86
l10 -226c2 -46 32.667 -81.667 92 -107l41 -12l57 -9c22.667 -4 56.334 -6 101.001 -6c65.333 0 123.666 4.66699 174.999 14c41.333 20 62 43 62 69c0 14 -10.667 24.333 -32 31l-60 18l-36 12l-26 13c-54.667 26 -93 49.333 -115 70c-32.667 30.667 -49 64 -49 100
c0 10.667 1.66699 21.667 5 33c24.667 90.667 90.667 165.334 198 224.001c96 52.667 195.333 79 298 79c24.667 -3.33301 42 -6.83301 52 -10.5s22.667 -10.834 38 -21.501c23.333 -16.667 35 -38.667 35 -66l-3 -13c-16.667 -78.667 -37 -118 -61 -118l-9 1l-10 7l-42 15
l-48 8l-10 -1l-13 -2l-38 -10c-13.333 -3.33301 -27.333 -9 -42 -17c-12.667 -5.33301 -25.334 -12.666 -38.001 -21.999l-27 -19l-19 -14c-9.33301 -16.667 -14 -30.334 -14 -41.001c0 -12 7.33301 -23.333 22 -34l15 -8l21 -6l59 -13c44.667 0 84.667 -8.66699 120 -26
c26.667 -13.333 48.334 -30 65.001 -50c32.667 -39.333 49 -98.333 49 -177z" />
    <glyph glyph-name="u067E" unicode="&#x67e;" horiz-adv-x="1518" arabic-form="isolated" 
d="M232 405h869c27.333 0 48.333 16.667 63 50c4 10 6 21 6 33l-20 192c0 34 11.667 62.5 35 85.5s52 34.5 86 34.5c58 0 96.333 -23.667 115 -71l6 -21l4 -28l30 -517c2 -40 -17.5 -77.167 -58.5 -111.5s-89.833 -51.5 -146.5 -51.5h-909c-25.333 0 -47.333 3.66699 -66 11
l-35 15l-15 7l-16 12c-47.333 32.667 -71 65 -71 97v304l22 -15l30 -14l33 -9zM831 -494c-26.667 0 -50.166 8.33301 -70.499 25s-30.5 38 -30.5 64c0 23.333 9.33301 45.333 28 66c19.333 17.333 43.666 26 72.999 26c28 0 52.167 -8.5 72.5 -25.5s30.5 -39.167 30.5 -66.5
c0 -26 -9.33301 -47.333 -28 -64s-43.667 -25 -75 -25zM963.001 -284c-28 0 -51.668 9.33398 -71.001 28.001s-29 40 -29 64c0 27.333 9.83301 49.666 29.5 66.999s43.167 26 70.5 26c26.667 0 51.334 -8.33301 74.001 -25c20 -18 30 -40.667 30 -68
c0 -24 -10.333 -45.333 -31 -64s-45 -28 -73 -28zM702 -283.999c-30 0 -54.667 9.16797 -74 27.501s-29 39.833 -29 64.5c0 23.333 9.66699 45.666 29 66.999c19.333 17.333 44 26 74 26c66.667 0 100 -31 100 -93c0 -22.667 -9.33301 -44 -28 -64
c-20.667 -18.667 -44.667 -28 -72 -28z" />
    <glyph glyph-name="u0686" unicode="&#x686;" horiz-adv-x="1042" arabic-form="isolated" 
d="M418 800c57.333 0 110.331 -7.33398 158.998 -22.001c30 -9.33301 51.667 -19 65 -29c22 -10 43 -26.333 63 -49c40.667 -31.333 80.667 -76.333 120 -135c41.333 -63.333 65 -116.666 71 -159.999h94v-294c-4.66699 -32 -23.667 -59 -57 -81
c-30.667 -20 -63 -30 -97 -30h-366c-35.333 0 -53 -18 -53 -54c0 -13.333 4.66699 -27.333 14 -42c10 -12 23 -20.333 39 -25l58 -16l34 -15c8.66699 -2 14.667 -5.33301 18 -10l18 -24l10 -24l4 -28l-2 -21c0 -8 -2.33301 -16.333 -7 -25c-7.33301 -24 -24 -44.667 -50 -62
c-18 -11.333 -42.333 -17 -73 -17c-85.333 0 -155.666 19.333 -210.999 58c-49.333 34 -88 83 -116 147c-24 55.333 -36 118.333 -36 189c0 192.667 93.667 317.334 281 374.001h216l2 6l1 13c0 23.333 -12 48.333 -36 75c-22 23.333 -45.333 39.666 -70 48.999l-25 3h-7
c-31.333 0 -61.333 -6.33301 -90 -19c-24 -7.33301 -50.667 -22 -80 -44l-11 -4l-14 -2c-23.333 0 -45.5 7.66699 -66.5 23s-38.167 36.333 -51.5 63v10l-1 11c-3.33301 46 23.334 93.333 80.001 142c53.333 46 111 69 173 69zM826.998 -427.001
c-26 0 -49.332 8.33203 -69.999 24.999s-31 38 -31 64c0 22.667 9.33301 44.334 28 65.001c19.333 17.333 43.666 26 72.999 26c28 0 52.167 -8.5 72.5 -25.5s30.5 -38.833 30.5 -65.5c0 -26 -9.33301 -47.333 -28 -64s-43.667 -25 -75 -25zM958.999 -218.002
c-28 0 -51.667 9.33203 -71 27.999s-29 40.334 -29 65.001c0 26.667 9.83301 48.834 29.5 66.501s43.167 26.5 70.5 26.5c26.667 0 51.667 -8.66699 75 -26c19.333 -18 29 -40.333 29 -67c0 -24.667 -10.333 -46.334 -31 -65.001s-45 -28 -73 -28zM697.999 -218.003
c-30 0 -54.5 9.16797 -73.5 27.501s-28.5 40.166 -28.5 65.499c0 23.333 9.33301 45.333 28 66c20 18 44.667 27 74 27c66.667 0 100 -31 100 -93c0 -23.333 -9.33301 -45 -28 -65c-20.667 -18.667 -44.667 -28 -72 -28z" />
    <glyph glyph-name="u0698" unicode="&#x698;" horiz-adv-x="616" arabic-form="isolated" 
d="M150 -132c16 8 29.001 16 39.001 24l36 27c32 30.667 48 60.667 48 90l-64 716c0 32.667 13.667 62.667 41 90l8 7l11 6l23 15l24 5l27 3c30 0 58.667 -13.333 86 -40c19.333 -22.667 30.666 -56 33.999 -100l61 -813c4.66699 -60 -23.333 -121 -84 -183
c-51.333 -52 -104 -78 -158 -78h-8c-36.667 0 -71.667 21.333 -105 64c-31.333 40 -47 79 -47 117c0 23.333 9.33301 40 28 50zM293.001 1479c26 0 49.667 -8.33301 71 -25s32 -37.667 32 -63c0 -60.667 -34.333 -91 -103 -91c-29.333 0 -54 8 -74 24
c-17.333 20.667 -26 43 -26 67c0 26 10.333 47.667 31 65c18.667 15.333 41.667 23 69 23zM182.001 1268c30 0 54.332 -9 72.999 -27c18.667 -15.333 28 -36.666 28 -63.999c0 -24.667 -9.33301 -46.667 -28 -66c-7.33301 -6.66699 -18.166 -12.834 -32.499 -18.501
s-27.833 -8.5 -40.5 -8.5c-14.667 0 -28 2 -40 6c-8 1.33301 -18.667 8.33301 -32 21c-18.667 17.333 -28 39.333 -28 66c0 26 9.33301 47.667 28 65s42.667 26 72 26zM417 1268c30 0 54.333 -9 73 -27c19.333 -15.333 29 -36.666 29 -63.999c0 -24 -10 -46 -30 -66
c-6.66699 -6.66699 -17.167 -12.834 -31.5 -18.501s-27.833 -8.5 -40.5 -8.5c-28.667 0 -52.667 8.33301 -72 25c-21.333 17.333 -32 40 -32 68c0 26 11.333 48 34 66c20.667 16.667 44 25 70 25z" />
    <glyph glyph-name="u06AF" unicode="&#x6af;" horiz-adv-x="1611" arabic-form="isolated" 
d="M195 407l-37.001 10l-54 29v-304c0 -32 23.333 -64.333 70 -97l16 -12l15 -7l35 -15c10.667 -6 53.334 -9.33301 128.001 -10c51.333 -0.666992 122.666 0 213.999 2c96.667 2.66699 147.667 4 153 4h524c54.667 0 97.334 21.333 128.001 64c35.333 47.333 51 105 47 173
l-4 68c-11.333 54 -38.333 115 -81 183c-61.333 96 -138 188 -230 276l-22 21l-30 26l-27 23l-25 19c-12 12 -29.333 25 -52 39l85 38l78 32l254 94l83 35c34 20 51 48.667 51 86c0 26 -11.5 51.5 -34.5 76.5s-48.833 36.833 -77.5 35.5l-16 -1l-16 -4l-21 -8l-190 -70
l-202 -82l-110 -47l-95 -43c-17.333 -7.33301 -29.333 -20 -36 -38c-8 -22 -11.667 -44.333 -11 -67l2 -36l8 -36c10.667 -25.333 19.667 -41 27 -47l268 -210l76 -66c56.667 -49.333 85 -86 85 -110c0 -4.66699 -3.33301 -8 -10 -10c-11.333 -4 -19 -7.33301 -23 -10z
M733.999 1196l-5.99902 29l-2 28c-0.666992 18.667 2.33301 36.667 9 54c0.666992 2.66699 1 5 1 7l104 58l88 38l162 65l181 66h12c23.333 2 44.166 -7.16699 62.499 -27.5s27.5 -40.833 27.5 -61.5c0 -30 -13.333 -53 -40 -69l-67 -28l-203 -75l-62 -26l-245 -96
c-4.66699 6 -12 18.667 -22 38z" />
    <glyph glyph-name="uFB57" unicode="&#x67e;" horiz-adv-x="1423" arabic-form="final" 
d="M246 405h869.001c27.333 0 48.333 16.667 63 50c4.66699 10 7 21 7 33l-20 192c0 34 11.667 62.5 35 85.5s51.666 34.5 84.999 34.5c58 0 96.333 -23.667 115 -71l6 -21l5 -28l29 -517c2.66699 -40 -17.333 -77.667 -60 -113c-40 -33.333 -88.333 -50 -145 -50h-909
c-25.333 0 -47.333 3.66699 -66 11l-35 15l-15 7l-16 12c-47.333 32.667 -71 65 -71 97v304l22 -15l31 -14l32 -9zM845.001 -494c-26 0 -49.332 8.33301 -69.999 25s-31 38 -31 64c0 23.333 9.33301 45.333 28 66c19.333 17.333 43.666 26 72.999 26
c28 0 52.167 -8.5 72.5 -25.5s30.5 -39.167 30.5 -66.5c0 -26 -9.33301 -47.333 -28 -64s-43.667 -25 -75 -25zM978.002 -284c-28.667 0 -52.667 9.33398 -72 28.001s-29 40 -29 64c0 27.333 9.83301 49.666 29.5 66.999s43.5 26 71.5 26c26 0 50.667 -8.33301 74 -25
c19.333 -18 29 -40.667 29 -68c0 -24 -10.333 -45.333 -31 -64s-44.667 -28 -72 -28zM716.002 -283.999c-30 0 -54.5 9.16797 -73.5 27.501s-28.5 39.833 -28.5 64.5c0 23.333 9.33301 45.666 28 66.999c20 17.333 44.667 26 74 26c66.667 0 100 -31 100 -93
c0 -22.667 -9.33301 -44 -28 -64c-20.667 -18.667 -44.667 -28 -72 -28z" />
    <glyph glyph-name="uFB58" unicode="&#x67e;" horiz-adv-x="775" arabic-form="initial" 
d="M-158 405l511.002 0.000976562c19.333 0 36.333 8 51 24l14 26c4.66699 11.333 7 22.333 7 33l-20 192c0 35.333 11.667 64.166 35 86.499s52.666 33.5 87.999 33.5s64.666 -11 87.999 -33c20 -20 31.333 -49 34 -87l30 -517c2.66699 -43.333 -17 -82 -59 -116
c-37.333 -31.333 -85.333 -47 -144 -47l-483 1l-29 7c-19.333 4 -39 12 -59 24c-42.667 26 -64 62.667 -64 110v263zM278.002 -493.999c-26.667 0 -49.666 8 -68.999 24c-21.333 17.333 -32 39 -32 65c0 23.333 9.33301 45.333 28 66c19.333 17.333 43.666 26 72.999 26
c28 0 52.167 -8.5 72.5 -25.5s30.5 -39.167 30.5 -66.5c0 -26 -9.33301 -47.333 -28 -64s-43.667 -25 -75 -25zM410.003 -283.999c-28 0 -51.668 9.33398 -71.001 28.001s-29 40 -29 64c0 27.333 9.83301 49.666 29.5 66.999s43.167 26 70.5 26
c26.667 0 51.334 -8.33301 74.001 -25c20 -18 30 -40.667 30 -68c0 -24 -10.333 -45.333 -31 -64s-45 -28 -73 -28zM149.002 -283.998c-30 0 -54.5 9.16797 -73.5 27.501s-28.5 39.833 -28.5 64.5c0 23.333 9.33301 45.666 28 66.999c19.333 17.333 44 26 74 26
c66.667 0 100 -31 100 -93c0 -22.667 -9.33301 -44 -28 -64c-20.667 -18.667 -44.667 -28 -72 -28z" />
    <glyph glyph-name="uFB59" unicode="&#x67e;" horiz-adv-x="651" arabic-form="medial" 
d="M-158 405l511.002 0.000976562c19.333 0 36.333 8 51 24l14 26c4.66699 11.333 7 22.333 7 33l-20 192c0 35.333 11.667 64.166 35 86.499s52.666 33.5 87.999 33.5s64.666 -11 87.999 -33c20 -20 31.333 -49 34 -87l30 -517c2.66699 -43.333 -17 -82 -59 -116
c-37.333 -31.333 -85.333 -47 -144 -47l-483 1l-29 7c-19.333 4 -39 12 -59 24c-42.667 26 -64 62.667 -64 110v263zM278.002 -493.999c-26.667 0 -49.666 8 -68.999 24c-21.333 17.333 -32 39 -32 65c0 23.333 9.33301 45.333 28 66c19.333 17.333 43.666 26 72.999 26
c28 0 52.167 -8.5 72.5 -25.5s30.5 -39.167 30.5 -66.5c0 -26 -9.33301 -47.333 -28 -64s-43.667 -25 -75 -25zM410.003 -283.999c-28 0 -51.668 9.33398 -71.001 28.001s-29 40 -29 64c0 27.333 9.83301 49.666 29.5 66.999s43.167 26 70.5 26
c26.667 0 51.334 -8.33301 74.001 -25c20 -18 30 -40.667 30 -68c0 -24 -10.333 -45.333 -31 -64s-45 -28 -73 -28zM149.002 -283.998c-30 0 -54.5 9.16797 -73.5 27.501s-28.5 39.833 -28.5 64.5c0 23.333 9.33301 45.666 28 66.999c19.333 17.333 44 26 74 26
c66.667 0 100 -31 100 -93c0 -22.667 -9.33301 -44 -28 -64c-20.667 -18.667 -44.667 -28 -72 -28z" />
    <glyph glyph-name="uFB7B" unicode="&#x686;" horiz-adv-x="973" arabic-form="final" 
d="M418 800c57.333 0 110.331 -7.33398 158.998 -22.001c30 -9.33301 51.667 -19 65 -29c22 -10 43 -26.333 63 -49c40.667 -31.333 80.667 -76.333 120 -135c41.333 -63.333 65 -116.666 71 -159.999h94v-294c-4.66699 -32 -23.667 -59 -57 -81
c-30.667 -20 -63 -30 -97 -30h-366c-35.333 0 -53 -18 -53 -54c0 -13.333 4.66699 -27.333 14 -42c10 -12 23 -20.333 39 -25l58 -16l34 -15c8.66699 -2 14.667 -5.33301 18 -10l18 -24l10 -24l4 -28l-2 -21c0 -8 -2.33301 -16.333 -7 -25c-7.33301 -24 -24 -44.667 -50 -62
c-18 -11.333 -42.333 -17 -73 -17c-85.333 0 -155.666 19.333 -210.999 58c-49.333 34 -88 83 -116 147c-24 55.333 -36 118.333 -36 189c0 192.667 93.667 317.334 281 374.001h216l2 6l1 13c0 23.333 -12 48.333 -36 75c-22 23.333 -45.333 39.666 -70 48.999l-25 3h-7
c-31.333 0 -61.333 -6.33301 -90 -19c-24 -7.33301 -50.667 -22 -80 -44l-11 -4l-14 -2c-23.333 0 -45.5 7.66699 -66.5 23s-38.167 36.333 -51.5 63v10l-1 11c-3.33301 46 23.334 93.333 80.001 142c53.333 46 111 69 173 69zM826.998 -427.001
c-26 0 -49.332 8.33203 -69.999 24.999s-31 38 -31 64c0 22.667 9.33301 44.334 28 65.001c19.333 17.333 43.666 26 72.999 26c28 0 52.167 -8.5 72.5 -25.5s30.5 -38.833 30.5 -65.5c0 -26 -9.33301 -47.333 -28 -64s-43.667 -25 -75 -25zM958.999 -218.002
c-28 0 -51.667 9.33203 -71 27.999s-29 40.334 -29 65.001c0 26.667 9.83301 48.834 29.5 66.501s43.167 26.5 70.5 26.5c26.667 0 51.667 -8.66699 75 -26c19.333 -18 29 -40.333 29 -67c0 -24.667 -10.333 -46.334 -31 -65.001s-45 -28 -73 -28zM697.999 -218.003
c-30 0 -54.5 9.16797 -73.5 27.501s-28.5 40.166 -28.5 65.499c0 23.333 9.33301 45.333 28 66c20 18 44.667 27 74 27c66.667 0 100 -31 100 -93c0 -23.333 -9.33301 -45 -28 -65c-20.667 -18.667 -44.667 -28 -72 -28z" />
    <glyph glyph-name="uFB7C" unicode="&#x686;" horiz-adv-x="970" arabic-form="initial" 
d="M-158 405l635.001 -0.00292969c-10.667 40.667 -22.334 73.334 -35.001 98.001c-10.667 19.333 -26.667 34.333 -48 45c-13.333 7.33301 -31.333 11 -54 11c-22 0 -47.667 -3.66699 -77 -11c-33.333 -8 -63.333 -17.667 -90 -29l-12 -4h-14
c-42.667 0 -78 34.333 -106 103c0 92.667 67.333 153.334 202 182.001l32 3h9c90 0 171.833 -26.833 245.5 -80.5s120.834 -118.5 141.501 -194.5c4.66699 -36 21.5 -66.5 50.5 -91.5s61.833 -37.5 98.5 -37.5c13.333 0 23.666 2 30.999 6l1 -285
c1.33301 -37.333 -11 -66.666 -37 -87.999s-64.333 -32 -115 -32l-735 8c-19.333 4 -39 12 -59 24c-42.667 26 -64 62.667 -64 110v263zM430.001 -522.003c-26.667 0 -49.666 7.99902 -68.999 23.999c-21.333 17.333 -32 39 -32 65c0 22.667 9.33301 44.334 28 65.001
c19.333 17.333 43.666 26 72.999 26c28 0 52.167 -8.5 72.5 -25.5s30.5 -38.833 30.5 -65.5c0 -26 -9.33301 -47.333 -28 -64s-43.667 -25 -75 -25zM562.002 -313.004c-28 0 -51.668 9.33203 -71.001 27.999s-29 40.334 -29 65.001c0 26.667 9.83301 48.834 29.5 66.501
s43.167 26.5 70.5 26.5c26.667 0 51.334 -8.66699 74.001 -26c20 -18 30 -40.333 30 -67c0 -24.667 -10.333 -46.334 -31 -65.001s-45 -28 -73 -28zM301.001 -313.005c-30 0 -54.5 9.16797 -73.5 27.501s-28.5 40.166 -28.5 65.499c0 23.333 9.33301 45.333 28 66
c19.333 18 44 27 74 27c66.667 0 100 -31 100 -93c0 -23.333 -9.33301 -45 -28 -65c-20.667 -18.667 -44.667 -28 -72 -28z" />
    <glyph glyph-name="uFB7D" unicode="&#x686;" horiz-adv-x="832" arabic-form="medial" 
d="M-158 405l635.001 -0.00292969c-10.667 40.667 -22.334 73.334 -35.001 98.001c-10.667 19.333 -26.667 34.333 -48 45c-13.333 7.33301 -31.333 11 -54 11c-22 0 -47.667 -3.66699 -77 -11c-33.333 -8 -63.333 -17.667 -90 -29l-12 -4h-14
c-42.667 0 -78 34.333 -106 103c0 92.667 67.333 153.334 202 182.001l32 3h9c90 0 171.833 -26.833 245.5 -80.5s120.834 -118.5 141.501 -194.5c4.66699 -36 21.5 -66.5 50.5 -91.5s61.833 -37.5 98.5 -37.5c13.333 0 23.666 2 30.999 6l1 -285
c1.33301 -37.333 -11 -66.666 -37 -87.999s-64.333 -32 -115 -32l-735 8c-19.333 4 -39 12 -59 24c-42.667 26 -64 62.667 -64 110v263zM430.001 -522.003c-26.667 0 -49.666 7.99902 -68.999 23.999c-21.333 17.333 -32 39 -32 65c0 22.667 9.33301 44.334 28 65.001
c19.333 17.333 43.666 26 72.999 26c28 0 52.167 -8.5 72.5 -25.5s30.5 -38.833 30.5 -65.5c0 -26 -9.33301 -47.333 -28 -64s-43.667 -25 -75 -25zM562.002 -313.004c-28 0 -51.668 9.33203 -71.001 27.999s-29 40.334 -29 65.001c0 26.667 9.83301 48.834 29.5 66.501
s43.167 26.5 70.5 26.5c26.667 0 51.334 -8.66699 74.001 -26c20 -18 30 -40.333 30 -67c0 -24.667 -10.333 -46.334 -31 -65.001s-45 -28 -73 -28zM301.001 -313.005c-30 0 -54.5 9.16797 -73.5 27.501s-28.5 40.166 -28.5 65.499c0 23.333 9.33301 45.333 28 66
c19.333 18 44 27 74 27c66.667 0 100 -31 100 -93c0 -23.333 -9.33301 -45 -28 -65c-20.667 -18.667 -44.667 -28 -72 -28z" />
    <glyph glyph-name="uFB8B" unicode="&#x698;" horiz-adv-x="504" arabic-form="final" 
d="M137 -132c16 8 29 16 39 24l36 27c31.333 30.667 47 60.667 47 90l-63 716c0 32.667 13.667 62.667 41 90l8 7l11 6l22 15l25 5l27 3c29.333 0 58 -13.333 86 -40c18.667 -22.667 29.667 -56 33 -100l62 -813c4.66699 -60 -23.333 -121 -84 -183
c-51.333 -52 -104 -78 -158 -78h-9c-36 0 -70.667 21.333 -104 64c-32 40 -48 79 -48 117c0 23.333 9.66699 40 29 50zM294 1339c26 0 49.667 -8.33398 71 -25.001s32 -38 32 -64c0 -60.667 -34.333 -91 -103 -91c-29.333 0 -54 8.33301 -74 25c-17.333 20 -26 42 -26 66
c0 26.667 10.333 48.334 31 65.001c18.667 16 41.667 24 69 24zM183 1128c30 0 54.332 -9.33301 72.999 -28c18.667 -15.333 28 -36.666 28 -63.999c0 -24.667 -9.33301 -46.334 -28 -65.001c-7.33301 -7.33301 -18.166 -13.833 -32.499 -19.5s-27.833 -8.5 -40.5 -8.5
c-14.667 0 -28 2 -40 6c-8 2 -18.667 9 -32 21c-18.667 18 -28 40 -28 66c0 26.667 9.33301 48.667 28 66s42.667 26 72 26zM417.999 1128c30 0 54.333 -9.33398 73 -28.001c19.333 -15.333 29 -36.666 29 -63.999c0 -24 -10 -45.667 -30 -65
c-6.66699 -7.33301 -17.167 -13.833 -31.5 -19.5s-27.833 -8.5 -40.5 -8.5c-28.667 0 -52.667 8.33301 -72 25c-21.333 17.333 -32 40 -32 68c0 26 11.333 48 34 66c20.667 17.333 44 26 70 26z" />
    <glyph glyph-name="uFEDA" unicode="&#x6a9;" horiz-adv-x="1477" arabic-form="final" 
d="M1146 0l-833.999 0.000976562c-25.333 0 -47.333 3.66699 -66 11l-35 15l-15 7l-16 12c-47.333 32.667 -71 65 -71 97v304l54 -29l37 -10l32 -2l680 4c18 1.33301 42.333 7.33301 73 18l-36 -8l36 8c0 26 -25 65 -75 117c-21.333 22.667 -43 43 -65 61l-97 82l-164 123
c-8 5.33301 -17 20.333 -27 45l-7 36l-3 40c-1.33301 22 2.66699 44.667 12 68c6 15.333 17.667 27.333 35 36l118 57l131 57l158 66l98 36l116 41l139 47l24 6l22 2c30.667 2.66699 58.667 -8 84 -32c22.667 -21.333 34 -47 34 -77c0 -39.333 -21.667 -69 -65 -89l-69 -31
l-83 -34l-104 -39l-201 -73c-24.667 -8.66699 -59 -22.334 -103 -41.001l-49 -19l-37 -20c78.667 -54 157.667 -124.667 237 -212c73.333 -80.667 133.333 -162 180 -244c4.66699 -8.66699 19 -18 43 -28l27 -1l40 -2h155v-405h-74c-92.667 0 -155.334 21 -188.001 63
c-9.33301 -16 -36.333 -37 -81 -63h-570h570z" />
    <glyph glyph-name="uFEDB" unicode="&#x6a9;" horiz-adv-x="904" arabic-form="initial" 
d="M-152 405l596 -0.000976562c22 0 33 6.66699 33 20c0 23.333 -28.333 59.666 -85 108.999l-76 66l-105 84l-163 126c-7.33301 6 -16.333 21.667 -27 47l-8 36l-2 36c-0.666992 22.667 3 45.334 11 68.001c7.33301 17.333 19.333 30 36 38l95 42l110 48l202 81l227 82
l16 1c28.667 2 54.5 -9.5 77.5 -34.5s34.5 -50.833 34.5 -77.5c0 -37.333 -17 -65.666 -51 -84.999l-83 -36l-254 -94l-78 -32l-85 -38c22.667 -14 40 -27 52 -39l25 -19l27 -23l30 -25l22 -21c92 -88.667 168.667 -181 230 -277c42.667 -68 69.667 -129 81 -183l4 -68
c4 -67.333 -11.667 -125 -47 -173c-30.667 -42.667 -73.334 -64 -128.001 -64h-524c-51.333 0 -94.666 10.667 -129.999 32c-42 25.333 -63 62 -63 110v263z" />
    <glyph glyph-name="uFEDC" unicode="&#x6a9;" horiz-adv-x="851" arabic-form="medial" 
d="M-158 405l594.001 0.000976562l4 10l2 12c0 26 -25 65 -75 117c-22 22.667 -43.667 43 -65 61l-98 82l-163 123c-8.66699 5.33301 -18 20.333 -28 45l-6 36l-3 40c-2 22 2 44.667 12 68c6 15.333 17.333 27.333 34 36l118 57l131 57l159 66l98 36l116 41l138 47l25 6
l22 2c30.667 2.66699 58.667 -8 84 -32c22.667 -21.333 34 -47 34 -77c0 -39.333 -21.667 -69 -65 -89l-69 -31l-83 -34l-104 -39l-202 -73c-24.667 -8.66699 -58.667 -22.334 -102 -41.001l-50 -19l-36 -20c78 -54 157 -124.667 237 -212c73.333 -80.667 133 -162 179 -244
c5.33301 -8.66699 20 -18 44 -28l26 -1l40 -2h155v-405h-74c-92.667 0 -155 21 -187 63c-12.667 -21.333 -29.334 -38 -50.001 -50c-22 -8.66699 -47 -13 -75 -13l-565 1l-29 7c-19.333 4 -39 12 -59 24c-42.667 26 -64 62.667 -64 110v263z" />
    <glyph glyph-name="uFB93" unicode="&#x6af;" horiz-adv-x="1472" arabic-form="final" 
d="M1140 0l-834.001 0.000976562c-25.333 0 -47.333 3.66699 -66 11l-35 15l-15 7l-16 12c-46.667 32.667 -70 65 -70 97v304l54 -29l37 -10l31 -2l680 4c18 1.33301 42.333 7.33301 73 18l-36 -8l36 8c0 26 -25 65 -75 117c-21.333 22.667 -42.666 43 -63.999 61l-98 82
l-163 123c-8.66699 5.33301 -18 20.333 -28 45l-7 36l-3 40c-1.33301 22 2.66699 44.667 12 68c6 15.333 17.667 27.333 35 36l118 57l131 57l159 66l97 36l116 41l139 47l25 6l22 2c30.667 2.66699 58.667 -8 84 -32c22 -21.333 33 -47 33 -77
c0 -39.333 -21.333 -69 -64 -89l-70 -31l-82 -34l-105 -39l-201 -73c-24.667 -8.66699 -59 -22.334 -103 -41.001l-49 -19l-36 -20c78 -54 156.667 -124.667 236 -212c73.333 -80.667 133.333 -162 180 -244c5.33301 -8.66699 20 -18 44 -28l26 -1l40 -2h155v-405h-74
c-92.667 0 -155 21 -187 63c-10 -16 -37.333 -37 -82 -63h-570h570zM666.999 1289l81 40l84 37l102 42l62 23l75 27l88 29l16 5l14 1c20 1.33301 37.667 -5.16699 53 -19.5s23 -31.166 23 -50.499c0 -25.333 -14 -44.333 -42 -57l-44 -20l-53 -22l-67 -25l-129 -46
c-15.333 -6 -37 -15 -65 -27l-32 -12l-164 -70l-24 57l-5 75c4 1.33301 13 5.66602 27 12.999z" />
    <glyph glyph-name="uFB94" unicode="&#x6af;" horiz-adv-x="901" arabic-form="initial" 
d="M48 810c-5.33301 7.33301 -14.333 22.998 -27 46.998l-8 36l-2 36c-0.666992 22.667 3 45.334 11 68.001c7.33301 17.333 19.333 30 36 38l95 42l110 48l202 81l227 82l16 1c28.667 2 54.5 -9.5 77.5 -34.5s34.5 -50.833 34.5 -77.5c0 -37.333 -17 -65.666 -51 -84.999
l-83 -36l-254 -94l-78 -32l-85 -38c22.667 -14 40 -27 52 -39l25 -19l27 -23zM-152 404.998l596 -0.000976562c22 0 33 6.66699 33 20c0 23.333 -28.333 59.666 -85 108.999l-76 66l-105 84l-163 126c-7.33301 6 -16.333 21.667 -27 47l-8 36l-2 36
c-0.666992 22.667 3 45.334 11 68.001c7.33301 17.333 19.333 30 36 38l95 42l110 48l202 81l227 82l16 1c28.667 2 54.5 -9.5 77.5 -34.5s34.5 -50.833 34.5 -77.5c0 -37.333 -17 -65.666 -51 -84.999l-83 -36l-254 -94l-78 -32l-85 -38c22.667 -14 40 -27 52 -39l25 -19
l27 -23l30 -25l22 -21c92 -88.667 168.667 -181 230 -277c42.667 -68 69.667 -129 81 -183l4 -68c4 -67.333 -11.667 -125 -47 -173c-30.667 -42.667 -73.334 -64 -128.001 -64h-524c-51.333 0 -94.666 10.667 -129.999 32c-42 25.333 -63 62 -63 110v263zM93 1191
l-4.00098 23l-2 23c-1.33301 35.333 8.66699 58 30 68l61 27l70 30l130 53l145 52l10 1c18.667 0.666992 35.334 -7 50.001 -23s22 -32.333 22 -49c0 -24 -10.667 -42.333 -32 -55l-54 -22l-162 -60l-50 -21l-196 -77c-3.33301 4.66699 -9.33301 14.667 -18 30z" />
    <glyph glyph-name="uFB95" unicode="&#x6af;" horiz-adv-x="900" arabic-form="medial" 
d="M-158 405l594.001 0.000976562l4 10l2 12c0 26 -25 65 -75 117c-22 22.667 -43.667 43 -65 61l-98 82l-163 123c-8.66699 5.33301 -18 20.333 -28 45l-6 36l-3 40c-2 22 2 44.667 12 68c6 15.333 17.333 27.333 34 36l118 57l131 57l159 66l98 36l116 41l138 47l25 6
l22 2c30.667 2.66699 58.667 -8 84 -32c22.667 -21.333 34 -47 34 -77c0 -39.333 -21.667 -69 -65 -89l-69 -31l-83 -34l-104 -39l-202 -73c-24.667 -8.66699 -58.667 -22.334 -102 -41.001l-50 -19l-36 -20c78 -54 157 -124.667 237 -212c73.333 -80.667 133 -162 179 -244
c5.33301 -8.66699 20 -18 44 -28l26 -1l40 -2h155v-405h-74c-92.667 0 -155 21 -187 63c-12.667 -21.333 -29.334 -38 -50.001 -50c-22 -8.66699 -47 -13 -75 -13l-565 1l-29 7c-19.333 4 -39 12 -59 24c-42.667 26 -64 62.667 -64 110v263zM42.001 1301
c0.666992 1.33301 6.33398 5.66699 17.001 13l88 51l88 38l162 66l180 65l13 1c23.333 1.33301 44.166 -8 62.499 -28s27.5 -40.667 27.5 -62c0 -30 -13.333 -52.667 -40 -68l-67 -28l-203 -76l-62 -25l-245 -96c-4.66699 6 -12 18.333 -22 37c-1.33301 32 -1 69.333 1 112z
" />
    <glyph glyph-name="uFE94" unicode="&#x6c0;" horiz-adv-x="873" arabic-form="final" 
d="M606 132c-20.667 -36.667 -53 -69 -97 -97c-45.333 -30 -88.333 -45 -129 -45c-84 0 -152 39.333 -204 118c-45.333 68.667 -68 147 -68 235c0 94 32.833 177.5 98.5 250.5s137.167 108.5 214.5 106.5l35 -1c5.33301 0 17 -2.66699 35 -8c3.33301 0 8 -1.33301 14 -4
l17 -7l16 -8c6 -2.66699 11.667 -6.33398 17 -11.001v59c0 26.667 10.333 51 31 73c22 19.333 48.667 29 80 29c27.333 0 53.333 -9.66699 78 -29c19.333 -15.333 30.333 -39.666 33 -72.999l20 -254c2 -25.333 7.33301 -41.666 16 -48.999
c6.66699 -3.33301 16 -6.33301 28 -9l46 -3v-405h-150c-32 0 -60.333 12.667 -85 38c-22.667 23.333 -38 54.666 -46 93.999zM575 425l-9.99902 81.998c-30 16 -60 24 -90 24c-22.667 0 -43.334 -5.33301 -62.001 -16c-15.333 -9.33301 -26.333 -25.666 -33 -48.999v-8
c0 -15.333 9.33301 -30.666 28 -45.999c19.333 -12 43 -18 71 -18c31.333 0 63.333 10.333 96 31zM482.001 1209c-18 0 -35.6641 -5.33301 -52.9971 -16c-19.333 -12 -29 -26.333 -29 -43c0 -14 7 -28.333 21 -43c14.667 -11.333 31.667 -17 51 -17
c8.66699 0 20.334 3.66699 35.001 11c6.66699 3.33301 14 9 22 17c5.33301 7.33301 12.666 12.666 21.999 15.999c3.33301 0 7.66602 -5.33301 12.999 -16l7 -23l1 -26v-111c0 -13.333 -9.33301 -24.333 -28 -33l-30 -5l-23 -3h-161c-26.667 0 -53.834 11.833 -81.501 35.5
s-41.5 45.5 -41.5 65.5v81c0 24.667 7.66699 37 23 37c4 0 13.333 -8.66699 28 -26c4 -6 8.66699 -10.333 14 -13l23 -5c8 0 16.333 2.33301 25 7c-6 6 -16 20.333 -30 43l-10 27l-3 31c0 40 13.667 73.5 41 100.5s61.333 40.5 102 40.5c30 0 56.667 -7.66699 80 -23
c21.333 -14.667 38.333 -37.667 51 -69l4 -16c0 -8 -4 -17.667 -12 -29c-4.66699 -5.33301 -12.334 -9.66602 -23.001 -12.999l-21 13z" />
    <glyph glyph-name="uFEF2" unicode="&#x6cc;" horiz-adv-x="1092" arabic-form="final" 
d="M1073 0c1.33301 -6.66699 14.3379 -15.002 39.0049 -25.002l60 -12c19.333 -4 29 -23.667 29 -59v-15l-2 -22l-7 -30c-2.66699 -14 -6.66699 -25.667 -12 -35c-13.333 -36 -26 -58 -38 -66c-53.333 -36 -123.333 -64.333 -210 -85c-70 -16 -159 -24 -267 -24
c-50.667 0 -99.667 2 -147 6c-26.667 1.33301 -47 3.33301 -61 6c-0.666992 0 -23.334 5 -68.001 15c-79.333 18 -144 46.667 -194 86c-52.667 41.333 -80.334 93.333 -83.001 156l-14 405c0 26.667 8.33301 50 25 70c18 22.667 45.333 34 82 34h10l12 2
c22.667 0 43.667 -7.33301 63 -22c17.333 -13.333 27 -33.666 29 -60.999l21 -274c4 -47.333 34 -84.666 90 -111.999c51.333 -24.667 117.666 -37 198.999 -37c26 0 57 2.33301 93 7c10.667 0.666992 26.667 3 48 7c15.333 4 27.666 8 36.999 12s19 11.667 29 23
c9.33301 8 14 17.333 14 28c0 15.333 -14 29.666 -42 42.999l-103 35c-70 24 -105 83.333 -105 178s42.333 153.334 127 176.001l40 6l41 3l47 -3l40 -1l98 -7h22c13.333 0 21.666 -0.333008 24.999 -1l41 -2h85v-405h-93z" />
    <glyph glyph-name="uFEF3" unicode="&#x6cc;" horiz-adv-x="764" arabic-form="initial" 
d="M-161 405l514.002 0.000976562c19.333 0 36.333 8 51 24l14 26c4.66699 11.333 7 22.333 7 33l-20 192c0 35.333 11.667 64.166 35 86.499s52.666 33.5 87.999 33.5s64.666 -11 87.999 -33c20 -20 31.333 -49 34 -87l30 -517c2.66699 -43.333 -17 -82 -59 -116
c-37.333 -31.333 -85.333 -47 -144 -47l-483 1l-29 7c-19.333 4 -39 12 -59 24c-42 26 -63.333 62.667 -64 110zM305.002 -90.999c25.333 0 44 -4.33203 56 -12.999l16 -14c18.667 -16 28 -37.333 28 -64c0 -24.667 -8.83301 -46.334 -26.5 -65.001s-42.167 -28 -73.5 -28
c-67.333 0 -101 31 -101 93c0 26 9 47.667 27 65s42.667 26 74 26zM548.002 -101.998c28 0 52 -8.49902 72 -25.499s30 -39.167 30 -66.5c0 -24.667 -9.66699 -45.334 -29 -62.001c-16.667 -18.667 -41 -28 -73 -28c-26 0 -51 8.66699 -75 26c-18 18 -27 39.333 -27 64
c0 25.333 9 47.333 27 66c21.333 17.333 46.333 26 75 26z" />
    <glyph glyph-name="uFEF4" unicode="&#x6cc;" horiz-adv-x="637" arabic-form="medial" 
d="M-161 405l514.002 0.000976562c19.333 0 36.333 8 51 24l14 26c4.66699 11.333 7 22.333 7 33l-20 192c0 35.333 11.667 64.166 35 86.499s52.666 33.5 87.999 33.5s64.666 -11 87.999 -33c20 -20 31.333 -49 34 -87l30 -517c2.66699 -43.333 -17 -82 -59 -116
c-37.333 -31.333 -85.333 -47 -144 -47l-483 1l-29 7c-19.333 4 -39 12 -59 24c-42 26 -63.333 62.667 -64 110zM305.002 -90.999c25.333 0 44 -4.33203 56 -12.999l16 -14c18.667 -16 28 -37.333 28 -64c0 -24.667 -8.83301 -46.334 -26.5 -65.001s-42.167 -28 -73.5 -28
c-67.333 0 -101 31 -101 93c0 26 9 47.667 27 65s42.667 26 74 26zM548.002 -101.998c28 0 52 -8.49902 72 -25.499s30 -39.167 30 -66.5c0 -24.667 -9.66699 -45.334 -29 -62.001c-16.667 -18.667 -41 -28 -73 -28c-26 0 -51 8.66699 -75 26c-18 18 -27 39.333 -27 64
c0 25.333 9 47.333 27 66c21.333 17.333 46.333 26 75 26z" />
    <glyph glyph-name="Hcircumflex" unicode="&#x622;" horiz-adv-x="544" arabic-form="final" 
d="M246 1380c24.667 0 48.6689 -9.33105 72.002 -27.998c21.333 -17.333 32.666 -39 33.999 -65l50 -810c1.33301 -20.667 20.333 -39.334 57 -56.001l59 -13l69 -3v-405h-195c-42.667 0 -85.334 15.333 -128.001 46c-47.333 33.333 -72.333 75.666 -75 126.999l-59 1104
c-1.33301 30.667 7 53.667 25 69s43.667 26.333 77 33h5zM152.002 1561l43 -2.00098l42 -4l53 -4l20 1l26 3l29 5l27 7l14 2l11 2c12 0 21.667 -2.16699 29 -6.5s12 -12.166 14 -23.499c0 -9.33301 -6 -20.333 -18 -33c-6.66699 -4 -26.667 -12.333 -60 -25l-43 -7l-40 -3
l-32 1c-12.667 0.666992 -21 1.33398 -25 2.00098l-23 3l-51 3c-20.667 1.33301 -39 0 -55 -4l-20 -2c-6 0 -14 -2 -24 -6l-7 -1h-9c-24 0 -36.667 12.333 -38 37c0 7.33301 4 15.666 12 24.999c2 6.66699 12.667 13 32 19l46 9z" />
    <glyph glyph-name="uFE84" unicode="&#x623;" horiz-adv-x="544" arabic-form="final" 
d="M246 1380c24.667 0 48.6689 -9.33105 72.002 -27.998c21.333 -17.333 32.666 -39 33.999 -65l50 -810c1.33301 -20.667 20.333 -39.334 57 -56.001l59 -13l69 -3v-405h-195c-42.667 0 -85.334 15.333 -128.001 46c-47.333 33.333 -72.333 75.666 -75 126.999l-59 1104
c-1.33301 30.667 7 53.667 25 69s43.667 26.333 77 33h5zM216.002 1572c0 -10.667 4.50098 -20.166 13.501 -28.499s21.5 -12.5 37.5 -12.5c10 0 18.333 1.66699 25 5l7 7l8 8l5 4l8 5c4 0 8 -4 12 -12l4 -20l1 -17v-75c0 -19.333 -23.333 -29 -70 -29h-100
c-18.667 0 -37.834 8.16699 -57.501 24.5s-29.5 32.166 -29.5 47.499v57l4 16c1.33301 5.33301 5.33301 8.33301 12 9l10 -6l5 -3l6 -5l12 -12l13 -3l10 2l8 2l-10 12l-10 18l-5 18l-4 22c0 29.333 9.66699 54 29 74c17.333 18 41.333 27 72 27c36 0 67 -21.667 93 -65
l2 -11c0 -6.66699 -2.16699 -12.667 -6.5 -18s-10.5 -9.33301 -18.5 -12l-15 9l-3 1l-9 4c-9.33301 0 -15.666 -0.666992 -18.999 -2c-6.66699 0 -13.334 -3.33301 -20.001 -10c-12 -6 -18.667 -16.333 -20 -31z" />
    <glyph glyph-name="uFE86" unicode="&#x624;" horiz-adv-x="836" arabic-form="final" 
d="M590 -102c20.667 32.667 31.0039 67.001 31.0039 103.001c0 19.333 -3.33301 35.666 -10 48.999c-2 8 -7 12 -15 12c-2.66699 0 -18.334 -10.333 -47.001 -31s-49.334 -31 -62.001 -31c-96.667 0 -177.667 42.667 -243 128c-60 78 -90 166.667 -90 266
c0 110.667 32 206 96 286s143 120 237 120c68 0 131.667 -25.667 191 -77c52 -44.667 98 -108.334 138 -191.001c38.667 -80 57.667 -155.667 57 -227l-8 -356l-4 -38c0 -23.333 -2.33301 -45.666 -7 -66.999l-9 -41l-12 -37c-30.667 -91.333 -84.334 -155 -161.001 -191
l-17 -4l-19 -3c-38.667 0 -76.334 19.333 -113.001 58s-55 76 -55 112c0 21.333 6.33301 37.333 19 48l62 53c17.333 12 31 31.667 41 59zM634.004 280.001l-0.00195312 12.001l-3 13c-3.33301 15.333 -12.333 35.666 -27 60.999l-7 13l-9 13c-2 6 -8.66699 15.333 -20 28
c-34 38.667 -69 58 -105 58c-14 0 -22.333 -0.666992 -25 -2c-18.667 -1.33301 -34 -15.666 -46 -42.999l-4 -22l-1 -23c-1.33301 -20 2 -39.333 10 -58c12.667 -30.667 35.334 -49.667 68.001 -57l38 -4c26.667 0 47.334 -4.66699 62.001 -14
c8 -6.66699 16.333 -20.334 25 -41.001l9 12l19 18c10.667 10 16 22 16 36zM294.002 1162c0 -18 7.16699 -32.833 21.5 -44.5s30.5 -17.5 48.5 -17.5c11.333 0 23.666 3.66699 36.999 11l10 9l13 12l21 14c5.33301 0 10.333 -6 15 -18l5 -49v-111
c0 -10 -9.33301 -20 -28 -30c-18 -7.33301 -42.333 -11 -73 -11h-142c-24 0 -50.667 11.667 -80 35c-26.667 21.333 -40 44 -40 68v81c0 12 1.33301 20.333 4 25c2 8 7.66699 12 17 12c4.66699 0 14.334 -9.33301 29.001 -28l13 -11l24 -5c9.33301 0 17.333 2.33301 24 7
l-16 19l-15 26c-6.66699 18 -10 36 -10 54c0 40.667 13.5 74.667 40.5 102s60.5 41 100.5 41c62 0 106 -30.667 132 -92l3 -17c0 -10 -3.66699 -19.667 -11 -29c-3.33301 -6 -11.333 -10.333 -24 -13l-19 13l-19 5c-45.333 0 -72.333 -19.333 -81 -58z" />
    <glyph glyph-name="uFE88" unicode="&#x625;" horiz-adv-x="559" arabic-form="final" 
d="M246 1379l6 0.00195312l8 1c24.667 0 48.667 -9.33301 72 -28c21.333 -17.333 33 -39 35 -65l49 -810c1.33301 -20.667 20.333 -39.334 57 -56.001l59 -13l69 -3v-405h-194c-43.333 0 -86.333 15.333 -129 46c-47.333 33.333 -72.333 75.666 -75 126.999l-59 1104
c-1.33301 30.667 7 53.667 25 69s43.667 26.333 77 33zM454 -132.998c-12 0 -25.667 -4.66699 -41 -14c-9.33301 -8 -15 -18.333 -17 -31c0 -10.667 5.5 -20 16.5 -28s22.167 -12 33.5 -12c9.33301 0 17.333 2.33301 24 7c4.66699 1.33301 10.334 5.33301 17.001 12l15 10
c3.33301 0 7.33301 -4 12 -12l4 -20l1 -16v-76c0 -5.33301 -6.66699 -12.333 -20 -21l-22 -6l-31 -1h-99c-16.667 0 -35.334 8 -56.001 24s-31 32 -31 48v55c0 8.66699 0.666992 13.667 2 15l14 11l11 -5l12 -13l10 -8l15 -3h8l7 3l-18 30c-6 14 -9 28 -9 42
c0 26.667 8.33301 50.667 25 72c18 17.333 42.667 26 74 26c19.333 0 37.333 -4.66699 54 -14l16 -11l7 -8l18 -31l1 -11c0 -8 -2.33301 -14.667 -7 -20l-18 -9l-14 9z" />
    <glyph glyph-name="uFE8A" unicode="&#x626;" horiz-adv-x="1140" arabic-form="final" 
d="M1220 -37c18.667 -4 28.002 -23.668 28.002 -59.001v-15l-2 -22l-6 -30c-3.33301 -14 -7.66602 -25.667 -12.999 -35c-12.667 -36 -25.334 -58 -38.001 -66c-53.333 -36 -123.333 -64.333 -210 -85c-70 -16 -159 -24 -267 -24c-50.667 0 -99.667 2 -147 6
c-26.667 1.33301 -47 3.33301 -61 6c-0.666992 0 -23.334 5 -68.001 15c-78.667 18 -143.334 46.667 -194.001 86c-52.667 41.333 -80 93.333 -82 156l-15 405c0 26.667 8.33301 50 25 70c18 22.667 45.667 34 83 34h9l13 2c22 0 42.333 -7 61 -21s29 -34.667 31 -62
l21 -274c3.33301 -47.333 33.333 -84.666 90 -111.999c50.667 -24.667 116.667 -37 198 -37c26.667 0 57.667 2.33301 93 7c10.667 0.666992 27 3 49 7c15.333 4 27.5 8.16699 36.5 12.5s18.5 11.833 28.5 22.5c10 8 15 17.333 15 28c0 15.333 -14 29.666 -42 42.999
l-104 35c-69.333 24 -104 83.333 -104 178s42 153.334 126 176.001l40 6l42 3l46 -3l40 -1l98 -7h22c14 0 22.667 -0.333008 26 -1l41 -2h84v-405h-93c2 -6.66699 15.333 -15 40 -25zM316.002 772.999c0 -7.33301 1.49902 -14.166 4.49902 -20.499
s8.16699 -13.833 15.5 -22.5c14 -12 31.333 -18 52 -18c8.66699 0 20.667 3.66699 36 11l23 19c6 9.33301 12.333 14.333 19 15c14 0 21 -22 21 -66v-112c0 -12.667 -8.66699 -23 -26 -31l-32 -7l-41 -2h-142c-23.333 0 -49.666 11.333 -78.999 34s-44 45.334 -44 68.001v80
c0 19.333 7.33301 31.666 22 36.999c6 0 15.667 -9 29 -27l15 -12l22 -4c7.33301 0 15.666 2 24.999 6l-16 19l-14 26l-7 20l-5 36c0 40 13.667 73.5 41 100.5s61 40.5 101 40.5c28.667 0 55.334 -7.66699 80.001 -23c20 -13.333 36.667 -36 50 -68l4 -17
c0 -9.33301 -3.33301 -19.333 -10 -30c-4.66699 -4.66699 -12.667 -9 -24 -13l-20 13l-18 6c-16 0 -33 -5.66699 -51 -17c-20.667 -12.667 -31 -26.334 -31 -41.001z" />
    <glyph glyph-name="uFE8B" unicode="&#x626;" horiz-adv-x="784" arabic-form="initial" 
d="M461 1247c-18 0 -35.6641 -5.33301 -52.9971 -16c-19.333 -12 -29 -26.333 -29 -43c0 -14 7 -28.333 21 -43c14.667 -11.333 31.667 -17 51 -17c8.66699 0 20.334 3.66699 35.001 11c6.66699 3.33301 14 9 22 17c5.33301 7.33301 12.666 12.666 21.999 15.999
c3.33301 0 7.66602 -5.33301 12.999 -16l7 -23l1 -26v-111c0 -13.333 -9.33301 -24.333 -28 -33l-30 -5l-23 -3h-161c-26.667 0 -53.834 11.833 -81.501 35.5s-41.5 45.5 -41.5 65.5v81c0 24.667 7.66699 37 23 37c4 0 13.333 -8.66699 28 -26c4 -6 8.66699 -10.333 14 -13
l24 -5c7.33301 0 15.333 2.33301 24 7c-6 6 -16 20.333 -30 43l-10 27l-3 31c0 40 13.667 73.5 41 100.5s61.333 40.5 102 40.5c30 0 56.667 -7.66699 80 -23c21.333 -14.667 38.333 -37.667 51 -69l4 -16c0 -8 -4 -17.667 -12 -29
c-4.66699 -5.33301 -12.334 -9.66602 -23.001 -12.999l-21 13zM-157.997 405l511.002 0.000976562c19.333 0 36.333 8 51 24l14 26c4.66699 11.333 7 22.333 7 33l-20 192c0 35.333 11.667 64.166 35 86.499s52.666 33.5 87.999 33.5s64.666 -11 87.999 -33
c20 -20 31.333 -49 34 -87l30 -517c2.66699 -43.333 -17 -82 -59 -116c-37.333 -31.333 -85.333 -47 -144 -47l-483 1l-29 7c-19.333 4 -39 12 -59 24c-42.667 26 -64 62.667 -64 110v263z" />
    <glyph glyph-name="uFE8C" unicode="&#x626;" horiz-adv-x="637" arabic-form="medial" 
d="M461 1247c-18 0 -35.6641 -5.33301 -52.9971 -16c-19.333 -12 -29 -26.333 -29 -43c0 -14 7 -28.333 21 -43c14.667 -11.333 31.667 -17 51 -17c8.66699 0 20.334 3.66699 35.001 11c6.66699 3.33301 14 9 22 17c5.33301 7.33301 12.666 12.666 21.999 15.999
c3.33301 0 7.66602 -5.33301 12.999 -16l7 -23l1 -26v-111c0 -13.333 -9.33301 -24.333 -28 -33l-30 -5l-23 -3h-161c-26.667 0 -53.834 11.833 -81.501 35.5s-41.5 45.5 -41.5 65.5v81c0 24.667 7.66699 37 23 37c4 0 13.333 -8.66699 28 -26c4 -6 8.66699 -10.333 14 -13
l24 -5c7.33301 0 15.333 2.33301 24 7c-6 6 -16 20.333 -30 43l-10 27l-3 31c0 40 13.667 73.5 41 100.5s61.333 40.5 102 40.5c30 0 56.667 -7.66699 80 -23c21.333 -14.667 38.333 -37.667 51 -69l4 -16c0 -8 -4 -17.667 -12 -29
c-4.66699 -5.33301 -12.334 -9.66602 -23.001 -12.999l-21 13zM-157.997 405l511.002 0.000976562c19.333 0 36.333 8 51 24l14 26c4.66699 11.333 7 22.333 7 33l-20 192c0 35.333 11.667 64.166 35 86.499s52.666 33.5 87.999 33.5s64.666 -11 87.999 -33
c20 -20 31.333 -49 34 -87l30 -517c2.66699 -43.333 -17 -82 -59 -116c-37.333 -31.333 -85.333 -47 -144 -47l-483 1l-29 7c-19.333 4 -39 12 -59 24c-42.667 26 -64 62.667 -64 110v263z" />
    <glyph glyph-name="uFE8E" unicode="&#x627;" horiz-adv-x="544" arabic-form="final" 
d="M232 1379l5.00195 0.00195312l9 1c24.667 0 48.667 -9.33301 72 -28c21.333 -17.333 32.666 -39 33.999 -65l50 -810c1.33301 -20.667 20.333 -39.334 57 -56.001l59 -13l69 -3v-405h-195c-42.667 0 -85.334 15.333 -128.001 46
c-47.333 33.333 -72.333 75.666 -75 126.999l-59 1104c-1.33301 30.667 7 53.667 25 69s43.667 26.333 77 33z" />
    <glyph glyph-name="uFE90" unicode="&#x628;" horiz-adv-x="1409" arabic-form="final" 
d="M232 405h869c27.333 0 48.333 16.667 63 50c4 10 6 21 6 33l-20 192c0 34 11.667 62.5 35 85.5s52 34.5 86 34.5c58 0 96.333 -23.667 115 -71l6 -21l4 -28l30 -517c2 -40 -17.5 -77.167 -58.5 -111.5s-89.833 -51.5 -146.5 -51.5h-909c-25.333 0 -47.333 3.66699 -66 11
l-35 15l-15 7l-16 12c-47.333 32.667 -71 65 -71 97v304l54 -29l37 -10zM779 -102c29.333 0 53.333 -8.66699 72 -26s28 -39.333 28 -66c0 -60 -33.333 -90 -100 -90c-26 0 -50.333 8.66699 -73 26c-19.333 16.667 -29 38 -29 64c0 27.333 10 50 30 68c18 16 42 24 72 24z
" />
    <glyph glyph-name="uFE91" unicode="&#x628;" horiz-adv-x="775" arabic-form="initial" 
d="M-158 405l511.002 0.000976562c19.333 0 36.333 8 51 24l14 26c4.66699 11.333 7 22.333 7 33l-20 192c0 35.333 11.667 64.166 35 86.499s52.666 33.5 87.999 33.5s64.666 -11 87.999 -33c20 -20 31.333 -49 34 -87l30 -517c2.66699 -43.333 -17 -82 -59 -116
c-37.333 -31.333 -85.333 -47 -144 -47l-483 1l-29 7c-19.333 4 -39 12 -59 24c-42.667 26 -64 62.667 -64 110v263zM305.002 -90.999c25.333 0 44 -4.33203 56 -12.999l16 -14c18.667 -16 28 -37.333 28 -64c0 -24.667 -8.83301 -46.334 -26.5 -65.001
s-42.167 -28 -73.5 -28c-67.333 0 -101 31 -101 93c0 26 9 47.667 27 65s42.667 26 74 26z" />
    <glyph glyph-name="uFE92" unicode="&#x628;" horiz-adv-x="651" arabic-form="medial" 
d="M-158 405l511.002 0.000976562c19.333 0 36.333 8 51 24l14 26c4.66699 11.333 7 22.333 7 33l-20 192c0 35.333 11.667 64.166 35 86.499s52.666 33.5 87.999 33.5s64.666 -11 87.999 -33c20 -20 31.333 -49 34 -87l30 -517c2.66699 -43.333 -17 -82 -59 -116
c-37.333 -31.333 -85.333 -47 -144 -47l-483 1l-29 7c-19.333 4 -39 12 -59 24c-42.667 26 -64 62.667 -64 110v263zM305.002 -90.999c25.333 0 44 -4.33203 56 -12.999l16 -14c18.667 -16 28 -37.333 28 -64c0 -24.667 -8.83301 -46.334 -26.5 -65.001
s-42.167 -28 -73.5 -28c-67.333 0 -101 31 -101 93c0 26 9 47.667 27 65s42.667 26 74 26z" />
    <glyph glyph-name="uFE96" unicode="&#x62a;" horiz-adv-x="1423" arabic-form="final" 
d="M643 972c30.667 0 56 -8.99902 76 -26.999l9 -12l10 -16c5.33301 -10 8 -22 8 -36c0 -28 -10 -50.5 -30 -67.5s-44.333 -25.5 -73 -25.5c-66.667 0 -100 31 -100 93c0 24.667 9.33301 46 28 64c5.33301 5.33301 15.333 11.666 30 18.999l16 5zM888 962.001
c26.667 0 50.499 -9 71.499 -27s31.5 -40 31.5 -66c0 -22.667 -9.66699 -44.334 -29 -65.001l-13 -9l-20 -10l-19 -5l-22 -2c-23.333 -2 -47.666 6.66699 -72.999 26c-18.667 18.667 -28 40.334 -28 65.001c0 26 10.333 48 31 66s44 27 70 27zM245.999 405.001h869.001
c27.333 0 48.333 16.667 63 50c4.66699 10 7 21 7 33l-20 192c0 34 11.667 62.5 35 85.5s51.666 34.5 84.999 34.5c58 0 96.333 -23.667 115 -71l6 -21l5 -28l29 -517c2.66699 -40 -17.333 -77.667 -60 -113c-40 -33.333 -88.333 -50 -145 -50h-909
c-25.333 0 -47.333 3.66699 -66 11l-35 15l-15 7l-16 12c-47.333 32.667 -71 65 -71 97v304l55 -29l37 -10z" />
    <glyph glyph-name="uFE97" unicode="&#x62a;" horiz-adv-x="775" arabic-form="initial" 
d="M264 1096c27.333 0 50.666 -8.5 69.999 -25.5s29 -38.833 29 -65.5s-9.66699 -48.667 -29 -66s-42.666 -26 -69.999 -26c-67.333 0 -101 30.667 -101 92c0 42.667 21 71 63 85c13.333 4 26 6 38 6zM507 1087c27.333 0 51.167 -8.5 71.5 -25.5s30.5 -38.833 30.5 -65.5
c0 -28 -9.83301 -50.667 -29.5 -68s-43.834 -26 -72.501 -26c-68 0 -102 31.333 -102 94c0 26 9.33301 47.667 28 65s43.334 26 74.001 26zM-157.999 405l511.002 0.000976562c19.333 0 36.333 8 51 24l14 26c4.66699 11.333 7 22.333 7 33l-20 192
c0 35.333 11.667 64.166 35 86.499s52.666 33.5 87.999 33.5s64.666 -11 87.999 -33c20 -20 31.333 -49 34 -87l30 -517c2.66699 -43.333 -17 -82 -59 -116c-37.333 -31.333 -85.333 -47 -144 -47l-483 1l-29 7c-19.333 4 -39 12 -59 24c-42.667 26 -64 62.667 -64 110v263z
" />
    <glyph glyph-name="uFE98" unicode="&#x62a;" horiz-adv-x="651" arabic-form="medial" 
d="M264 1096c27.333 0 50.666 -8.5 69.999 -25.5s29 -38.833 29 -65.5s-9.66699 -48.667 -29 -66s-42.666 -26 -69.999 -26c-67.333 0 -101 30.667 -101 92c0 42.667 21 71 63 85c13.333 4 26 6 38 6zM507 1087c27.333 0 51.167 -8.5 71.5 -25.5s30.5 -38.833 30.5 -65.5
c0 -28 -9.83301 -50.667 -29.5 -68s-43.834 -26 -72.501 -26c-68 0 -102 31.333 -102 94c0 26 9.33301 47.667 28 65s43.334 26 74.001 26zM-157.999 405l511.002 0.000976562c19.333 0 36.333 8 51 24l14 26c4.66699 11.333 7 22.333 7 33l-20 192
c0 35.333 11.667 64.166 35 86.499s52.666 33.5 87.999 33.5s64.666 -11 87.999 -33c20 -20 31.333 -49 34 -87l30 -517c2.66699 -43.333 -17 -82 -59 -116c-37.333 -31.333 -85.333 -47 -144 -47l-483 1l-29 7c-19.333 4 -39 12 -59 24c-42.667 26 -64 62.667 -64 110v263z
" />
    <glyph glyph-name="uFE9A" unicode="&#x62b;" horiz-adv-x="1436" arabic-form="final" 
d="M780 1172c28.667 0 54 -9.66797 76 -29.001c17.333 -15.333 26 -35.666 26 -60.999c0 -24 -10 -45.667 -30 -65c-17.333 -16.667 -41.333 -25 -72 -25c-27.333 0 -52.333 8.33301 -75 25c-19.333 17.333 -29 39 -29 65c0 26.667 11 48.667 33 66c20 16 43.667 24 71 24z
M656 971.999c30.667 0 56.001 -8.99902 76.001 -26.999l9 -12l10 -16c5.33301 -10 8 -22 8 -36c0 -28 -10 -50.5 -30 -67.5s-44.333 -25.5 -73 -25.5c-66 0 -99 31 -99 93c0 24.667 9 46 27 64c5.33301 5.33301 15.666 11.666 30.999 18.999l16 5zM902.001 962
c26 0 49.499 -9 70.499 -27s31.5 -40 31.5 -66c0 -22.667 -9.33301 -44.334 -28 -65.001l-14 -9l-20 -10l-19 -5l-21 -2c-23.333 -2 -48 6.66699 -74 26c-18.667 18.667 -28 40.334 -28 65.001c0 26 10.333 48 31 66s44.334 27 71.001 27zM259 405h870
c26.667 0 47.334 16.667 62.001 50c4.66699 10 7 21 7 33l-20 192c0 34 11.667 62.5 35 85.5s52 34.5 86 34.5c58 0 96.333 -23.667 115 -71l5 -21l5 -28l29 -517c2.66699 -40 -16.5 -77.167 -57.5 -111.5s-90.167 -51.5 -147.5 -51.5h-909
c-24.667 0 -46.334 3.66699 -65.001 11l-36 15l-15 7l-16 12c-46.667 32.667 -70 65 -70 97v304l22 -15l30 -14l32 -9z" />
    <glyph glyph-name="uFE9B" unicode="&#x62b;" horiz-adv-x="775" arabic-form="initial" 
d="M384 1298c27.333 0 51.5 -8.16699 72.5 -24.5s31.5 -37.833 31.5 -64.5s-10.5 -48.5 -31.5 -65.5s-45.167 -25.5 -72.5 -25.5c-66.667 0 -100 30.333 -100 91c0 27.333 9.83301 49 29.5 65s43.167 24 70.5 24zM264 1096c27.333 0 50.666 -8.5 69.999 -25.5
s29 -38.833 29 -65.5s-9.66699 -48.667 -29 -66s-42.666 -26 -69.999 -26c-67.333 0 -101 30.667 -101 92c0 42.667 21 71 63 85c13.333 4 26 6 38 6zM507 1087c27.333 0 51.167 -8.5 71.5 -25.5s30.5 -38.833 30.5 -65.5c0 -28 -9.83301 -50.667 -29.5 -68
s-43.834 -26 -72.501 -26c-68 0 -102 31.333 -102 94c0 26 9.33301 47.667 28 65s43.334 26 74.001 26zM-157.999 405l511.002 0.000976562c19.333 0 36.333 8 51 24l14 26c4.66699 11.333 7 22.333 7 33l-20 192c0 35.333 11.667 64.166 35 86.499s52.666 33.5 87.999 33.5
s64.666 -11 87.999 -33c20 -20 31.333 -49 34 -87l30 -517c2.66699 -43.333 -17 -82 -59 -116c-37.333 -31.333 -85.333 -47 -144 -47l-483 1l-29 7c-19.333 4 -39 12 -59 24c-42.667 26 -64 62.667 -64 110v263z" />
    <glyph glyph-name="uFE9C" unicode="&#x62b;" horiz-adv-x="651" arabic-form="medial" 
d="M384 1298c27.333 0 51.5 -8.16699 72.5 -24.5s31.5 -37.833 31.5 -64.5s-10.5 -48.5 -31.5 -65.5s-45.167 -25.5 -72.5 -25.5c-66.667 0 -100 30.333 -100 91c0 27.333 9.83301 49 29.5 65s43.167 24 70.5 24zM264 1096c27.333 0 50.666 -8.5 69.999 -25.5
s29 -38.833 29 -65.5s-9.66699 -48.667 -29 -66s-42.666 -26 -69.999 -26c-67.333 0 -101 30.667 -101 92c0 42.667 21 71 63 85c13.333 4 26 6 38 6zM507 1087c27.333 0 51.167 -8.5 71.5 -25.5s30.5 -38.833 30.5 -65.5c0 -28 -9.83301 -50.667 -29.5 -68
s-43.834 -26 -72.501 -26c-68 0 -102 31.333 -102 94c0 26 9.33301 47.667 28 65s43.334 26 74.001 26zM-157.999 405l511.002 0.000976562c19.333 0 36.333 8 51 24l14 26c4.66699 11.333 7 22.333 7 33l-20 192c0 35.333 11.667 64.166 35 86.499s52.666 33.5 87.999 33.5
s64.666 -11 87.999 -33c20 -20 31.333 -49 34 -87l30 -517c2.66699 -43.333 -17 -82 -59 -116c-37.333 -31.333 -85.333 -47 -144 -47l-483 1l-29 7c-19.333 4 -39 12 -59 24c-42.667 26 -64 62.667 -64 110v263z" />
    <glyph glyph-name="uFE9E" unicode="&#x62c;" horiz-adv-x="986" arabic-form="final" 
d="M431 800c58 0 110.999 -7.33398 158.999 -22.001c30 -9.33301 51.667 -19 65 -29c22 -10 43 -26.333 63 -49c41.333 -31.333 81.333 -76.333 120 -135c42 -63.333 65.667 -116.666 71 -159.999h94v-294c-4 -32 -23 -59 -57 -81c-30 -20 -62.333 -30 -97 -30h-365
c-36 0 -54 -18 -54 -54c0 -13.333 5 -27.333 15 -42c9.33301 -12 22.333 -20.333 39 -25l57 -16l35 -15c8 -2 14 -5.33301 18 -10l18 -24l9 -24l4 -28l-2 -21c0 -8 -2 -16.333 -6 -25c-8 -24 -25 -44.667 -51 -62c-17.333 -11.333 -41.666 -17 -72.999 -17
c-84.667 0 -155 19.333 -211 58c-49.333 34 -88 83 -116 147c-24 55.333 -36 118.333 -36 189c0 192.667 93.667 317.334 281 374.001h216l2 6l2 13c0 23.333 -12.333 48.333 -37 75c-22 23.333 -45.333 39.666 -70 48.999l-24 3h-8c-30.667 0 -60.667 -6.33301 -90 -19
c-23.333 -7.33301 -50 -22 -80 -44l-10 -4l-15 -2c-23.333 0 -45.5 7.66699 -66.5 23s-37.833 36.333 -50.5 63v10l-1 11c-4 46 22.333 93.333 79 142c53.333 46 111 69 173 69zM768.999 -111.001c66 0 99 -31 99 -93c0 -25.333 -9 -46.666 -27 -63.999
c-20 -18 -44 -27 -72 -27s-51.833 8.33301 -71.5 25s-29.5 38.667 -29.5 66s9.66699 49.666 29 66.999s43.333 26 72 26z" />
    </font>
</defs>
</svg>
