<?xml version="1.0" standalone="no"?>
<!DOCTYPE svg PUBLIC "-//W3C//DTD SVG 1.1//EN" "http://www.w3.org/Graphics/SVG/1.1/DTD/svg11.dtd" >
<svg>
<metadata>
Created by FontForge 20090914 at Wed Oct 19 01:40:51 2011
 By www-data
(c) by Abolfazl Seilsepour - +98 912 591 3420  -  seilsepor@yahoo.com
</metadata>
<defs>
<font id="FarNazaninBold" horiz-adv-x="0" >
  <font-face 
    font-family="Far.Nazanin"
    font-weight="700"
    font-stretch="normal"
    units-per-em="2048"
    panose-1="0 0 7 0 0 0 0 0 0 0"
    ascent="1638"
    descent="-410"
    bbox="-209 -1120 2119 2162"
    underline-thickness="100"
    underline-position="-670"
    unicode-range="U+0020-U+FEFC"
  />
<missing-glyph horiz-adv-x="1024" 
d="M128 0v1341h768v-1341h-768zM256 128h512v1085h-512v-1085z" />
    <glyph glyph-name="uE818" unicode="&#x651;&#x64b;" 
d="M407 1619c0 -40.667 -7.99902 -75.333 -23.999 -104c-19.333 -35.333 -48 -53 -86 -53c-39.333 0 -70 9.66699 -92 29c-38.667 -54.667 -78 -82 -118 -82c-62.667 0 -94 41.333 -94 124c0 84.667 19 127 57 127c7.33301 0 12 -21.333 14 -64
c1.33301 -40 17.666 -60 48.999 -60c26 0 43.833 26.167 53.5 78.5s18.834 78.5 27.501 78.5c11.333 0 23.666 -19.5 36.999 -58.5s33 -58.5 59 -58.5c30.667 0 46 17 46 51c0 13.333 -3.66699 39 -11 77l62 39c13.333 -26.667 20 -68 20 -124zM399.001 1845l-392 -138v106
l392 137v-105zM399.001 2057l-392 -139v106l392 138v-105z" />
    <glyph glyph-name="uFC5E" unicode="&#x651;&#x64c;" arabic-form="isolated" 
d="M588 1558c0 -39.333 -8.33203 -73.667 -24.999 -103c-20 -35.333 -48.333 -53 -85 -53c-39.333 0 -70 9.66699 -92 29c-38.667 -54.667 -78 -82 -118 -82c-62.667 0 -94 41 -94 123c0 26.667 3.66699 52 11 76c10.667 34.667 26 52 46 52c7.33301 0 12 -21.667 14 -65
c1.33301 -39.333 17.666 -59 48.999 -59c26 0 43.833 26 53.5 78s18.834 78 27.501 78c11.333 0 23.666 -19.5 36.999 -58.5s33 -58.5 59 -58.5c30.667 0 46 17 46 51c0 13.333 -3.66699 39.333 -11 78l62 39c13.333 -27.333 20 -69 20 -125zM608.001 2048
c0 -58.667 -22.002 -101.666 -66.002 -128.999c11.333 -14.667 26 -24.334 44 -29.001l-59 -87c-28 4.66699 -57.333 18.667 -88 42c-86.667 -43.333 -150 -65 -190 -65c-11.333 0 -34.333 16.333 -69 49c-7.33301 6.66699 -11 11.667 -11 15c8 2.66699 29 8 63 16
c11.333 2.66699 19 11.667 23 27c9.33301 32.667 0 49 -28 49c-19.333 0 -35.666 -7 -48.999 -21l-35 34c27.333 30.667 55 46 83 46c44 0 71.667 -14.667 83 -44c9.33301 -25.333 4.33301 -50.666 -15 -75.999c34.667 7.33301 63.667 17.333 87 30
c-15.333 23.333 -23 46.666 -23 69.999c0 43.333 24.333 84.333 73 123c40.667 32 72.334 48 95.001 48s42 -10.5 58 -31.5s24 -43.167 24 -66.5zM524.999 2016c0 31.333 -11.667 46.999 -35 46.999c-10.667 0 -21 -6 -31 -18s-15 -23.333 -15 -34c0 -26 12.333 -46 37 -60
c29.333 18.667 44 40.334 44 65.001z" />
    <glyph glyph-name="uFC5F" unicode="&#x651;&#x64d;" arabic-form="isolated" 
d="M388 1676l-392 -138v105l392 138v-105zM399 1989c0 -39.333 -8.33301 -73.667 -25 -103c-20 -35.333 -48.333 -53 -85 -53c-39.333 0 -70.333 9.66699 -93 29c-38.667 -54.667 -78 -82 -118 -82c-62.667 0 -94 41 -94 123c0 26 3.66699 51.333 11 76
c10.667 34.667 26 52 46 52c7.33301 0 12 -21.667 14 -65c1.33301 -39.333 18 -59 50 -59c26 0 43.833 26 53.5 78s18.834 78 27.501 78c11.333 0 23.666 -19.5 36.999 -58.5s33 -58.5 59 -58.5c30.667 0 46 17 46 51c0 13.333 -4 39.333 -12 78l63 39
c13.333 -27.333 20 -69 20 -125zM388 1483l-392 -138v105l392 138v-105z" />
    <glyph glyph-name="uFC60" unicode="&#x651;&#x64e;" arabic-form="isolated" 
d="M498 1547c0 -39.333 -8.33203 -73.667 -24.999 -103c-20 -35.333 -48.333 -53 -85 -53c-39.333 0 -70 9.66699 -92 29c-38.667 -54.667 -78 -82 -118 -82c-62.667 0 -94 41 -94 123c0 26.667 3.66699 52 11 76c10.667 34.667 26 52 46 52c7.33301 0 12 -21.667 14 -65
c1.33301 -39.333 17.666 -59 48.999 -59c26 0 43.833 26 53.5 78s18.834 78 27.501 78c11.333 0 23.666 -19.5 36.999 -58.5s33 -58.5 59 -58.5c30.667 0 46 17 46 51c0 13.333 -3.66699 39.333 -11 78l62 39c13.333 -27.333 20 -69 20 -125zM494.001 1859l-391 -138v106
l391 137v-105z" />
    <glyph glyph-name="uFC61" unicode="&#x651;&#x64f;" arabic-form="isolated" 
d="M434 1973c0 -58.667 -21.999 -102 -65.999 -130c11.333 -14 26 -23.667 44 -29l-59 -87c-28 5.33301 -57.333 19.333 -88 42c-94 -46.667 -155.667 -70 -185 -70c-15.333 0 -44 20 -86 60c-8.66699 8 -13 13.667 -13 17c0 6 13 9.66699 39 11
c81.333 4.66699 143.666 18.667 186.999 42c-15.333 23.333 -23 47 -23 71c0 44 24 85 72 123c40.667 32 72.667 48 96 48c22.667 0 42 -10.5 58 -31.5s24 -43.167 24 -66.5zM351.001 1940c0 32 -11.667 48 -35 48c-10 0 -20.167 -6.16699 -30.5 -18.5
s-15.5 -23.5 -15.5 -33.5c0 -24 13 -43.333 39 -58c28 21.333 42 42 42 62zM416.001 1565c0 -40.667 -7.99902 -75.333 -23.999 -104c-19.333 -35.333 -48 -53 -86 -53c-39.333 0 -70 9.66699 -92 29c-38.667 -54.667 -78 -82 -118 -82c-62.667 0 -94 41.333 -94 124
c0 84.667 19 127 57 127c7.33301 0 12 -21.333 14 -64c1.33301 -40 17.666 -60 48.999 -60c26 0 43.833 26.167 53.5 78.5s18.834 78.5 27.501 78.5c11.333 0 23.666 -19.5 36.999 -58.5s33 -58.5 59 -58.5c30.667 0 46 17 46 51c0 13.333 -3.66699 39 -11 77l62 39
c13.333 -26.667 20 -68 20 -124z" />
    <glyph glyph-name="uFC62" unicode="&#x651;&#x650;" arabic-form="isolated" 
d="M637 1492l-392 -138v105l392 138v-105zM648 1805c0 -39.333 -8.33301 -73.667 -25 -103c-20 -35.333 -48.333 -53 -85 -53c-39.333 0 -70.333 9.66699 -93 29c-38.667 -54.667 -78 -82 -118 -82c-62.667 0 -94 41 -94 123c0 26 3.66699 51.333 11 76
c10.667 34.667 26 52 46 52c7.33301 0 12 -21.667 14 -65c1.33301 -39.333 18 -59 50 -59c26 0 43.833 26 53.5 78s18.834 78 27.501 78c11.333 0 23.666 -19.5 36.999 -58.5s33 -58.5 59 -58.5c30.667 0 46 17 46 51c0 13.333 -4 39.333 -12 78l63 39
c13.333 -27.333 20 -69 20 -125z" />
    <glyph glyph-name="uFDF2" unicode="&#xfedf;&#xfee0;&#xfeea;" horiz-adv-x="1633" arabic-form="isolated" 
d="M1081 1424c15.333 -34 23 -72.333 23 -115c0 -86 -20.667 -129 -62 -129c0.666992 10 1 20 1 30c0 55.333 -11.333 105 -34 149zM1252 1066c0 -35.333 -7.66602 -66.334 -22.999 -93.001c-18 -32 -43.667 -48 -77 -48c-34.667 0 -62.334 8.66699 -83.001 26
c-34 -49.333 -69.333 -74 -106 -74c-56.667 0 -85 37 -85 111c0 22.667 3.66699 45.334 11 68.001c10 31.333 23.667 47 41 47c6.66699 0 11 -20.333 13 -61c1.33301 -33.333 16 -50 44 -50c23.333 0 39.333 23.5 48 70.5s17 70.5 25 70.5c10 0 21 -17.667 33 -53
s29.667 -53 53 -53c27.333 0 41 15.333 41 46c0 12.667 -3.33301 35.667 -10 69l56 36c12.667 -24 19 -61.333 19 -112zM1634 334.999c0 -134 -35.998 -230.669 -107.998 -290.002c-48.667 -40 -108 -60 -178 -60c-120.667 0 -204.334 50.667 -251.001 152
c-31.333 -102 -99 -153 -203 -153c-89.333 0 -157.333 26.667 -204 80c-22 25.333 -45.333 70.333 -70 135c-19.333 -35.333 -47 -73.666 -83 -114.999c-12 -4.66699 -37.667 -7 -77 -7c-68.667 0 -128 7.33301 -178 22c-66.667 19.333 -100 48 -100 86
c0 63.333 11.333 110.333 34 141c46 62 103 115 171 159c32 20.667 84.333 45.334 157 74.001l-12 103l118 96c22 18 34.667 27 38 27c4 0 7.66699 -13.333 11 -40c25.333 -216 45 -344.333 59 -385c27.333 -81.333 81.333 -122 162 -122c63.333 0 95 41.667 95 125
c0 8.66699 -0.666992 19.667 -2 33c-8.66699 86.667 -24.334 214.667 -47.001 384l188 110c28 -281.333 49.333 -451 64 -509c24 -94.667 69 -142 135 -142c58.667 0 88 43 88 129c0 52.667 -27 210.667 -81 474l163 130c8 8.66699 14.333 13 19 13
c6.66699 0 11.667 -8.66699 15 -26c51.333 -294 77 -502 77 -624zM595.003 288.997l-33 160c-130 -46.667 -205.333 -94 -226 -142c6 -16 47.667 -24 125 -24c41.333 0 86 2 134 6z" />
    <glyph glyph-name="uFEF5" unicode="&#xfedf;&#xfe82;" horiz-adv-x="1110" arabic-form="isolated" 
d="M1104 990c1.33301 -2.66699 2.00098 -4.99609 2.00098 -6.99609c0 -3.33301 -4.66699 -5 -14 -5c-13.333 0 -36 3.33301 -68 10c0 -172.667 -27.333 -320.667 -82 -444c-34 -76.667 -71.333 -132.334 -112 -167.001c45.333 -75.333 68 -138.333 68 -189
c0 -100.667 -36 -169.334 -108 -206.001c-48.667 -24.667 -153 -37 -313 -37c-54 0 -100.333 2.66699 -139 8l77 243c92 42 174.333 101 247 177c-95.333 120.667 -215 249 -359 385c-14.667 -46.667 -23.667 -71 -27 -73c-3.33301 1.33301 -7.33301 5 -12 11
c-103.333 134 -155 211 -155 231c0 43.333 16 116.666 48 219.999c3.33301 12 6.33301 18.667 9 20c2.66699 -0.666992 7.66699 -4 15 -10c125.333 -94.667 318.666 -317.334 579.999 -668.001c52 48 78 129.667 78 245v186c0 47.333 -10 109 -30 185l168 164
c7.33301 7.33301 13 5.33301 17 -6c36 -104.667 72.667 -195.667 110 -273zM785.001 180.004c-10 38.667 -29.333 71.667 -58 99c-56.667 -44.667 -108 -82 -154 -112c25.333 -7.33301 60 -10.333 104 -9c48 2 84 9.33301 108 22zM560.001 1431
c0 -42 -43.666 -80.667 -130.999 -116c-72.667 -29.333 -134.667 -44 -186 -44c-18.667 0 -45.834 4.83301 -81.501 14.5s-61.167 14.5 -76.5 14.5c-11.333 0 -24.333 -10 -39 -30s-26.334 -30 -35.001 -30c-19.333 0 -29 15.667 -29 47c0 20 13.333 52.667 40 98
c29.333 50 55.333 75 78 75c-12 0 -18 -1 -18 -3c0 -3.33301 29.667 -11 89 -23c86.667 -18 144.334 -27 173.001 -27c46.667 0 91 8 133 24l60 23c15.333 0 23 -7.66699 23 -23z" />
    <glyph glyph-name="uFEF6" unicode="&#xfee0;&#xfe82;" horiz-adv-x="1273" arabic-form="final" 
d="M1299 1l-61.002 0.000976562c-120 0 -203.333 44.667 -250 134c-33.333 63.333 -52.666 167.333 -57.999 312c-81.333 -223.333 -168.333 -373.333 -261 -450c-14.667 -12 -157 -25.667 -427 -41c-50.667 -2.66699 -76 -1.33398 -76 3.99902s21 18 63 38
c116.667 56 220.334 114.333 311.001 175c103.333 69.333 155 120 155 152c0 28.667 -34.667 86 -104 172c-83.333 103.333 -179.333 192 -288 266l-11 -85c-36.667 34 -77 76 -121 126c-52.667 60 -79 98 -79 114c0 61.333 8.66699 130.666 26 207.999
c3.33301 14 6.33301 21.667 9 23c3.33301 0.666992 10.333 -2.66602 21 -9.99902c221.333 -158 387.333 -313 498 -465c74.667 -102.667 117.667 -195 129 -277c95.333 115.333 143 304.666 143 567.999c0 52.667 -2 106.334 -6 161.001l151 119c12 9.33301 19.667 14 23 14
c4 0 6 -8.66699 6 -26v-819c0 -104 54.667 -156 164 -156h43v-257zM559.998 1422c0 -41.333 -43.666 -79.667 -130.999 -115c-74 -30 -136 -45 -186 -45c-18.667 0 -45.834 4.83301 -81.501 14.5s-61.167 14.5 -76.5 14.5c-11.333 0 -24.333 -10 -39 -30
s-26.334 -30 -35.001 -30c-19.333 0 -29 15.667 -29 47c0 19.333 13.333 52 40 98c29.333 50.667 55.333 76 78 76c-12 0 -18 -1 -18 -3c0 -3.33301 29.667 -11.333 89 -24c86.667 -18 144.334 -27 173.001 -27c46.667 0 91 8 133 24l60 23c15.333 0 23 -7.66699 23 -23z
" />
    <glyph glyph-name="uFEF7" unicode="&#xfedf;&#xfe84;" horiz-adv-x="1110" arabic-form="isolated" 
d="M1104 990c1.33301 -2.66699 2.00098 -4.99609 2.00098 -6.99609c0 -3.33301 -4.66699 -5 -14 -5c-13.333 0 -36 3.33301 -68 10c0 -172.667 -27.333 -320.667 -82 -444c-34 -76.667 -71.333 -132.334 -112 -167.001c45.333 -75.333 68 -138.333 68 -189
c0 -100.667 -36 -169.334 -108 -206.001c-48.667 -24.667 -153 -37 -313 -37c-54 0 -100.333 2.66699 -139 8l77 243c92 42 174.333 101 247 177c-95.333 120.667 -215 249 -359 385c-14.667 -46.667 -23.667 -71 -27 -73c-3.33301 1.33301 -7.33301 5 -12 11
c-103.333 134 -155 211 -155 231c0 43.333 16 116.666 48 219.999c3.33301 12 6.33301 18.667 9 20c2.66699 -0.666992 7.66699 -4 15 -10c125.333 -94.667 318.666 -317.334 579.999 -668.001c52 48 78 129.667 78 245v186c0 47.333 -10 109 -30 185l168 164
c7.33301 7.33301 13 5.33301 17 -6c36 -104.667 72.667 -195.667 110 -273zM785.001 180.004c-10 38.667 -29.333 71.667 -58 99c-56.667 -44.667 -108 -82 -154 -112c25.333 -7.33301 60 -10.333 104 -9c48 2 84 9.33301 108 22zM388.001 1487
c3.33301 -10 3.66699 -27.001 1 -51.001c-2.66699 -24.667 -6.66699 -40.334 -12 -47.001c-93.333 -24 -210.333 -66.667 -351 -128l-1 74c22 12 53.333 28 94 48c-19.333 8.66699 -37.166 23.834 -53.499 45.501s-24.5 42.167 -24.5 61.5c0 38.667 22.667 79.5 68 122.5
s87.666 64.5 126.999 64.5c19.333 0 41.666 -7.66699 66.999 -23c28 -16.667 42 -34 42 -52c0 -26.667 -10.333 -40 -31 -40c-8 0 -23.333 4.33301 -46 13s-40.667 13 -54 13c-16.667 0 -34 -4.33301 -52 -13c-21.333 -10 -32 -22.333 -32 -37
c0 -23.333 11.667 -44.166 35 -62.499s47 -27.5 71 -27.5c10.667 0 61.334 13 152.001 39z" />
    <glyph glyph-name="uFEF8" unicode="&#xfee0;&#xfe84;" horiz-adv-x="1273" arabic-form="final" 
d="M1299 1l-61.002 0.000976562c-120 0 -203.333 44.667 -250 134c-33.333 63.333 -52.666 167.333 -57.999 312c-81.333 -223.333 -168.333 -373.333 -261 -450c-14.667 -12 -157 -25.667 -427 -41c-50.667 -2.66699 -76 -1.33398 -76 3.99902s21 18 63 38
c116.667 56 220.334 114.333 311.001 175c103.333 69.333 155 120 155 152c0 28.667 -34.667 86 -104 172c-83.333 103.333 -179.333 192 -288 266l-11 -85c-36.667 34 -77 76 -121 126c-52.667 60 -79 98 -79 114c0 61.333 8.66699 130.666 26 207.999
c3.33301 14 6.33301 21.667 9 23c3.33301 0.666992 10.333 -2.66602 21 -9.99902c221.333 -158 387.333 -313 498 -465c74.667 -102.667 117.667 -195 129 -277c95.333 115.333 143 304.666 143 567.999c0 52.667 -2 106.334 -6 161.001l151 119c12 9.33301 19.667 14 23 14
c4 0 6 -8.66699 6 -26v-819c0 -104 54.667 -156 164 -156h43v-257zM387.998 1487c3.33301 -10 3.66699 -27.001 1 -51.001c-2.66699 -24.667 -6.66699 -40.334 -12 -47.001c-93.333 -24 -210.333 -66.667 -351 -128l-1 74c22 12 53.333 28 94 48
c-19.333 8.66699 -37.166 23.834 -53.499 45.501s-24.5 42.167 -24.5 61.5c0 38.667 22.667 79.5 68 122.5s87.666 64.5 126.999 64.5c19.333 0 41.666 -7.66699 66.999 -23c28 -16.667 42 -34 42 -52c0 -26.667 -10.333 -40 -31 -40c-8 0 -23.333 4.33301 -46 13
s-40.667 13 -54 13c-16.667 0 -34 -4.33301 -52 -13c-21.333 -10 -32 -22.333 -32 -37c0 -23.333 11.667 -44.166 35 -62.499s47 -27.5 71 -27.5c10.667 0 61.334 13 152.001 39z" />
    <glyph glyph-name="uFEF9" unicode="&#xfedf;&#xfe88;" horiz-adv-x="1110" arabic-form="isolated" 
d="M1104 990c1.33301 -2.66699 2.00098 -4.99609 2.00098 -6.99609c0 -3.33301 -4.66699 -5 -14 -5c-13.333 0 -36 3.33301 -68 10c0 -172.667 -27.333 -320.667 -82 -444c-34 -76.667 -71.333 -132.334 -112 -167.001c45.333 -75.333 68 -138.333 68 -189
c0 -100.667 -36 -169.334 -108 -206.001c-48.667 -24.667 -153 -37 -313 -37c-54 0 -100.333 2.66699 -139 8l77 243c92 42 174.333 101 247 177c-95.333 120.667 -215 249 -359 385c-14.667 -46.667 -23.667 -71 -27 -73c-3.33301 1.33301 -7.33301 5 -12 11
c-103.333 134 -155 211 -155 231c0 43.333 16 116.666 48 219.999c3.33301 12 6.33301 18.667 9 20c2.66699 -0.666992 7.66699 -4 15 -10c125.333 -94.667 318.666 -317.334 579.999 -668.001c52 48 78 129.667 78 245v186c0 47.333 -10 109 -30 185l168 164
c7.33301 7.33301 13 5.33301 17 -6c36 -104.667 72.667 -195.667 110 -273zM785.001 180.004c-10 38.667 -29.333 71.667 -58 99c-56.667 -44.667 -108 -82 -154 -112c25.333 -7.33301 60 -10.333 104 -9c48 2 84 9.33301 108 22zM441.001 -362.996
c3.33301 -10 3.66895 -26.668 1.00195 -50.001c-2.66699 -25.333 -6.66699 -41.333 -12 -48c-94 -24 -211.333 -66.667 -352 -128v74c22 12 53.333 28 94 48c-18 8 -35.667 23.167 -53 45.5s-26 42.833 -26 61.5c0 38.667 22.833 79.5 68.5 122.5s88.167 64.5 127.5 64.5
c19.333 0 41.666 -7.66699 66.999 -23c28 -16.667 42 -34 42 -52c0 -26.667 -10.333 -40 -31 -40c-8 0 -23.333 4.33301 -46 13s-40.667 13 -54 13c-16.667 0 -34 -4.33301 -52 -13c-21.333 -10 -32 -22.333 -32 -37c0 -23.333 11.667 -44.166 35 -62.499s47 -27.5 71 -27.5
c17.333 0 42.666 5 75.999 15z" />
    <glyph glyph-name="uFEFA" unicode="&#xfee0;&#xfe88;" horiz-adv-x="1273" arabic-form="final" 
d="M1299 1l-61.002 0.000976562c-120 0 -203.333 44.667 -250 134c-33.333 63.333 -52.666 167.333 -57.999 312c-81.333 -223.333 -168.333 -373.333 -261 -450c-14.667 -12 -157 -25.667 -427 -41c-50.667 -2.66699 -76 -1.33398 -76 3.99902s21 18 63 38
c116.667 56 220.334 114.333 311.001 175c103.333 69.333 155 120 155 152c0 28.667 -34.667 86 -104 172c-83.333 103.333 -179.333 192 -288 266l-11 -85c-36.667 34 -77 76 -121 126c-52.667 60 -79 98 -79 114c0 61.333 8.66699 130.666 26 207.999
c3.33301 14 6.33301 21.667 9 23c3.33301 0.666992 10.333 -2.66602 21 -9.99902c221.333 -158 387.333 -313 498 -465c74.667 -102.667 117.667 -195 129 -277c95.333 115.333 143 304.666 143 567.999c0 52.667 -2 106.334 -6 161.001l151 119c12 9.33301 19.667 14 23 14
c4 0 6 -8.66699 6 -26v-819c0 -104 54.667 -156 164 -156h43v-257zM440.998 -362.999c3.33301 -10 3.66895 -26.668 1.00195 -50.001c-2.66699 -25.333 -6.66699 -41.333 -12 -48c-94 -24 -211.333 -66.667 -352 -128v74c22 12 53.333 28 94 48
c-18 8 -35.667 23.167 -53 45.5s-26 42.833 -26 61.5c0 38.667 22.833 79.5 68.5 122.5s88.167 64.5 127.5 64.5c19.333 0 41.666 -7.66699 66.999 -23c28 -16.667 42 -34 42 -52c0 -26.667 -10.333 -40 -31 -40c-8 0 -23.333 4.33301 -46 13s-40.667 13 -54 13
c-16.667 0 -34 -4.33301 -52 -13c-21.333 -10 -32 -22.333 -32 -37c0 -23.333 11.667 -44.166 35 -62.499s47 -27.5 71 -27.5c17.333 0 42.666 5 75.999 15z" />
    <glyph glyph-name="uFEFB" unicode="&#xfedf;&#xfe8e;" horiz-adv-x="1110" arabic-form="isolated" 
d="M1104 990c1.33301 -2.66699 2.00098 -4.99609 2.00098 -6.99609c0 -3.33301 -4.66699 -5 -14 -5c-13.333 0 -36 3.33301 -68 10c0 -172.667 -27.333 -320.667 -82 -444c-34 -76.667 -71.333 -132.334 -112 -167.001c45.333 -75.333 68 -138.333 68 -189
c0 -100.667 -36 -169.334 -108 -206.001c-48.667 -24.667 -153 -37 -313 -37c-54 0 -100.333 2.66699 -139 8l77 243c92 42 174.333 101 247 177c-95.333 120.667 -215 249 -359 385c-14.667 -46.667 -23.667 -71 -27 -73c-3.33301 1.33301 -7.33301 5 -12 11
c-103.333 134 -155 211 -155 231c0 43.333 16 116.666 48 219.999c3.33301 12 6.33301 18.667 9 20c2.66699 -0.666992 7.66699 -4 15 -10c125.333 -94.667 318.666 -317.334 579.999 -668.001c52 48 78 129.667 78 245v186c0 47.333 -10 109 -30 185l168 164
c7.33301 7.33301 13 5.33301 17 -6c36 -104.667 72.667 -195.667 110 -273zM785.001 180.004c-10 38.667 -29.333 71.667 -58 99c-56.667 -44.667 -108 -82 -154 -112c25.333 -7.33301 60 -10.333 104 -9c48 2 84 9.33301 108 22z" />
    <glyph glyph-name="uFEFC" unicode="&#xfee0;&#xfe8e;" horiz-adv-x="1273" arabic-form="final" 
d="M1299 1l-61.002 0.000976562c-120 0 -203.333 44.667 -250 134c-33.333 63.333 -52.666 167.333 -57.999 312c-81.333 -223.333 -168.333 -373.333 -261 -450c-14.667 -12 -157 -25.667 -427 -41c-50.667 -2.66699 -76 -1.33398 -76 3.99902s21 18 63 38
c116.667 56 220.334 114.333 311.001 175c103.333 69.333 155 120 155 152c0 28.667 -34.667 86 -104 172c-83.333 103.333 -179.333 192 -288 266l-11 -85c-36.667 34 -77 76 -121 126c-52.667 60 -79 98 -79 114c0 61.333 8.66699 130.666 26 207.999
c3.33301 14 6.33301 21.667 9 23c3.33301 0.666992 10.333 -2.66602 21 -9.99902c221.333 -158 387.333 -313 498 -465c74.667 -102.667 117.667 -195 129 -277c95.333 115.333 143 304.666 143 567.999c0 52.667 -2 106.334 -6 161.001l151 119c12 9.33301 19.667 14 23 14
c4 0 6 -8.66699 6 -26v-819c0 -104 54.667 -156 164 -156h43v-257z" />
    <glyph glyph-name="u0622" unicode="&#x622;" horiz-adv-x="685" arabic-form="isolated" 
d="M492 223c0 -48.667 -25 -126.333 -75 -233c-12.667 -27.333 -22 -41 -28 -41c-8.66699 0 -15.667 30.667 -21 92l-95 1057l184 153c12 10 20.667 15 26 15c6 0 9 -7 9 -21v-1022zM675 1510c0 -41.333 -43.666 -79.667 -130.999 -115c-74.667 -30 -136.667 -45 -186 -45
c-18.667 0 -45.834 4.83301 -81.501 14.5s-61.5 14.5 -77.5 14.5c-10.667 0 -23.5 -9.83301 -38.5 -29.5s-26.5 -29.5 -34.5 -29.5c-20 0 -30 15.333 -30 46c0 20 13.667 53 41 99c29.333 50 55 75 77 75c-12 0 -18 -1 -18 -3c0 -3.33301 29.667 -11.333 89 -24
c86.667 -18 144.667 -27 174 -27c26 0 62.333 8 109 24s74.667 24 84 24c15.333 0 23 -8 23 -24z" />
    <glyph glyph-name="u0623" unicode="&#x623;" horiz-adv-x="484" arabic-form="isolated" 
d="M422 227c0 -46.667 -25.334 -124 -76.001 -232c-13.333 -28 -22.666 -42 -27.999 -42c-8 0 -14.667 31 -20 93l-95 1056l184 153c12 10 20.667 15 26 15c6 0 9 -7 9 -21v-1022zM484.999 1487c3.33301 -10 3.66895 -27 1.00195 -51
c-2.66699 -24.667 -6.66699 -40.334 -12 -47.001c-94 -24 -211.333 -66.667 -352 -128v74c22 12 53.333 28 94 48c-18.667 8 -36.5 23 -53.5 45s-25.5 42.667 -25.5 62c0 38.667 22.833 79.5 68.5 122.5s88.167 64.5 127.5 64.5c19.333 0 41.666 -7.66699 66.999 -23
c28 -16.667 42 -34 42 -52c0 -26.667 -10.333 -40 -31 -40c-8 0 -23.333 4.33301 -46 13s-40.667 13 -54 13c-16.667 0 -34 -4.33301 -52 -13c-21.333 -10 -32 -22.333 -32 -37c0 -23.333 11.667 -44.166 35 -62.499s47 -27.5 71 -27.5c17.333 0 42.666 5 75.999 15z" />
    <glyph glyph-name="u0624" unicode="&#x624;" horiz-adv-x="782" arabic-form="isolated" 
d="M780 38c0 -174 -59.332 -324.669 -177.999 -452.002c-37.333 -40 -61 -60 -71 -60c-167.333 0 -300.333 17 -399 51c-19.333 6.66699 -20 13.334 -2 20.001c118.667 42.667 234.334 109 347.001 199c123.333 98 185 179.667 185 245
c-14.667 0 -36.834 -0.333008 -66.501 -1s-51.834 -1 -66.501 -1c-90.667 0 -156 10.333 -196 31c-55.333 28.667 -83 81 -83 157c0 70.667 22.333 151.334 67 242.001c54 109.333 118 164 192 164c92 0 163 -53.333 213 -160c38.667 -82.667 58 -175.667 58 -279v-156z
M625.001 290.998c-18 44.667 -46.334 79.333 -85.001 104c-29.333 18.667 -55.333 28 -78 28c-20.667 0 -39.667 -7.33301 -57 -22s-26 -32 -26 -52c0 -46.667 37.333 -70 112 -70c34.667 0 79.334 4 134.001 12zM658 1062c2.66699 -10 3 -26.667 1 -50
c-2 -24 -6 -39.667 -12 -47c-94 -24 -211.333 -67 -352 -129l-1 74l94 48c-17.333 8 -34.666 23.333 -51.999 46s-26 43 -26 61c0 38.667 22.833 79.667 68.5 123s88.167 65 127.5 65c19.333 0 41.666 -7.66699 66.999 -23c28 -16.667 42 -34 42 -52
c0 -27.333 -10.333 -41 -31 -41c-8 0 -23.333 4.5 -46 13.5s-40.667 13.5 -54 13.5c-17.333 0 -34.666 -4.33301 -51.999 -13c-21.333 -10 -32 -22.667 -32 -38c0 -23.333 11.667 -44 35 -62s47 -27 71 -27c19.333 0 45.666 5.33301 78.999 16c44 14 68.333 21.333 73 22z
" />
    <glyph glyph-name="u0625" unicode="&#x625;" horiz-adv-x="484" arabic-form="isolated" 
d="M422 227c0 -46.667 -25.334 -124 -76.001 -232c-13.333 -28 -22.666 -42 -27.999 -42c-8 0 -14.667 31 -20 93l-95 1056l184 153c12 10 20.667 15 26 15c6 0 9 -7 9 -21v-1022zM532.999 -336c1.33301 -4 1.99902 -10.333 1.99902 -19s-0.666992 -19.334 -2 -32.001
c-2.66699 -25.333 -6.66699 -41 -12 -47c-93.333 -24 -210.333 -67 -351 -129l-1 74l94 49c-17.333 7.33301 -34.666 22.333 -51.999 45s-26 43 -26 61c0 38.667 22.833 79.667 68.5 123s88.167 65 127.5 65c19.333 0 41.666 -7.66699 66.999 -23c28 -16.667 42 -34 42 -52
c0 -27.333 -10.333 -41 -31 -41c-8 0 -23.333 4.5 -46 13.5s-40.667 13.5 -54 13.5c-16 0 -33.333 -4.33301 -52 -13c-21.333 -10.667 -32 -23 -32 -37c0 -23.333 11.667 -44.166 35 -62.499s47 -27.5 71 -27.5c14.667 0 65.334 13 152.001 39z" />
    <glyph glyph-name="u0626" unicode="&#x626;" horiz-adv-x="1381" arabic-form="isolated" 
d="M1374 488c3.33301 -17.333 5 -30.6689 5 -40.002c0 -11.333 -2.33301 -17 -7 -17s-14 3.66699 -28 11c-34.667 18.667 -90 28 -166 28c-83.333 0 -155.666 -28.667 -216.999 -86c-47.333 -44.667 -71 -81 -71 -109c0 -31.333 25.333 -54.666 76 -69.999
c26.667 -8 78.667 -17.333 156 -28c69.333 -9.33301 117.333 -24.666 144 -45.999c38 -30 57 -82.333 57 -157c0 -186 -81.333 -318.333 -244 -397c-108.667 -52.667 -249.667 -79 -423 -79c-318 0 -477 131 -477 393c0 52.667 16 129.334 48 230.001
c37.333 118 75 177 113 177c26.667 0 40 -18.667 40 -56c0 -11.333 -10.167 -46.833 -30.5 -106.5s-30.5 -105.167 -30.5 -136.5c0 -168.667 126.667 -253 380 -253c109.333 0 212.666 11 309.999 33c132 30 198 72 198 126c0 29.333 -38.667 48.666 -116 57.999
c-113.333 13.333 -185.333 26 -216 38c-78 30 -117 85 -117 165c0 89.333 39.333 194.333 118 315c88 135.333 181.667 203 281 203c64.667 0 119 -28 163 -84c28.667 -36.667 46.667 -74 54 -112zM538 631.997c2.66699 -10 3.00195 -26.6699 1.00195 -50.0029
c-2 -24 -6 -39.667 -12 -47c-94 -24 -211.333 -67 -352 -129l-1 74l95 49c-18 6.66699 -35.667 21.334 -53 44.001s-26 43.334 -26 62.001c0 38.667 22.833 79.667 68.5 123s88.167 65 127.5 65c19.333 0 41.666 -7.66699 66.999 -23c28 -16.667 42 -34 42 -52
c0 -27.333 -10.333 -41 -31 -41c-8 0 -23.333 4.5 -46 13.5s-40.667 13.5 -54 13.5c-16 0 -33.333 -4.33301 -52 -13c-21.333 -10.667 -32 -23 -32 -37c0 -23.333 11.667 -44.166 35 -62.499s47 -27.5 71 -27.5c19.333 0 45.666 5.33301 78.999 16
c44 14 68.333 21.333 73 22z" />
    <glyph glyph-name="u0627" unicode="&#x627;" horiz-adv-x="398" arabic-form="isolated" 
d="M396 227c0 -47.333 -25.334 -124.667 -76.001 -232c-13.333 -28 -22.666 -42 -27.999 -42c-8.66699 0 -15.667 31 -21 93l-95 1056l184 153c12 10 20.667 15 26 15c6.66699 0 10 -7 10 -21v-1022z" />
    <glyph glyph-name="u0628" unicode="&#x628;" horiz-adv-x="1547" arabic-form="isolated" 
d="M1545 402c0 -144 -47.6641 -248.001 -142.997 -312.001c-106.667 -72 -319 -108 -637 -108c-172.667 0 -303.334 19.667 -392.001 59c-130.667 58 -196 161.333 -196 310c0 66 17.333 130.667 52 194c31.333 56.667 57.333 85 78 85c25.333 0 38 -14 38 -42
c0 -11.333 -5.16699 -32.166 -15.5 -62.499s-15.5 -53.833 -15.5 -70.5c0 -105.333 58.333 -172.333 175 -201c52 -12.667 161.667 -19 329 -19c390 0 585 32.667 585 98c0 12 -17 40 -51 84c-28.667 37.333 -51.334 64.333 -68.001 81l131 165
c7.33301 9.33301 12 14.333 14 15c3.33301 0.666992 8.66602 -3.33301 15.999 -12c66.667 -80.667 100 -168.667 100 -264zM980.003 -310.001l-135 -136l-136 136l136 136z" />
    <glyph glyph-name="u0629" unicode="&#x629;" horiz-adv-x="761" arabic-form="isolated" 
d="M760 314c0 -96.667 -27.5 -173.666 -82.5 -230.999s-130.5 -86 -226.5 -86c-104 0 -179.333 29.333 -226 88c-32 40.667 -48 89.667 -48 147c0 75.333 29.667 167 89 275c55.333 100.667 107.333 168 156 202c100 -38.667 175 -80.667 225 -126
c75.333 -68.667 113 -158.334 113 -269.001zM647 316.001c-65.333 77.333 -156.667 135 -274 173c-44.667 -49.333 -67 -105 -67 -167c0 -33.333 22.667 -59 68 -77c34 -12.667 71 -19 111 -19c68.667 0 120.667 12.667 156 38c20.667 14.667 22.667 32 6 52zM618.999 1069
c2.66699 -10 3 -26.667 1 -50c-2 -24 -6 -39.667 -12 -47c-94 -24 -211.333 -67 -352 -129l-1 74l94 48c-17.333 8 -34.666 23.333 -51.999 46s-26 43 -26 61c0 38.667 22.833 79.667 68.5 123s88.167 65 127.5 65c19.333 0 41.666 -7.66699 66.999 -23
c28 -16.667 42 -34 42 -52c0 -27.333 -10.333 -41 -31 -41c-8 0 -23.333 4.5 -46 13.5s-40.667 13.5 -54 13.5c-17.333 0 -34.666 -4.33301 -51.999 -13c-21.333 -10 -32 -22.667 -32 -38c0 -23.333 11.667 -44 35 -62s47 -27 71 -27c19.333 0 45.666 5.33301 78.999 16
c44 14 68.333 21.333 73 22z" />
    <glyph glyph-name="u062A" unicode="&#x62a;" horiz-adv-x="1547" arabic-form="isolated" 
d="M1545 402c0 -144 -47.6641 -248.001 -142.997 -312.001c-106.667 -72 -319 -108 -637 -108c-172.667 0 -303.334 19.667 -392.001 59c-130.667 58 -196 161.333 -196 310c0 66 17.333 130.667 52 194c31.333 56.667 57.333 85 78 85c25.333 0 38 -14 38 -42
c0 -11.333 -5.16699 -32.166 -15.5 -62.499s-15.5 -53.833 -15.5 -70.5c0 -105.333 58.333 -172.333 175 -201c52 -12.667 161.667 -19 329 -19c390 0 585 32.667 585 98c0 12 -17 40 -51 84c-28.667 37.333 -51.334 64.333 -68.001 81l131 165
c7.33301 9.33301 12 14.333 14 15c3.33301 0.666992 8.66602 -3.33301 15.999 -12c66.667 -80.667 100 -168.667 100 -264zM1098 790.999l-123 -122l-122 122l122 122zM824.003 790.999l-122 -122l-122 122l122 122z" />
    <glyph glyph-name="u062B" unicode="&#x62b;" horiz-adv-x="1547" arabic-form="isolated" 
d="M1545 402c0 -144 -47.6641 -248.001 -142.997 -312.001c-106.667 -72 -319 -108 -637 -108c-172.667 0 -303.334 19.667 -392.001 59c-130.667 58 -196 161.333 -196 310c0 66 17.333 130.667 52 194c31.333 56.667 57.333 85 78 85c25.333 0 38 -14 38 -42
c0 -11.333 -5.16699 -32.166 -15.5 -62.499s-15.5 -53.833 -15.5 -70.5c0 -105.333 58.333 -172.333 175 -201c52 -12.667 161.667 -19 329 -19c390 0 585 32.667 585 98c0 12 -17 40 -51 84c-28.667 37.333 -51.334 64.333 -68.001 81l131 165
c7.33301 9.33301 12 14.333 14 15c3.33301 0.666992 8.66602 -3.33301 15.999 -12c66.667 -80.667 100 -168.667 100 -264zM582.003 734.999l123 122l122 -122l-122 -123zM855.003 734.999l123 122l122 -122l-122 -123zM716.003 936.999l123 123l122 -123l-122 -122z" />
    <glyph glyph-name="u062C" unicode="&#x62c;" horiz-adv-x="1257" arabic-form="isolated" 
d="M1246 -382c-73.333 -108 -221.998 -161.999 -445.998 -161.999c-172.667 0 -312.667 30.333 -420 91c-135.333 76.667 -203 194.334 -203 353.001c0 131.333 58.667 249.333 176 354c94 84 214.333 151.667 361 203c-147.333 30 -239 45 -275 45
c-38 0 -78.5 -18.833 -121.5 -56.5s-64.167 -56.5 -63.5 -56.5c-30 0 -45 12.333 -45 37c0 21.333 9.66699 51.666 29 90.999c32 65.333 57.333 109 76 131c45.333 54 100.666 81 165.999 81c21.333 0 79.666 -8 174.999 -24c129.333 -22 224.333 -36 285 -42
c104 -10.667 201 -10.334 291 0.999023c16.667 2 25 1.33301 25 -2c-1.33301 -6 -5 -16 -11 -30l-84 -196c-126 -4 -222.333 -13.333 -289 -28c-95.333 -21.333 -184 -60.333 -266 -117c-131.333 -91.333 -197 -204.333 -197 -339c0 -229.333 163.667 -344 491 -344
c141.333 0 251.666 12 330.999 36c6.66699 2 11.334 3 14.001 3c4.66699 0 7.66699 -1.66699 9 -5c2.66699 -4.66699 0 -12.667 -8 -24zM989.002 -10.999l-135 -135l-136 135l136 136z" />
    <glyph glyph-name="u062D" unicode="&#x62d;" horiz-adv-x="1257" arabic-form="isolated" 
d="M1246 -382c-73.333 -108 -221.998 -161.999 -445.998 -161.999c-172.667 0 -312.667 30.333 -420 91c-135.333 76.667 -203 194.334 -203 353.001c0 131.333 58.667 249.333 176 354c94 84 214.333 151.667 361 203c-147.333 30 -239 45 -275 45
c-38 0 -78.5 -18.833 -121.5 -56.5s-64.167 -56.5 -63.5 -56.5c-30 0 -45 12.333 -45 37c0 21.333 9.66699 51.666 29 90.999c32 65.333 57.333 109 76 131c45.333 54 100.666 81 165.999 81c21.333 0 79.666 -8 174.999 -24c129.333 -22 224.333 -36 285 -42
c104 -10.667 201 -10.334 291 0.999023c16.667 2 25 1.33301 25 -2c-1.33301 -6 -5 -16 -11 -30l-84 -196c-126 -4 -222.333 -13.333 -289 -28c-95.333 -21.333 -184 -60.333 -266 -117c-131.333 -91.333 -197 -204.333 -197 -339c0 -229.333 163.667 -344 491 -344
c141.333 0 251.666 12 330.999 36c6.66699 2 11.334 3 14.001 3c4.66699 0 7.66699 -1.66699 9 -5c2.66699 -4.66699 0 -12.667 -8 -24z" />
    <glyph glyph-name="u062E" unicode="&#x62e;" horiz-adv-x="1257" arabic-form="isolated" 
d="M1246 -382c-73.333 -108 -221.998 -161.999 -445.998 -161.999c-172.667 0 -312.667 30.333 -420 91c-135.333 76.667 -203 194.334 -203 353.001c0 131.333 58.667 249.333 176 354c94 84 214.333 151.667 361 203c-147.333 30 -239 45 -275 45
c-38 0 -78.5 -18.833 -121.5 -56.5s-64.167 -56.5 -63.5 -56.5c-30 0 -45 12.333 -45 37c0 21.333 9.66699 51.666 29 90.999c32 65.333 57.333 109 76 131c45.333 54 100.666 81 165.999 81c21.333 0 79.666 -8 174.999 -24c129.333 -22 224.333 -36 285 -42
c104 -10.667 201 -10.334 291 0.999023c16.667 2 25 1.33301 25 -2c-1.33301 -6 -5 -16 -11 -30l-84 -196c-126 -4 -222.333 -13.333 -289 -28c-95.333 -21.333 -184 -60.333 -266 -117c-131.333 -91.333 -197 -204.333 -197 -339c0 -229.333 163.667 -344 491 -344
c141.333 0 251.666 12 330.999 36c6.66699 2 11.334 3 14.001 3c4.66699 0 7.66699 -1.66699 9 -5c2.66699 -4.66699 0 -12.667 -8 -24zM875.002 1051l-136 -136l-136 136l136 136z" />
    <glyph glyph-name="u062F" unicode="&#x62f;" horiz-adv-x="895" arabic-form="isolated" 
d="M891 364c0 -242 -151.332 -363.001 -453.999 -363.001c-173.333 0 -260 81 -260 243c0 15.333 1 31.333 3 48c10.667 88.667 34.667 133 72 133c21.333 0 33.333 -15.333 36 -46c3.33301 -42 12 -71 26 -87c26.667 -30.667 80.667 -46 162 -46
c51.333 0 106.666 5 165.999 15c87.333 14.667 131 36.667 131 66c0 52.667 -46.667 118 -140 196c-84.667 70.667 -154 113.334 -208 128.001l60 224c4 15.333 8.33301 23 13 23c4 0 11.333 -3.33301 22 -10c97.333 -62 180 -136 248 -222c82 -104 123 -204.667 123 -302z
" />
    <glyph glyph-name="u0630" unicode="&#x630;" horiz-adv-x="895" arabic-form="isolated" 
d="M891 364c0 -242 -151.332 -363.001 -453.999 -363.001c-173.333 0 -260 81 -260 243c0 15.333 1 31.333 3 48c10.667 88.667 34.667 133 72 133c21.333 0 33.333 -15.333 36 -46c3.33301 -42 12 -71 26 -87c26.667 -30.667 80.667 -46 162 -46
c51.333 0 106.666 5 165.999 15c87.333 14.667 131 36.667 131 66c0 52.667 -46.667 118 -140 196c-84.667 70.667 -154 113.334 -208 128.001l60 224c4 15.333 8.33301 23 13 23c4 0 11.333 -3.33301 22 -10c97.333 -62 180 -136 248 -222c82 -104 123 -204.667 123 -302z
M593.001 1155l-136 -136l-135 136l135 135z" />
    <glyph glyph-name="u0631" unicode="&#x631;" horiz-adv-x="769" arabic-form="isolated" 
d="M767 70c0 -190.667 -63.332 -351.667 -189.999 -483c-39.333 -40.667 -63.333 -61 -72 -61c-179.333 0 -312.333 17 -399 51c-18.667 7.33301 -19.334 14 -2.00098 20c123.333 44 239.333 108 348 192c124.667 96 187 182.333 187 259c0 32 -22.667 76.667 -68 134
c-38 48 -75 85.667 -111 113l97 205c6 12.667 14 14 24 4c124 -124 186 -268.667 186 -434z" />
    <glyph glyph-name="u0632" unicode="&#x632;" horiz-adv-x="769" arabic-form="isolated" 
d="M767 70c0 -190.667 -63.332 -351.667 -189.999 -483c-39.333 -40.667 -63.333 -61 -72 -61c-179.333 0 -312.333 17 -399 51c-18.667 7.33301 -19.334 14 -2.00098 20c123.333 44 239.333 108 348 192c124.667 96 187 182.333 187 259c0 32 -22.667 76.667 -68 134
c-38 48 -75 85.667 -111 113l97 205c6 12.667 14 14 24 4c124 -124 186 -268.667 186 -434zM654.001 818l-135 -135l-136 135l136 136z" />
    <glyph glyph-name="u0633" unicode="&#x633;" horiz-adv-x="1902" arabic-form="isolated" 
d="M1899 383c0 -92.667 -19.0059 -175 -57.0059 -247c-47.333 -90 -114.666 -135 -201.999 -135c-76.667 0 -140 42.667 -190 128c-48 -84.667 -106 -127 -174 -127c-24 0 -49.333 4.66699 -76 14c4.66699 -34 7 -66.667 7 -98c0 -162 -61.333 -282 -184 -360
c-101.333 -64 -237.666 -96 -408.999 -96c-154 0 -268.667 42.333 -344 127c-60.667 68 -91 154 -91 258c0 52.667 16 129.334 48 230.001c37.333 118 75 177 113 177c26.667 0 40 -18.667 40 -56c0 -11.333 -10.167 -46.833 -30.5 -106.5s-30.5 -105.167 -30.5 -136.5
c0 -94.667 37.667 -161 113 -199c54.667 -27.333 135.667 -41 243 -41c105.333 0 201 16.333 287 49c98.667 37.333 148 86 148 146c0 37.333 -29 96 -87 176c-49.333 68 -93.666 119.333 -132.999 154l99 202c7.33301 14.667 16 14.667 26 0
c84.667 -122.667 167 -184 247 -184c48.667 0 83.334 20 104.001 60c4.66699 8.66699 15 45.667 31 111c10 40 26.667 60 50 60c22 0 37.333 -20.333 46 -61c12.667 -58.667 24.334 -96.667 35.001 -114c25.333 -40.667 69 -61 131 -61c74.667 0 112 28 112 84
c0 28 -28.667 77.667 -86 149l91 141c11.333 18 18 27.333 20 28c4 -2 10.667 -9 20 -21c16.667 -21.333 33.334 -53.333 50.001 -96c22 -56.667 33 -108.334 33 -155.001z" />
    <glyph glyph-name="u0634" unicode="&#x634;" horiz-adv-x="1902" arabic-form="isolated" 
d="M1899 383c0 -92.667 -19.0059 -175 -57.0059 -247c-47.333 -90 -114.666 -135 -201.999 -135c-76.667 0 -140 42.667 -190 128c-48 -84.667 -106 -127 -174 -127c-24 0 -49.333 4.66699 -76 14c4.66699 -34 7 -66.667 7 -98c0 -162 -61.333 -282 -184 -360
c-101.333 -64 -237.666 -96 -408.999 -96c-154 0 -268.667 42.333 -344 127c-60.667 68 -91 154 -91 258c0 52.667 16 129.334 48 230.001c37.333 118 75 177 113 177c26.667 0 40 -18.667 40 -56c0 -11.333 -10.167 -46.833 -30.5 -106.5s-30.5 -105.167 -30.5 -136.5
c0 -94.667 37.667 -161 113 -199c54.667 -27.333 135.667 -41 243 -41c105.333 0 201 16.333 287 49c98.667 37.333 148 86 148 146c0 37.333 -29 96 -87 176c-49.333 68 -93.666 119.333 -132.999 154l99 202c7.33301 14.667 16 14.667 26 0
c84.667 -122.667 167 -184 247 -184c48.667 0 83.334 20 104.001 60c4.66699 8.66699 15 45.667 31 111c10 40 26.667 60 50 60c22 0 37.333 -20.333 46 -61c12.667 -58.667 24.334 -96.667 35.001 -114c25.333 -40.667 69 -61 131 -61c74.667 0 112 28 112 84
c0 28 -28.667 77.667 -86 149l91 141c11.333 18 18 27.333 20 28c4 -2 10.667 -9 20 -21c16.667 -21.333 33.334 -53.333 50.001 -96c22 -56.667 33 -108.334 33 -155.001zM1198.99 862l122 123l123 -123l-123 -122zM1471.99 862l122 123l123 -123l-123 -122zM1332.99 1065
l122 122l123 -122l-123 -122z" />
    <glyph glyph-name="u0635" unicode="&#x635;" horiz-adv-x="1920" arabic-form="isolated" 
d="M1918 458c0 -98.667 -41.001 -194.006 -123.001 -286.006c-102 -114 -236 -171 -402 -171c-83.333 0 -159.666 12 -228.999 36c8.66699 -41.333 13 -81.666 13 -120.999c0 -155.333 -57.333 -272.666 -172 -351.999c-98.667 -68 -229 -102 -391 -102
c-154 0 -268.667 42.333 -344 127c-60.667 68 -91 154 -91 258c0 52.667 16 129.334 48 230.001c37.333 118 75 177 113 177c26.667 0 40 -18.667 40 -56c0 -11.333 -10.167 -46.833 -30.5 -106.5s-30.5 -105.167 -30.5 -136.5c0 -94.667 37.667 -161 113 -199
c54.667 -27.333 135.667 -41 243 -41c105.333 0 196.333 17.333 273 52c90 40.667 135 96.334 135 167.001c0 36.667 -27.333 92.334 -82 167.001c-46 62.667 -89 111.334 -129 146.001l93 193c10 20 20.667 20.667 32 2c40 -65.333 89.333 -120 148 -164
c205.333 267.333 381 401 527 401c68 0 125.333 -19.333 172 -58c49.333 -42 74 -96.333 74 -163zM1756 346.994c0 41.333 -22 73.668 -66 97.001c-36 19.333 -76.333 29 -121 29c-86 0 -192.667 -72.667 -320 -218c55.333 -4 107 -6 155 -6c116 0 207.333 12.333 274 37
c52 19.333 78 39.666 78 60.999z" />
    <glyph glyph-name="u0636" unicode="&#x636;" horiz-adv-x="1920" arabic-form="isolated" 
d="M1918 458c0 -98.667 -41.001 -194.006 -123.001 -286.006c-102 -114 -236 -171 -402 -171c-83.333 0 -159.666 12 -228.999 36c8.66699 -41.333 13 -81.666 13 -120.999c0 -155.333 -57.333 -272.666 -172 -351.999c-98.667 -68 -229 -102 -391 -102
c-154 0 -268.667 42.333 -344 127c-60.667 68 -91 154 -91 258c0 52.667 16 129.334 48 230.001c37.333 118 75 177 113 177c26.667 0 40 -18.667 40 -56c0 -11.333 -10.167 -46.833 -30.5 -106.5s-30.5 -105.167 -30.5 -136.5c0 -94.667 37.667 -161 113 -199
c54.667 -27.333 135.667 -41 243 -41c105.333 0 196.333 17.333 273 52c90 40.667 135 96.334 135 167.001c0 36.667 -27.333 92.334 -82 167.001c-46 62.667 -89 111.334 -129 146.001l93 193c10 20 20.667 20.667 32 2c40 -65.333 89.333 -120 148 -164
c205.333 267.333 381 401 527 401c68 0 125.333 -19.333 172 -58c49.333 -42 74 -96.333 74 -163zM1756 346.994c0 41.333 -22 73.668 -66 97.001c-36 19.333 -76.333 29 -121 29c-86 0 -192.667 -72.667 -320 -218c55.333 -4 107 -6 155 -6c116 0 207.333 12.333 274 37
c52 19.333 78 39.666 78 60.999zM1625 978.996l-135 -136l-136 136l136 135z" />
    <glyph glyph-name="u0637" unicode="&#x637;" horiz-adv-x="1343" arabic-form="isolated" 
d="M1337 460c0 -171.333 -81 -295.667 -243 -373c-120 -57.333 -276.667 -86 -470 -86c-130 0 -226.333 16.667 -289 50c-72.667 38.667 -126.334 110.667 -161.001 216c93.333 -8.66699 206.666 -11.667 339.999 -9v76c0 264 -30.333 518.333 -91 763l187 171
c24.667 -71.333 59.334 -164.333 104.001 -279c2 -4 3.66699 -9 5 -15c0 -4 -3 -6 -9 -6c-7.33301 0 -30.666 5 -69.999 15c8.66699 -96 13 -180.667 13 -254c0 -101.333 -9.66699 -220 -29 -356c57.333 64 125.333 125 204 183c114 84 209 126 285 126
c49.333 0 96 -16.333 140 -49c56 -41.333 84 -99 84 -173zM1181 350.999c0 33.333 -19.333 63.333 -58 90c-36 24.667 -71.333 37 -106 37c-110.667 0 -233 -73.333 -367 -220h184c68 0 133.333 5 196 15c100.667 16 151 42 151 78z" />
    <glyph glyph-name="u0638" unicode="&#x638;" horiz-adv-x="1343" arabic-form="isolated" 
d="M1337 460c0 -171.333 -81 -295.667 -243 -373c-120 -57.333 -276.667 -86 -470 -86c-130 0 -226.333 16.667 -289 50c-72.667 38.667 -126.334 110.667 -161.001 216c93.333 -8.66699 206.666 -11.667 339.999 -9v76c0 264 -30.333 518.333 -91 763l187 171
c24.667 -71.333 59.334 -164.333 104.001 -279c2 -4 3.66699 -9 5 -15c0 -4 -3 -6 -9 -6c-7.33301 0 -30.666 5 -69.999 15c8.66699 -96 13 -180.667 13 -254c0 -101.333 -9.66699 -220 -29 -356c57.333 64 125.333 125 204 183c114 84 209 126 285 126
c49.333 0 96 -16.333 140 -49c56 -41.333 84 -99 84 -173zM1181 350.999c0 33.333 -19.333 63.333 -58 90c-36 24.667 -71.333 37 -106 37c-110.667 0 -233 -73.333 -367 -220h184c68 0 133.333 5 196 15c100.667 16 151 42 151 78zM1183 988.999l-136 -135l-135 135
l135 136z" />
    <glyph glyph-name="u0639" unicode="&#x639;" horiz-adv-x="1187" arabic-form="isolated" 
d="M1175 -366c-66 -117.333 -220.997 -176.001 -464.997 -176.001c-144.667 0 -264.667 28.667 -360 86c-115.333 69.333 -173 171.666 -173 306.999c0 98.667 41 187.667 123 267c69.333 67.333 153.333 116 252 146c-44.667 13.333 -84.334 36.333 -119.001 69
c-44.667 42 -67 89.667 -67 143c0 75.333 38.667 155.666 116 240.999c83.333 91.333 170.666 137 261.999 137c34.667 0 73.667 -12.667 117 -38c52.667 -30.667 90.667 -69.667 114 -117c11.333 -22.667 17 -39 17 -49c0 -8.66699 -4.33301 -13 -13 -13
c-4 0 -17 3.33301 -39 10c-57.333 17.333 -115 26 -173 26c-43.333 0 -93 -8 -149 -24c-72 -21.333 -108 -48 -108 -80c0 -29.333 18.667 -61.333 56 -96c51.333 -47.333 122.666 -71 213.999 -71c70 0 166.667 15.667 290 47c17.333 4.66699 27 6 29 4s0 -9.66699 -6 -23
l-84 -192c-404 -32.667 -606 -142.667 -606 -330c0 -105.333 51 -183.666 153 -234.999c79.333 -40 177 -60 293 -60c106 0 207.667 11.667 305 35c18 4.66699 28 6.33398 30 5.00098c-0.666992 -3.33301 -3.66699 -9.66602 -9 -18.999z" />
    <glyph glyph-name="u063A" unicode="&#x63a;" horiz-adv-x="1187" arabic-form="isolated" 
d="M1175 -366c-66 -117.333 -220.997 -176.001 -464.997 -176.001c-144.667 0 -264.667 28.667 -360 86c-115.333 69.333 -173 171.666 -173 306.999c0 98.667 41 187.667 123 267c69.333 67.333 153.333 116 252 146c-44.667 13.333 -84.334 36.333 -119.001 69
c-44.667 42 -67 89.667 -67 143c0 75.333 38.667 155.666 116 240.999c83.333 91.333 170.666 137 261.999 137c34.667 0 73.667 -12.667 117 -38c52.667 -30.667 90.667 -69.667 114 -117c11.333 -22.667 17 -39 17 -49c0 -8.66699 -4.33301 -13 -13 -13
c-4 0 -17 3.33301 -39 10c-57.333 17.333 -115 26 -173 26c-43.333 0 -93 -8 -149 -24c-72 -21.333 -108 -48 -108 -80c0 -29.333 18.667 -61.333 56 -96c51.333 -47.333 122.666 -71 213.999 -71c70 0 166.667 15.667 290 47c17.333 4.66699 27 6 29 4s0 -9.66699 -6 -23
l-84 -192c-404 -32.667 -606 -142.667 -606 -330c0 -105.333 51 -183.666 153 -234.999c79.333 -40 177 -60 293 -60c106 0 207.667 11.667 305 35c18 4.66699 28 6.33398 30 5.00098c-0.666992 -3.33301 -3.66699 -9.66602 -9 -18.999zM857.003 1121l-136 -135l-135 135
l135 136z" />
    <glyph glyph-name="u0641" unicode="&#x641;" horiz-adv-x="1524" arabic-form="isolated" 
d="M1521 418c0 -162.667 -45.3311 -274.333 -135.998 -335c-48.667 -32.667 -149 -58.667 -301 -78c-119.333 -15.333 -225.666 -23 -318.999 -23c-172.667 0 -303.334 19.667 -392.001 59c-130.667 58 -196 161.333 -196 310c0 66 17.333 130.667 52 194
c31.333 56.667 57.333 85 78 85c25.333 0 38 -14 38 -42c0 -11.333 -5.16699 -32.166 -15.5 -62.499s-15.5 -53.833 -15.5 -70.5c0 -105.333 58.333 -172.333 175 -201c52 -12.667 161.667 -19 329 -19c253.333 0 442.666 24.333 567.999 73c24 9.33301 36 27 36 53
c0 18 -13.333 25.667 -40 23c-84.667 -8 -144.334 -12 -179.001 -12c-132.667 0 -199 49 -199 147c0 80.667 20.333 160.667 61 240c49.333 96 112 144 188 144c104 0 179 -68 225 -204c28.667 -84.667 43 -178.334 43 -281.001zM1370 568.001c-18.667 46 -47 81 -85 105
c-28.667 18 -55 27 -79 27c-21.333 0 -40.5 -7.16699 -57.5 -21.5s-25.5 -31.833 -25.5 -52.5c0 -46.667 45.333 -70 136 -70c34 0 71 4 111 12zM1380 1148l-135 -136l-136 136l136 135z" />
    <glyph glyph-name="u0642" unicode="&#x642;" horiz-adv-x="1260" arabic-form="isolated" 
d="M1255 -34c0 -314.667 -213.666 -472.002 -640.999 -472.002c-154 0 -268.667 42.333 -344 127c-60.667 68 -91 153.667 -91 257c0 52.667 16 129.334 48 230.001c37.333 118 75 177 113 177c26.667 0 40 -18.333 40 -55c0 -12 -10.167 -47.667 -30.5 -107
s-30.5 -104.666 -30.5 -135.999c0 -94.667 37.667 -161 113 -199c54 -27.333 135 -41.333 243 -42c99.333 -0.666992 195.666 12 288.999 38c126.667 35.333 190 89 190 161c0 18 -4 37 -12 57c-18 0 -44.667 -0.5 -80 -1.5s-62 -1.5 -80 -1.5
c-86 0 -148.667 9.33301 -188 28c-53.333 25.333 -80 71.333 -80 138c0 86 20.333 173 61 261c50 108.667 112.667 163 188 163c89.333 0 162 -49.667 218 -149c49.333 -87.333 74 -186 74 -296v-178zM1087 242.998c-18 44.667 -46.334 79.333 -85.001 104
c-29.333 18.667 -55.666 28 -78.999 28c-21.333 0 -40.5 -7.16699 -57.5 -21.5s-25.5 -31.833 -25.5 -52.5c0 -46.667 45.333 -70 136 -70c34 0 71 4 111 12zM1203 869.997l-122 -122l-123 122l123 123zM930 869.997l-122 -122l-123 122l123 123z" />
    <glyph glyph-name="u0643" unicode="&#x643;" horiz-adv-x="1744" arabic-form="isolated" 
d="M1795 1242l-41.999 -227.001c-106.667 -34.667 -283.334 -95.667 -530.001 -183c82.667 -82.667 142.334 -152 179.001 -208c51.333 -78.667 77 -157.334 77 -236.001c0 -146 -47.667 -254.667 -143 -326c-34 -25.333 -117.667 -45.666 -251 -60.999
c-110 -12.667 -216.667 -19 -320 -19c-186 0 -319.333 17.333 -400 52c-125.333 54 -188 159.667 -188 317c0 66 17.333 130.667 52 194c31.333 56.667 57.333 85 78 85c25.333 0 38 -14 38 -42c0 -11.333 -5.16699 -32.166 -15.5 -62.499s-15.5 -53.833 -15.5 -70.5
c0 -106.667 51.667 -173.667 155 -201c48 -12.667 164.333 -19 349 -19c223.333 0 375 9 455 27c60 13.333 90 37 90 71c0 43.333 -41 110 -123 200c-75.333 82.667 -145 144 -209 184l49 258c151.333 60.667 389.666 149.667 714.999 267z" />
    <glyph glyph-name="u0644" unicode="&#x644;" horiz-adv-x="1211" arabic-form="isolated" 
d="M1198 988c2.66699 -6.66699 4.66699 -12.3301 6 -16.9971c-1.33301 -2.66699 -5.33301 -4 -12 -4c-11.333 0 -31 2.66699 -59 8c10 -159.333 13.333 -471 10 -935c-2 -352 -187.333 -528 -556 -528c-274.667 0 -412 123 -412 369c0 55.333 14.333 123 43 203
c30 84 58.333 126 85 126c24.667 0 37 -16 37 -48c0 -18 -6.16699 -46.833 -18.5 -86.5s-18.5 -69.834 -18.5 -90.501c0 -145.333 104 -218 312 -218c138.667 0 244.667 22.333 318 67c50.667 30.667 76 59.667 76 87c0 163.333 -11 359.666 -33 588.999
c-22.667 238.667 -50 433 -82 583l184 165c10.667 9.33301 18 7.66602 22 -5.00098c23.333 -68.667 56 -157 98 -265z" />
    <glyph glyph-name="u0645" unicode="&#x645;" horiz-adv-x="969" arabic-form="isolated" 
d="M966 346c0 -53.333 -14.999 -110.001 -44.999 -170.001c-41.333 -82.667 -99 -124 -173 -124c-40 0 -99.5 7.83301 -178.5 23.5s-138.5 23.5 -178.5 23.5c-46 0 -69 -14.333 -69 -43c0 -4.66699 0.333008 -10.334 1 -17.001c21.333 -205.333 28.333 -340 21 -404
c-2 -15.333 -15.333 -43.666 -40 -84.999l-49 -79c-8.66699 -14.667 -15.334 -22 -20.001 -22c-6 0 -9.66699 12.333 -11 37c-5.33301 98 -15 223.667 -29 377c-12 131.333 -18 209 -18 233c0 67.333 22.667 121 68 161c43.333 38.667 99.333 58 168 58
c-0.666992 7.33301 -2.66699 21.666 -6 42.999c-2.66699 18.667 -4 33.334 -4 44.001c0 44.667 23 96.667 69 156c50.667 66 104 99 160 99c66 0 139 -39.333 219 -118c76.667 -75.333 115 -139.666 115 -192.999zM812.001 287.999
c-28 35.333 -63.332 68.001 -105.999 98.001c-51.333 36 -95.333 54 -132 54c-34 0 -51 -17 -51 -51c0 -58.667 -0.333008 -81.667 -1 -69c0.666992 -10.667 7 -17.334 19 -20.001c49.333 -10.667 132.666 -27 249.999 -49c22 -4 33 0 33 12c0 6.66699 -4 15 -12 25z" />
    <glyph glyph-name="u0646" unicode="&#x646;" horiz-adv-x="1244" arabic-form="isolated" 
d="M1242 -37c0 -192 -59 -327.002 -177 -405.002c-96.667 -64 -247 -96 -451 -96c-154 0 -268.667 42.333 -344 127c-60.667 68 -91 154 -91 258c0 52.667 16 129.334 48 230.001c37.333 118 75 177 113 177c26.667 0 40 -18.667 40 -56
c0 -11.333 -10.167 -46.833 -30.5 -106.5s-30.5 -105.167 -30.5 -136.5c0 -94.667 37.667 -161 113 -199c54.667 -27.333 135.667 -41 243 -41c100 0 190.333 10.667 271 32c124 32.667 186 85.334 186 158.001c0 38 -25.667 97 -77 177
c-46.667 72.667 -87.667 124.667 -123 156l105 215c6.66699 14 15 14 25 0c120 -172 180 -335.333 180 -490zM831 587.998l-136 -136l-136 136l136 135z" />
    <glyph glyph-name="u0647" unicode="&#x647;" horiz-adv-x="761" arabic-form="isolated" 
d="M760 314c0 -96.667 -27.5 -173.666 -82.5 -230.999s-130.5 -86 -226.5 -86c-104 0 -179.333 29.333 -226 88c-32 40.667 -48 89.667 -48 147c0 75.333 29.667 167 89 275c55.333 100.667 107.333 168 156 202c100 -38.667 175 -80.667 225 -126
c75.333 -68.667 113 -158.334 113 -269.001zM647 316.001c-65.333 77.333 -156.667 135 -274 173c-44.667 -49.333 -67 -105 -67 -167c0 -33.333 22.667 -59 68 -77c34 -12.667 71 -19 111 -19c68.667 0 120.667 12.667 156 38c20.667 14.667 22.667 32 6 52z" />
    <glyph glyph-name="u0648" unicode="&#x648;" horiz-adv-x="782" arabic-form="isolated" 
d="M780 38c0 -174 -59.332 -324.669 -177.999 -452.002c-37.333 -40 -61 -60 -71 -60c-167.333 0 -300.333 17 -399 51c-19.333 6.66699 -20 13.334 -2 20.001c118.667 42.667 234.334 109 347.001 199c123.333 98 185 179.667 185 245
c-14.667 0 -36.834 -0.333008 -66.501 -1s-51.834 -1 -66.501 -1c-90.667 0 -156 10.333 -196 31c-55.333 28.667 -83 81 -83 157c0 70.667 22.333 151.334 67 242.001c54 109.333 118 164 192 164c92 0 163 -53.333 213 -160c38.667 -82.667 58 -175.667 58 -279v-156z
M625.001 290.998c-18 44.667 -46.334 79.333 -85.001 104c-29.333 18.667 -55.333 28 -78 28c-20.667 0 -39.667 -7.33301 -57 -22s-26 -32 -26 -52c0 -46.667 37.333 -70 112 -70c34.667 0 79.334 4 134.001 12z" />
    <glyph glyph-name="u0649" unicode="&#x649;" horiz-adv-x="1381" arabic-form="isolated" 
d="M1374 488c3.33301 -17.333 5 -30.6689 5 -40.002c0 -11.333 -2.33301 -17 -7 -17s-14 3.66699 -28 11c-34.667 18.667 -90 28 -166 28c-83.333 0 -155.666 -28.667 -216.999 -86c-47.333 -44.667 -71 -81 -71 -109c0 -31.333 25.333 -54.666 76 -69.999
c26.667 -8 78.667 -17.333 156 -28c69.333 -9.33301 117.333 -24.666 144 -45.999c38 -30 57 -82.333 57 -157c0 -186 -81.333 -318.333 -244 -397c-108.667 -52.667 -249.667 -79 -423 -79c-318 0 -477 131 -477 393c0 52.667 16 129.334 48 230.001
c37.333 118 75 177 113 177c26.667 0 40 -18.667 40 -56c0 -11.333 -10.167 -46.833 -30.5 -106.5s-30.5 -105.167 -30.5 -136.5c0 -168.667 126.667 -253 380 -253c109.333 0 212.666 11 309.999 33c132 30 198 72 198 126c0 29.333 -38.667 48.666 -116 57.999
c-113.333 13.333 -185.333 26 -216 38c-78 30 -117 85 -117 165c0 89.333 39.333 194.333 118 315c88 135.333 181.667 203 281 203c64.667 0 119 -28 163 -84c28.667 -36.667 46.667 -74 54 -112z" />
    <glyph glyph-name="u064A" unicode="&#x64a;" horiz-adv-x="1381" arabic-form="isolated" 
d="M1374 488c3.33301 -17.333 5 -30.6689 5 -40.002c0 -11.333 -2.33301 -17 -7 -17s-14 3.66699 -28 11c-34.667 18.667 -90 28 -166 28c-83.333 0 -155.666 -28.667 -216.999 -86c-47.333 -44.667 -71 -81 -71 -109c0 -31.333 25.333 -54.666 76 -69.999
c26.667 -8 78.667 -17.333 156 -28c69.333 -9.33301 117.333 -24.666 144 -45.999c38 -30 57 -82.333 57 -157c0 -186 -81.333 -318.333 -244 -397c-108.667 -52.667 -249.667 -79 -423 -79c-318 0 -477 131 -477 393c0 52.667 16 129.334 48 230.001
c37.333 118 75 177 113 177c26.667 0 40 -18.667 40 -56c0 -11.333 -10.167 -46.833 -30.5 -106.5s-30.5 -105.167 -30.5 -136.5c0 -168.667 126.667 -253 380 -253c109.333 0 212.666 11 309.999 33c132 30 198 72 198 126c0 29.333 -38.667 48.666 -116 57.999
c-113.333 13.333 -185.333 26 -216 38c-78 30 -117 85 -117 165c0 89.333 39.333 194.333 118 315c88 135.333 181.667 203 281 203c64.667 0 119 -28 163 -84c28.667 -36.667 46.667 -74 54 -112z" />
    <glyph glyph-name="u067E" unicode="&#x67e;" horiz-adv-x="1547" arabic-form="isolated" 
d="M1545 402c0 -144 -47.6641 -248.001 -142.997 -312.001c-106.667 -72 -319 -108 -637 -108c-172.667 0 -303.334 19.667 -392.001 59c-130.667 58 -196 161.333 -196 310c0 66 17.333 130.667 52 194c31.333 56.667 57.333 85 78 85c25.333 0 38 -14 38 -42
c0 -11.333 -5.16699 -32.166 -15.5 -62.499s-15.5 -53.833 -15.5 -70.5c0 -105.333 58.333 -172.333 175 -201c52 -12.667 161.667 -19 329 -19c390 0 585 32.667 585 98c0 12 -17 40 -51 84c-28.667 37.333 -51.334 64.333 -68.001 81l131 165
c7.33301 9.33301 12 14.333 14 15c3.33301 0.666992 8.66602 -3.33301 15.999 -12c66.667 -80.667 100 -168.667 100 -264zM1113 -230.001l-122 -122l-122 122l122 123zM840.003 -230.001l-122 -122l-123 122l123 123zM980.003 -433.001l-123 -122l-122 122l122 123z" />
    <glyph glyph-name="u0686" unicode="&#x686;" horiz-adv-x="1257" arabic-form="isolated" 
d="M1246 -382c-73.333 -108 -221.998 -161.999 -445.998 -161.999c-172.667 0 -312.667 30.333 -420 91c-135.333 76.667 -203 194.334 -203 353.001c0 131.333 58.667 249.333 176 354c94 84 214.333 151.667 361 203c-147.333 30 -239 45 -275 45
c-38 0 -78.5 -18.833 -121.5 -56.5s-64.167 -56.5 -63.5 -56.5c-30 0 -45 12.333 -45 37c0 21.333 9.66699 51.666 29 90.999c32 65.333 57.333 109 76 131c45.333 54 100.666 81 165.999 81c21.333 0 79.666 -8 174.999 -24c129.333 -22 224.333 -36 285 -42
c104 -10.667 201 -10.334 291 0.999023c16.667 2 25 1.33301 25 -2c-1.33301 -6 -5 -16 -11 -30l-84 -196c-126 -4 -222.333 -13.333 -289 -28c-95.333 -21.333 -184 -60.333 -266 -117c-131.333 -91.333 -197 -204.333 -197 -339c0 -229.333 163.667 -344 491 -344
c141.333 0 251.666 12 330.999 36c6.66699 2 11.334 3 14.001 3c4.66699 0 7.66699 -1.66699 9 -5c2.66699 -4.66699 0 -12.667 -8 -24zM1153 39.001l-122 -123l-123 123l123 122zM880.002 39.001l-122 -123l-123 123l123 122zM1019 -163.999l-122 -122l-123 122l123 123z
" />
    <glyph glyph-name="u0698" unicode="&#x698;" horiz-adv-x="769" arabic-form="isolated" 
d="M767 70c0 -190.667 -63.332 -351.667 -189.999 -483c-39.333 -40.667 -63.333 -61 -72 -61c-179.333 0 -312.333 17 -399 51c-18.667 7.33301 -19.334 14 -2.00098 20c123.333 44 239.333 108 348 192c124.667 96 187 182.333 187 259c0 32 -22.667 76.667 -68 134
c-38 48 -75 85.667 -111 113l97 205c6 12.667 14 14 24 4c124 -124 186 -268.667 186 -434zM256.001 792l123 122l122 -122l-122 -123zM529.001 792l123 122l122 -122l-122 -123zM390.001 994l123 123l122 -123l-122 -122z" />
    <glyph glyph-name="u06AF" unicode="&#x6af;" horiz-adv-x="1736" arabic-form="isolated" 
d="M1767 1305l-21 -108c-191.333 -45.333 -394 -100 -608 -164l34 112c180 56 378.333 109.333 595 160zM1807 1107l-60 -216.003c-186.667 -29.333 -358.667 -67 -516 -113c64 -48 119.667 -106 167 -174c54 -78 81 -150 81 -216c0 -146 -47.667 -254.667 -143 -326
c-34 -25.333 -117.667 -45.666 -251 -60.999c-110 -12.667 -216.667 -19 -320 -19c-186 0 -319.333 17.333 -400 52c-125.333 54 -188 159.667 -188 317c0 66 17.333 130.667 52 194c31.333 56.667 57.333 85 78 85c25.333 0 38 -14 38 -42
c0 -11.333 -5.16699 -32.166 -15.5 -62.499s-15.5 -53.833 -15.5 -70.5c0 -106.667 51.667 -173.667 155 -201c48 -12.667 164.333 -19 349 -19c223.333 0 375 9 455 27c60 13.333 90 37 90 71c0 42.667 -41 104 -123 184c-70 68.667 -139.333 124.334 -208 167.001l43 228
c136.667 51.333 380.667 116.333 732 195z" />
    <glyph glyph-name="uFB57" unicode="&#x67e;" horiz-adv-x="1693" arabic-form="final" 
d="M1720 1l-75.001 -0.000976562c-60.667 0 -116 21 -166 63c-40.667 34 -68 72 -82 114c-95.333 -82 -209 -137.667 -341 -167c-86.667 -19.333 -198.334 -29 -335.001 -29c-362.667 0 -544 123 -544 369c0 66.667 16 131.334 48 194.001
c28.667 56.667 53.334 85 74.001 85c25.333 0 38 -14 38 -42c0 -14.667 -4.16699 -37 -12.5 -67s-12.5 -52.667 -12.5 -68c0 -91.333 51.333 -153.333 154 -186c67.333 -21.333 170 -32 308 -32c257.333 0 451.666 48.667 582.999 146c20.667 15.333 49.334 43 86.001 83
c28.667 31.333 49.334 47 62.001 47c23.333 0 35 -16.333 35 -49c0 -14.667 -16.333 -57 -49 -127c20.667 -51.333 77 -77 169 -77h60v-257zM1113 -230.001l-122 -122l-122 122l122 123zM839.999 -230.001l-122 -122l-123 122l123 123zM979.999 -433.001l-123 -122l-122 122
l122 123z" />
    <glyph glyph-name="uFB58" unicode="&#x67e;" horiz-adv-x="537" arabic-form="initial" 
d="M367 392c0 -98.667 -19 -182.333 -57 -251c-52 -93.333 -132 -140 -240 -140h-96v257h111c96 0 144 18 144 54c0 31.333 -37.333 88 -112 170c-8.66699 9.33301 -8.66699 20 0 32l117 163c10 14 20 15.667 30 5c30 -32 55 -77.333 75 -136
c18.667 -54.667 28 -106 28 -154zM541 -229.999l-123 -122l-122 122l122 123zM268 -229.999l-123 -122l-122 122l122 123zM407 -432.999l-122 -122l-123 122l123 123z" />
    <glyph glyph-name="uFB59" unicode="&#x67e;" horiz-adv-x="715" arabic-form="medial" 
d="M742 1h-94.999c-51.333 0 -100.833 13.5 -148.5 40.5s-84.5 62.5 -110.5 106.5c-58 -98 -143.333 -147 -256 -147h-158v257h118c97.333 0 164.666 21.667 201.999 65c19.333 22 34.333 62.333 45 121c8 43.333 24.333 65 49 65c24 0 39.667 -21.667 47 -65
c10 -58.667 22.667 -99 38 -121c30.667 -43.333 86 -65 166 -65h103v-257zM611.001 -230l-122 -122l-123 122l123 123zM338.001 -230l-122 -122l-123 122l123 123zM477.001 -433l-122 -122l-122 122l122 123z" />
    <glyph glyph-name="uFB7B" unicode="&#x686;" horiz-adv-x="1374" arabic-form="final" 
d="M1401 1h-142.999c-247.333 0 -371 111 -371 333c0 24.667 1.66699 50.667 5 78c-106 -22.667 -202 -63.667 -288 -123c-130 -89.333 -195 -201.666 -195 -336.999c0 -229.333 163.667 -344 491 -344c141.333 0 251.666 12 330.999 36c6.66699 2 11.334 3 14.001 3
c4.66699 0 7.66699 -1.66699 9 -5c2.66699 -4.66699 0 -12.667 -8 -24c-73.333 -108 -222 -162 -446 -162c-172.667 0 -312.667 30.333 -420 91c-135.333 76.667 -203 194.334 -203 353.001c0 131.333 58.667 249.333 176 354c94 84 214.333 151.667 361 203
c-147.333 30 -239 45 -275 45c-38 0 -78.5 -18.833 -121.5 -56.5s-64.167 -56.5 -63.5 -56.5c-30 0 -45 12.333 -45 37c0 21.333 9.66699 51.666 29 90.999c32 65.333 57.333 109 76 131c45.333 54 100.666 81 165.999 81c22 0 80.333 -8 175 -24
c128.667 -22 223.667 -36 285 -42c105.333 -10.667 202.333 -10.334 291 0.999023c19.333 2.66699 29 1.66699 29 -3c0 -2.66699 -3.66699 -12.334 -11 -29.001l-88 -196c-50.667 0 -106 -3.33301 -166 -10c0 -77.333 34 -127.666 102 -150.999
c32.667 -11.333 89.667 -17 171 -17h133v-257zM1056 -14l-122 -123l-123 123l123 122zM783.001 -14l-122 -123l-123 123l123 122zM922.001 -217l-122 -122l-123 122l123 123z" />
    <glyph glyph-name="uFB7C" unicode="&#x686;" horiz-adv-x="1120" arabic-form="initial" 
d="M1113 468l-129 -184.998c-88 0 -181 -24.333 -279 -73l-275 -136c-104 -48.667 -228 -73 -372 -73h-81v257h108c142.667 0 257.667 10.333 345 31c72 17.333 153 48.666 243 93.999l-159 61c-84 32 -144 48 -180 48s-75 -16.833 -117 -50.5s-64.667 -50.5 -68 -50.5
c-26.667 0 -40 15 -40 45c0 20 9.66699 47.333 29 82c73.333 130 155.333 195 246 195c45.333 0 150 -36.833 314 -110.5s287 -110.5 369 -110.5c34.667 0 52 -3.33301 52 -10c-0.666992 -4.66699 -2.66699 -9.33398 -6 -14.001zM924 -180.998l-122 -123l-123 123l123 122z
M651 -180.998l-122 -123l-123 123l123 122zM790 -383.998l-122 -122l-123 122l123 122z" />
    <glyph glyph-name="uFB7D" unicode="&#x686;" horiz-adv-x="1234" arabic-form="medial" 
d="M1259 1l-197.997 -0.000976562c-218.667 0 -328 102.667 -328 308c-222 -205.333 -448 -308 -678 -308h-81v257h108c121.333 0 225.666 15.667 312.999 47c59.333 21.333 153.333 69.333 282 144c-155.333 54 -270.333 81 -345 81c-36 0 -75 -19.833 -117 -59.5
s-64.667 -59.5 -68 -59.5c-25.333 0 -38 11.667 -38 35c0 25.333 5.66699 49.333 17 72c77.333 156 166.666 234 267.999 234c52.667 0 152.167 -23.5 298.5 -70.5s260.166 -70.5 341.499 -70.5c52.667 0 79 -2.33301 79 -7c-0.666992 -2 -3 -7.33301 -7 -16l-85 -183
c-74 0 -135.333 -10 -184 -30c0 -51.333 29.667 -85.666 89 -102.999c32 -9.33301 83.333 -14 154 -14h179v-257zM871.003 -181.001l-122 -123l-123 123l123 122zM598.003 -181.001l-122 -123l-123 123l123 122zM737.003 -384.001l-122 -122l-123 122l123 122z" />
    <glyph glyph-name="uFB8B" unicode="&#x698;" horiz-adv-x="928" arabic-form="final" 
d="M954 1l-44 0.00195312c-64.667 0 -114.667 8.66699 -150 26c0 -202.667 -61.333 -363.334 -184 -482.001c-37.333 -36 -61 -54 -71 -54c-178 0 -311 17 -399 51c-17.333 6.66699 -18 13 -2 19c120.667 44.667 237.667 109.667 351 195
c126.667 95.333 190 177.333 190 246c0 32.667 -23 77 -69 133c-34 41.333 -71.667 79.666 -113 114.999l105 212c6 12 13.333 12 22 0c100 -136 192.333 -204 277 -204h87v-257zM274 757.002l122 122l123 -122l-123 -123zM547 757.002l122 122l123 -122l-123 -123z
M408 959.002l122 123l123 -123l-123 -122z" />
    <glyph glyph-name="uFEDA" unicode="&#x6a9;" horiz-adv-x="2028" arabic-form="final" 
d="M2052 1l-154 -0.00292969c-64.667 0 -133 30.333 -205 91c-42 35.333 -115 111.333 -219 228c-4.66699 -106.667 -50.667 -192.667 -138 -258c-34 -25.333 -117.667 -45.666 -251 -60.999c-110 -12.667 -216.667 -19 -320 -19c-186 0 -319.333 17.333 -400 52
c-125.333 54 -188 159.667 -188 317c0 66 17.333 130.667 52 194c31.333 56.667 57.333 85 78 85c25.333 0 38 -14 38 -42c0 -11.333 -5.16699 -32.166 -15.5 -62.499s-15.5 -53.833 -15.5 -70.5c0 -106.667 51.667 -173.667 155 -201c48 -12.667 164.333 -19 349 -19
c223.333 0 375 9 455 27c60 13.333 90 37 90 71c0 43.333 -41 110 -123 200c-75.333 82.667 -145 144 -209 184l49 258c279.333 111.333 532.666 204 759.999 278l-52 -228c-118 -37.333 -306.333 -101.666 -565 -192.999c102.667 -98 213.334 -209.667 332.001 -335
c90.667 -96 153.334 -157 188.001 -183c49.333 -37.333 100.666 -56 153.999 -56h155v-257z" />
    <glyph glyph-name="uFEDB" unicode="&#x6a9;" horiz-adv-x="777" arabic-form="initial" 
d="M826 1242l-41.999 -226.999c-106.667 -34.667 -283.334 -95.667 -530.001 -183c82.667 -82.667 142.334 -152 179.001 -208c51.333 -78.667 77 -157.334 77 -236.001c0 -258 -140.667 -387 -422 -387h-114v257h77c141.333 0 236.333 6.33301 285 19
c38.667 10 58 28.667 58 56c0 43.333 -41 110 -123 200c-75.333 82.667 -145 144 -209 184l49 258c151.333 60.667 389.666 149.667 714.999 267z" />
    <glyph glyph-name="uFEDC" unicode="&#x6a9;" horiz-adv-x="1083" arabic-form="medial" 
d="M1110 1l-181 -0.00195312c-64.667 0 -133 30.333 -205 91c-42 35.333 -115 111.333 -219 228c-10 -212.667 -134.667 -319 -374 -319h-157v257h123c198 0 297 25 297 75c0 48.667 -41 117 -123 205c-71.333 76.667 -141 136.334 -209 179.001l49 258
c279.333 111.333 532.666 204 759.999 278l-52 -228c-118 -37.333 -306.333 -101.666 -565 -192.999c102.667 -98 213.334 -209.667 332.001 -335c90.667 -96 153.334 -157 188.001 -183c49.333 -37.333 100.666 -56 153.999 -56h182v-257z" />
    <glyph glyph-name="uFB93" unicode="&#x6af;" horiz-adv-x="2028" arabic-form="final" 
d="M1808 1315l-22 -107c-196 -40.667 -411.333 -97.667 -646 -171l34 112c162.667 50 374 105.333 634 166zM2053 1l-154.998 -0.00195312c-64.667 0 -133 30.333 -205 91c-42 35.333 -115 111.333 -219 228c-5.33301 -111.333 -48.333 -197.333 -129 -258
c-32 -24 -117 -44 -255 -60c-115.333 -13.333 -223.666 -20 -324.999 -20c-186 0 -319.333 17.333 -400 52c-125.333 54 -188 159.667 -188 317c0 66 17.333 130.667 52 194c31.333 56.667 57.333 85 78 85c25.333 0 38 -14 38 -42
c0 -11.333 -5.16699 -32.166 -15.5 -62.499s-15.5 -53.833 -15.5 -70.5c0 -106.667 51.667 -173.667 155 -201c48 -12.667 164.333 -19 349 -19c223.333 0 375 9 455 27c60 13.333 90 37 90 71c0 42.667 -41 104.334 -123 185.001c-70 68.667 -139.667 125 -209 169l49 235
c321.333 96.667 577.666 161 768.999 193l-66 -217c-212 -33.333 -398.667 -72 -560 -116c103.333 -86.667 212.666 -185.667 327.999 -297c94 -90.667 157 -147.667 189 -171c51.333 -37.333 103.666 -56 156.999 -56h156v-257z" />
    <glyph glyph-name="uFB94" unicode="&#x6af;" horiz-adv-x="777" arabic-form="initial" 
d="M798 1305l-20.999 -107.999c-224.667 -54.667 -427.334 -109.334 -608.001 -164.001l34 112c180 56 378.333 109.333 595 160zM838.001 1107l-60 -216.001c-186.667 -29.333 -358.667 -67 -516 -113c64 -48 119.667 -106 167 -174c54 -78 81 -150 81 -216
c0 -139.333 -36.333 -239.666 -109 -300.999c-67.333 -57.333 -171.666 -86 -312.999 -86h-114v257h77c141.333 0 236.333 6.33301 285 19c38.667 10 58 28.667 58 56c0 42.667 -40.667 104 -122 184c-68.667 67.333 -138.334 123 -209.001 167l43 228
c136.667 51.333 380.667 116.333 732 195z" />
    <glyph glyph-name="uFB95" unicode="&#x6af;" horiz-adv-x="1057" arabic-form="medial" 
d="M839 1315l-22 -107c-262.667 -64.667 -478 -121.667 -646 -171l34 112c162.667 50 374 105.333 634 166zM1083 1l-153.996 -0.000976562c-64.667 0 -133 30.333 -205 91c-42 35.333 -115 111.333 -219 228c-5.33301 -111.333 -48.333 -197.333 -129 -258
c-25.333 -18.667 -77.333 -34 -156 -46c-66.667 -10 -129.334 -15 -188.001 -15h-59v257h59c241.333 0 362 25 362 75c0 42.667 -41 104.334 -123 185.001c-70 68.667 -139.667 125 -209 169l49 235c321.333 96.667 577.666 161 768.999 193l-66 -217
c-212 -33.333 -398.667 -72 -560 -116c103.333 -86.667 212.666 -185.667 327.999 -297c94 -90.667 157 -147.667 189 -171c51.333 -37.333 103.666 -56 156.999 -56h155v-257z" />
    <glyph glyph-name="uFE94" unicode="&#x6c0;" horiz-adv-x="982" arabic-form="final" 
d="M1009 1l-124.998 0.000976562c-107.333 0 -185.333 80.667 -234 242l-84 -136c-259.333 0 -389 44.667 -389 134c0 47.333 21.333 117.333 64 210c75.333 73.333 178.666 136.333 309.999 189c-6.66699 22 -17.334 54 -32.001 96l140 161
c12 -26.667 42.333 -171.334 91 -434.001c16.667 -90.667 39.667 -150 69 -178c18.667 -18 50 -27 94 -27h96v-257zM634.002 317.001l-54 199c-141.333 -58 -222.666 -106 -243.999 -144c23.333 -36.667 122.666 -55 297.999 -55zM679.002 1119c2.66699 -10 3 -26.667 1 -50
c-2 -24 -6 -39.667 -12 -47c-94 -24 -211.333 -67 -352 -129l-1 74l94 48c-17.333 8 -34.666 23.333 -51.999 46s-26 43 -26 61c0 38.667 22.833 79.667 68.5 123s88.167 65 127.5 65c19.333 0 41.666 -7.66699 66.999 -23c28 -16.667 42 -34 42 -52
c0 -27.333 -10.333 -41 -31 -41c-8 0 -23.333 4.5 -46 13.5s-40.667 13.5 -54 13.5c-17.333 0 -34.666 -4.33301 -51.999 -13c-21.333 -10 -32 -22.667 -32 -38c0 -23.333 11.667 -44 35 -62s47 -27 71 -27c19.333 0 45.666 5.33301 78.999 16c44 14 68.333 21.333 73 22z
" />
    <glyph glyph-name="uFEF2" unicode="&#x6cc;" horiz-adv-x="1431" arabic-form="final" 
d="M1457 1h-86c-36 0 -89.833 5 -161.5 15s-125.5 15 -161.5 15c-30.667 0 -59.334 -4 -86.001 -12c-39.333 -12 -59 -29.667 -59 -53c0 -14 28.667 -25.333 86 -34l104 -10c75.333 -9.33301 128.333 -21.333 159 -36c38.667 -18.667 58 -48.667 58 -90
c0 -139.333 -74.667 -240 -224 -302c-104.667 -43.333 -238.667 -65 -402 -65c-338 0 -507 123.667 -507 371c0 67.333 22 149 66 245c42 92 75 138 99 138c31.333 0 47 -14 47 -42c0 -5.33301 -9.33301 -35.166 -28 -89.499s-28 -98.5 -28 -132.5
c0 -109.333 54.667 -182.333 164 -219c67.333 -22.667 176.333 -34 327 -34c50.667 0 118.334 7.33301 203.001 22c101.333 17.333 152 37.666 152 60.999c0 11.333 -34.667 19.666 -104 24.999c-93.333 6.66699 -158 15.334 -194 26.001c-70 20 -105 54 -105 102
c0 73.333 35 145.333 105 216c92 93.333 218.667 140 380 140h196v-257z" />
    <glyph glyph-name="uFEF3" unicode="&#x6cc;" horiz-adv-x="534" arabic-form="initial" 
d="M367 392c0 -98.667 -19 -182.333 -57 -251c-52 -93.333 -132 -140 -240 -140h-96v257h111c96 0 144 18 144 54c0 31.333 -37.333 88 -112 170c-8.66699 9.33301 -8.66699 20 0 32l117 163c10 14 20 15.667 30 5c30 -32 55 -77.333 75 -136
c18.667 -54.667 28 -106 28 -154zM546 -298.999l-122 -123l-123 123l123 122zM273 -298.999l-122 -123l-123 123l123 122z" />
    <glyph glyph-name="uFEF4" unicode="&#x6cc;" horiz-adv-x="715" arabic-form="medial" 
d="M742 1h-94.999c-51.333 0 -100.833 13.5 -148.5 40.5s-84.5 62.5 -110.5 106.5c-58 -98 -143.333 -147 -256 -147h-158v257h118c97.333 0 164.666 21.667 201.999 65c19.333 22 34.333 62.333 45 121c8 43.333 24.333 65 49 65c24 0 39.667 -21.667 47 -65
c10 -58.667 22.667 -99 38 -121c30.667 -43.333 86 -65 166 -65h103v-257zM590.001 -299l-122 -123l-123 123l123 122zM317.001 -299l-122 -123l-123 123l123 122z" />
    <glyph glyph-name="Hcircumflex" unicode="&#x622;" horiz-adv-x="669" arabic-form="final" 
d="M696 1l-118 -0.00195312c-66 0 -122.333 22 -169 66c-62 58.667 -93 148.334 -93 269.001c0 79.333 -5 203 -15 371c-11.333 190 -22.333 312 -33 366c-4 18.667 -2.66699 31.334 4 38.001l165 134c20 16 31.667 24 35 24l1 -1c4 -0.666992 6 -10 6 -28l-2 -841
c0 -94.667 53 -142 159 -142h60v-256zM675 1510c0 -41.333 -43.666 -79.667 -130.999 -115c-74.667 -30 -136.667 -45 -186 -45c-18.667 0 -45.834 4.83301 -81.501 14.5s-61.5 14.5 -77.5 14.5c-10.667 0 -23.5 -9.83301 -38.5 -29.5s-26.5 -29.5 -34.5 -29.5
c-20 0 -30 15.333 -30 46c0 20 13.667 53 41 99c29.333 50 55 75 77 75c-12 0 -18 -1 -18 -3c0 -3.33301 29.667 -11.333 89 -24c86.667 -18 144.667 -27 174 -27c26 0 62.333 8 109 24s74.667 24 84 24c15.333 0 23 -8 23 -24z" />
    <glyph glyph-name="uFE84" unicode="&#x623;" horiz-adv-x="599" arabic-form="final" 
d="M625 1l-118.002 -0.00292969c-65.333 0 -121.333 22 -168 66c-62 58.667 -93 148.334 -93 269.001c0 84.667 -5 208.334 -15 371.001c-11.333 180 -22.666 302 -33.999 366c-3.33301 18.667 -1.66602 31.334 5.00098 38.001l164 134c19.333 16 31 24 35 24
c0.666992 0 1 -0.333008 1 -1c4.66699 -0.666992 7 -10 7 -28l-2 -841c0 -94.667 53 -142 159 -142h59v-256zM476.998 1487c2.66699 -10 2.66797 -27 0.000976562 -51c-2.66699 -24.667 -6.66699 -40.334 -12 -47.001c-93.333 -24 -210.333 -66.667 -351 -128l-1 74
c22 12 53.333 28 94 48c-18 8 -35.5 23.167 -52.5 45.5s-25.5 42.833 -25.5 61.5c0 38.667 22.833 79.5 68.5 122.5s87.834 64.5 126.501 64.5c19.333 0 41.666 -7.66699 66.999 -23c28 -16.667 42 -34 42 -52c0 -26.667 -10 -40 -30 -40
c-8.66699 0 -24.334 4.33301 -47.001 13s-40.667 13 -54 13c-16.667 0 -34 -4.33301 -52 -13c-21.333 -10 -32 -22.333 -32 -37c0 -23.333 11.667 -44.166 35 -62.499s47 -27.5 71 -27.5c20 0 45.667 5.33301 77 16c40.667 13.333 66 21 76 23z" />
    <glyph glyph-name="uFE86" unicode="&#x624;" horiz-adv-x="920" arabic-form="final" 
d="M949 1l-175.999 0.000976562c0 -168.667 -57.333 -318 -172 -448c-36.667 -41.333 -60 -62 -70 -62c-168 0 -301 17 -399 51c-18.667 6.66699 -19.334 13 -2.00098 19c115.333 41.333 231 108 347 200c123.333 97.333 185 178.666 185 243.999h-67l-66 -1
c-88.667 -1.33301 -154 8.66699 -196 30c-55.333 28 -83 80.667 -83 158c0 70 22.333 150.333 67 241c54 110 118 165 192 165c75.333 0 137.666 -39.667 186.999 -119c38.667 -62 64.334 -135.667 77.001 -221h176v-257zM625.001 255.001
c-18 45.333 -46.334 80.333 -85.001 105c-29.333 18.667 -55.333 28 -78 28c-20.667 0 -39.667 -7.33301 -57 -22s-26 -32 -26 -52c0 -46.667 37.333 -70 112 -70c34.667 0 79.334 3.66699 134.001 11zM658 1027c2.66699 -11.333 3.00098 -28.001 1.00098 -50.001
c-2.66699 -24 -6.66699 -40 -12 -48c-94 -24 -211.333 -66.667 -352 -128l-1 74l94 48c-17.333 8 -34.666 23.333 -51.999 46s-26 43 -26 61c0 38.667 22.833 79.5 68.5 122.5s88.167 64.5 127.5 64.5c19.333 0 41.666 -7.66699 66.999 -23c28 -16.667 42 -34 42 -52
c0 -26.667 -10.333 -40 -31 -40c-8 0 -23.333 4.33301 -46 13s-40.667 13 -54 13c-16.667 0 -34 -4.33301 -52 -13c-21.333 -10 -32 -22.333 -32 -37c0 -23.333 11.667 -44.166 35 -62.499s47 -27.5 71 -27.5c19.333 0 44.666 5.33301 75.999 16c40.667 13.333 66 21 76 23z
" />
    <glyph glyph-name="uFE88" unicode="&#x625;" horiz-adv-x="617" arabic-form="final" 
d="M643 1l-118 -0.000976562c-65.333 0 -121.333 22 -168 66c-62.667 59.333 -94 149 -94 269c0 76 -5 199.667 -15 371c-10.667 184 -21.667 306 -33 366c-3.33301 18.667 -2 31.334 4 38.001l165 134c20 16 31.667 24 35 24l1 -1c4 -0.666992 6 -10 6 -28l-1 -841
c0 -94.667 52.667 -142 158 -142h60v-256zM595 -310.001c2.66699 -10 2.66797 -27 0.000976562 -51c-2.66699 -24.667 -6.66699 -40.334 -12 -47.001c-93.333 -24 -210.333 -66.667 -351 -128l-1 74c22 12 53.333 28 94 48c-18 8 -35.5 23.167 -52.5 45.5
s-25.5 42.833 -25.5 61.5c0 38.667 22.833 79.5 68.5 122.5s87.834 64.5 126.501 64.5c19.333 0 41.666 -7.66699 66.999 -23c28 -16.667 42 -34 42 -52c0 -26.667 -10 -40 -30 -40c-8.66699 0 -24.334 4.33301 -47.001 13s-40.667 13 -54 13
c-16.667 0 -34 -4.33301 -52 -13c-21.333 -10 -32 -22.333 -32 -37c0 -23.333 11.667 -44.166 35 -62.499s47 -27.5 71 -27.5c20 0 45.667 5.33301 77 16c40.667 13.333 66 21 76 23z" />
    <glyph glyph-name="uFE8A" unicode="&#x626;" horiz-adv-x="1431" arabic-form="final" 
d="M1457 1h-86c-36 0 -89.833 5 -161.5 15s-125.5 15 -161.5 15c-30.667 0 -59.334 -4 -86.001 -12c-39.333 -12 -59 -29.667 -59 -53c0 -14 28.667 -25.333 86 -34l104 -10c75.333 -9.33301 128.333 -21.333 159 -36c38.667 -18.667 58 -48.667 58 -90
c0 -139.333 -74.667 -240 -224 -302c-104.667 -43.333 -238.667 -65 -402 -65c-338 0 -507 123.667 -507 371c0 67.333 22 149 66 245c42 92 75 138 99 138c31.333 0 47 -14 47 -42c0 -5.33301 -9.33301 -35.166 -28 -89.499s-28 -98.5 -28 -132.5
c0 -109.333 54.667 -182.333 164 -219c67.333 -22.667 176.333 -34 327 -34c50.667 0 118.334 7.33301 203.001 22c101.333 17.333 152 37.666 152 60.999c0 11.333 -34.667 19.666 -104 24.999c-93.333 6.66699 -158 15.334 -194 26.001c-70 20 -105 54 -105 102
c0 73.333 35 145.333 105 216c92 93.333 218.667 140 380 140h196v-257zM547 544c2.66699 -10 3 -26.667 1 -50c-2 -24 -6 -39.667 -12 -47c-94 -24 -211.333 -67 -352 -129l-1 74l94 48c-17.333 8 -34.666 23.333 -51.999 46s-26 43 -26 61
c0 38.667 22.833 79.667 68.5 123s88.167 65 127.5 65c19.333 0 41.666 -7.66699 66.999 -23c28 -16.667 42 -34 42 -52c0 -27.333 -10.333 -41 -31 -41c-8 0 -23.333 4.5 -46 13.5s-40.667 13.5 -54 13.5c-17.333 0 -34.666 -4.33301 -51.999 -13
c-21.333 -10 -32 -22.667 -32 -38c0 -23.333 11.667 -44 35 -62s47 -27 71 -27c19.333 0 45.666 5.33301 78.999 16c44 14 68.333 21.333 73 22z" />
    <glyph glyph-name="uFE8B" unicode="&#x626;" horiz-adv-x="370" arabic-form="initial" 
d="M367 392c0 -98.667 -19 -182.333 -57 -251c-52 -93.333 -132 -140 -240 -140h-96v257h111c96 0 144 18 144 54c0 31.333 -37.333 88 -112 170c-8.66699 9.33301 -8.66699 20 0 32l117 163c10 14 20 15.667 30 5c30 -32 55 -77.333 75 -136
c18.667 -54.667 28 -106 28 -154zM399 1069c2.66699 -10 3 -26.667 1 -50c-2 -24 -6 -39.667 -12 -47c-94 -24 -211.333 -67 -352 -129l-1 74l94 48c-17.333 8 -34.666 23.333 -51.999 46s-26 43 -26 61c0 38.667 22.833 79.667 68.5 123s88.167 65 127.5 65
c19.333 0 41.666 -7.66699 66.999 -23c28 -16.667 42 -34 42 -52c0 -27.333 -10.333 -41 -31 -41c-8 0 -23.333 4.5 -46 13.5s-40.667 13.5 -54 13.5c-17.333 0 -34.666 -4.33301 -51.999 -13c-21.333 -10 -32 -22.667 -32 -38c0 -23.333 11.667 -44 35 -62s47 -27 71 -27
c19.333 0 45.666 5.33301 78.999 16c44 14 68.333 21.333 73 22z" />
    <glyph glyph-name="uFE8C" unicode="&#x626;" horiz-adv-x="715" arabic-form="medial" 
d="M742 1h-94.999c-51.333 0 -100.833 13.5 -148.5 40.5s-84.5 62.5 -110.5 106.5c-58 -98 -143.333 -147 -256 -147h-158v257h118c97.333 0 164.666 21.667 201.999 65c19.333 22 34.333 62.333 45 121c8 43.333 24.333 65 49 65c24 0 39.667 -21.667 47 -65
c10 -58.667 22.667 -99 38 -121c30.667 -43.333 86 -65 166 -65h103v-257zM478.001 916c3.33301 -10 3.66895 -26.668 1.00195 -50.001c-2.66699 -25.333 -6.66699 -41.333 -12 -48c-94 -24 -211.333 -66.667 -352 -128v74c22 12 53.333 28 94 48
c-18 8 -35.667 23.167 -53 45.5s-26 42.833 -26 61.5c0 38.667 22.833 79.5 68.5 122.5s88.167 64.5 127.5 64.5c19.333 0 41.666 -7.66699 66.999 -23c28 -16.667 42 -34 42 -52c0 -26.667 -10.333 -40 -31 -40c-8 0 -23.333 4.33301 -46 13s-40.667 13 -54 13
c-16.667 0 -34 -4.33301 -52 -13c-21.333 -10 -32 -22.333 -32 -37c0 -23.333 11.667 -44.166 35 -62.499s47 -27.5 71 -27.5c17.333 0 42.666 5 75.999 15z" />
    <glyph glyph-name="uFE8E" unicode="&#x627;" horiz-adv-x="581" arabic-form="final" 
d="M608 1l-118 -0.000976562c-66 0 -122.333 22 -169 66c-62 58.667 -93 148.334 -93 269.001c0 82 -5 205.667 -15 371c-11.333 185.333 -22.333 307.333 -33 366c-3.33301 19.333 -2 32 4 38l165 134c20 16 31.667 24 35 24l1 -1c4 -0.666992 6 -10 6 -28l-2 -841
c0 -94.667 53 -142 159 -142h60v-256z" />
    <glyph glyph-name="uFE90" unicode="&#x628;" horiz-adv-x="1693" arabic-form="final" 
d="M1720 1l-75.001 -0.000976562c-60.667 0 -116 21 -166 63c-40.667 34 -68 72 -82 114c-95.333 -82 -209 -137.667 -341 -167c-86.667 -19.333 -198.334 -29 -335.001 -29c-362.667 0 -544 123 -544 369c0 66.667 16 131.334 48 194.001
c28.667 56.667 53.334 85 74.001 85c25.333 0 38 -14 38 -42c0 -14.667 -4.16699 -37 -12.5 -67s-12.5 -52.667 -12.5 -68c0 -91.333 51.333 -153.333 154 -186c67.333 -21.333 170 -32 308 -32c257.333 0 451.666 48.667 582.999 146c20.667 15.333 49.334 43 86.001 83
c28.667 31.333 49.334 47 62.001 47c23.333 0 35 -16.333 35 -49c0 -14.667 -16.333 -57 -49 -127c20.667 -51.333 77 -77 169 -77h60v-257zM979.999 -310.001l-135 -136l-136 136l136 136z" />
    <glyph glyph-name="uFE91" unicode="&#x628;" horiz-adv-x="370" arabic-form="initial" 
d="M367 392c0 -98.667 -19 -182.333 -57 -251c-52 -93.333 -132 -140 -240 -140h-96v257h111c96 0 144 18 144 54c0 31.333 -37.333 88 -112 170c-8.66699 9.33301 -8.66699 20 0 32l117 163c10 14 20 15.667 30 5c30 -32 55 -77.333 75 -136
c18.667 -54.667 28 -106 28 -154zM329 -309.999l-136 -136l-136 136l136 136z" />
    <glyph glyph-name="uFE92" unicode="&#x628;" horiz-adv-x="715" arabic-form="medial" 
d="M742 1h-94.999c-51.333 0 -100.833 13.5 -148.5 40.5s-84.5 62.5 -110.5 106.5c-58 -98 -143.333 -147 -256 -147h-158v257h118c97.333 0 164.666 21.667 201.999 65c19.333 22 34.333 62.333 45 121c8 43.333 24.333 65 49 65c24 0 39.667 -21.667 47 -65
c10 -58.667 22.667 -99 38 -121c30.667 -43.333 86 -65 166 -65h103v-257zM443.001 -315l-136 -136l-135 136l135 135z" />
    <glyph glyph-name="uFE96" unicode="&#x62a;" horiz-adv-x="1693" arabic-form="final" 
d="M1720 1l-75.001 -0.000976562c-60.667 0 -116 21 -166 63c-40.667 34 -68 72 -82 114c-95.333 -82 -209 -137.667 -341 -167c-86.667 -19.333 -198.334 -29 -335.001 -29c-362.667 0 -544 123 -544 369c0 66.667 16 131.334 48 194.001
c28.667 56.667 53.334 85 74.001 85c25.333 0 38 -14 38 -42c0 -14.667 -4.16699 -37 -12.5 -67s-12.5 -52.667 -12.5 -68c0 -91.333 51.333 -153.333 154 -186c67.333 -21.333 170 -32 308 -32c257.333 0 451.666 48.667 582.999 146c20.667 15.333 49.334 43 86.001 83
c28.667 31.333 49.334 47 62.001 47c23.333 0 35 -16.333 35 -49c0 -14.667 -16.333 -57 -49 -127c20.667 -51.333 77 -77 169 -77h60v-257zM1098 790.999l-123 -122l-122 122l122 122zM823.999 790.999l-122 -122l-122 122l122 122z" />
    <glyph glyph-name="uFE97" unicode="&#x62a;" horiz-adv-x="534" arabic-form="initial" 
d="M367 392c0 -98.667 -19 -182.333 -57 -251c-52 -93.333 -132 -140 -240 -140h-96v257h111c96 0 144 18 144 54c0 31.333 -37.333 88 -112 170c-8.66699 9.33301 -8.66699 20 0 32l117 163c10 14 20 15.667 30 5c30 -32 55 -77.333 75 -136
c18.667 -54.667 28 -106 28 -154zM541 976.001l-123 -122l-122 122l122 122zM268 976.001l-123 -122l-122 122l122 122z" />
    <glyph glyph-name="uFE98" unicode="&#x62a;" horiz-adv-x="715" arabic-form="medial" 
d="M742 1h-94.999c-51.333 0 -100.833 13.5 -148.5 40.5s-84.5 62.5 -110.5 106.5c-58 -98 -143.333 -147 -256 -147h-158v257h118c97.333 0 164.666 21.667 201.999 65c19.333 22 34.333 62.333 45 121c8 43.333 24.333 65 49 65c24 0 39.667 -21.667 47 -65
c10 -58.667 22.667 -99 38 -121c30.667 -43.333 86 -65 166 -65h103v-257zM587.001 791l-123 -122l-122 122l122 122zM314.001 791l-123 -122l-122 122l122 122z" />
    <glyph glyph-name="uFE9A" unicode="&#x62b;" horiz-adv-x="1693" arabic-form="final" 
d="M1720 1l-75.001 -0.000976562c-60.667 0 -116 21 -166 63c-40.667 34 -68 72 -82 114c-95.333 -82 -209 -137.667 -341 -167c-86.667 -19.333 -198.334 -29 -335.001 -29c-362.667 0 -544 123 -544 369c0 66.667 16 131.334 48 194.001
c28.667 56.667 53.334 85 74.001 85c25.333 0 38 -14 38 -42c0 -14.667 -4.16699 -37 -12.5 -67s-12.5 -52.667 -12.5 -68c0 -91.333 51.333 -153.333 154 -186c67.333 -21.333 170 -32 308 -32c257.333 0 451.666 48.667 582.999 146c20.667 15.333 49.334 43 86.001 83
c28.667 31.333 49.334 47 62.001 47c23.333 0 35 -16.333 35 -49c0 -14.667 -16.333 -57 -49 -127c20.667 -51.333 77 -77 169 -77h60v-257zM581.999 734.999l123 122l122 -122l-122 -123zM854.999 734.999l123 122l122 -122l-122 -123zM715.999 936.999l123 123l122 -123
l-122 -122z" />
    <glyph glyph-name="uFE9B" unicode="&#x62b;" horiz-adv-x="520" arabic-form="initial" 
d="M367 392c0 -98.667 -19 -182.333 -57 -251c-52 -93.333 -132 -140 -240 -140h-96v257h111c96 0 144 18 144 54c0 31.333 -37.333 88 -112 170c-8.66699 9.33301 -8.66699 20 0 32l117 163c10 14 20 15.667 30 5c30 -32 55 -77.333 75 -136
c18.667 -54.667 28 -106 28 -154zM1 937.001l122 123l123 -123l-123 -122zM274 937.001l122 123l123 -123l-123 -122zM135 1140l122 122l123 -122l-123 -123z" />
    <glyph glyph-name="uFE9C" unicode="&#x62b;" horiz-adv-x="715" arabic-form="medial" 
d="M742 1h-94.999c-51.333 0 -100.833 13.5 -148.5 40.5s-84.5 62.5 -110.5 106.5c-58 -98 -143.333 -147 -256 -147h-158v257h118c97.333 0 164.666 21.667 201.999 65c19.333 22 34.333 62.333 45 121c8 43.333 24.333 65 49 65c24 0 39.667 -21.667 47 -65
c10 -58.667 22.667 -99 38 -121c30.667 -43.333 86 -65 166 -65h103v-257zM98.001 779l122 122l123 -122l-123 -123zM371.001 779l122 122l123 -122l-123 -123zM232.001 981l122 123l123 -123l-123 -122z" />
    <glyph glyph-name="uFE9E" unicode="&#x62c;" horiz-adv-x="1374" arabic-form="final" 
d="M1401 1h-142.999c-247.333 0 -371 111 -371 333c0 24.667 1.66699 50.667 5 78c-106 -22.667 -202 -63.667 -288 -123c-130 -89.333 -195 -201.666 -195 -336.999c0 -229.333 163.667 -344 491 -344c141.333 0 251.666 12 330.999 36c6.66699 2 11.334 3 14.001 3
c4.66699 0 7.66699 -1.66699 9 -5c2.66699 -4.66699 0 -12.667 -8 -24c-73.333 -108 -222 -162 -446 -162c-172.667 0 -312.667 30.333 -420 91c-135.333 76.667 -203 194.334 -203 353.001c0 131.333 58.667 249.333 176 354c94 84 214.333 151.667 361 203
c-147.333 30 -239 45 -275 45c-38 0 -78.5 -18.833 -121.5 -56.5s-64.167 -56.5 -63.5 -56.5c-30 0 -45 12.333 -45 37c0 21.333 9.66699 51.666 29 90.999c32 65.333 57.333 109 76 131c45.333 54 100.666 81 165.999 81c22 0 80.333 -8 175 -24
c128.667 -22 223.667 -36 285 -42c105.333 -10.667 202.333 -10.334 291 0.999023c19.333 2.66699 29 1.66699 29 -3c0 -2.66699 -3.66699 -12.334 -11 -29.001l-88 -196c-50.667 0 -106 -3.33301 -166 -10c0 -77.333 34 -127.666 102 -150.999
c32.667 -11.333 89.667 -17 171 -17h133v-257zM928.001 -72l-136 -136l-136 136l136 135z" />
    <glyph glyph-name="uFE9F" unicode="&#x62c;" horiz-adv-x="1120" arabic-form="initial" 
d="M1113 468l-129 -184.998c-88 0 -181 -24.333 -279 -73l-275 -136c-104 -48.667 -228 -73 -372 -73h-81v257h108c142.667 0 257.667 10.333 345 31c72 17.333 153 48.666 243 93.999l-159 61c-84 32 -144 48 -180 48s-75 -16.833 -117 -50.5s-64.667 -50.5 -68 -50.5
c-26.667 0 -40 15 -40 45c0 20 9.66699 47.333 29 82c73.333 130 155.333 195 246 195c45.333 0 150 -36.833 314 -110.5s287 -110.5 369 -110.5c34.667 0 52 -3.33301 52 -10c-0.666992 -4.66699 -2.66699 -9.33398 -6 -14.001zM839 -265.998l-135 -136l-136 136l136 136z
" />
    <glyph glyph-name="uFEA0" unicode="&#x62c;" horiz-adv-x="1234" arabic-form="medial" 
d="M1259 1l-197.997 -0.000976562c-218.667 0 -328 102.667 -328 308c-222 -205.333 -448 -308 -678 -308h-81v257h108c121.333 0 225.666 15.667 312.999 47c59.333 21.333 153.333 69.333 282 144c-155.333 54 -270.333 81 -345 81c-36 0 -75 -19.833 -117 -59.5
s-64.667 -59.5 -68 -59.5c-25.333 0 -38 11.667 -38 35c0 25.333 5.66699 49.333 17 72c77.333 156 166.666 234 267.999 234c52.667 0 152.167 -23.5 298.5 -70.5s260.166 -70.5 341.499 -70.5c52.667 0 79 -2.33301 79 -7c-0.666992 -2 -3 -7.33301 -7 -16l-85 -183
c-74 0 -135.333 -10 -184 -30c0 -51.333 29.667 -85.666 89 -102.999c32 -9.33301 83.333 -14 154 -14h179v-257zM725.003 -266.001l-136 -136l-135 136l135 136z" />
    <glyph glyph-name="uFEA2" unicode="&#x62d;" horiz-adv-x="1374" arabic-form="final" 
d="M1401 1h-142.999c-247.333 0 -371 111 -371 333c0 24.667 1.66699 50.667 5 78c-106 -22.667 -202 -63.667 -288 -123c-130 -89.333 -195 -201.666 -195 -336.999c0 -229.333 163.667 -344 491 -344c141.333 0 251.666 12 330.999 36c6.66699 2 11.334 3 14.001 3
c4.66699 0 7.66699 -1.66699 9 -5c2.66699 -4.66699 0 -12.667 -8 -24c-73.333 -108 -222 -162 -446 -162c-172.667 0 -312.667 30.333 -420 91c-135.333 76.667 -203 194.334 -203 353.001c0 131.333 58.667 249.333 176 354c94 84 214.333 151.667 361 203
c-147.333 30 -239 45 -275 45c-38 0 -78.5 -18.833 -121.5 -56.5s-64.167 -56.5 -63.5 -56.5c-30 0 -45 12.333 -45 37c0 21.333 9.66699 51.666 29 90.999c32 65.333 57.333 109 76 131c45.333 54 100.666 81 165.999 81c22 0 80.333 -8 175 -24
c128.667 -22 223.667 -36 285 -42c105.333 -10.667 202.333 -10.334 291 0.999023c19.333 2.66699 29 1.66699 29 -3c0 -2.66699 -3.66699 -12.334 -11 -29.001l-88 -196c-50.667 0 -106 -3.33301 -166 -10c0 -77.333 34 -127.666 102 -150.999
c32.667 -11.333 89.667 -17 171 -17h133v-257z" />
    <glyph glyph-name="uFEA3" unicode="&#x62d;" horiz-adv-x="1120" arabic-form="initial" 
d="M1113 468l-129 -184.998c-88 0 -181 -24.333 -279 -73l-275 -136c-104 -48.667 -228 -73 -372 -73h-81v257h108c142.667 0 257.667 10.333 345 31c72 17.333 153 48.666 243 93.999l-159 61c-84 32 -144 48 -180 48s-75 -16.833 -117 -50.5s-64.667 -50.5 -68 -50.5
c-26.667 0 -40 15 -40 45c0 20 9.66699 47.333 29 82c73.333 130 155.333 195 246 195c45.333 0 150 -36.833 314 -110.5s287 -110.5 369 -110.5c34.667 0 52 -3.33301 52 -10c-0.666992 -4.66699 -2.66699 -9.33398 -6 -14.001z" />
    <glyph glyph-name="uFEA4" unicode="&#x62d;" horiz-adv-x="1234" arabic-form="medial" 
d="M1259 1l-197.997 -0.000976562c-218.667 0 -328 102.667 -328 308c-222 -205.333 -448 -308 -678 -308h-81v257h108c121.333 0 225.666 15.667 312.999 47c59.333 21.333 153.333 69.333 282 144c-155.333 54 -270.333 81 -345 81c-36 0 -75 -19.833 -117 -59.5
s-64.667 -59.5 -68 -59.5c-25.333 0 -38 11.667 -38 35c0 25.333 5.66699 49.333 17 72c77.333 156 166.666 234 267.999 234c52.667 0 152.167 -23.5 298.5 -70.5s260.166 -70.5 341.499 -70.5c52.667 0 79 -2.33301 79 -7c-0.666992 -2 -3 -7.33301 -7 -16l-85 -183
c-74 0 -135.333 -10 -184 -30c0 -51.333 29.667 -85.666 89 -102.999c32 -9.33301 83.333 -14 154 -14h179v-257z" />
    <glyph glyph-name="uFEA6" unicode="&#x62e;" horiz-adv-x="1374" arabic-form="final" 
d="M1401 1h-142.999c-247.333 0 -371 111 -371 333c0 24.667 1.66699 50.667 5 78c-106 -22.667 -202 -63.667 -288 -123c-130 -89.333 -195 -201.666 -195 -336.999c0 -229.333 163.667 -344 491 -344c141.333 0 251.666 12 330.999 36c6.66699 2 11.334 3 14.001 3
c4.66699 0 7.66699 -1.66699 9 -5c2.66699 -4.66699 0 -12.667 -8 -24c-73.333 -108 -222 -162 -446 -162c-172.667 0 -312.667 30.333 -420 91c-135.333 76.667 -203 194.334 -203 353.001c0 131.333 58.667 249.333 176 354c94 84 214.333 151.667 361 203
c-147.333 30 -239 45 -275 45c-38 0 -78.5 -18.833 -121.5 -56.5s-64.167 -56.5 -63.5 -56.5c-30 0 -45 12.333 -45 37c0 21.333 9.66699 51.666 29 90.999c32 65.333 57.333 109 76 131c45.333 54 100.666 81 165.999 81c22 0 80.333 -8 175 -24
c128.667 -22 223.667 -36 285 -42c105.333 -10.667 202.333 -10.334 291 0.999023c19.333 2.66699 29 1.66699 29 -3c0 -2.66699 -3.66699 -12.334 -11 -29.001l-88 -196c-50.667 0 -106 -3.33301 -166 -10c0 -77.333 34 -127.666 102 -150.999
c32.667 -11.333 89.667 -17 171 -17h133v-257zM875.001 1051l-136 -136l-136 136l136 136z" />
    <glyph glyph-name="uFEA7" unicode="&#x62e;" horiz-adv-x="1120" arabic-form="initial" 
d="M1113 468l-129 -184.998c-88 0 -181 -24.333 -279 -73l-275 -136c-104 -48.667 -228 -73 -372 -73h-81v257h108c142.667 0 257.667 10.333 345 31c72 17.333 153 48.666 243 93.999l-159 61c-84 32 -144 48 -180 48s-75 -16.833 -117 -50.5s-64.667 -50.5 -68 -50.5
c-26.667 0 -40 15 -40 45c0 20 9.66699 47.333 29 82c73.333 130 155.333 195 246 195c45.333 0 150 -36.833 314 -110.5s287 -110.5 369 -110.5c34.667 0 52 -3.33301 52 -10c-0.666992 -4.66699 -2.66699 -9.33398 -6 -14.001zM743 1051l-136 -136l-136 136l136 136z" />
    <glyph glyph-name="uFEA8" unicode="&#x62e;" horiz-adv-x="1234" arabic-form="medial" 
d="M1259 1l-197.997 -0.000976562c-218.667 0 -328 102.667 -328 308c-222 -205.333 -448 -308 -678 -308h-81v257h108c121.333 0 225.666 15.667 312.999 47c59.333 21.333 153.333 69.333 282 144c-155.333 54 -270.333 81 -345 81c-36 0 -75 -19.833 -117 -59.5
s-64.667 -59.5 -68 -59.5c-25.333 0 -38 11.667 -38 35c0 25.333 5.66699 49.333 17 72c77.333 156 166.666 234 267.999 234c52.667 0 152.167 -23.5 298.5 -70.5s260.166 -70.5 341.499 -70.5c52.667 0 79 -2.33301 79 -7c-0.666992 -2 -3 -7.33301 -7 -16l-85 -183
c-74 0 -135.333 -10 -184 -30c0 -51.333 29.667 -85.666 89 -102.999c32 -9.33301 83.333 -14 154 -14h179v-257zM795.003 1051l-135 -136l-136 136l136 136z" />
    <glyph glyph-name="uFEAA" unicode="&#x62f;" horiz-adv-x="1141" arabic-form="final" 
d="M1167 1l-107 0.000976562c-95.333 0 -176 61.333 -242 184c-55.333 -69.333 -100.333 -114 -135 -134c-57.333 -33.333 -141.333 -50 -252 -50c-167.333 0 -251 77.333 -251 232c0 23.333 2.66699 49 8 77c16 84.667 43 127 81 127c21.333 0 32.333 -16.667 33 -50
c1.33301 -44.667 7.66602 -75.334 18.999 -92.001c22.667 -32.667 72 -49 148 -49c185.333 0 278 35.333 278 106c0 44.667 -46.667 166 -140 364l113 149c8.66699 12 14 18 16 18c4.66699 0 10.334 -9 17.001 -27l174 -464c34 -91.333 81.667 -137 143 -137h97v-254z" />
    <glyph glyph-name="uFEAC" unicode="&#x630;" horiz-adv-x="1141" arabic-form="final" 
d="M1167 1l-107 0.000976562c-95.333 0 -176 61.333 -242 184c-55.333 -69.333 -100.333 -114 -135 -134c-57.333 -33.333 -141.333 -50 -252 -50c-167.333 0 -251 77.333 -251 232c0 23.333 2.66699 49 8 77c16 84.667 43 127 81 127c21.333 0 32.333 -16.667 33 -50
c1.33301 -44.667 7.66602 -75.334 18.999 -92.001c22.667 -32.667 72 -49 148 -49c185.333 0 278 35.333 278 106c0 44.667 -46.667 166 -140 364l113 149c8.66699 12 14 18 16 18c4.66699 0 10.334 -9 17.001 -27l174 -464c34 -91.333 81.667 -137 143 -137h97v-254z
M743 1139l-136 -136l-136 136l136 136z" />
    <glyph glyph-name="uFEAE" unicode="&#x631;" horiz-adv-x="928" arabic-form="final" 
d="M954 1l-44 0.00195312c-64.667 0 -114.667 8.66699 -150 26c0 -202.667 -61.333 -363.334 -184 -482.001c-37.333 -36 -61 -54 -71 -54c-178 0 -311 17 -399 51c-17.333 6.66699 -18 13 -2 19c120.667 44.667 237.667 109.667 351 195
c126.667 95.333 190 177.333 190 246c0 32.667 -23 77 -69 133c-34 41.333 -71.667 79.666 -113 114.999l105 212c6 12 13.333 12 22 0c100 -136 192.333 -204 277 -204h87v-257z" />
    <glyph glyph-name="uFEB0" unicode="&#x632;" horiz-adv-x="928" arabic-form="final" 
d="M954 1l-44 0.00195312c-64.667 0 -114.667 8.66699 -150 26c0 -202.667 -61.333 -363.334 -184 -482.001c-37.333 -36 -61 -54 -71 -54c-178 0 -311 17 -399 51c-17.333 6.66699 -18 13 -2 19c120.667 44.667 237.667 109.667 351 195
c126.667 95.333 190 177.333 190 246c0 32.667 -23 77 -69 133c-34 41.333 -71.667 79.666 -113 114.999l105 212c6 12 13.333 12 22 0c100 -136 192.333 -204 277 -204h87v-257zM654 778.002l-135 -136l-136 136l136 135z" />
    <glyph glyph-name="uFEB2" unicode="&#x633;" horiz-adv-x="2091" arabic-form="final" 
d="M2119 1l-122 -0.000976562c-80 0 -146.333 45.667 -199 137c-52 -91.333 -111.667 -137 -179 -137c-86 0 -144 42.667 -174 128c-36.667 -84.667 -92.667 -127 -168 -127c-24 0 -49.667 4.66699 -77 14c4.66699 -34 7 -66.667 7 -98c0 -162 -61.333 -282 -184 -360
c-101.333 -64 -237.666 -96 -408.999 -96c-154 0 -268.667 42.333 -344 127c-60.667 68 -91 154 -91 258c0 52.667 16 129.334 48 230.001c37.333 118 75 177 113 177c26.667 0 40 -18.667 40 -56c0 -11.333 -10.167 -46.833 -30.5 -106.5s-30.5 -105.167 -30.5 -136.5
c0 -94.667 37.667 -161 113 -199c54.667 -27.333 135.667 -41 243 -41c105.333 0 201 16.333 287 49c98.667 37.333 148 86 148 146c0 37.333 -29 96 -87 176c-49.333 68 -93.666 119.333 -132.999 154l99 202c7.33301 14.667 16 14.667 26 0
c85.333 -123.333 167.666 -185 246.999 -185c45.333 0 77.333 20 96 60c3.33301 10.667 13.333 48 30 112c10.667 40 29 60 55 60c22.667 0 38 -20 46 -60c12.667 -64 21.667 -101.333 27 -112c19.333 -40 53.666 -60 102.999 -60c46.667 0 80 20 100 60
c2 4.66699 12.333 42 31 112c10.667 40 28.667 60 54 60c22 0 37 -20 45 -60c12 -57.333 23 -94.333 33 -111c24.667 -40 69 -60 133 -60h104v-257z" />
    <glyph glyph-name="uFEB3" unicode="&#x633;" horiz-adv-x="1224" arabic-form="initial" 
d="M1221 383c0 -92.667 -18.6689 -175 -56.002 -247c-46.667 -90 -114 -135 -202 -135c-82.667 0 -151 45.667 -205 137c-51.333 -91.333 -116.666 -137 -195.999 -137c-85.333 0 -154 45.667 -206 137c-53.333 -91.333 -134.333 -137 -243 -137h-139v257h164
c59.333 0 101.666 20 126.999 60c10 15.333 22 52.333 36 111c10 40 26.333 60 49 60c24.667 0 41.667 -20 51 -60c14.667 -62.667 25.334 -100 32.001 -112c22 -40 62 -60 120 -60c57.333 0 98 20 122 60c7.33301 12 19.333 49.333 36 112c10.667 40 28.667 60 54 60
c22 0 37.333 -20.333 46 -61c12.667 -62.667 23 -100.667 31 -114c23.333 -40.667 65 -61 125 -61c83.333 0 125 28 125 84c0 28 -28.333 77.667 -85 149l91 141c11.333 18 18 27.333 20 28c4 -2 10.667 -9 20 -21c16.667 -21.333 33.334 -53.333 50.001 -96
c22 -55.333 33 -107 33 -155z" />
    <glyph glyph-name="uFEB4" unicode="&#x633;" horiz-adv-x="1458" arabic-form="medial" 
d="M1485 1l-114 -0.000976562c-84.667 0 -153.667 45.667 -207 137c-52 -91.333 -121 -137 -207 -137c-78.667 0 -145 45.667 -199 137c-51.333 -91.333 -116.666 -137 -195.999 -137c-85.333 0 -154 45.667 -206 137c-53.333 -91.333 -134.333 -137 -243 -137h-139v257h164
c59.333 0 101.666 20 126.999 60c10 15.333 22 52.333 36 111c10 40 26.333 60 49 60c24.667 0 41.667 -20 51 -60c14.667 -62.667 25.334 -100 32.001 -112c22 -40 62 -60 120 -60c57.333 0 98 20 122 60c7.33301 12 19.333 49.333 36 112c10.667 40 28.667 60 54 60
c22 0 37.333 -20 46 -60c12.667 -61.333 23 -98.666 31 -111.999c23.333 -40 65 -60 125 -60c51.333 0 88.333 20 111 60c4.66699 8.66699 16.667 46 36 112c11.333 40 30 60 56 60c22 0 37 -20 45 -60c11.333 -57.333 22.333 -94.333 33 -111
c25.333 -40 69.666 -60 132.999 -60h104v-257z" />
    <glyph glyph-name="uFEB6" unicode="&#x634;" horiz-adv-x="2091" arabic-form="final" 
d="M2119 1l-122 -0.000976562c-80 0 -146.333 45.667 -199 137c-52 -91.333 -111.667 -137 -179 -137c-86 0 -144 42.667 -174 128c-36.667 -84.667 -92.667 -127 -168 -127c-24 0 -49.667 4.66699 -77 14c4.66699 -34 7 -66.667 7 -98c0 -162 -61.333 -282 -184 -360
c-101.333 -64 -237.666 -96 -408.999 -96c-154 0 -268.667 42.333 -344 127c-60.667 68 -91 154 -91 258c0 52.667 16 129.334 48 230.001c37.333 118 75 177 113 177c26.667 0 40 -18.667 40 -56c0 -11.333 -10.167 -46.833 -30.5 -106.5s-30.5 -105.167 -30.5 -136.5
c0 -94.667 37.667 -161 113 -199c54.667 -27.333 135.667 -41 243 -41c105.333 0 201 16.333 287 49c98.667 37.333 148 86 148 146c0 37.333 -29 96 -87 176c-49.333 68 -93.666 119.333 -132.999 154l99 202c7.33301 14.667 16 14.667 26 0
c85.333 -123.333 167.666 -185 246.999 -185c45.333 0 77.333 20 96 60c3.33301 10.667 13.333 48 30 112c10.667 40 29 60 55 60c22.667 0 38 -20 46 -60c12.667 -64 21.667 -101.333 27 -112c19.333 -40 53.666 -60 102.999 -60c46.667 0 80 20 100 60
c2 4.66699 12.333 42 31 112c10.667 40 28.667 60 54 60c22 0 37 -20 45 -60c12 -57.333 23 -94.333 33 -111c24.667 -40 69 -60 133 -60h104v-257zM1199 861.999l122 123l123 -123l-123 -122zM1472 861.999l122 123l123 -123l-123 -122zM1333 1065l122 122l123 -122
l-123 -122z" />
    <glyph glyph-name="uFEB7" unicode="&#x634;" horiz-adv-x="1224" arabic-form="initial" 
d="M1221 383c0 -92.667 -18.6689 -175 -56.002 -247c-46.667 -90 -114 -135 -202 -135c-82.667 0 -151 45.667 -205 137c-51.333 -91.333 -116.666 -137 -195.999 -137c-85.333 0 -154 45.667 -206 137c-53.333 -91.333 -134.333 -137 -243 -137h-139v257h164
c59.333 0 101.666 20 126.999 60c10 15.333 22 52.333 36 111c10 40 26.333 60 49 60c24.667 0 41.667 -20 51 -60c14.667 -62.667 25.334 -100 32.001 -112c22 -40 62 -60 120 -60c57.333 0 98 20 122 60c7.33301 12 19.333 49.333 36 112c10.667 40 28.667 60 54 60
c22 0 37.333 -20.333 46 -61c12.667 -62.667 23 -100.667 31 -114c23.333 -40.667 65 -61 125 -61c83.333 0 125 28 125 84c0 28 -28.333 77.667 -85 149l91 141c11.333 18 18 27.333 20 28c4 -2 10.667 -9 20 -21c16.667 -21.333 33.334 -53.333 50.001 -96
c22 -55.333 33 -107 33 -155zM484.998 862l123 123l122 -123l-122 -122zM757.998 862l123 123l122 -123l-122 -122zM618.998 1065l123 122l122 -122l-122 -122z" />
    <glyph glyph-name="uFEB8" unicode="&#x634;" horiz-adv-x="1458" arabic-form="medial" 
d="M1485 1l-114 -0.000976562c-84.667 0 -153.667 45.667 -207 137c-52 -91.333 -121 -137 -207 -137c-78.667 0 -145 45.667 -199 137c-51.333 -91.333 -116.666 -137 -195.999 -137c-85.333 0 -154 45.667 -206 137c-53.333 -91.333 -134.333 -137 -243 -137h-139v257h164
c59.333 0 101.666 20 126.999 60c10 15.333 22 52.333 36 111c10 40 26.333 60 49 60c24.667 0 41.667 -20 51 -60c14.667 -62.667 25.334 -100 32.001 -112c22 -40 62 -60 120 -60c57.333 0 98 20 122 60c7.33301 12 19.333 49.333 36 112c10.667 40 28.667 60 54 60
c22 0 37.333 -20 46 -60c12.667 -61.333 23 -98.666 31 -111.999c23.333 -40 65 -60 125 -60c51.333 0 88.333 20 111 60c4.66699 8.66699 16.667 46 36 112c11.333 40 30 60 56 60c22 0 37 -20 45 -60c11.333 -57.333 22.333 -94.333 33 -111
c25.333 -40 69.666 -60 132.999 -60h104v-257zM485 861.999l123 123l122 -123l-122 -122zM758 861.999l123 123l122 -123l-122 -122zM619 1065l123 122l122 -122l-122 -122z" />
    <glyph glyph-name="uFEBA" unicode="&#x635;" horiz-adv-x="2031" arabic-form="final" 
d="M2059 1l-126 -0.00488281c-96 0 -160 38.667 -192 116c-92 -77.333 -204 -116 -336 -116c-96.667 0 -177 12 -241 36c8.66699 -41.333 13 -81.666 13 -120.999c0 -155.333 -57.333 -272.666 -172 -351.999c-98.667 -68 -229 -102 -391 -102
c-154 0 -268.667 42.333 -344 127c-60.667 68 -91 154 -91 258c0 52.667 16 129.334 48 230.001c37.333 118 75 177 113 177c26.667 0 40 -18.667 40 -56c0 -11.333 -10.167 -46.833 -30.5 -106.5s-30.5 -105.167 -30.5 -136.5c0 -94.667 37.667 -161 113 -199
c54.667 -27.333 135.667 -41 243 -41c105.333 0 196.333 17.333 273 52c90 40.667 135 96.334 135 167.001c0 36.667 -27.333 92.334 -82 167.001c-46 62.667 -89 111.334 -129 146.001l93 193c10 20 20.667 20.667 32 2c40 -65.333 89.333 -120 148 -164
c205.333 267.333 381 401 527 401c68 0 125.333 -19.333 172 -58c49.333 -42 74 -96.333 74 -163c0 -68.667 -18.667 -135.334 -56 -200.001h197v-257zM1756 346.995c0 41.333 -22 73.668 -66 97.001c-36 19.333 -76.333 29 -121 29c-86 0 -192.667 -72.667 -320 -218
c55.333 -4 107 -6 155 -6c116 0 207.333 12.333 274 37c52 19.333 78 39.666 78 60.999z" />
    <glyph glyph-name="uFEBB" unicode="&#x635;" horiz-adv-x="1268" arabic-form="initial" 
d="M1261 458c0 -125.333 -47.002 -228.333 -141.002 -309c-113.333 -96.667 -281.333 -145 -504 -145c-80 0 -143 7.33301 -189 22c-62.667 20 -112.667 57 -150 111c-55.333 -90.667 -131.666 -136 -228.999 -136h-74v257h38c80.667 0 137 20.333 169 61
c16.667 20.667 30.667 58 42 112c8.66699 40.667 23.334 61 44.001 61c24 0 41 -20.333 51 -61c15.333 -60.667 27 -98 35 -112c24 -40.667 63.667 -61 119 -61c78 102 156.333 188.333 235 259c119.333 108 222.333 162 309 162c68 0 125 -19.667 171 -59
c49.333 -41.333 74 -95.333 74 -162zM1100 347c0 41.333 -22.001 73.668 -66.001 97.001c-36 19.333 -76.333 29 -121 29c-86 0 -192.667 -72.667 -320 -218c54.667 -4 106.334 -6 155.001 -6c115.333 0 206.333 12.333 273 37c52.667 19.333 79 39.666 79 60.999z" />
    <glyph glyph-name="uFEBC" unicode="&#x635;" horiz-adv-x="1377" arabic-form="medial" 
d="M1402 1l-126.003 0.000976562c-92.667 0 -156 39.667 -190 119c-60 -49.333 -134.333 -82.333 -223 -99c-59.333 -11.333 -141.666 -17 -246.999 -17c-80 0 -143 7.33301 -189 22c-62.667 20 -112.667 57 -150 111c-55.333 -90.667 -131.666 -136 -228.999 -136h-74v257
h38c80.667 0 137 20.333 169 61c16.667 20.667 30.667 58 42 112c8.66699 40.667 23.334 61 44.001 61c24 0 41 -20.333 51 -61c15.333 -60.667 27 -98 35 -112c24 -40.667 63.667 -61 119 -61c78 102 156.333 188.333 235 259c119.333 108 222.333 162 309 162
c68 0 125 -19.667 171 -59c49.333 -41.333 74 -95.333 74 -162c0 -68.667 -18.333 -135.334 -55 -200.001h196v-257zM1100 347.001c0 41.333 -22.001 73.668 -66.001 97.001c-36 19.333 -76.333 29 -121 29c-86 0 -192.667 -72.667 -320 -218
c54.667 -4 106.334 -6 155.001 -6c115.333 0 206.333 12.333 273 37c52.667 19.333 79 39.666 79 60.999z" />
    <glyph glyph-name="uFEBE" unicode="&#x636;" horiz-adv-x="2031" arabic-form="final" 
d="M2059 1l-126 -0.00488281c-96 0 -160 38.667 -192 116c-92 -77.333 -204 -116 -336 -116c-96.667 0 -177 12 -241 36c8.66699 -41.333 13 -81.666 13 -120.999c0 -155.333 -57.333 -272.666 -172 -351.999c-98.667 -68 -229 -102 -391 -102
c-154 0 -268.667 42.333 -344 127c-60.667 68 -91 154 -91 258c0 52.667 16 129.334 48 230.001c37.333 118 75 177 113 177c26.667 0 40 -18.667 40 -56c0 -11.333 -10.167 -46.833 -30.5 -106.5s-30.5 -105.167 -30.5 -136.5c0 -94.667 37.667 -161 113 -199
c54.667 -27.333 135.667 -41 243 -41c105.333 0 196.333 17.333 273 52c90 40.667 135 96.334 135 167.001c0 36.667 -27.333 92.334 -82 167.001c-46 62.667 -89 111.334 -129 146.001l93 193c10 20 20.667 20.667 32 2c40 -65.333 89.333 -120 148 -164
c205.333 267.333 381 401 527 401c68 0 125.333 -19.333 172 -58c49.333 -42 74 -96.333 74 -163c0 -68.667 -18.667 -135.334 -56 -200.001h197v-257zM1756 346.995c0 41.333 -22 73.668 -66 97.001c-36 19.333 -76.333 29 -121 29c-86 0 -192.667 -72.667 -320 -218
c55.333 -4 107 -6 155 -6c116 0 207.333 12.333 274 37c52 19.333 78 39.666 78 60.999zM1625 978.997l-135 -136l-136 136l136 135z" />
    <glyph glyph-name="uFEBF" unicode="&#x636;" horiz-adv-x="1268" arabic-form="initial" 
d="M1261 458c0 -125.333 -47.002 -228.333 -141.002 -309c-113.333 -96.667 -281.333 -145 -504 -145c-80 0 -143 7.33301 -189 22c-62.667 20 -112.667 57 -150 111c-55.333 -90.667 -131.666 -136 -228.999 -136h-74v257h38c80.667 0 137 20.333 169 61
c16.667 20.667 30.667 58 42 112c8.66699 40.667 23.334 61 44.001 61c24 0 41 -20.333 51 -61c15.333 -60.667 27 -98 35 -112c24 -40.667 63.667 -61 119 -61c78 102 156.333 188.333 235 259c119.333 108 222.333 162 309 162c68 0 125 -19.667 171 -59
c49.333 -41.333 74 -95.333 74 -162zM1100 347c0 41.333 -22.001 73.668 -66.001 97.001c-36 19.333 -76.333 29 -121 29c-86 0 -192.667 -72.667 -320 -218c54.667 -4 106.334 -6 155.001 -6c115.333 0 206.333 12.333 273 37c52.667 19.333 79 39.666 79 60.999z
M1061 979.002l-135 -136l-136 136l136 135z" />
    <glyph glyph-name="uFEC0" unicode="&#x636;" horiz-adv-x="1377" arabic-form="medial" 
d="M1402 1l-126.003 0.000976562c-92.667 0 -156 39.667 -190 119c-60 -49.333 -134.333 -82.333 -223 -99c-59.333 -11.333 -141.666 -17 -246.999 -17c-80 0 -143 7.33301 -189 22c-62.667 20 -112.667 57 -150 111c-55.333 -90.667 -131.666 -136 -228.999 -136h-74v257
h38c80.667 0 137 20.333 169 61c16.667 20.667 30.667 58 42 112c8.66699 40.667 23.334 61 44.001 61c24 0 41 -20.333 51 -61c15.333 -60.667 27 -98 35 -112c24 -40.667 63.667 -61 119 -61c78 102 156.333 188.333 235 259c119.333 108 222.333 162 309 162
c68 0 125 -19.667 171 -59c49.333 -41.333 74 -95.333 74 -162c0 -68.667 -18.333 -135.334 -55 -200.001h196v-257zM1100 347.001c0 41.333 -22.001 73.668 -66.001 97.001c-36 19.333 -76.333 29 -121 29c-86 0 -192.667 -72.667 -320 -218
c54.667 -4 106.334 -6 155.001 -6c115.333 0 206.333 12.333 273 37c52.667 19.333 79 39.666 79 60.999zM1061 979.003l-135 -136l-136 136l136 135z" />
    <glyph glyph-name="uFEC2" unicode="&#x637;" horiz-adv-x="1442" arabic-form="final" 
d="M1468 1h-98.999c-91.333 0 -160 38.667 -206 116c-85.333 -54.667 -187.666 -89.667 -306.999 -105c-56.667 -7.33301 -148.667 -11 -276 -11c-212 0 -347.333 88.667 -406 266c93.333 -8.66699 206.666 -11.667 339.999 -9v76c0 264 -30.333 518.333 -91 763l187 171
c17.333 -51.333 51.666 -144 102.999 -278c4 -8 6 -13.667 6 -17c0 -4 -3 -6 -9 -6s-29.333 5.33301 -70 16c8.66699 -96 13 -180.667 13 -254c0 -101.333 -9.66699 -220 -29 -356c57.333 64 125.333 125 204 183c114 84 209 126 285 126c49.333 0 96 -16.333 140 -49
c56 -41.333 84 -99 84 -173c0 -64.667 -19.667 -132 -59 -202h190v-257zM1181 351c0 33.333 -19.333 63.333 -58 90c-36 24.667 -71.333 37 -106 37c-110.667 0 -233 -73.333 -367 -220h184c68 0 133.333 5 196 15c100.667 16 151 42 151 78z" />
    </font>
</defs>
</svg>
