<?xml version="1.0" standalone="no"?>
<!DOCTYPE svg PUBLIC "-//W3C//DTD SVG 1.1//EN" "http://www.w3.org/Graphics/SVG/1.1/DTD/svg11.dtd" >
<svg>
<metadata>
Created by FontForge 20090914 at Wed Oct 19 01:43:46 2011
 By www-data
(c) by Abolfazl Seilsepour - +98 912 591 3420  -  seilsepor@yahoo.com
</metadata>
<defs>
<font id="FarNilooBold" horiz-adv-x="0" >
  <font-face 
    font-family="Far.Niloo"
    font-weight="700"
    font-stretch="normal"
    units-per-em="2048"
    panose-1="0 0 7 0 0 0 0 0 0 0"
    ascent="1638"
    descent="-410"
    bbox="-175 -1353 3829 2110"
    underline-thickness="120"
    underline-position="-940"
    unicode-range="U+0020-U+FEFC"
  />
<missing-glyph horiz-adv-x="1024" 
d="M128 0v1248h768v-1248h-768zM256 128h512v992h-512v-992z" />
    <glyph glyph-name="uE818" unicode="&#x651;&#x64b;" 
d="M439 1480c0 -40.667 -11.001 -79 -33.001 -115c-24.667 -41.333 -56.667 -62 -96 -62c-30.667 0 -54.334 16 -71.001 48c-27.333 -57.333 -63.333 -86 -108 -86c-29.333 0 -52.666 14 -69.999 42c-14 23.333 -21 51 -21 83c0 80.667 16.333 121 49 121
c2.66699 0 9.5 -17.333 20.5 -52s27.167 -52 48.5 -52s41 20.833 59 62.5s31 62.5 39 62.5c4 0 10.667 -15.667 20 -47s20 -47 32 -47c22.667 0 44.334 18.667 65.001 56s31.667 56 33 56c22 0 33 -23.333 33 -70zM411.999 1790l-23 -111l-391 -122l15 112zM411.999 1992
l-23 -111l-391 -122l15 112z" />
    <glyph glyph-name="uFC5E" unicode="&#x651;&#x64c;" arabic-form="isolated" 
d="M462 1475c0 -41.333 -11 -80 -33 -116c-24.667 -41.333 -56.667 -62 -96 -62c-30.667 0 -54.334 16.333 -71.001 49c-27.333 -58 -63.333 -87 -108 -87c-29.333 0 -52.333 14 -69 42c-14 24 -21 51.667 -21 83c0 80.667 16 121 48 121c2.66699 0 9.5 -17.333 20.5 -52
s27.167 -52 48.5 -52s41 21 59 63s31 63 39 63c4 0 10.667 -15.833 20 -47.5s20 -47.5 32 -47.5c22.667 0 44.334 18.667 65.001 56s31.667 56 33 56c22 0 33 -23 33 -69zM441 1823c0 -29.333 -16.667 -69.668 -50 -121.001l-79 32c-20.667 -25.333 -52.667 -52 -96 -80
c-55.333 -36 -103.666 -54 -144.999 -54c-8.66699 0 -18.334 27.333 -29.001 82c5.33301 1.33301 19.666 7.33301 42.999 18c1.33301 15.333 2 29.333 2 42c0 42.667 -12.333 64 -37 64c-9.33301 0 -20.833 -9.33301 -34.5 -28s-21.5 -28 -23.5 -28
c-16.667 0 -25 21.667 -25 65c0 24.667 10.167 50.167 30.5 76.5s42.5 39.5 66.5 39.5c27.333 0 49.5 -11.333 66.5 -34s25.5 -48 25.5 -76c0 -47.333 -3.33301 -80 -10 -98c42.667 23.333 71.667 46.333 87 69c-34.667 32 -52 71.333 -52 118
c0 45.333 12.333 88.333 37 129c28 47.333 62.333 71 103 71c64.667 0 97 -41 97 -123c0 -49.333 -11 -95.666 -33 -138.999c8.66699 -8.66699 27.334 -17 56.001 -25zM320 1887c14 20 21 40.333 21 61c0 42.667 -15 64 -45 64c-22.667 0 -34 -18.667 -34 -56
c0 -13.333 6.33301 -27.333 19 -42s25.667 -23.667 39 -27z" />
    <glyph glyph-name="uFC5F" unicode="&#x651;&#x64d;" arabic-form="isolated" 
d="M454 1873c0 -40.667 -10.668 -79 -32.001 -115c-25.333 -41.333 -57.666 -62 -96.999 -62c-30.667 0 -54.334 16 -71.001 48c-26.667 -58 -62.667 -87 -108 -87c-29.333 0 -52.333 14.333 -69 43c-14 23.333 -21 51 -21 83c0 80.667 16 121 48 121
c2.66699 0 9.5 -17.333 20.5 -52s27.167 -52 48.5 -52s41 20.833 59 62.5s31 62.5 39 62.5c4 0 10.833 -15.667 20.5 -47s20.167 -47 31.5 -47c22.667 0 44.334 18.5 65.001 55.5s32 55.5 34 55.5c21.333 0 32 -23 32 -69zM467.999 1453l-23 -113l-391 -119l15 111z
M467.999 1656l-23 -114l-391 -119l15 111z" />
    <glyph glyph-name="uFC60" unicode="&#x651;&#x64e;" arabic-form="isolated" 
d="M454 1450c0 -41.333 -10.668 -80 -32.001 -116c-25.333 -41.333 -57.666 -62 -96.999 -62c-30.667 0 -54.334 16.333 -71.001 49c-26.667 -58 -62.667 -87 -108 -87c-29.333 0 -52.333 14 -69 42c-14 24 -21 51.667 -21 83c0 80.667 16 121 48 121
c2.66699 0 9.5 -17.333 20.5 -52s27.167 -52 48.5 -52s41 21 59 63s31 63 39 63c4 0 10.833 -15.833 20.5 -47.5s20.167 -47.5 31.5 -47.5c22.667 0 44.334 18.667 65.001 56s32 56 34 56c21.333 0 32 -23 32 -69zM473.999 1790l-24 -111l-390 -122l15 112z" />
    <glyph glyph-name="uFC61" unicode="&#x651;&#x64f;" arabic-form="isolated" 
d="M470 1457c0 -40.667 -11 -79 -33 -115c-24.667 -41.333 -56.667 -62 -96 -62c-30.667 0 -54.334 16 -71.001 48c-27.333 -57.333 -63.333 -86 -108 -86c-30 0 -53.333 14 -70 42c-14 23.333 -21 51 -21 83c0 80.667 16 121 48 121c3.33301 0 10.333 -17.333 21 -52
s27 -52 49 -52c21.333 0 41 20.833 59 62.5s31 62.5 39 62.5c4 0 10.667 -15.667 20 -47s20 -47 32 -47c22.667 0 44.334 18.667 65.001 56s31.667 56 33 56c22 0 33 -23.333 33 -70zM450 1777c0 -29.333 -16.6689 -69.6689 -50.002 -121.002l-79 32
c-20 -25.333 -52 -52.333 -96 -81c-54.667 -35.333 -102.667 -53 -144 -53c-9.33301 0 -19 27.333 -29 82c92.667 24.667 156.334 61.334 191.001 110.001c-34.667 32 -52 71 -52 117c0 45.333 12 88.333 36 129c28.667 48 63.334 72 104.001 72c64 0 96 -41.333 96 -124
c0 -48.667 -10.667 -94.667 -32 -138c8.66699 -9.33301 27 -17.666 55 -24.999zM328.998 1840c14 20.667 21 41.333 21 62c0 42 -14.667 63 -44 63c-23.333 0 -35 -18.333 -35 -55c0 -13.333 6.5 -27.333 19.5 -42s25.833 -24 38.5 -28z" />
    <glyph glyph-name="uFC62" unicode="&#x651;&#x650;" arabic-form="isolated" 
d="M447 1681c0 -41.333 -11 -80 -33 -116c-24.667 -41.333 -56.667 -62 -96 -62c-31.333 0 -55.333 16.333 -72 49c-26.667 -58 -62.334 -87 -107.001 -87c-30 0 -53.333 14 -70 42c-14 24 -21 51.667 -21 83c0 80.667 16 121 48 121c2.66699 0 9.5 -17.333 20.5 -52
s27.5 -52 49.5 -52c21.333 0 41 21 59 63s31 63 39 63c3.33301 0 9.83301 -15.833 19.5 -47.5s20.5 -47.5 32.5 -47.5c22.667 0 44.334 18.667 65.001 56s31.667 56 33 56c22 0 33 -23 33 -69zM422 1469l-24 -114l-392 -119l17 112z" />
    <glyph glyph-name="uFDF2" unicode="&#xfedf;&#xfee0;&#xfeea;" horiz-adv-x="3158" arabic-form="isolated" 
d="M2561 994c0 -48.667 -29.667 -94.3369 -89 -137.004c-63.333 -44.667 -135.666 -67 -216.999 -67c-65.333 0 -124 14.333 -176 43c-37.333 -21.333 -116.333 -32 -237 -32c-36.667 0 -72.334 11.333 -107.001 34c-47.333 30.667 -70.333 73.667 -69 129
c1.33301 70.667 59.333 136.334 174 197.001c21.333 11.333 41 17 59 17c27.333 0 41 -10.333 41 -31s-14.667 -40 -44 -58c-48.667 -31.333 -77.334 -50.666 -86.001 -57.999c-34 -27.333 -51 -54.333 -51 -81c0 -33.333 23 -54.333 69 -63
c38.667 -7.33301 87.667 -3 147 13c-6 15.333 -9 40 -9 74c0 32.667 13.833 65.167 41.5 97.5s60.167 48.5 97.501 48.5c47.333 0 79.666 -16 97 -48c9.33301 -17.333 14 -41.666 14 -72.999c0 -21.333 -13.333 -56.333 -40 -105c20.667 -9.33301 48 -14 82 -14
c48.667 0 96 12 142 36s69 50 69 78c0 20.667 -14.667 38.334 -44 53.001c-14 6 -49 17.667 -105 35c-34 10 -51 28.333 -51 55c0 25.333 15.333 38 46 38c10 0 21 -2 33 -6c63.333 -19.333 106.666 -36 130 -50c55.333 -32 83 -73.667 83 -125zM3158 459.997
c0 -157.333 -105.669 -277.999 -317.002 -361.999c-155.333 -62 -318.333 -93 -489 -93c-125.333 0 -236 27.667 -332 83c-70 -59.333 -168.667 -89 -296 -89c-160 0 -266.333 82.333 -319 247c-136 -99.333 -327 -149 -573 -149c-147.333 0 -286.666 27.333 -417.999 82
c-165.333 69.333 -248 163.666 -248 282.999c0 111.333 63.667 201.666 191 270.999c130 71.333 303 107 519 107c86 0 143 -1.66699 171 -5c90.667 -10.667 170.334 -37 239.001 -79c24 -14.667 36 -36 36 -64c0 -43.333 -25.667 -65 -77 -65
c-7.33301 0 -14.666 0.666992 -21.999 2c-18 2.66699 -40.167 10.834 -66.5 24.501s-56.5 23.5 -90.5 29.5c-54 10 -130.333 15 -229 15c-138 0 -257.667 -21 -359 -63c-105.333 -44.667 -158 -98.667 -158 -162c0 -74.667 48.333 -131.667 145 -171
c90.667 -37.333 214.667 -56 372 -56c316.667 0 497.667 72 543 216c18.667 60.667 20.667 149.334 6 266.001c-0.666992 8 -1 15.667 -1 23c0 65.333 23.667 98 71 98c43.333 0 69 -34 77 -102c5.33301 -42.667 6.66602 -116.334 3.99902 -221.001
c-2 -94.667 2 -168 12 -220c8 -40.667 26.333 -77 55 -109c33.333 -36 71.333 -54 114 -54c80 0 135 15 165 45c-26.667 44 -40 105.667 -40 185c0 57.333 17.667 118.666 53 183.999c46.667 85.333 107 128 181 128c12.667 0 25.334 -1.33301 38 -4
c50 -9.33301 86 -31 108 -65s33 -87.333 33 -160c0 -75.333 -33.667 -159 -101 -251c66 -32.667 141 -49 225 -49c126.667 0 253.667 22 381 66c169.333 58.667 254 138.667 254 240c0 50 -34 107 -102 171c-20 18.667 -65 54.334 -135 107.001
c-29.333 21.333 -44 48 -44 80c0 42 20 63 60 63c20.667 0 44 -8.33301 70 -25c62.667 -40 119.667 -87.333 171 -142c82 -88.667 123 -174 123 -256zM2124 981.998c14 42.667 7.33398 64 -19.999 64c-30 0 -48.333 -24.667 -55 -74
c-2.66699 -23.333 8.33301 -47 32.999 -71c17.333 19.333 31.333 46.333 42 81zM2106 417.998c6.66699 24 10 45.667 10 65c0 33.333 -10.333 53.333 -31 60c-8.66699 2.66699 -16.667 4 -24 4c-40 0 -66 -32 -78 -96c-4.66699 -27.333 -7 -52.666 -7 -75.999
c0 -50.667 12 -86.334 36 -107.001c40.667 23.333 72 73.333 94 150z" />
    <glyph glyph-name="uFEF5" unicode="&#xfedf;&#xfe82;" horiz-adv-x="1120" arabic-form="isolated" 
d="M1119 243c0 -82.667 -48.001 -146.333 -144.001 -191c-73.333 -34.667 -153.666 -52 -240.999 -52c-85.333 -0 -195.333 26.333 -330 79c-141.333 54.667 -212.666 104.334 -213.999 149.001c-0.666992 49.333 20.333 75 63 77c8 0 27.333 -7.66699 58 -23
c44.667 -22.667 69.334 -35 74.001 -37c81.333 89.333 144 175.333 188 258c-78.667 19.333 -153.334 59.666 -224.001 120.999c-92.667 82 -139 177 -139 285c0 62.667 20.333 123.334 61 182.001c24 34.667 51 52 81 52c32.667 0 49 -16.667 49 -50
c0 -18 -6.33301 -37.333 -19 -58c-25.333 -43.333 -38 -80.333 -38 -111c0 -144.667 97.333 -245 292 -301c89.333 205.333 150.666 371.666 183.999 498.999c14 52.667 40 79 78 79c21.333 0 37.666 -10 48.999 -30c12 -22.667 14 -52 6 -88
c-29.333 -125.333 -91.666 -296.333 -186.999 -513c235.333 -104 353 -213 353 -327zM978.999 238.001c0 74 -89.332 149.667 -267.999 227c-18 -36 -48.667 -86 -92 -150s-76.333 -108 -99 -132c63.333 -28.667 133.666 -43 210.999 -43c76.667 0 138 9.66699 184 29
c42.667 18.667 64 41.667 64 69zM724 1431c-48 -61.333 -125.668 -92 -233.001 -92c-43.333 0 -85.333 3 -126 9c-43.333 5.33301 -75.666 8.33301 -96.999 9c-56 1.33301 -112.5 -9.16699 -169.5 -31.5s-84.833 -33.5 -83.5 -33.5c-26 0 -39 12.333 -39 37
c0 20 26.333 41.667 79 65s110 37.333 172 42c57.333 -7.33301 138 -14 242 -20c67.333 3.33301 122 15.833 164 37.5s62.667 32.5 62 32.5c24 0 36 -12 36 -36c0 -6.66699 -2.33301 -13 -7 -19z" />
    <glyph glyph-name="uFEF6" unicode="&#xfee0;&#xfe82;" horiz-adv-x="1658" arabic-form="final" 
d="M1686 141l-1.00488 -141.002h-70c-199.333 0 -346 85 -440 255c-78 -122.667 -215.333 -184 -412 -184c-75.333 0 -151.666 11 -228.999 33c-82.667 23.333 -124 48.666 -124 75.999c0 43.333 20.667 65 62 65c10 0 48.167 -6.16699 114.5 -18.5
s135.833 -18.5 208.5 -18.5c56 0 107 7.33301 153 22c63.333 21.333 95 53 95 95c0 41.333 -42.667 89.333 -128 144c-76 48 -148.333 81.333 -217 100l-221 54c-90 27.333 -157.667 62.333 -203 105c-60 56 -90 130 -90 222c0 71.333 18.333 133.333 55 186
c22 30.667 47.333 46 76 46c40 0 60 -20.667 60 -62c0 -17.333 -5.66699 -35.666 -17 -54.999c-23.333 -40 -35 -81 -35 -123c0 -84 51.333 -143.667 154 -179l283 -71c72.667 -24 147.334 -57.667 224.001 -101c86.667 -48.667 137 -89.667 151 -123
c-8 -11.333 -13.667 -17 -17 -17s-4.66602 9 -3.99902 27c10.667 242.667 16 425.334 16 548.001c0 61.333 22.333 92 67 92c45.333 0 68 -29.667 68 -89c0 -115.333 -4.33301 -293.666 -13 -534.999c-1.33301 -68 20.334 -136 65.001 -204
c64.667 -99.333 162.334 -149 293.001 -149h76zM713.995 1431c-48 -61.333 -125.667 -92 -233 -92c-43.333 0 -85.333 3 -126 9c-43.333 5.33301 -75.333 8.33301 -96 9c-56.667 1.33301 -113.5 -9.16699 -170.5 -31.5s-84.833 -33.5 -83.5 -33.5c-26 0 -39 12.333 -39 37
c0 20 26.5 41.667 79.5 65s110.167 37.333 171.5 42c57.333 -7.33301 138 -14 242 -20c67.333 3.33301 122 15.833 164 37.5s62.667 32.5 62 32.5c24 0 36 -12 36 -36c0 -6.66699 -2.33301 -13 -7 -19z" />
    <glyph glyph-name="uFEF7" unicode="&#xfedf;&#xfe84;" horiz-adv-x="1150" arabic-form="isolated" 
d="M1149 243c0 -82.667 -48 -146.333 -144 -191c-73.333 -34.667 -154 -52 -242 -52c-84.667 -0 -194.334 26.333 -329.001 79c-141.333 54.667 -212.666 104.334 -213.999 149.001c-0.666992 49.333 20.333 75 63 77c8 0 27.333 -7.66699 58 -23
c44.667 -22.667 69.334 -35 74.001 -37c81.333 89.333 144 175.333 188 258c-79.333 19.333 -154 59.666 -224 120.999c-92.667 82 -139 177 -139 285c0 62.667 20.333 123.334 61 182.001c24 34.667 51 52 81 52c32.667 0 49 -16.667 49 -50
c0 -18 -6.33301 -37.333 -19 -58c-26 -43.333 -39 -80.333 -39 -111c0 -144.667 97.667 -245 293 -301c89.333 205.333 150.666 371.666 183.999 498.999c14 52.667 40 79 78 79c21.333 0 37.333 -10 48 -30c12.667 -22.667 14.667 -52 6 -88
c-28.667 -125.333 -91 -296.333 -187 -513c236 -104 354 -213 354 -327zM1009 238.001c0 74 -89.332 149.667 -267.999 227c-18.667 -36 -49.5 -86 -92.5 -150s-75.833 -108 -98.5 -132c63.333 -28.667 133.666 -43 210.999 -43c76 0 137 9.66699 183 29
c43.333 18.667 65 41.667 65 69zM575.001 1410c-57.333 -6 -100.334 -12.332 -129.001 -18.999c-61.333 -14.667 -110 -37.834 -146 -69.501s-62.667 -62.167 -80 -91.5c-10 -16.667 -22 -25 -36 -25c-24 0 -36 12.667 -36 38c0 6.66699 1.66699 13.334 5 20.001
c35.333 62.667 81.333 111 138 145c-84 14.667 -126 53.667 -126 117c0 55.333 28.667 98 86 128c46 24 99.333 36 160 36c40.667 0 61 -12.333 61 -37c0 -24 -20.667 -36 -62 -36c-110.667 0 -166 -30 -166 -90c0 -34 52 -51 156 -51c58.667 0 114.334 4 167.001 12
c33.333 5.33301 50 -6.66699 50 -36c0 -24.667 -14 -38.334 -42 -41.001z" />
    <glyph glyph-name="uFEF8" unicode="&#xfee0;&#xfe84;" horiz-adv-x="1708" arabic-form="final" 
d="M1736 141l-1.00488 -141.002h-71c-199.333 0 -345.666 85 -438.999 255c-78.667 -122.667 -216 -184 -412 -184c-75.333 0 -151.666 11 -228.999 33c-83.333 23.333 -125 48.666 -125 75.999c0 43.333 20.667 65 62 65c10 0 48.333 -6.16699 115 -18.5
s136.334 -18.5 209.001 -18.5c55.333 0 106 7.33301 152 22c64 21.333 96 53 96 95c0 41.333 -43 89.333 -129 144c-75.333 48 -147.666 81.333 -216.999 100l-220 54c-90 27.333 -158 62.333 -204 105c-59.333 56 -89 130 -89 222c0 71.333 18 133.333 54 186
c22 30.667 47.667 46 77 46c39.333 0 59 -20.667 59 -62c0 -17.333 -5.33301 -35.666 -16 -54.999c-23.333 -40 -35 -81 -35 -123c0 -84 51.333 -143.667 154 -179l282 -71c73.333 -24 148.333 -57.667 225 -101c86 -48.667 136 -89.667 150 -123
c-7.33301 -11.333 -12.666 -17 -15.999 -17c-4 0 -5.66699 9 -5 27c10.667 242.667 16 425.334 16 548.001c0 61.333 22.333 92 67 92c46 0 69 -29.667 69 -89c0 -115.333 -4.33301 -293.666 -13 -534.999c-2 -68 19.333 -136 64 -204c65.333 -99.333 163.333 -149 294 -149
h76zM586.995 1413c-57.333 -6 -100.334 -12.332 -129.001 -18.999c-61.333 -14.667 -110.166 -37.834 -146.499 -69.501s-62.833 -62.167 -79.5 -91.5c-10 -16.667 -22.333 -25 -37 -25c-24 0 -36 12.667 -36 38c0 6.66699 2 13.334 6 20.001
c35.333 62.667 81.333 111 138 145c-84 14.667 -126 53.667 -126 117c0 55.333 28.667 98 86 128c45.333 24 98.333 36 159 36c40.667 0 61 -12.333 61 -37s-20.333 -37 -61 -37c-111.333 0 -167 -29.667 -167 -89c0 -34.667 52 -52 156 -52
c59.333 0 115.333 4.33301 168 13c32.667 4.66699 49 -7.33301 49 -36c0 -24.667 -13.667 -38.334 -41 -41.001z" />
    <glyph glyph-name="uFEF9" unicode="&#xfedf;&#xfe88;" horiz-adv-x="1140" arabic-form="isolated" 
d="M1139 243c0 -82.667 -48.002 -146.333 -144.002 -191c-73.333 -34.667 -153.666 -52 -240.999 -52c-85.333 -0 -195.333 26.333 -330 79c-141.333 54.667 -212.666 104.334 -213.999 149.001c-0.666992 49.333 20.333 75 63 77c8 0 27.333 -7.66699 58 -23
c44.667 -22.667 69.334 -35 74.001 -37c81.333 89.333 144 175.333 188 258c-79.333 19.333 -154 59.666 -224 120.999c-92.667 82 -139 177 -139 285c0 62.667 20.333 123.334 61 182.001c24 34.667 51 52 81 52c32.667 0 49 -16.667 49 -50
c0 -18 -6.33301 -37.333 -19 -58c-26 -43.333 -39 -80.333 -39 -111c0 -144.667 97.667 -245 293 -301c89.333 205.333 150.666 371.666 183.999 498.999c14 52.667 40 79 78 79c21.333 0 37.666 -10 48.999 -30c12 -22.667 14 -52 6 -88
c-29.333 -125.333 -91.666 -296.333 -186.999 -513c235.333 -104 353 -213 353 -327zM998.998 238.001c0 74 -89.332 149.667 -267.999 227c-18.667 -36 -49.5 -86 -92.5 -150s-75.833 -108 -98.5 -132c63.333 -28.667 133.666 -43 210.999 -43
c76.667 0 137.667 9.66699 183 29c43.333 18.667 65 41.667 65 69zM573.999 -299.999c-57.333 -5.33301 -100.332 -11.667 -128.999 -19c-61.333 -14.667 -110 -37.667 -146 -69s-62.667 -61.666 -80 -90.999c-10 -16.667 -22 -25 -36 -25c-24 0 -36 12.667 -36 38
c0 6.66699 1.66699 13.334 5 20.001c35.333 62 81.333 110 138 144c-84 15.333 -126 54.666 -126 117.999c0 55.333 28.667 98 86 128c45.333 23.333 98.666 35 159.999 35c40 0 60 -12.333 60 -37c0 -24 -20.333 -36 -61 -36c-111.333 0 -167 -29.667 -167 -89
c0 -34.667 52 -52 156 -52c59.333 0 115.333 4 168 12c32.667 5.33301 49 -6.66699 49 -36c0 -24.667 -13.667 -38.334 -41 -41.001z" />
    <glyph glyph-name="uFEFA" unicode="&#xfee0;&#xfe88;" horiz-adv-x="1648" arabic-form="final" 
d="M1676 141l-0.00390625 -141.002h-71c-199.333 0 -346 85 -440 255c-78 -122.667 -215.333 -184 -412 -184c-75.333 0 -151.666 11 -228.999 33c-82.667 23.333 -124 48.666 -124 75.999c0 43.333 20.667 65 62 65c10 0 48.167 -6.16699 114.5 -18.5
s135.833 -18.5 208.5 -18.5c56 0 107 7.33301 153 22c64 21.333 96 53 96 95c0 41.333 -43 89.333 -129 144c-76 48 -148.333 81.333 -217 100l-221 54c-89.333 27.333 -157 62.333 -203 105c-60 56 -90 130 -90 222c0 71.333 18.333 133.333 55 186
c22 30.667 47.333 46 76 46c40 0 60 -20.667 60 -62c0 -17.333 -5.66699 -35.666 -17 -54.999c-22.667 -40 -34 -81 -34 -123c0 -84 51 -143.667 153 -179l283 -71c72.667 -24 147.667 -57.667 225 -101c86 -48.667 136 -89.667 150 -123
c-7.33301 -11.333 -12.666 -17 -15.999 -17c-4 0 -5.66699 9 -5 27c10.667 242.667 16 425.334 16 548.001c0 61.333 22.333 92 67 92c45.333 0 68 -29.667 68 -89c0 -115.333 -4.33301 -293.666 -13 -534.999c-1.33301 -68 20.334 -136 65.001 -204
c64.667 -99.333 162.334 -149 293.001 -149h76zM637.996 -271.002c-58 -6 -101.334 -12.3281 -130.001 -18.9951c-61.333 -14.667 -110 -37.834 -146 -69.501s-62.667 -61.834 -80 -90.501c-9.33301 -16.667 -21.333 -25 -36 -25c-24 0 -36 12.333 -36 37
c0 7.33301 2 14.333 6 21c34.667 62 80.667 110 138 144c-84 15.333 -126 54.666 -126 117.999c0 55.333 28.333 97.666 85 126.999c46 24 99.333 36 160 36c40.667 0 61 -12.333 61 -37c0 -24 -20.667 -36 -62 -36c-110.667 0 -166 -29.667 -166 -89
c0 -34.667 52 -52 156 -52c58.667 0 114.334 4 167.001 12c33.333 5.33301 50 -6.66699 50 -36c0 -24.667 -13.667 -38.334 -41 -41.001z" />
    <glyph glyph-name="uFEFB" unicode="&#xfedf;&#xfe8e;" horiz-adv-x="1090" arabic-form="isolated" 
d="M1089 243c0 -82.667 -48.001 -146.333 -144.001 -191c-73.333 -34.667 -153.666 -52 -240.999 -52c-85.333 -0 -195 26.333 -329 79c-142 54.667 -213.333 104.334 -214 149.001c-1.33301 49.333 19.667 75 63 77c7.33301 0 26.333 -7.66699 57 -23l74 -37
c82 89.333 144.667 175.333 188 258c-78.667 19.333 -153 59.666 -223 120.999c-93.333 82 -140 177 -140 285c0 62.667 20.667 123.334 62 182.001c23.333 34.667 50 52 80 52c32.667 0 49 -16.667 49 -50c0 -18 -6.33301 -37.333 -19 -58
c-25.333 -43.333 -38 -80.333 -38 -111c0 -144.667 97.333 -245 292 -301c89.333 205.333 151 371.666 185 498.999c13.333 52.667 39 79 77 79c21.333 0 37.666 -10 48.999 -30c12.667 -22.667 14.667 -52 6 -88c-29.333 -125.333 -91.666 -296.333 -186.999 -513
c235.333 -104 353 -213 353 -327zM948.999 238.001c0 74 -89.333 149.667 -268 227c-18 -36 -48.667 -86 -92 -150s-76 -108 -98 -132c62.667 -28.667 132.667 -43 210 -43c76.667 0 138 9.66699 184 29c42.667 18.667 64 41.667 64 69z" />
    <glyph glyph-name="uFEFC" unicode="&#xfee0;&#xfe8e;" horiz-adv-x="1638" arabic-form="final" 
d="M1667 141l-1.00293 -141.002h-71c-199.333 0 -346 85 -440 255c-78 -122.667 -215 -184 -411 -184c-76 0 -152.667 11 -230 33c-82.667 23.333 -124 48.666 -124 75.999c0 43.333 20.667 65 62 65c10 0 48.167 -6.16699 114.5 -18.5s135.833 -18.5 208.5 -18.5
c56 0 107 7.33301 153 22c64 21.333 96 53 96 95c0 41.333 -43 89.333 -129 144c-76 48 -148.333 81.333 -217 100l-221 54c-89.333 27.333 -157 62.333 -203 105c-60 56 -90 130 -90 222c0 71.333 18.333 133.333 55 186c22 30.667 47.333 46 76 46c40 0 60 -20.667 60 -62
c0 -17.333 -5.66699 -35.666 -17 -54.999c-22.667 -40 -34 -81 -34 -123c0 -84 51.333 -143.667 154 -179l282 -71c73.333 -24 148.333 -57.667 225 -101c86 -48.667 136 -89.667 150 -123c-7.33301 -11.333 -12.666 -17 -15.999 -17c-4 0 -5.66699 9 -5 27
c10.667 242.667 16 425.334 16 548.001c0 61.333 22.333 92 67 92c45.333 0 68 -29.667 68 -89c0 -115.333 -4.33301 -293.666 -13 -534.999c-1.33301 -68 20.334 -136 65.001 -204c64.667 -99.333 162.334 -149 293.001 -149h77z" />
    <glyph glyph-name="u0652_u064E.liga" unicode="&#x652;&#x64e;" horiz-adv-x="1" 
d="M184 996c1.33301 -17.333 -5.99902 -26.001 -21.999 -26.001c-14.667 0 -22.334 8 -23.001 24c-3.33301 92.667 -6.66602 190.334 -9.99902 293.001c-0.666992 18 6.66602 27 21.999 27c14.667 0 22.334 -8 23.001 -24c3.33301 -92.667 6.66602 -190.667 9.99902 -294z
" />
    <glyph glyph-name="u0652_u064B.liga" unicode="&#x652;&#x64b;" horiz-adv-x="1" 
d="M581 1010c0 26.667 15.333 47.667 46 63c26 12.667 56.667 19 92 19c93.333 0 140 -27.333 140 -82c0 -55.333 -46.667 -83 -140 -83c-92 0 -138 27.667 -138 83zM956 1010c0 26.667 15.333 47.667 46 63c26 12.667 56.667 19 92 19c93.333 0 140 -27.333 140 -82
c0 -55.333 -46.667 -83 -140 -83c-92 0 -138 27.667 -138 83z" />
    <glyph glyph-name="u0652_u064D.liga" unicode="&#x652;&#x64d;" horiz-adv-x="1" 
d="M691 -618c0 26.667 15.333 47.667 46 63c26 12.667 56.667 19 92 19c93.333 0 140 -27.333 140 -82c0 -55.333 -46.667 -83 -140 -83c-92 0 -138 27.667 -138 83zM1066 -618c0 26.667 15.333 47.667 46 63c26 12.667 56.667 19 92 19c93.333 0 140 -27.333 140 -82
c0 -55.333 -46.667 -83 -140 -83c-92 0 -138 27.667 -138 83z" />
    <glyph glyph-name="u0622" unicode="&#x622;" horiz-adv-x="804" arabic-form="isolated" 
d="M521 89c3.33301 -60.667 -19.333 -91 -68 -91c-46 0 -70 28.333 -72 85l-33 1017c-2.66699 62 21 93 71 93c44.667 0 68.667 -28 72 -84c8.66699 -320.667 18.667 -660.667 30 -1020zM872.001 1428c-16 -20.667 -41.668 -41 -77.001 -61
c-61.333 -34.667 -131.333 -52 -210 -52c-53.333 0 -105 3.33301 -155 10c-54 7.33301 -94 11.333 -120 12c-69.333 1.33301 -138.666 -11.667 -207.999 -39c-71.333 -27.333 -106.333 -41 -105 -41c-32 0 -48 15 -48 45c0 24.667 32 51 96 79c66.667 29.333 138 47 214 53
c18 1.33301 64.667 -2.66699 140 -12s128 -13.333 158 -12c83.333 4 151 19.333 203 46s77.667 40 77 40c8.66699 0 18 -4 28 -12c10.667 -10 16 -20.667 16 -32c0 -8 -3 -16 -9 -24z" />
    <glyph glyph-name="u0623" unicode="&#x623;" horiz-adv-x="536" arabic-form="isolated" 
d="M445 90c2.66699 -61.333 -20 -92 -68 -92c-46 0 -70 28.667 -72 86l-33 1017c-2.66699 62 21 93 71 93c44.667 0 68.667 -28 72 -84c8.66699 -320.667 18.667 -660.667 30 -1020zM489 1543c-58 -5.33301 -101 -11.6699 -129 -19.0029c-62 -14.667 -111 -37.667 -147 -69
s-62.667 -61.666 -80 -90.999c-9.33301 -16.667 -21.333 -25 -36 -25c-24 0 -36 12.667 -36 38c0 6.66699 2 13.334 6 20.001c35.333 62.667 81.333 111 138 145c-84 14.667 -126 53.667 -126 117c0 55.333 28.333 98 85 128c46 24 99.333 36 160 36
c40.667 0 61 -12.667 61 -38c0 -24 -20.667 -36 -62 -36c-110.667 0 -166 -29.667 -166 -89c0 -34.667 52 -52 156 -52c59.333 0 115 4.33301 167 13c33.333 4.66699 50 -7.66602 50 -36.999c0 -24 -13.667 -37.667 -41 -41z" />
    <glyph glyph-name="u0624" unicode="&#x624;" horiz-adv-x="1260" arabic-form="isolated" 
d="M1241 213c0 -130.667 -100.332 -242.998 -300.999 -336.998c-190.667 -90 -410.334 -136 -659.001 -138c-42 -0.666992 -75.167 6.33301 -99.5 21s-36.5 32 -36.5 52c0 45.333 43.333 68 130 68c227.333 0 422 34.333 584 103c158.667 67.333 238 146.666 238 237.999
c0 62 -36.667 114.667 -110 158c-78.667 46.667 -181 70 -307 70c-239.333 0 -359 -49.667 -359 -149c0 -47.333 41.667 -83.333 125 -108c61.333 -18.667 128 -28 200 -28c85.333 0 159.333 11.333 222 34c11.333 4.66699 22.666 7 33.999 7c46 0 69 -21 69 -63
c0 -31.333 -20.333 -55 -61 -71c-71.333 -29.333 -159.666 -44 -264.999 -44c-109.333 0 -211.333 23.667 -306 71c-108 54 -162 122 -162 204c0 77.333 44.333 143.666 133 198.999c94.667 58.667 215 88 361 88c150 0 278.667 -30.333 386 -91
c122.667 -70 184 -164.667 184 -284zM850.001 995.002c-58 -5.33301 -101 -11.6699 -129 -19.0029c-62 -14.667 -111 -37.667 -147 -69s-62.667 -61.666 -80 -90.999c-9.33301 -16.667 -21.333 -25 -36 -25c-24 0 -36 12.667 -36 38c0 6.66699 2 13.334 6 20.001
c34.667 62.667 80.667 111 138 145c-84 14.667 -126 53.667 -126 117c0 55.333 28.333 98 85 128c46 24 99.333 36 160 36c40.667 0 61 -12.667 61 -38c0 -24 -20.667 -36 -62 -36c-110.667 0 -166 -29.667 -166 -89c0 -34.667 52 -52 156 -52c59.333 0 115 4.33301 167 13
c33.333 4.66699 50 -7.66602 50 -36.999c0 -24 -13.667 -37.667 -41 -41z" />
    <glyph glyph-name="u0625" unicode="&#x625;" horiz-adv-x="570" arabic-form="isolated" 
d="M375 90c3.33301 -61.333 -19 -92 -67 -92c-46 0 -70.333 28.667 -73 86l-33 1017c-2 62 21.667 93 71 93c45.333 0 69.333 -28 72 -84zM500 -441c-57.333 -6 -100.333 -12.332 -129 -18.999c-61.333 -14.667 -110 -37.834 -146 -69.501s-62.667 -62.167 -80 -91.5
c-10 -16.667 -22 -25 -36 -25c-24 0 -36 12.667 -36 38c0 6.66699 1.66699 13.334 5 20.001c35.333 62.667 81.666 111 138.999 145c-84 14.667 -126 53.667 -126 117c0 55.333 28.333 98 85 128c46 24 99.333 36 160 36c40.667 0 61 -12.333 61 -37
c0 -24 -20.667 -36 -62 -36c-110.667 0 -166 -30 -166 -90c0 -34 52 -51 156 -51c58.667 0 114.334 4 167.001 12c33.333 5.33301 50 -6.66699 50 -36c0 -24.667 -14 -38.334 -42 -41.001z" />
    <glyph glyph-name="u0626" unicode="&#x626;" horiz-adv-x="1856" arabic-form="isolated" 
d="M1900 384c0 -41.333 -25 -62.001 -75 -62.001c4 0 -23.833 6.66699 -83.5 20s-117.834 20 -174.501 20c-92.667 0 -184 -23.667 -274 -71c-96.667 -50.667 -145 -107.667 -145 -171c0 -22 31.333 -33 94 -33c50.667 0 129.334 13 236.001 39s170.334 39 191.001 39
c48 0 89.667 -12 125 -36c42 -28.667 63 -68.667 63 -120c0 -108 -77.667 -201.5 -233 -280.5s-335 -118.5 -539 -118.5c-262.667 0 -483.667 63.667 -663 191c-171.333 121.333 -257 263.333 -257 426c0 132.667 74.667 245 224 337c143.333 88 310 132 500 132
c40 0 80 -2.33301 120 -7c79.333 -9.33301 119 -35.666 119 -78.999c0 -45.333 -42.667 -64.666 -128 -57.999c-26 2 -52.333 3 -79 3c-158 0 -296 -30 -414 -90c-129.333 -66 -194 -150.667 -194 -254c0 -96.667 59.667 -191.667 179 -285
c148.667 -116.667 342.334 -175 581.001 -175c158.667 0 304.667 25.333 438 76c138 52 207 111.667 207 179c0 13.333 -11.667 20 -35 20c-25.333 0.666992 -92.833 -12 -202.5 -38s-194.834 -39 -255.501 -39c-147.333 0 -221 57.667 -221 173
c0 89.333 55.667 173.666 167 252.999c117.333 84 249.666 126 396.999 126c64 0 129 -8 195 -24c91.333 -22 137 -53 137 -93zM568 800.999c-57.333 -6 -100.334 -12.333 -129.001 -19c-61.333 -14.667 -110 -37.667 -146 -69s-62.667 -61.666 -80 -90.999
c-10 -16.667 -22 -25 -36 -25c-24 0 -36 12.667 -36 38c0 6.66699 1.66699 13.334 5 20.001c35.333 62 81.333 110 138 144c-84 15.333 -126 54.666 -126 117.999c0 55.333 28.667 98 86 128c46 23.333 99.333 35 160 35c40.667 0 61 -12.333 61 -37
c0 -24 -20.667 -36 -62 -36c-111.333 0 -167 -29.667 -167 -89c0 -34.667 52.333 -52 157 -52c58.667 0 114.334 4 167.001 12c33.333 5.33301 50 -6.66699 50 -36c0 -24.667 -14 -38.334 -42 -41.001z" />
    <glyph glyph-name="u0627" unicode="&#x627;" horiz-adv-x="545" arabic-form="isolated" 
d="M416 90c3.33301 -61.333 -19.001 -92 -67.001 -92c-46 0 -70.333 28.667 -73 86l-33 1017c-2 62 22 93 72 93c44.667 0 68.334 -28 71.001 -84z" />
    <glyph glyph-name="u0628" unicode="&#x628;" horiz-adv-x="2143" arabic-form="isolated" 
d="M2144 408c0 -155.333 -143.001 -269.333 -429.001 -342c-184.667 -46.667 -379.667 -70 -585 -70c-206 0 -395.333 23.333 -568 70c-265.333 72 -398 186 -398 342c0 67.333 51.333 136.666 154 207.999c108 76 223 114.667 345 116
c52.667 0.666992 79 -18.666 79 -57.999c0 -19.333 -7.33301 -36.666 -22 -51.999c-16.667 -16.667 -36.334 -25 -59.001 -25c-50 0 -114.333 -16 -193 -48c-104.667 -42 -157 -94.667 -157 -158c0 -84.667 87.333 -150 262 -196c151.333 -39.333 336 -58.333 554 -57
c248 2 452.333 24 613 66c180.667 47.333 271 112.666 271 195.999c0 57.333 -46.667 107 -140 149c-75.333 34.667 -139.666 52 -192.999 52c-71.333 0 -107 20.333 -107 61c0 41.333 34 63.333 102 66c84.667 4 179.334 -22.333 284.001 -79
c124.667 -66.667 187 -147 187 -241zM1011 -261c0 26.667 15.333 47.667 46 63c26 12.667 57 19 93 19c93.333 0 140 -27.333 140 -82c0 -55.333 -46.667 -83 -140 -83c-92.667 0 -139 27.667 -139 83z" />
    <glyph glyph-name="u0629" unicode="&#x629;" horiz-adv-x="1548" arabic-form="isolated" 
d="M1543 318c0 -212.667 -264.333 -319.001 -793 -319.001c-125.333 0 -238.333 14.667 -339 44c-164.667 47.333 -247 126.333 -247 237c0 86 90.333 172 271 258c137.333 64.667 284.333 114 441 148c-34 24 -51 45.667 -51 65s8.5 36.5 25.5 51.5s34.833 22.5 53.5 22.5
c12.667 0 45.667 -13.333 99 -40l110 -56c36 10.667 92.333 23.334 169 38.001c54 6 81 -18.333 81 -73c0 -24.667 -21.667 -44.667 -65 -60c163.333 -94 245 -199.333 245 -316zM1400 315.999c0 84.667 -104 175.666 -312 272.999c-204 -28.667 -388.333 -78 -553 -148
c-149.333 -63.333 -224.333 -115.666 -225 -156.999c-0.666992 -42 40.5 -76.333 123.5 -103s187.833 -40 314.5 -40c434.667 0 652 58.333 652 175zM1214 1247c-57.333 -5.33301 -100.333 -11.668 -129 -19.001c-61.333 -14.667 -110 -37.667 -146 -69
s-62.667 -61.666 -80 -90.999c-10 -16.667 -22 -25 -36 -25c-24 0 -36 12.667 -36 38c0 6.66699 1.66699 13.334 5 20.001c35.333 62 81.666 110 138.999 144c-84 15.333 -126 54.666 -126 117.999c0 55.333 28.333 98 85 128c46 24 99.333 36 160 36
c40.667 0 61 -12.667 61 -38c0 -24 -20.667 -36 -62 -36c-110.667 0 -166 -29.667 -166 -89c0 -34.667 52 -52 156 -52c58.667 0 114.334 4 167.001 12c33.333 5.33301 50 -6.66699 50 -36c0 -24 -14 -37.667 -42 -41z" />
    <glyph glyph-name="u062A" unicode="&#x62a;" horiz-adv-x="2143" arabic-form="isolated" 
d="M2144 408c0 -155.333 -143.001 -269.333 -429.001 -342c-184.667 -46.667 -379.667 -70 -585 -70c-206 0 -395.333 23.333 -568 70c-265.333 72 -398 186 -398 342c0 67.333 51.333 136.666 154 207.999c108 76 223 114.667 345 116
c52.667 0.666992 79 -18.666 79 -57.999c0 -19.333 -7.33301 -36.666 -22 -51.999c-16.667 -16.667 -36.334 -25 -59.001 -25c-50 0 -114.333 -16 -193 -48c-104.667 -42 -157 -94.667 -157 -158c0 -84.667 87.333 -150 262 -196c151.333 -39.333 336 -58.333 554 -57
c248 2 452.333 24 613 66c180.667 47.333 271 112.666 271 195.999c0 57.333 -46.667 107 -140 149c-75.333 34.667 -139.666 52 -192.999 52c-71.333 0 -107 20.333 -107 61c0 41.333 34 63.333 102 66c84.667 4 179.334 -22.333 284.001 -79
c124.667 -66.667 187 -147 187 -241zM848.999 1013c0 27.333 15.333 48.667 46 64c26 12.667 56.667 19 92 19c93.333 0 140 -27.667 140 -83c0 -54.667 -46.667 -82 -140 -82c-92 0 -138 27.333 -138 82zM1224 1013c0 27.333 15.333 48.667 46 64
c26 12.667 56.667 19 92 19c93.333 0 140 -27.667 140 -83c0 -54.667 -46.667 -82 -140 -82c-92 0 -138 27.333 -138 82z" />
    <glyph glyph-name="u062B" unicode="&#x62b;" horiz-adv-x="2143" arabic-form="isolated" 
d="M2144 408c0 -155.333 -143.001 -269.333 -429.001 -342c-184.667 -46.667 -379.667 -70 -585 -70c-206 0 -395.333 23.333 -568 70c-265.333 72 -398 186 -398 342c0 67.333 51.333 136.666 154 207.999c108 76 223 114.667 345 116
c52.667 0.666992 79 -18.666 79 -57.999c0 -19.333 -7.33301 -36.666 -22 -51.999c-16.667 -16.667 -36.334 -25 -59.001 -25c-50 0 -114.333 -16 -193 -48c-104.667 -42 -157 -94.667 -157 -158c0 -84.667 87.333 -150 262 -196c151.333 -39.333 336 -58.333 554 -57
c248 2 452.333 24 613 66c180.667 47.333 271 112.666 271 195.999c0 57.333 -46.667 107 -140 149c-75.333 34.667 -139.666 52 -192.999 52c-71.333 0 -107 20.333 -107 61c0 41.333 34 63.333 102 66c84.667 4 179.334 -22.333 284.001 -79
c124.667 -66.667 187 -147 187 -241zM1066 1244c0 26.667 15.333 47.667 46 63c26 12.667 56.667 19 92 19c93.333 0 140 -27.333 140 -82c0 -55.333 -46.667 -83 -140 -83c-92 0 -138 27.667 -138 83zM878.999 1027c0 27.333 15.333 48.667 46 64
c26 12.667 56.667 19 92 19c93.333 0 140 -27.667 140 -83c0 -54.667 -46.667 -82 -140 -82c-92 0 -138 27.333 -138 82zM1254 1027c0 27.333 15.333 48.667 46 64c26 12.667 56.667 19 92 19c93.333 0 140 -27.667 140 -83c0 -54.667 -46.667 -82 -140 -82
c-92 0 -138 27.333 -138 82z" />
    <glyph glyph-name="u062C" unicode="&#x62c;" horiz-adv-x="1531" arabic-form="isolated" 
d="M1601 -662c0 -24.667 -54.001 -55 -162.001 -91c-129.333 -42.667 -273.333 -64 -432 -64c-218 0 -408 48 -570 144c-182.667 108 -274 251.333 -274 430c0 135.333 82.333 252 247 350c162.667 96.667 355 145 577 145c26.667 0 52.667 -1.33301 78 -4
c30 -3.33301 49.667 -5 59 -5c6 18 9 35.333 9 52c0 63.333 -38 113.333 -114 150c-72 35.333 -166 53 -282 53c-80.667 0 -152.667 -11 -216 -33l-97 -35c-44.667 -4.66699 -67 16.333 -67 63c0 24.667 33 52.667 99 84c82.667 38.667 183.334 58 302.001 58
c140.667 0 258 -27.667 352 -83c105.333 -62.667 158 -148.667 158 -258c0 -18 -3.66699 -45.333 -11 -82c123.333 -42.667 185 -75 185 -97c0 -49.333 -22 -74 -66 -74c-2 0 -38.333 11.667 -109 35s-167 35 -289 35c-208 0 -376.667 -40.333 -506 -121
c-112 -70 -168 -148.333 -168 -235c0 -100.667 56.333 -195 169 -283c134.667 -104 309.334 -156 524.001 -156c106.667 0 201.667 8.33301 285 25c53.333 10 106.666 25.333 159.999 46c44 16.667 71 25 81 25c52 0 78 -24.667 78 -74zM748.999 -269
c0 26.667 15.333 47.667 46 63c26 13.333 56.667 20 92 20c93.333 0 140 -27.667 140 -83s-46.667 -83 -140 -83c-92 0 -138 27.667 -138 83z" />
    <glyph glyph-name="u062D" unicode="&#x62d;" horiz-adv-x="1531" arabic-form="isolated" 
d="M1601 -662c0 -24.667 -54.001 -55 -162.001 -91c-129.333 -42.667 -273.333 -64 -432 -64c-218 0 -408 48 -570 144c-182.667 108 -274 251.333 -274 430c0 135.333 82.333 252 247 350c162.667 96.667 355 145 577 145c26.667 0 52.667 -1.33301 78 -4
c30 -3.33301 49.667 -5 59 -5c6 18 9 35.333 9 52c0 63.333 -38 113.333 -114 150c-72 35.333 -166 53 -282 53c-80.667 0 -152.667 -11 -216 -33l-97 -35c-44.667 -4.66699 -67 16.333 -67 63c0 24.667 33 52.667 99 84c82.667 38.667 183.334 58 302.001 58
c140.667 0 258 -27.667 352 -83c105.333 -62.667 158 -148.667 158 -258c0 -18 -3.66699 -45.333 -11 -82c123.333 -42.667 185 -75 185 -97c0 -49.333 -22 -74 -66 -74c-2 0 -38.333 11.667 -109 35s-167 35 -289 35c-208 0 -376.667 -40.333 -506 -121
c-112 -70 -168 -148.333 -168 -235c0 -100.667 56.333 -195 169 -283c134.667 -104 309.334 -156 524.001 -156c106.667 0 201.667 8.33301 285 25c53.333 10 106.666 25.333 159.999 46c44 16.667 71 25 81 25c52 0 78 -24.667 78 -74z" />
    <glyph glyph-name="u062E" unicode="&#x62e;" horiz-adv-x="1531" arabic-form="isolated" 
d="M1601 -662c0 -24.667 -54.001 -55 -162.001 -91c-129.333 -42.667 -273.333 -64 -432 -64c-218 0 -408 48 -570 144c-182.667 108 -274 251.333 -274 430c0 135.333 82.333 252 247 350c162.667 96.667 355 145 577 145c26.667 0 52.667 -1.33301 78 -4
c30 -3.33301 49.667 -5 59 -5c6 18 9 35.333 9 52c0 63.333 -38 113.333 -114 150c-72 35.333 -166 53 -282 53c-80.667 0 -152.667 -11 -216 -33l-97 -35c-44.667 -4.66699 -67 16.333 -67 63c0 24.667 33 52.667 99 84c82.667 38.667 183.334 58 302.001 58
c140.667 0 258 -27.667 352 -83c105.333 -62.667 158 -148.667 158 -258c0 -18 -3.66699 -45.333 -11 -82c123.333 -42.667 185 -75 185 -97c0 -49.333 -22 -74 -66 -74c-2 0 -38.333 11.667 -109 35s-167 35 -289 35c-208 0 -376.667 -40.333 -506 -121
c-112 -70 -168 -148.333 -168 -235c0 -100.667 56.333 -195 169 -283c134.667 -104 309.334 -156 524.001 -156c106.667 0 201.667 8.33301 285 25c53.333 10 106.666 25.333 159.999 46c44 16.667 71 25 81 25c52 0 78 -24.667 78 -74zM602.999 974
c0 26.667 15.333 47.667 46 63c26 13.333 57 20 93 20c93.333 0 140 -27.667 140 -83s-46.667 -83 -140 -83c-92.667 0 -139 27.667 -139 83z" />
    <glyph glyph-name="u062F" unicode="&#x62f;" horiz-adv-x="995" arabic-form="isolated" 
d="M994 336c0 -98 -103.001 -182.001 -309.001 -252.001c-164.667 -56.667 -309.667 -85 -435 -85c-28.667 0 -52.5 7.5 -71.5 22.5s-28.5 31.833 -28.5 50.5c0 42.667 40.667 65.667 122 69c86.667 3.33301 198.334 26.333 335.001 69c165.333 52 248 105.667 248 161
c0 64.667 -52 144.334 -156 239.001c-76 68.667 -150.667 123.667 -224 165c-46.667 26.667 -70 56.667 -70 90c0 35.333 21.333 53 64 53c20 0 41.333 -5.66699 64 -17c91.333 -44 184.333 -114.667 279 -212c121.333 -125.333 182 -243 182 -353z" />
    <glyph glyph-name="u0630" unicode="&#x630;" horiz-adv-x="1004" arabic-form="isolated" 
d="M994 336c0 -98 -103.001 -182.001 -309.001 -252.001c-164.667 -56.667 -309.667 -85 -435 -85c-28.667 0 -52.5 7.5 -71.5 22.5s-28.5 31.833 -28.5 50.5c0 42.667 40.667 65.667 122 69c86.667 3.33301 198.334 26.333 335.001 69c165.333 52 248 105.667 248 161
c0 64.667 -52 144.334 -156 239.001c-76 68.667 -150.667 123.667 -224 165c-46.667 26.667 -70 56.667 -70 90c0 35.333 21.333 53 64 53c20 0 41.333 -5.66699 64 -17c91.333 -44 184.333 -114.667 279 -212c121.333 -125.333 182 -243 182 -353zM148.999 1141
c0 26.667 15.333 47.667 46 63c26 13.333 57 20 93 20c93.333 0 140 -27.667 140 -83s-46.667 -83 -140 -83c-92.667 0 -139 27.667 -139 83z" />
    <glyph glyph-name="u0631" unicode="&#x631;" horiz-adv-x="1105" arabic-form="isolated" 
d="M1092 129c0 -121.333 -100.334 -229.166 -301.001 -323.499s-426.667 -141.5 -678 -141.5c-33.333 0 -59.833 7.33301 -79.5 22s-29.5 31.667 -29.5 51c0 46 38 69 114 69c192.667 0 375.667 30.667 549 92c184 64.667 276 138 276 220c0 52 -12.833 102.167 -38.5 150.5
s-38.5 74.166 -38.5 77.499c-1.33301 47.333 22.334 71 71.001 71c28 0 60.833 -36 98.5 -108s56.5 -132 56.5 -180z" />
    <glyph glyph-name="u0632" unicode="&#x632;" horiz-adv-x="1090" arabic-form="isolated" 
d="M639 693c0 26.667 15.333 47.667 46 63c26 12.667 56.667 19 92 19c93.333 0 140 -27.333 140 -82c0 -55.333 -46.667 -83 -140 -83c-92 0 -138 27.667 -138 83zM1092 129c0 -121.333 -100.334 -229.166 -301.001 -323.499s-426.667 -141.5 -678 -141.5
c-33.333 0 -59.833 7.33301 -79.5 22s-29.5 31.667 -29.5 51c0 46 38 69 114 69c192.667 0 375.667 30.667 549 92c184 64.667 276 138 276 220c0 52 -12.833 102.167 -38.5 150.5s-38.5 74.166 -38.5 77.499c-1.33301 47.333 22.334 71 71.001 71
c28 0 60.833 -36 98.5 -108s56.5 -132 56.5 -180z" />
    <glyph glyph-name="u0633" unicode="&#x633;" horiz-adv-x="3474" arabic-form="isolated" 
d="M3474 305c0 -71.333 -29.335 -134.336 -88.002 -189.003c-84 -77.333 -214.333 -116 -391 -116c-169.333 0 -301.666 50 -397 150c-99.333 -92.667 -231.666 -139 -396.999 -139c-109.333 0 -210.666 29 -303.999 87c-25.333 -296 -311.666 -444 -858.999 -444
c-222 0 -418 48.333 -588 145c-196 112 -294 261.667 -294 449c0 74.667 30.667 147.667 92 219c51.333 59.333 111 104.666 179 135.999c133.333 60.667 303 98.667 509 114c12.667 1.33301 25.667 2 39 2c51.333 0 95.666 -6 132.999 -18
c42.667 -13.333 64 -31.666 64 -54.999c0 -40.667 -53 -61 -159 -61c-229.333 0 -410.666 -37 -543.999 -111c-116.667 -64.667 -175 -142.667 -175 -234c0 -104 59.333 -199.667 178 -287c146.667 -108 347.667 -162 603 -162c226.667 0 400 32.333 520 97
c112.667 60 169 143.667 169 251c0.666992 59.333 -5.66602 112.666 -18.999 159.999c-16.667 58.667 -26.334 97.334 -29.001 116.001c-0.666992 8.66699 -1 16.667 -1 24c0 45.333 17.333 68 52 68c32.667 0 54.334 -9.66699 65.001 -29
c21.333 -37.333 37.666 -89.666 48.999 -156.999c9.33301 -55.333 44 -98 104 -128c57.333 -28.667 130.666 -43 219.999 -43c221.333 0 332 67.333 332 202c0 42 8 76.667 24 104c14.667 25.333 31.667 38 51 38c43.333 0 65.333 -50.667 66 -152
c0.666992 -67.333 33.667 -119 99 -155c54.667 -30.667 124.334 -47 209 -49c88 -2 168 12 240 42c68.667 29.333 103 61.333 103 96c0 30 -20 54.667 -60 74c-0.666992 0.666992 -53.334 20.334 -158 59.001c-30 11.333 -48.333 20 -55 26c-12.667 10 -19 27.667 -19 53
c0 12 7.33301 24.333 22 37c17.333 14 37.333 21 60 21c58.667 0 130.334 -25 215 -75c93.333 -55.333 140 -110.666 140 -165.999z" />
    <glyph glyph-name="u0634" unicode="&#x634;" horiz-adv-x="3474" arabic-form="isolated" 
d="M3474 307c0 -70.667 -29.335 -133.333 -88.002 -188c-84 -77.333 -214.333 -116 -391 -116c-169.333 0 -301.666 50 -397 150c-99.333 -92.667 -231.666 -139 -396.999 -139c-109.333 0 -210.666 29 -303.999 87c-25.333 -296 -311.666 -444 -858.999 -444
c-222 0 -418 48.333 -588 145c-196 112 -294 261.667 -294 449c0 74.667 30.667 147.334 92 218.001c51.333 60 111 105.333 179 136c133.333 60.667 303 99 509 115c12.667 0.666992 25.667 1 39 1c51.333 0 95.666 -5.66699 132.999 -17
c42.667 -13.333 64 -31.666 64 -54.999c0 -40.667 -53 -61.334 -159 -62.001c-229.333 0 -410.666 -37 -543.999 -111c-116.667 -64.667 -175 -142.334 -175 -233.001c0 -104.667 59.333 -200.334 178 -287.001c146.667 -108 347.667 -162 603 -162c226.667 0 400 32 520 96
c112.667 60.667 169 144.667 169 252c0.666992 59.333 -5.66602 112.666 -18.999 159.999c-16.667 58.667 -26.334 97.334 -29.001 116.001c-0.666992 8.66699 -1 16.334 -1 23.001c0 46 17.333 69 52 69c32.667 0 54.334 -9.66699 65.001 -29
c21.333 -37.333 37.666 -90 48.999 -158c9.33301 -54.667 44 -97 104 -127c57.333 -28.667 130.666 -43 219.999 -43c221.333 0 332 67.333 332 202c0 42 8 76.667 24 104c14.667 25.333 31.667 38 51 38c43.333 0 65.333 -50.667 66 -152
c0.666992 -67.333 33.667 -119 99 -155c54.667 -30.667 124.334 -47 209 -49c88 -2 168 12 240 42c68.667 29.333 103 61.333 103 96c0 30 -20 54.667 -60 74c-0.666992 0.666992 -53.334 20.334 -158 59.001c-30 11.333 -48.333 19.666 -55 24.999
c-12.667 10.667 -19 28.667 -19 54c0 12 7.33301 24.333 22 37c17.333 14 37.333 21 60 21c58.667 0 130.334 -25 215 -75c93.333 -55.333 140 -111 140 -167zM2498 1130c0 26.667 15.333 47.667 46 63c26 13.333 57 20 93 20c93.333 0 140 -27.667 140 -83
s-46.667 -83 -140 -83c-92.667 0 -139 27.667 -139 83zM2311 914.001c0 26.667 15.333 47.667 46 63c26 12.667 57 19 93 19c93.333 0 140 -27.333 140 -82c0 -55.333 -46.667 -83 -140 -83c-92.667 0 -139 27.667 -139 83zM2686 914.001c0 26.667 15.333 47.667 46 63
c26 12.667 57 19 93 19c93.333 0 140 -27.333 140 -82c0 -55.333 -46.667 -83 -140 -83c-92.667 0 -139 27.667 -139 83z" />
    <glyph glyph-name="u0635" unicode="&#x635;" horiz-adv-x="3215" arabic-form="isolated" 
d="M3215 447c0 -131.333 -109.002 -241.001 -327.002 -329.001c-198 -80 -423.333 -120 -676 -120c-141.333 0 -247.666 26.333 -318.999 79c-13.333 -148 -93 -260.5 -239 -337.5s-349 -115.5 -609 -115.5c-221.333 0 -417 48.333 -587 145c-196 112 -294 261.667 -294 449
c0 74.667 30.333 147.334 91 218.001c52 60 111.667 105.333 179 136c134 60.667 304 99 510 115c12 1.33301 24.667 2 38 2c119.333 0 179 -24.333 179 -73c0 -43.333 -46.667 -65 -140 -65c-230 0 -411.667 -36.333 -545 -109c-116 -64 -174 -141.333 -174 -232
c0 -104 59 -199.333 177 -286c146.667 -106.667 348 -160 604 -160c218 0 386.667 32.333 506 97c112.667 60.667 169.334 143 170.001 247c0 62.667 -5.33301 115.667 -16 159l-31 115c-3.33301 14 -5 27 -5 39c0 41.333 17.333 62 52 62c40 0 65.333 -14 76 -42
c10.667 -34 28 -79.667 52 -137c30 -58 66 -99.333 108 -124c53.333 -31.333 128.333 -47 225 -47c160 0 332.667 26.667 518 80c219.333 64 329 139.333 329 226c0 60.667 -36.333 111.334 -109 152.001c-70 39.333 -152.333 58.666 -247 57.999
c-143.333 -2 -252.666 -35.333 -328 -100c-79.333 -68 -136.666 -128.667 -172 -182l-52 -90c-28 -35.333 -55 -53 -81 -53c-38 0 -57 23.333 -57 70c0 16 3.66699 30.333 11 43c73.333 132 149 230.667 227 296c123.333 103.333 276 155 458 155
c140.667 0 261 -39 361 -117c91.333 -70 137 -144.667 137 -224z" />
    <glyph glyph-name="u0636" unicode="&#x636;" horiz-adv-x="3215" arabic-form="isolated" 
d="M3215 447c0 -131.333 -109.002 -241.001 -327.002 -329.001c-198 -80 -423.333 -120 -676 -120c-141.333 0 -247.666 26.333 -318.999 79c-13.333 -148 -93 -260.5 -239 -337.5s-349 -115.5 -609 -115.5c-221.333 0 -417 48.333 -587 145c-196 112 -294 261.667 -294 449
c0 74.667 30.333 147.334 91 218.001c52 60 111.667 105.333 179 136c134 60.667 304 99 510 115c12 1.33301 24.667 2 38 2c119.333 0 179 -24.333 179 -73c0 -43.333 -46.667 -65 -140 -65c-230 0 -411.667 -36.333 -545 -109c-116 -64 -174 -141.333 -174 -232
c0 -104 59 -199.333 177 -286c146.667 -106.667 348 -160 604 -160c218 0 386.667 32.333 506 97c112.667 60.667 169.334 143 170.001 247c0 62.667 -5.33301 115.667 -16 159l-31 115c-3.33301 14 -5 27 -5 39c0 41.333 17.333 62 52 62c40 0 65.333 -14 76 -42
c10.667 -34 28 -79.667 52 -137c30 -58 66 -99.333 108 -124c53.333 -31.333 128.333 -47 225 -47c160 0 332.667 26.667 518 80c219.333 64 329 139.333 329 226c0 60.667 -36.333 111.334 -109 152.001c-70 39.333 -152.333 58.666 -247 57.999
c-143.333 -2 -252.666 -35.333 -328 -100c-79.333 -68 -136.666 -128.667 -172 -182l-52 -90c-28 -35.333 -55 -53 -81 -53c-38 0 -57 23.333 -57 70c0 16 3.66699 30.333 11 43c73.333 132 149 230.667 227 296c123.333 103.333 276 155 458 155
c140.667 0 261 -39 361 -117c91.333 -70 137 -144.667 137 -224zM2321 956.999c0 26.667 15.333 47.667 46 63c26 13.333 56.667 20 92 20c93.333 0 140 -27.667 140 -83s-46.667 -83 -140 -83c-92 0 -138 27.667 -138 83z" />
    <glyph glyph-name="u0637" unicode="&#x637;" horiz-adv-x="1457" arabic-form="isolated" 
d="M1460 438c0 -122.667 -105.997 -227 -317.997 -313c-208.667 -85.333 -462.334 -128 -761.001 -128c-149.333 0 -224 22 -224 66c0 29.333 12 48.333 36 57c30 10.667 96 15.334 198 14.001c189.333 -1.33301 380 23.667 572 75c235.333 63.333 353 145.333 353 246
c0 41.333 -36.333 79.666 -109 114.999c-75.333 36.667 -159.333 55 -252 55c-112.667 0 -215 -34 -307 -102c-66 -49.333 -144 -133 -234 -251c-37.333 -48.667 -67.333 -73 -90 -73c-8 0 -16 2 -24 6c-24 12.667 -36 31.334 -36 56.001c0 17.333 5.66699 38.666 17 63.999
l33 51c15.333 23.333 25.333 52.666 30 87.999c1.33301 8 2 21 2 39c0 50.667 -5 154.334 -15 311.001c-11.333 186.667 -17.333 289 -18 307c-2 46 20 69 66 69c39.333 0 61.666 -21.333 66.999 -64c3.33301 -23.333 16.666 -208.333 39.999 -555
c144 130.667 297.667 196 461 196c144.667 0 267 -33.333 367 -100c97.333 -64.667 146 -141 146 -229z" />
    <glyph glyph-name="u0638" unicode="&#x638;" horiz-adv-x="1457" arabic-form="isolated" 
d="M1460 438c0 -122.667 -105.997 -227 -317.997 -313c-208.667 -85.333 -462.334 -128 -761.001 -128c-149.333 0 -224 22 -224 66c0 29.333 12 48.333 36 57c30 10.667 96 15.334 198 14.001c189.333 -1.33301 380 23.667 572 75c235.333 63.333 353 145.333 353 246
c0 41.333 -36.333 79.666 -109 114.999c-75.333 36.667 -159.333 55 -252 55c-112.667 0 -215 -34 -307 -102c-66 -49.333 -144 -133 -234 -251c-37.333 -48.667 -67.333 -73 -90 -73c-8 0 -16 2 -24 6c-24 12.667 -36 31.334 -36 56.001c0 17.333 5.66699 38.666 17 63.999
l33 51c15.333 23.333 25.333 52.666 30 87.999c1.33301 8 2 21 2 39c0 50.667 -5 154.334 -15 311.001c-11.333 186.667 -17.333 289 -18 307c-2 46 20 69 66 69c39.333 0 61.666 -21.333 66.999 -64c3.33301 -23.333 16.666 -208.333 39.999 -555
c144 130.667 297.667 196 461 196c144.667 0 267 -33.333 367 -100c97.333 -64.667 146 -141 146 -229zM644.003 1132c0 26.667 15.333 47.667 46 63c26 12.667 56.667 19 92 19c93.333 0 140 -27.333 140 -82c0 -55.333 -46.667 -83 -140 -83c-92 0 -138 27.667 -138 83z
" />
    <glyph glyph-name="u0639" unicode="&#x639;" horiz-adv-x="1420" arabic-form="isolated" 
d="M1493 -749c-144.667 -39.333 -279.331 -59.0029 -403.998 -59.0029c-265.333 0 -486 59.667 -662 179c-172.667 117.333 -259 261.333 -259 432c0 104.667 47.667 197.334 143 278.001c80 67.333 180.333 117.333 301 150c-155.333 74 -233 159 -233 255
c0 95.333 50.333 180 151 254c108 80 241.667 120 401 120c48.667 0 99.667 -5 153 -15c79.333 -15.333 117.333 -37.666 114 -66.999c-2.66699 -28.667 -24 -45.667 -64 -51c-13.333 -1.33301 -83 -2 -209 -2c-102 0 -192.667 -21 -272 -63
c-87.333 -46.667 -131 -105 -131 -175c0 -61.333 66.667 -115 200 -161c122.667 -42 252.334 -62.667 389.001 -62c210 0.666992 315 -22 315 -68c0 -34.667 -28 -55 -84 -61c-36.667 -4 -176.334 -6 -419.001 -6c-184.667 0 -332.834 -30 -444.501 -90
s-167.5 -138.667 -167.5 -236c0 -122 67 -228.667 201 -320c147.333 -100.667 335.666 -151 564.999 -151c120.667 0 245 16.333 373 49c12.667 2.66699 24 4 34 4c46.667 0 70 -20.333 70 -61c0 -37.333 -20.333 -61.666 -61 -72.999z" />
    <glyph glyph-name="u063A" unicode="&#x63a;" horiz-adv-x="1420" arabic-form="isolated" 
d="M1493 -749c-144.667 -39.333 -279.331 -59.0029 -403.998 -59.0029c-265.333 0 -486 59.667 -662 179c-172.667 117.333 -259 261.333 -259 432c0 104.667 47.667 197.334 143 278.001c80 67.333 180.333 117.333 301 150c-155.333 74 -233 159 -233 255
c0 95.333 50.333 180 151 254c108 80 241.667 120 401 120c48.667 0 99.667 -5 153 -15c79.333 -15.333 117.333 -37.666 114 -66.999c-2.66699 -28.667 -24 -45.667 -64 -51c-13.333 -1.33301 -83 -2 -209 -2c-102 0 -192.667 -21 -272 -63
c-87.333 -46.667 -131 -105 -131 -175c0 -61.333 66.667 -115 200 -161c122.667 -42 252.334 -62.667 389.001 -62c210 0.666992 315 -22 315 -68c0 -34.667 -28 -55 -84 -61c-36.667 -4 -176.334 -6 -419.001 -6c-184.667 0 -332.834 -30 -444.501 -90
s-167.5 -138.667 -167.5 -236c0 -122 67 -228.667 201 -320c147.333 -100.667 335.666 -151 564.999 -151c120.667 0 245 16.333 373 49c12.667 2.66699 24 4 34 4c46.667 0 70 -20.333 70 -61c0 -37.333 -20.333 -61.666 -61 -72.999zM717.003 1127
c0 26.667 15.333 47.667 46 63c26 13.333 56.667 20 92 20c93.333 0 140 -27.667 140 -83s-46.667 -83 -140 -83c-92 0 -138 27.667 -138 83z" />
    <glyph glyph-name="u0641" unicode="&#x641;" horiz-adv-x="2164" arabic-form="isolated" 
d="M2157 459c0 -142 -112.332 -256.333 -336.999 -343c-208.667 -80.667 -464.334 -121 -767.001 -121c-333.333 0 -575.666 46.667 -726.999 140c-110.667 68 -166 154.333 -166 259c0 99.333 71.667 183 215 251c88 41.333 175.333 68.666 262 81.999
c24 3.33301 47.167 -2.66699 69.5 -18s33.5 -32.666 33.5 -51.999c0 -30.667 -29.667 -51.667 -89 -63c-232.667 -44.667 -349 -112.334 -349 -203.001c0 -74.667 58.333 -134.667 175 -180c130.667 -50 320.667 -75 570 -75c256 0 470.333 22.333 643 67
c218.667 55.333 328 139.333 328 252c0 50 -31 97.333 -93 142c-78.667 57.333 -185.667 86 -321 86c-74.667 0 -150.334 -13.333 -227.001 -40c-90 -31.333 -135 -69.666 -135 -114.999c0 -90.667 97.333 -136 292 -136c81.333 0 166.333 15 255 45
c8.66699 3.33301 17.667 5 27 5c20 0 37.333 -7 52 -21s22 -30 22 -48c0 -28 -16.667 -48.667 -50 -62c-97.333 -38.667 -208.333 -58 -333 -58c-94 0 -181.333 20.667 -262 62c-100 51.333 -150 121 -150 209c0 67.333 48 132 144 194c106 68.667 231.333 103 376 103
c120.667 0 237.667 -32.667 351 -98c127.333 -73.333 191 -161.333 191 -264zM1401 1089c0 26.667 15 47.667 45 63c26 12.667 57 19 93 19c93.333 0 140 -27.333 140 -82c0 -55.333 -46.667 -83 -140 -83c-92 0 -138 27.667 -138 83z" />
    <glyph glyph-name="u0642" unicode="&#x642;" horiz-adv-x="1966" arabic-form="isolated" 
d="M1042 945c0 26.667 15.333 47.667 46 63c26 12.667 57 19 93 19c93.333 0 140 -27.333 140 -82c0 -55.333 -46.667 -83 -140 -83c-92.667 0 -139 27.667 -139 83zM1418 945c0 26.667 15 47.667 45 63c26 12.667 57 19 93 19c93.333 0 140 -27.333 140 -82
c0 -55.333 -46.667 -83 -140 -83c-92 0 -138 27.667 -138 83zM1967 209c0 -138 -76.6699 -265.004 -230.003 -381.004c-192 -145.333 -455 -218 -789 -218c-220.667 0 -407 55.667 -559 167c-147.333 107.333 -221 234.333 -221 381c0 138.667 85 268 255 388
c156 110.667 304 166 444 166c64.667 0 97 -18 97 -54c0 -38.667 -35.333 -66.667 -106 -84c-147.333 -35.333 -269.666 -85.666 -366.999 -150.999c-122.667 -81.333 -184 -174.666 -184 -279.999c0 -78.667 47.333 -157.334 142 -236.001
c122.667 -102.667 287 -154 493 -154c294 0 523.667 56 689 168c131.333 88.667 197 185.334 197 290.001c0 72.667 -37.667 139.667 -113 201c-84 67.333 -186.667 101 -308 101c-101.333 0 -196.833 -21.333 -286.5 -64s-134.5 -86.334 -134.5 -131.001
c0 -32 26.333 -58.333 79 -79c50.667 -20 112.334 -30 185.001 -30c85.333 0 160 9 224 27l106 39c10.667 4 21.334 6 32.001 6c22 0 40.5 -6.66699 55.5 -20s22.5 -28.666 22.5 -45.999c0 -29.333 -20.333 -52.333 -61 -69c-113.333 -47.333 -239.333 -71 -378 -71
c-111.333 0 -206 22 -284 66c-81.333 45.333 -122 103 -122 173c0 78.667 50.333 152.334 151 221.001c114 77.333 256.333 116 427 116c150 0 278.667 -44 386 -132c105.333 -87.333 158 -190.666 158 -309.999z" />
    <glyph glyph-name="u0643" unicode="&#x643;" horiz-adv-x="2166" arabic-form="isolated" 
d="M2168 417c0 -160.667 -130.666 -275.668 -391.999 -345.001c-180.667 -48 -415 -72 -703 -72c-322.667 0 -562.667 38 -720 114c-126.667 62 -190 141.333 -190 238c0 99.333 56.667 182.666 170 249.999c80 48 170 80 270 96c6.66699 1.33301 13.334 2 20.001 2
c24 0 44 -6.83301 60 -20.5s24 -29.5 24 -47.5c0 -34 -24.333 -55 -73 -63c-61.333 -10.667 -120.333 -28.667 -177 -54c-96 -43.333 -144 -95.666 -144 -156.999c0 -55.333 54.667 -102.333 164 -141c135.333 -48.667 333.666 -74 594.999 -76c263.333 -2 487 22 671 72
c190 51.333 285 117 285 197c0 86 -52 155.667 -156 209c-86 44.667 -184.333 70 -295 76c-34 1.33301 -58.667 0.333008 -74 -3c-18 -4 -34.333 -6 -49 -6c-50 0 -75 19 -75 57s24.333 69.667 73 95l577 295c17.333 8.66699 34.333 13 50.999 13c47.333 0 71 -21 71 -63
c0 -27.333 -16 -49.666 -48 -66.999l-383 -202c124.667 -10.667 230 -52.667 316 -126c88 -76 132 -166.333 132 -271z" />
    <glyph glyph-name="u0644" unicode="&#x644;" horiz-adv-x="2027" arabic-form="isolated" 
d="M2029 1067l-16.999 -923.999c-4 -200 -102.333 -347 -295 -441c-154.667 -76 -359 -114 -613 -114c-252.667 0 -467.667 48.667 -645 146c-190.667 104.667 -286 240.667 -286 408c0 146 71.333 267.333 214 364c170.667 116.667 418 172.667 742 168
c86.667 -1.33301 130 -24.333 130 -69c0 -5.33301 -0.333008 -10.666 -1 -15.999c-5.33301 -23.333 -20.333 -39 -45 -47c-20 -6.66699 -56.333 -10.334 -109 -11.001c-268 -4 -471 -47 -609 -129c-118.667 -70 -178 -160.333 -178 -271
c-0.666992 -116.667 76.666 -213.334 231.999 -290.001c150.667 -74 334.667 -111 552 -111c504 0 759.667 136.333 767 409l24 920c2 68.667 26.333 103 73 103c44 0 65.333 -31.667 64 -95z" />
    <glyph glyph-name="u0645" unicode="&#x645;" horiz-adv-x="1359" arabic-form="isolated" 
d="M1360 -39c0 -62 -34.667 -112 -104 -150c-64.667 -36 -143 -54 -235 -54c-137.333 0 -277.666 48 -420.999 144c-138.667 92.667 -208 178.334 -208 257.001c0 20.667 5.66699 43 17 67c-68 -19.333 -102 -70.333 -102 -153c0 -42 5.66699 -89 17 -141l24 -95
c0.666992 -4.66699 1 -9.33398 1 -14.001c0 -20.667 -7.33301 -39.667 -22 -57s-31.334 -26 -50.001 -26c-35.333 0 -60 31.667 -74 95c-11.333 42.667 -23.666 119.334 -36.999 230.001c-2.66699 111.333 25.333 191.666 84 240.999c64 54 176 81 336 81
c136.667 0 272 -27 406 -81c105.333 -42.667 192.666 -95.667 261.999 -159c70.667 -65.333 106 -127 106 -185zM1209 -31c-0.666992 47.333 -55 101.666 -163 162.999c-114 64.667 -222.667 97.334 -326 98.001c-118.667 0.666992 -178 -22.333 -178 -69
c0 -54 54.5 -111.667 163.5 -173s215.167 -92 318.5 -92c123.333 0 185 24.333 185 73z" />
    <glyph glyph-name="u0646" unicode="&#x646;" horiz-adv-x="1885" arabic-form="isolated" 
d="M1890 204c-1.33301 -135.333 -48.668 -247.336 -142.001 -336.003c-145.333 -139.333 -391.333 -209 -738 -209c-268.667 0 -485 63.333 -649 190c-140.667 108.667 -211 230.334 -211 365.001c0 176 98.667 308 296 396c148.667 67.333 341 105.333 577 114
c88.667 3.33301 133 -19 133 -67c0 -46 -39.667 -70.667 -119 -74c-494 -21.333 -741 -144 -741 -368c0 -79.333 48.667 -159.666 146 -240.999c134 -112.667 323.667 -169 569 -169c211.333 0 380 27.667 506 83c154.667 67.333 232 172 232 314s-28.667 290.667 -86 446
c-6.66699 16.667 -10 32.334 -10 47.001c0 45.333 20.333 68 61 68c38.667 0 67.334 -24.667 86.001 -74c37.333 -97.333 62 -177 74 -239c12 -65.333 17.333 -147.333 16 -246zM1265 649.997c0 26.667 15.333 47.667 46 63c26 12.667 56.667 19 92 19
c93.333 0 140 -27.333 140 -82c0 -55.333 -46.667 -83 -140 -83c-92 0 -138 27.667 -138 83z" />
    <glyph glyph-name="u0647" unicode="&#x647;" horiz-adv-x="1542" arabic-form="isolated" 
d="M1543 318c0 -212.667 -264.333 -319.001 -793 -319.001c-125.333 0 -238.333 14.667 -339 44c-164.667 47.333 -247 126.333 -247 237c0 86 90.333 172 271 258c137.333 64.667 284.333 114 441 148c-34 24 -51 45.667 -51 65s8.5 36.5 25.5 51.5s34.833 22.5 53.5 22.5
c12.667 0 45.667 -13.333 99 -40l110 -56c36 10.667 92.333 23.334 169 38.001c54 6 81 -18.333 81 -73c0 -24.667 -21.667 -44.667 -65 -60c163.333 -94 245 -199.333 245 -316zM1400 315.999c0 84.667 -104 175.666 -312 272.999c-204 -28.667 -388.333 -78 -553 -148
c-149.333 -63.333 -224.333 -115.666 -225 -156.999c-0.666992 -42 40.5 -76.333 123.5 -103s187.833 -40 314.5 -40c434.667 0 652 58.333 652 175z" />
    <glyph glyph-name="u0648" unicode="&#x648;" horiz-adv-x="1245" arabic-form="isolated" 
d="M1251 232c0 -131.333 -99.9971 -243.999 -299.997 -337.999c-191.333 -89.333 -411.333 -135 -660 -137c-41.333 -0.666992 -75 6.66602 -101 21.999c-22.667 14 -34 31 -34 51c0 45.333 43.333 68 130 68c226.667 0 421 34.333 583 103
c158.667 67.333 238 146.666 238 237.999c0 62 -36.333 114.667 -109 158c-78.667 46.667 -181.334 70 -308.001 70c-238.667 0 -358 -49.667 -358 -149c0 -47.333 41.333 -83.666 124 -108.999c61.333 -18.667 128 -28 200 -28c85.333 0 159.333 11.667 222 35
c11.333 4.66699 22.666 7 33.999 7c46.667 0 70 -21 70 -63c0 -31.333 -20.667 -55.333 -62 -72c-70.667 -28.667 -159 -43 -265 -43c-108.667 0 -210.334 23.667 -305.001 71c-108.667 54 -163 122 -163 204c0 76.667 44.667 143 134 199c94.667 58.667 214.667 88 360 88
c150 0 278.667 -30.333 386 -91c122.667 -70 184 -164.667 184 -284z" />
    <glyph glyph-name="u0649" unicode="&#x649;" horiz-adv-x="1856" arabic-form="isolated" 
d="M1900 384c0 -41.333 -25 -62.001 -75 -62.001c4 0 -23.833 6.66699 -83.5 20s-117.834 20 -174.501 20c-92.667 0 -184 -23.667 -274 -71c-96.667 -50.667 -145 -107.667 -145 -171c0 -22 31.333 -33 94 -33c50.667 0 129.334 13 236.001 39s170.334 39 191.001 39
c48 0 89.667 -12 125 -36c42 -28.667 63 -68.667 63 -120c0 -108 -77.667 -201.5 -233 -280.5s-335 -118.5 -539 -118.5c-262.667 0 -483.667 63.667 -663 191c-171.333 121.333 -257 263.333 -257 426c0 132.667 74.667 245 224 337c143.333 88 310 132 500 132
c40 0 80 -2.33301 120 -7c79.333 -9.33301 119 -35.666 119 -78.999c0 -45.333 -42.667 -64.666 -128 -57.999c-26 2 -52.333 3 -79 3c-158 0 -296 -30 -414 -90c-129.333 -66 -194 -150.667 -194 -254c0 -96.667 59.667 -191.667 179 -285
c148.667 -116.667 342.334 -175 581.001 -175c158.667 0 304.667 25.333 438 76c138 52 207 111.667 207 179c0 13.333 -11.667 20 -35 20c-25.333 0.666992 -92.833 -12 -202.5 -38s-194.834 -39 -255.501 -39c-147.333 0 -221 57.667 -221 173
c0 89.333 55.667 173.666 167 252.999c117.333 84 249.666 126 396.999 126c64 0 129 -8 195 -24c91.333 -22 137 -53 137 -93z" />
    <glyph glyph-name="u064A" unicode="&#x64a;" horiz-adv-x="1856" arabic-form="isolated" 
d="M1900 384c0 -41.333 -25 -62.001 -75 -62.001c4 0 -23.833 6.66699 -83.5 20s-117.834 20 -174.501 20c-92.667 0 -184 -23.667 -274 -71c-96.667 -50.667 -145 -107.667 -145 -171c0 -22 31.333 -33 94 -33c50.667 0 129.334 13 236.001 39s170.334 39 191.001 39
c48 0 89.667 -12 125 -36c42 -28.667 63 -68.667 63 -120c0 -108 -77.667 -201.5 -233 -280.5s-335 -118.5 -539 -118.5c-262.667 0 -483.667 63.667 -663 191c-171.333 121.333 -257 263.333 -257 426c0 132.667 74.667 245 224 337c143.333 88 310 132 500 132
c40 0 80 -2.33301 120 -7c79.333 -9.33301 119 -35.666 119 -78.999c0 -45.333 -42.667 -64.666 -128 -57.999c-26 2 -52.333 3 -79 3c-158 0 -296 -30 -414 -90c-129.333 -66 -194 -150.667 -194 -254c0 -96.667 59.667 -191.667 179 -285
c148.667 -116.667 342.334 -175 581.001 -175c158.667 0 304.667 25.333 438 76c138 52 207 111.667 207 179c0 13.333 -11.667 20 -35 20c-25.333 0.666992 -92.833 -12 -202.5 -38s-194.834 -39 -255.501 -39c-147.333 0 -221 57.667 -221 173
c0 89.333 55.667 173.666 167 252.999c117.333 84 249.666 126 396.999 126c64 0 129 -8 195 -24c91.333 -22 137 -53 137 -93z" />
    <glyph glyph-name="u067E" unicode="&#x67e;" horiz-adv-x="2143" arabic-form="isolated" 
d="M2144 408c0 -155.333 -143.001 -269.333 -429.001 -342c-184.667 -46.667 -379.667 -70 -585 -70c-206 0 -395.333 23.333 -568 70c-265.333 72 -398 186 -398 342c0 67.333 51.333 136.666 154 207.999c108 76 223 114.667 345 116
c52.667 0.666992 79 -18.666 79 -57.999c0 -19.333 -7.33301 -36.666 -22 -51.999c-16.667 -16.667 -36.334 -25 -59.001 -25c-50 0 -114.333 -16 -193 -48c-104.667 -42 -157 -94.667 -157 -158c0 -84.667 87.333 -150 262 -196c151.333 -39.333 336 -58.333 554 -57
c248 2 452.333 24 613 66c180.667 47.333 271 112.666 271 195.999c0 57.333 -46.667 107 -140 149c-75.333 34.667 -139.666 52 -192.999 52c-71.333 0 -107 20.333 -107 61c0 41.333 34 63.333 102 66c84.667 4 179.334 -22.333 284.001 -79
c124.667 -66.667 187 -147 187 -241zM1048 -469c0 -26.667 15.333 -47.667 46 -63c26 -13.333 56.667 -20 92 -20c93.333 0 140 27.667 140 83s-46.667 83 -140 83c-92 0 -138 -27.667 -138 -83zM860.999 -253c0 -26.667 15.333 -47.667 46 -63
c26 -13.333 56.667 -20 92 -20c93.333 0 140 27.667 140 83s-46.667 83 -140 83c-92 0 -138 -27.667 -138 -83zM1236 -253c0 -26.667 15.333 -47.667 46 -63c26 -13.333 56.667 -20 92 -20c93.333 0 140 27.667 140 83s-46.667 83 -140 83c-92 0 -138 -27.667 -138 -83z" />
    <glyph glyph-name="u0686" unicode="&#x686;" horiz-adv-x="1531" arabic-form="isolated" 
d="M1601 -662c0 -24.667 -54.001 -55 -162.001 -91c-129.333 -42.667 -273.333 -64 -432 -64c-218 0 -408 48 -570 144c-182.667 108 -274 251.333 -274 430c0 135.333 82.333 252 247 350c162.667 96.667 355 145 577 145c26.667 0 52.667 -1.33301 78 -4
c30 -3.33301 49.667 -5 59 -5c6 18 9 35.333 9 52c0 63.333 -38 113.333 -114 150c-72 35.333 -166 53 -282 53c-80.667 0 -152.667 -11 -216 -33l-97 -35c-44.667 -4.66699 -67 16.333 -67 63c0 24.667 33 52.667 99 84c82.667 38.667 183.334 58 302.001 58
c140.667 0 258 -27.667 352 -83c105.333 -62.667 158 -148.667 158 -258c0 -18 -3.66699 -45.333 -11 -82c123.333 -42.667 185 -75 185 -97c0 -49.333 -22 -74 -66 -74c-2 0 -38.333 11.667 -109 35s-167 35 -289 35c-208 0 -376.667 -40.333 -506 -121
c-112 -70 -168 -148.333 -168 -235c0 -100.667 56.333 -195 169 -283c134.667 -104 309.334 -156 524.001 -156c106.667 0 201.667 8.33301 285 25c53.333 10 106.666 25.333 159.999 46c44 16.667 71 25 81 25c52 0 78 -24.667 78 -74zM814.999 -411
c0 -26.667 15.333 -47.667 46 -63c26 -13.333 56.667 -20 92 -20c93.333 0 140 27.667 140 83s-46.667 83 -140 83c-92 0 -138 -27.667 -138 -83zM627.999 -195c0 -26.667 15.333 -47.667 46 -63c26 -12.667 56.667 -19 92 -19c93.333 0 140 27.333 140 82
c0 55.333 -46.667 83 -140 83c-92 0 -138 -27.667 -138 -83zM1003 -195c0 -26.667 15.333 -47.667 46 -63c26 -12.667 56.667 -19 92 -19c93.333 0 140 27.333 140 82c0 55.333 -46.667 83 -140 83c-92 0 -138 -27.667 -138 -83z" />
    <glyph glyph-name="u0698" unicode="&#x698;" horiz-adv-x="1090" arabic-form="isolated" 
d="M1092 129c0 -121.333 -100.334 -229.166 -301.001 -323.499s-426.667 -141.5 -678 -141.5c-33.333 0 -59.833 7.33301 -79.5 22s-29.5 31.667 -29.5 51c0 46 38 69 114 69c192.667 0 375.667 30.667 549 92c184 64.667 276 138 276 220c0 52 -12.833 102.167 -38.5 150.5
s-38.5 74.166 -38.5 77.499c-1.33301 47.333 22.334 71 71.001 71c28 0 60.833 -36 98.5 -108s56.5 -132 56.5 -180zM664.999 904c0 27.333 15 48.333 45 63c26 13.333 57 20 93 20c93.333 0 140 -27.667 140 -83c0 -54.667 -46.667 -82 -140 -82c-92 0 -138 27.333 -138 82
zM477.999 688c0 26.667 15 47.667 45 63c26 13.333 57 20 93 20c93.333 0 140 -27.667 140 -83s-46.667 -83 -140 -83c-92 0 -138 27.667 -138 83zM852.999 688c0 26.667 15 47.667 45 63c26 13.333 57 20 93 20c93.333 0 140 -27.667 140 -83s-46.667 -83 -140 -83
c-92 0 -138 27.667 -138 83z" />
    <glyph glyph-name="u06AF" unicode="&#x6af;" horiz-adv-x="2166" arabic-form="isolated" 
d="M2168 417c0 -160.667 -130.666 -275.668 -391.999 -345.001c-180.667 -48 -415 -72 -703 -72c-322.667 0 -562.667 38 -720 114c-126.667 62 -190 141.333 -190 238c0 99.333 56.667 182.666 170 249.999c80 48 170 80 270 96c6.66699 1.33301 13.334 2 20.001 2
c24 0 44 -6.83301 60 -20.5s24 -29.5 24 -47.5c0 -34 -24.333 -55 -73 -63c-61.333 -10.667 -120.333 -28.667 -177 -54c-96 -43.333 -144 -95.666 -144 -156.999c0 -55.333 54.667 -102.333 164 -141c135.333 -48.667 333.666 -74 594.999 -76c263.333 -2 487 22 671 72
c190 51.333 285 117 285 197c0 86 -52 155.667 -156 209c-86 44.667 -184.333 70 -295 76c-34 1.33301 -58.667 0.333008 -74 -3c-18 -4 -34.333 -6 -49 -6c-50 0 -75 19 -75 57s24.333 69.667 73 95l577 295c17.333 8.66699 34.333 13 50.999 13c47.333 0 71 -21 71 -63
c0 -27.333 -16 -49.666 -48 -66.999l-383 -202c124.667 -10.667 230 -52.667 316 -126c88 -76 132 -166.333 132 -271zM2013 1220l-661 -343.001c-12 -6 -23 -9 -33 -9c-26.667 0 -40 12.667 -40 38c0 20.667 12.333 37.334 37 50.001l641 334c14.667 7.33301 29 11 43 11
c32.667 0 49 -12.333 49 -37c0 -17.333 -12 -32 -36 -44z" />
    <glyph glyph-name="uFB57" unicode="&#x67e;" horiz-adv-x="2611" arabic-form="final" 
d="M2639 0l-90.002 0.000976562c-95.333 0 -191.666 24.667 -288.999 74c-101.333 52 -172 115 -212 189c-75.333 -74 -203.333 -136.667 -384 -188c-177.333 -50 -354.666 -75 -531.999 -75c-216.667 0 -406.667 20 -570 60c-266.667 65.333 -400 176 -400 332
c0 67.333 51.333 136.666 154 207.999c108.667 76 223.667 114.667 345 116c52.667 0.666992 79 -18.666 79 -57.999c0 -19.333 -7.33301 -36.666 -22 -51.999c-16.667 -16.667 -36.334 -25 -59.001 -25c-51.333 0 -116.333 -15.333 -195 -46
c-106 -42 -159 -94.667 -159 -158c0 -84.667 90 -147.334 270 -188.001c146 -33.333 335 -50 567 -50c200.667 0 384.667 26.333 552 79c192.667 60.667 291.334 138 296.001 232c4.66699 91.333 7.66699 142.666 9 153.999c10 63.333 30.333 95 61 95
c44 0 68.333 -80.667 73 -242c2 -85.333 46.667 -160 134 -224c84.667 -61.333 179.334 -92 284 -92h88v-141zM1049 -466.999c0 -26.667 15.333 -47.667 46 -63c26 -13.333 56.667 -20 92 -20c93.333 0 140 27.667 140 83s-46.667 83 -140 83c-92 0 -138 -27.667 -138 -83z
M861.998 -250.999c0 -26.667 15.333 -47.667 46 -63c26 -13.333 56.667 -20 92 -20c93.333 0 140 27.667 140 83s-46.667 83 -140 83c-92 0 -138 -27.667 -138 -83zM1237 -250.999c0 -26.667 15.333 -47.667 46 -63c26 -13.333 56.667 -20 92 -20
c93.333 0 140 27.667 140 83s-46.667 83 -140 83c-92 0 -138 -27.667 -138 -83z" />
    <glyph glyph-name="uFB58" unicode="&#x67e;" horiz-adv-x="821" arabic-form="initial" 
d="M822 407c0 -142 -89.667 -249.335 -269 -322.002c-140 -56.667 -308 -85 -504 -85h-80l2 141h66c126 0 247.333 13.667 364 41c186 44 279 113.333 279 208c0 74.667 -106 135.334 -318 182.001c-66 14.667 -99 41.334 -99 80.001c0 39.333 29 59 87 59
c13.333 0 27.333 -1.66699 42 -5c106 -22 197.667 -55 275 -99c103.333 -58 155 -124.667 155 -200zM221 -485.002c0 -26.667 15.333 -47.667 46 -63c26 -13.333 56.667 -20 92 -20c93.333 0 140 27.667 140 83s-46.667 83 -140 83c-92 0 -138 -27.667 -138 -83z
M34 -269.002c0 -26.667 15.333 -47.667 46 -63c26 -13.333 56.667 -20 92 -20c93.333 0 140 27.667 140 83s-46.667 83 -140 83c-92 0 -138 -27.667 -138 -83zM409 -269.002c0 -26.667 15.333 -47.667 46 -63c26 -13.333 56.667 -20 92 -20c93.333 0 140 27.667 140 83
s-46.667 83 -140 83c-92 0 -138 -27.667 -138 -83z" />
    <glyph glyph-name="uFB59" unicode="&#x67e;" horiz-adv-x="1073" arabic-form="medial" 
d="M1102 0h-77c-72 -0 -143.667 14.333 -215 43c-104 40.667 -182.667 105 -236 193c-60.667 -87.333 -147 -151.333 -259 -192c-82 -29.333 -168.333 -44 -259 -44h-86v141h84c130 0 236.167 27.5 318.5 82.5s126.5 130.5 132.5 226.5
c5.33301 99.333 8.33301 149.666 9 150.999c9.33301 61.333 29.333 92 60 92c48.667 0 73 -69.667 73 -209c0 -125.333 50.667 -218.666 152 -279.999c70 -42 145.667 -63 227 -63h76v-141zM204 -484c0 -26.667 15.333 -47.667 46 -63c26.667 -13.333 58 -20 94 -20
c94 0 141 27.667 141 83c0 56 -47 84 -141 84c-36.667 0 -68 -6.33301 -94 -19c-30.667 -15.333 -46 -37 -46 -65zM14 -265c0 -27.333 15.667 -48.668 47 -64.001c26 -13.333 57 -20 93 -20c94.667 0 142 28 142 84c0 55.333 -47.333 83 -142 83c-36 0 -67 -6.33301 -93 -19
c-31.333 -15.333 -47 -36.666 -47 -63.999zM394 -265.002c0 -27.333 15.333 -48.668 46 -64.001c26.667 -13.333 58 -20 94 -20c94.667 0 142 28 142 84c0 55.333 -47.333 83 -142 83c-36 0 -67.333 -6.33301 -94 -19c-30.667 -15.333 -46 -36.666 -46 -63.999z" />
    <glyph glyph-name="uFB7B" unicode="&#x686;" horiz-adv-x="1563" arabic-form="final" 
d="M1601 -662c0 -24.667 -53.9971 -55.001 -161.997 -91.001c-129.333 -42.667 -273.333 -64 -432 -64c-246 0 -447.667 51.333 -605 154c-159.333 104.667 -239 241.334 -239 410.001c0 156 76 277.667 228 365c140 80.667 320.667 121 542 121
c61.333 0 124.666 -6 189.999 -18c5.33301 23.333 8 50.666 8 81.999c0 63.333 -37.667 113.333 -113 150c-72 34.667 -165.667 52 -281 52c-80.667 0 -152.667 -11 -216 -33l-97 -35c-44.667 -4.66699 -67 16 -67 62c0 25.333 33 53.666 99 84.999
c82.667 38.667 183.334 58 302.001 58c140.667 0 258 -28 352 -84c105.333 -62 158 -147.667 158 -257c0 -32.667 -3.33301 -71 -10 -115c110 -26 195.333 -39 256 -39h66l-1 -141h-61c-18 -2 -35.667 -3 -53 -3c-62.667 0 -150.334 15.833 -263.001 47.5
s-202.334 47.5 -269.001 47.5c-207.333 0 -366.333 -33.333 -477 -100c-101.333 -61.333 -152 -143.666 -152 -246.999c0 -109.333 56 -204.666 168 -285.999c127.333 -93.333 296.333 -140 507 -140c106 0 202.333 8 289 24c55.333 10.667 111.666 25.667 168.999 45
c47.333 16 76 24 86 24c52 0 78 -24.667 78 -74zM778.003 -422.001c0 -26.667 15.333 -47.667 46 -63c26 -13.333 56.667 -20 92 -20c94 0 141 27.667 141 83s-47 83 -141 83c-92 0 -138 -27.667 -138 -83zM591.003 -206.001c0 -26.667 15.333 -47.667 46 -63
c26 -13.333 56.667 -20 92 -20c93.333 0 140 27.667 140 83s-46.667 83 -140 83c-92 0 -138 -27.667 -138 -83zM966.003 -206.001c0 -26.667 15.333 -47.667 46 -63c26 -13.333 56.667 -20 92 -20c94 0 141 27.667 141 83s-47 83 -141 83c-92 0 -138 -27.667 -138 -83z" />
    <glyph glyph-name="uFB7C" unicode="&#x686;" horiz-adv-x="1023" arabic-form="initial" 
d="M992 198c-61.333 -35.333 -172.667 -73.668 -334 -115.001c-216 -55.333 -425.667 -83 -629 -83h-59l-4 141h62c217.333 0 430 30.333 638 91c16 38.667 24 73.334 24 104.001c0 60 -39 108.667 -117 146c-74 36 -166.667 54 -278 54
c-78 0 -151.167 -12.833 -219.5 -38.5s-103.833 -38.5 -106.5 -38.5c-47.333 0 -71 20.667 -71 62c0 30 43.667 63 131 99c92 38 184.333 57 277 57c140 0 259 -27.667 357 -83c110.667 -62 166 -146.333 166 -253c0 -21.333 -1.33301 -42 -4 -62l110 36
c6.66699 1.33301 13 2 19 2c45.333 0 68 -22.333 68 -67c0 -22.667 -10 -40 -30 -52zM213.999 -538.002c0 -26.667 15.333 -47.667 46 -63c26 -12.667 56.667 -19 92 -19c94 0 141 27.333 141 82c0 55.333 -47 83 -141 83c-92 0 -138 -27.667 -138 -83zM26.999 -321.002
c0 -27.333 15.333 -48.667 46 -64c26 -12.667 56.667 -19 92 -19c93.333 0 140 27.667 140 83c0 54.667 -46.667 82 -140 82c-92 0 -138 -27.333 -138 -82zM401.999 -321.003c0 -27.333 15.333 -48.667 46 -64c26 -12.667 56.667 -19 92 -19c94 0 141 27.667 141 83
c0 54.667 -47 82 -141 82c-92 0 -138 -27.333 -138 -82z" />
    <glyph glyph-name="uFB7D" unicode="&#x686;" horiz-adv-x="1072" arabic-form="medial" 
d="M1102 143l-0.999023 -143h-61c-140 0 -256.333 31 -349 93c-216 -62 -439.333 -93 -670 -93h-52v141h50c87.333 0 198.666 9.33301 333.999 28c138.667 19.333 239.667 40.333 303 63c7.33301 18 11 52.667 11 104c0 60 -37.333 108.667 -112 146c-72 36 -163 54 -273 54
c-78.667 0 -152 -12.833 -220 -38.5s-103.333 -38.5 -106 -38.5c-22 0 -40 7.66699 -54 23c-11.333 12.667 -17 25.667 -17 39c0 30 43.667 63 131 99c92 38 184.333 57 277 57c138 0 257 -29.667 357 -89c110 -65.333 165 -151.333 165 -258c0 -19.333 -2 -38.333 -6 -57
c68.667 20.667 104.334 31 107.001 31c44 0 70 -22.333 78 -67c3.33301 -21.333 -33.334 -48.333 -110.001 -81c37.333 -8.66699 88 -13 152 -13h66zM215.001 -523c0 -26.667 15.333 -47.667 46 -63c26 -12.667 56.667 -19 92 -19c93.333 0 140 27.333 140 82
c0 55.333 -46.667 83 -140 83c-92 0 -138 -27.667 -138 -83zM28.001 -306c0 -27.333 15.333 -48.667 46 -64c26 -12.667 56.667 -19 92 -19c93.333 0 140 27.667 140 83c0 54.667 -46.667 82 -140 82c-92 0 -138 -27.333 -138 -82zM403.001 -306.001
c0 -27.333 15.333 -48.667 46 -64c26 -12.667 56.667 -19 92 -19c93.333 0 140 27.667 140 83c0 54.667 -46.667 82 -140 82c-92 0 -138 -27.333 -138 -82z" />
    <glyph glyph-name="uFB8B" unicode="&#x698;" horiz-adv-x="1482" arabic-form="final" 
d="M1511 0l-86.001 -0.00292969c-134 0 -245 27 -333 81c-34.667 -117.333 -144.667 -225.666 -330 -324.999c-197.333 -106 -407 -159 -629 -159c-52 0 -78 22 -78 66c0 48 30 72 90 72c189.333 0 373 46 551 138c167.333 86.667 251.333 168.334 252 245.001
c0.666992 46 -13.166 94.333 -41.499 145s-42.5 80 -42.5 88c0 24.667 8.33301 43.334 25 56.001s37 16.667 61 12l118 -141c92.667 -91.333 212 -137 358 -137h85v-141zM690.999 914.997c0 26.667 15.333 47.667 46 63c26 12.667 56.667 19 92 19
c93.333 0 140 -27.333 140 -82c0 -55.333 -46.667 -83 -140 -83c-92 0 -138 27.667 -138 83zM503.999 697.997c0 27.333 15.333 48.667 46 64c26 12.667 56.667 19 92 19c93.333 0 140 -27.667 140 -83c0 -54.667 -46.667 -82 -140 -82c-92 0 -138 27.333 -138 82z
M878.999 697.998c0 27.333 15.333 48.667 46 64c26 12.667 56.667 19 92 19c93.333 0 140 -27.667 140 -83c0 -54.667 -46.667 -82 -140 -82c-92 0 -138 27.333 -138 82z" />
    <glyph glyph-name="uFEDA" unicode="&#x6a9;" horiz-adv-x="2354" arabic-form="final" 
d="M1844 96c-185.333 -64 -442.332 -96.001 -770.999 -96.001c-322.667 0 -562.667 38 -720 114c-126.667 62 -190 141.333 -190 238c0 99.333 56.667 182.666 170 249.999c80 48 170 80 270 96c6.66699 1.33301 13.334 2 20.001 2c24 0 44 -6.83301 60 -20.5
s24 -29.5 24 -47.5c0 -34 -24.333 -55 -73 -63c-61.333 -10.667 -120.333 -28.667 -177 -54c-96 -43.333 -144 -95.666 -144 -156.999c0 -55.333 54.667 -102.333 164 -141c135.333 -48.667 333.666 -74 594.999 -76c263.333 -2 487 22 671 72c190 51.333 285 117 285 197
c0 86 -52 155.667 -156 209c-86 44.667 -184.333 70 -295 76c-34 1.33301 -58.667 0.333008 -74 -3c-18 -4 -34.333 -6 -49 -6c-50 0 -75 19 -75 57s24.333 69.667 73 95l577 295c17.333 8.66699 34.333 13 50.999 13c47.333 0 71 -21 71 -63
c0 -27.333 -16 -49.666 -48 -66.999l-383 -202c124.667 -10.667 230 -52.667 316 -126c88 -76 132 -166.333 132 -271c0 -104 -46.667 -183.667 -140 -239c56 -24.667 160 -37 312 -37h44v-141h-42c-221.333 0 -387.333 32 -498 96z" />
    <glyph glyph-name="uFEDB" unicode="&#x6a9;" horiz-adv-x="927" arabic-form="initial" 
d="M927 421c0 -130 -87.332 -234.001 -261.999 -312.001c-162.667 -72.667 -367.334 -109 -614.001 -109h-77v143l82 -2c170 -4 332 20.667 486 74c163.333 56 245 121.333 245 196c0 86.667 -55 157 -165 211c-85.333 42 -180.333 66.667 -285 74
c-32 2 -57 0.666992 -75 -4s-34.667 -7 -50 -7c-49.333 0 -74 19 -74 57c0 38.667 24.333 70.334 73 95.001l578 295c16 8 32.333 12 49 12c48 0 72 -20.667 72 -62c0 -26.667 -16.333 -48.667 -49 -66l-383 -203c122 -16.667 225 -58.667 309 -126
c93.333 -74 140 -162.667 140 -266z" />
    <glyph glyph-name="uFEDC" unicode="&#x6a9;" horiz-adv-x="1113" arabic-form="medial" 
d="M634 90c-111.333 -42.667 -224.333 -70.002 -339 -82.002c-52.667 -5.33301 -140.334 -8 -263.001 -8h-58v143l64 -2c168 -4.66699 332.667 19.666 494 72.999c170 56.667 255 122.334 255 197.001c0 86.667 -55 157 -165 211c-85.333 42 -180.333 66.667 -285 74
c-32 2 -57 0.666992 -75 -4s-34.667 -7 -50 -7c-49.333 0 -74 19 -74 57c0 38.667 24.333 70.334 73 95.001l578 295c16.667 8.66699 33.334 13 50.001 13c47.333 0 71 -20.667 71 -62c0 -27.333 -16.333 -49.666 -49 -66.999l-383 -203c122 -16.667 225 -58.667 309 -126
c93.333 -74 140 -162.667 140 -266c0 -86.667 -47 -165.667 -141 -237c66 -28.667 167.333 -43 304 -43h53v-141h-51c-214 0 -366.667 30 -458 90z" />
    <glyph glyph-name="uFB93" unicode="&#x6af;" horiz-adv-x="2354" arabic-form="final" 
d="M1844 96c-185.333 -64 -442.332 -96.001 -770.999 -96.001c-322.667 0 -562.667 38 -720 114c-126.667 62 -190 141.333 -190 238c0 99.333 56.667 182.666 170 249.999c80 48 170 80 270 96c6.66699 1.33301 13.334 2 20.001 2c24 0 44 -6.83301 60 -20.5
s24 -29.5 24 -47.5c0 -34 -24.333 -55 -73 -63c-61.333 -10.667 -120.333 -28.667 -177 -54c-96 -43.333 -144 -95.666 -144 -156.999c0 -55.333 54.667 -102.333 164 -141c135.333 -48.667 333.666 -74 594.999 -76c263.333 -2 487 22 671 72c190 51.333 285 117 285 197
c0 86 -52 155.667 -156 209c-86 44.667 -184.333 70 -295 76c-34 1.33301 -58.667 0.333008 -74 -3c-18 -4 -34.333 -6 -49 -6c-50 0 -75 19 -75 57s24.333 69.667 73 95l577 295c17.333 8.66699 34.333 13 50.999 13c47.333 0 71 -21 71 -63
c0 -27.333 -16 -49.666 -48 -66.999l-383 -202c124.667 -10.667 230 -52.667 316 -126c88 -76 132 -166.333 132 -271c0 -104 -46.667 -183.667 -140 -239c56 -24.667 160 -37 312 -37h44v-141h-42c-221.333 0 -387.333 32 -498 96zM2004 1220l-662 -343.001
c-11.333 -6 -22 -9 -32 -9c-26.667 0 -40 12.667 -40 38c0 20.667 12.333 37.334 37 50.001l641 334c14 7.33301 28 11 42 11c33.333 0 50 -12.333 50 -37c0 -17.333 -12 -32 -36 -44z" />
    <glyph glyph-name="uFB94" unicode="&#x6af;" horiz-adv-x="927" arabic-form="initial" 
d="M773 1220l-662 -343.001c-11.333 -6 -22.333 -9 -33 -9c-26.667 0 -40 12.667 -40 38c0 20.667 12.333 37.334 37 50.001l641 334c14.667 7.33301 29 11 43 11c32.667 0 49 -12.333 49 -37c0 -17.333 -11.667 -32 -35 -44zM927 420.999
c0 -130 -87.332 -234.001 -261.999 -312.001c-162.667 -72.667 -367.334 -109 -614.001 -109h-77v143l82 -2c170 -4 332 20.667 486 74c163.333 56 245 121.333 245 196c0 86.667 -55 157 -165 211c-85.333 42 -180.333 66.667 -285 74c-32 2 -57 0.666992 -75 -4
s-34.667 -7 -50 -7c-49.333 0 -74 19 -74 57c0 38.667 24.333 70.334 73 95.001l578 295c16 8 32.333 12 49 12c48 0 72 -20.667 72 -62c0 -26.667 -16.333 -48.667 -49 -66l-383 -203c122 -16.667 225 -58.667 309 -126c93.333 -74 140 -162.667 140 -266z" />
    <glyph glyph-name="uFB95" unicode="&#x6af;" horiz-adv-x="1113" arabic-form="medial" 
d="M634 90c-111.333 -42.667 -224.333 -70.002 -339 -82.002c-52.667 -5.33301 -140.334 -8 -263.001 -8h-58v143l64 -2c168 -4.66699 332.667 19.666 494 72.999c170 56.667 255 122.334 255 197.001c0 86.667 -55 157 -165 211c-85.333 42 -180.333 66.667 -285 74
c-32 2 -57 0.666992 -75 -4s-34.667 -7 -50 -7c-49.333 0 -74 19 -74 57c0 38.667 24.333 70.334 73 95.001l578 295c16.667 8.66699 33.334 13 50.001 13c47.333 0 71 -20.667 71 -62c0 -27.333 -16.333 -49.666 -49 -66.999l-383 -203c122 -16.667 225 -58.667 309 -126
c93.333 -74 140 -162.667 140 -266c0 -86.667 -47 -165.667 -141 -237c66 -28.667 167.333 -43 304 -43h53v-141h-51c-214 0 -366.667 30 -458 90zM773 1220l-662 -343.001c-11.333 -6 -22.333 -9 -33 -9c-26.667 0 -40 12.667 -40 38c0 20.667 12.333 37.334 37 50.001
l641 334c14.667 7.33301 29 11 43 11c32.667 0 49 -12.333 49 -37c0 -17.333 -11.667 -32 -35 -44z" />
    <glyph glyph-name="uFE94" unicode="&#x6c0;" horiz-adv-x="1880" arabic-form="final" 
d="M1882 0h-63c-97.333 0 -195.666 26 -294.999 78c-94 49.333 -161 106.333 -201 171c-100.667 -136 -280.334 -204 -539.001 -204c-150.667 0 -283.334 24.333 -398.001 73c-148 63.333 -222 154.666 -222 273.999c0 102 44.667 184 134 246c94 66 224 99 390 99
c174 0 320.333 -35 439 -105c31.333 -18.667 47 -41.334 47 -68.001c0 -40.667 -22.667 -61 -68 -61c-13.333 0 -27.333 3.33301 -42 10c-46.667 21.333 -88.334 37.666 -125.001 48.999c-82 24 -170 37.333 -264 40c-112 2 -202.667 -18 -272 -60
c-64.667 -39.333 -97 -88.666 -97 -147.999c0.666992 -59.333 43 -108 127 -146c88.667 -40.667 207.334 -61 356.001 -61c150.667 0 272.334 33 365.001 99c72 50.667 107.667 99.667 107 147l-5 190c-2 63.333 20.333 95 67 95c44 0 67.667 -30 71 -90
c1.33301 -42 2.33301 -83.667 3 -125c2.66699 -53.333 9 -93.666 19 -120.999c24 -69.333 79 -127.666 165 -174.999c79.333 -44 158 -66 236 -66h65v-141zM951 1253c-57.333 -6 -100.333 -12.3301 -129 -18.9971c-61.333 -14.667 -110 -37.834 -146 -69.501
s-62.667 -62.167 -80 -91.5c-10 -16.667 -22 -25 -36 -25c-24 0 -36 12.667 -36 38c0 7.33301 1.66699 14 5 20c35.333 62.667 81.333 111 138 145c-84 14.667 -126 54 -126 118c0 55.333 28.667 97.666 86 126.999c46 24 99.333 36 160 36c40.667 0 61 -12.333 61 -37
c0 -24 -20.667 -36 -62 -36c-111.333 0 -167 -29.667 -167 -89c0 -34.667 52 -52 156 -52c59.333 0 115.333 4 168 12c33.333 5.33301 50 -6.66699 50 -36c0 -24.667 -14 -38.334 -42 -41.001z" />
    <glyph glyph-name="uFEF2" unicode="&#x6cc;" horiz-adv-x="2077" arabic-form="final" 
d="M2107 0l-846.999 2.00195c-63.333 0 -95 -6 -95 -18c0 -10.667 20 -19 60 -25c3.33301 -0.666992 66 -7.66699 188 -21c130 -14.667 213.667 -29.334 251 -44.001c48.667 -19.333 73 -54 73 -104c0 -74.667 -46.333 -134.667 -139 -180
c-104.667 -50.667 -257.667 -76 -459 -76c-273.333 0 -501.333 57.333 -684 172c-188.667 119.333 -283.667 273 -285 461c-0.666992 148 80.333 269.333 243 364c148 86.667 320.667 130 518 130c86 0 138.667 -1.66699 158 -5c66.667 -11.333 97.667 -40 93 -86
c-3.33301 -31.333 -29.333 -50.333 -78 -57c-10 -1.33301 -57 -2 -141 -2c-185.333 0 -339.5 -33 -462.5 -99s-184.5 -150.333 -184.5 -253c0 -103.333 62.333 -203.333 187 -300c156 -120 362.333 -180 619 -180c110.667 0 214 9.33301 310 28
c99.333 19.333 147.666 40.666 144.999 63.999c-0.666992 8.66699 -28.667 15.334 -84 20.001l-185 14c-99.333 10 -169 23.667 -209 41c-66 29.333 -98.667 79.666 -98 150.999c0.666992 42 22 77.333 64 106c38.667 26.667 80.667 40 126 40l916 -2v-141z" />
    <glyph glyph-name="uFEF3" unicode="&#x6cc;" horiz-adv-x="821" arabic-form="initial" 
d="M812 407c0 -142 -89.333 -249.335 -268 -322.002c-140.667 -56.667 -309 -85 -505 -85h-79l1 141h66c126 0 247.667 13.667 365 41c185.333 44 278 113.333 278 208c0 74.667 -106 135.334 -318 182.001c-65.333 14.667 -98 41.334 -98 80.001c0 39.333 29 59 87 59
c13.333 0 27.333 -1.66699 42 -5c106 -22 197.333 -55 274 -99c103.333 -58 155 -124.667 155 -200zM0 -352.002c0 27.333 15.333 48.667 46 64c26 12.667 56.667 19 92 19c93.333 0 140 -27.667 140 -83c0 -54.667 -46.667 -82 -140 -82c-92 0 -138 27.333 -138 82z
M375 -352.001c0 27.333 15.333 48.667 46 64c26 12.667 56.667 19 92 19c93.333 0 140 -27.667 140 -83c0 -54.667 -46.667 -82 -140 -82c-92 0 -138 27.333 -138 82z" />
    <glyph glyph-name="uFEF4" unicode="&#x6cc;" horiz-adv-x="1073" arabic-form="medial" 
d="M1102 0h-77c-72 -0 -143.667 14.333 -215 43c-104 40.667 -182.667 105 -236 193c-60.667 -87.333 -147 -151.333 -259 -192c-82 -29.333 -168.333 -44 -259 -44h-86v141h84c130 0 236.167 27.5 318.5 82.5s126.5 130.5 132.5 226.5
c5.33301 99.333 8.33301 149.666 9 150.999c9.33301 61.333 29.333 92 60 92c48.667 0 73 -69.667 73 -209c0 -125.333 50.667 -218.666 152 -279.999c70 -42 145.667 -63 227 -63h76v-141zM2 -346c0 26.667 15.333 47.667 46 63c26 13.333 57 20 93 20
c93.333 0 140 -27.667 140 -83s-46.667 -83 -140 -83c-92.667 0 -139 27.667 -139 83zM377 -346c0 26.667 15.333 47.667 46 63c26 13.333 57 20 93 20c93.333 0 140 -27.667 140 -83s-46.667 -83 -140 -83c-92.667 0 -139 27.667 -139 83z" />
    <glyph glyph-name="Hcircumflex" unicode="&#x622;" horiz-adv-x="874" arabic-form="final" 
d="M902 0l-61.001 0.000976562c-141.333 0 -265.666 44 -372.999 132c-112 92 -169.667 205.333 -173 340l-15 635c-1.33301 61.333 22 92 70 92c44 0 66.667 -28.667 68 -86l17 -654c2 -76.667 45.5 -148.834 130.5 -216.501s175.833 -101.5 272.5 -101.5h64v-141z
M894.999 1418c-16.667 -20.667 -42.667 -41 -78 -61c-61.333 -34 -131.333 -51 -210 -51c-53.333 0 -105 3.33301 -155 10c-54 6.66699 -93.667 10.334 -119 11.001c-69.333 2 -139.166 -10.833 -209.499 -38.5s-104.833 -41.5 -103.5 -41.5c-32 0 -48 15 -48 45
c0 25.333 32.5 52.333 97.5 81s135.833 46 212.5 52c17.333 1.33301 63.833 -2.83398 139.5 -12.501s128.5 -13.5 158.5 -11.5c83.333 4 151.333 19.667 204 47c50.667 26 75.667 39 75 39c9.33301 0 19.166 -4.5 29.499 -13.5s15.5 -19.167 15.5 -30.5
c0 -8.66699 -3 -17 -9 -25z" />
    <glyph glyph-name="uFE84" unicode="&#x623;" horiz-adv-x="865" arabic-form="final" 
d="M891 0l-61.002 0.000976562c-141.333 0 -265.666 44 -372.999 132c-112 92 -169.667 205.333 -173 340l-15 635c-1.33301 61.333 22 92 70 92c44 0 66.667 -28.667 68 -86l17 -654c2 -76.667 45.333 -148.834 130 -216.501s175.334 -101.5 272.001 -101.5h65v-141z
M544.998 1558c-57.333 -6 -100.332 -12.335 -128.999 -19.002c-61.333 -15.333 -110 -38.666 -146 -69.999s-62.667 -61.666 -80 -90.999c-10 -16.667 -22 -25 -36 -25c-24 0 -36 12.667 -36 38c0 6.66699 1.66699 13.334 5 20.001c35.333 62.667 81.333 111 138 145
c-84 14.667 -126 53.667 -126 117c0 55.333 28.667 98 86 128c45.333 24 98.666 36 159.999 36c40.667 0 61 -12.667 61 -38c0 -24 -20.667 -36 -62 -36c-111.333 0 -167 -29.667 -167 -89c0 -34.667 52 -52 156 -52c59.333 0 115.333 4.33301 168 13
c33.333 4.66699 50 -7.33301 50 -36c0 -24.667 -14 -38.334 -42 -41.001z" />
    <glyph glyph-name="uFE86" unicode="&#x624;" horiz-adv-x="1329" arabic-form="final" 
d="M1423 0l-178.001 -0.000976562c-63.333 -108.667 -184.666 -193 -363.999 -253c-157.333 -53.333 -329.333 -80 -516 -80c-92 0 -138 22.333 -138 67c0 19.333 12.5 36.5 37.5 51.5s58.5 22.5 100.5 22.5c94.667 0 200.334 12.333 317.001 37
c165.333 34.667 290.666 86.334 375.999 155.001h-242c-197.333 0 -341 12 -431 36c-142 38 -213 111 -213 219c0 70.667 44.333 136 133 196c102 70 232.333 105 391 105c197.333 0 352 -37 464 -111c98 -64.667 147 -144 147 -238c0 -22 -3.33301 -44 -10 -66h126v-141z
M1149 140.999c4.66699 15.333 7 30.667 7 46c0 62.667 -36.333 114.667 -109 156c-84.667 48 -206.334 72 -365.001 72c-95.333 0 -180.666 -16.5 -255.999 -49.5s-113 -69.167 -113 -108.5c0 -77.333 164 -116 492 -116h344zM881.999 965
c-58 -5.33301 -101.333 -11.668 -130 -19.001c-61.333 -14.667 -110 -37.667 -146 -69s-62.667 -61.666 -80 -90.999c-9.33301 -16.667 -21.333 -25 -36 -25c-24 0 -36 12.667 -36 38c0 6.66699 2 13.334 6 20.001c34.667 62 80.667 110 138 144
c-84 15.333 -126 54.666 -126 117.999c0 55.333 28.333 98 85 128c46 24 99.333 36 160 36c40.667 0 61 -12.667 61 -38c0 -24 -20.667 -36 -62 -36c-110.667 0 -166 -29.667 -166 -89c0 -34.667 52 -52 156 -52c59.333 0 115 4 167 12c33.333 5.33301 50 -6.66699 50 -36
c0 -24 -13.667 -37.667 -41 -41z" />
    <glyph glyph-name="uFE88" unicode="&#x625;" horiz-adv-x="795" arabic-form="final" 
d="M822 0l-61.001 0.000976562c-141.333 0 -265.666 44 -372.999 132c-112.667 92 -170.334 205.333 -173.001 340l-15 635c-2 61.333 21 92 69 92c44 0 67 -28.667 69 -86l17 -654c2 -76.667 45.333 -148.834 130 -216.501s175.334 -101.5 272.001 -101.5h65v-141z
M602.999 -326.999c-58 -6 -101 -12.6699 -129 -20.0029c-62 -14.667 -111 -37.667 -147 -69s-62.333 -61.666 -79 -90.999c-10 -16.667 -22.333 -25 -37 -25c-24 0 -36 12.667 -36 38c0 6.66699 2 13.334 6 20.001c35.333 62.667 81.333 111 138 145
c-84 14.667 -126 53.667 -126 117c0 55.333 28.667 98 86 128c45.333 24 98.333 36 159 36c40.667 0 61 -12.667 61 -38c0 -24 -20.667 -36 -62 -36c-110.667 0 -166 -29.667 -166 -89c0 -34.667 52 -52 156 -52c59.333 0 115 4.33301 167 13
c33.333 4.66699 50 -7.66602 50 -36.999c0 -24 -13.667 -37.333 -41 -40z" />
    <glyph glyph-name="uFE8A" unicode="&#x626;" horiz-adv-x="2077" arabic-form="final" 
d="M2107 0l-846.999 2.00195c-63.333 0 -95 -6 -95 -18c0 -10.667 20 -19 60 -25c3.33301 -0.666992 66 -7.66699 188 -21c130 -14.667 213.667 -29.334 251 -44.001c48.667 -19.333 73 -54 73 -104c0 -74.667 -46.333 -134.667 -139 -180
c-104.667 -50.667 -257.667 -76 -459 -76c-273.333 0 -501.333 57.333 -684 172c-188.667 119.333 -283.667 273 -285 461c-0.666992 148 80.333 269.333 243 364c148 86.667 320.667 130 518 130c86 0 138.667 -1.66699 158 -5c66.667 -11.333 97.667 -40 93 -86
c-3.33301 -31.333 -29.333 -50.333 -78 -57c-10 -1.33301 -57 -2 -141 -2c-185.333 0 -339.5 -33 -462.5 -99s-184.5 -150.333 -184.5 -253c0 -103.333 62.333 -203.333 187 -300c156 -120 362.333 -180 619 -180c110.667 0 214 9.33301 310 28
c99.333 19.333 147.666 40.666 144.999 63.999c-0.666992 8.66699 -28.667 15.334 -84 20.001l-185 14c-99.333 10 -169 23.667 -209 41c-66 29.333 -98.667 79.666 -98 150.999c0.666992 42 22 77.333 64 106c38.667 26.667 80.667 40 126 40l916 -2v-141zM586.001 719.002
c-57.333 -6 -100.334 -12.332 -129.001 -18.999c-61.333 -14.667 -110 -37.834 -146 -69.501s-62.667 -62.167 -80 -91.5c-10 -16.667 -22 -25 -36 -25c-24 0 -36 12.667 -36 38c0 6.66699 1.66699 13.334 5 20.001c35.333 62.667 81.333 111 138 145
c-83.333 14.667 -125 53.667 -125 117c0 55.333 28.333 98 85 128c46 24 99.333 36 160 36c40.667 0 61 -12.333 61 -37s-20.667 -37 -62 -37c-110.667 0 -166 -29.667 -166 -89c0 -34.667 52 -52 156 -52c58.667 0 114.334 4.33301 167.001 13
c33.333 4.66699 50 -7.33301 50 -36c0 -24.667 -14 -38.334 -42 -41.001z" />
    <glyph glyph-name="uFE8B" unicode="&#x626;" horiz-adv-x="821" arabic-form="initial" 
d="M822 407c0 -142 -89.667 -249.335 -269 -322.002c-140 -56.667 -308 -85 -504 -85h-80l2 141h66c126 0 247.333 13.667 364 41c186 44 279 113.333 279 208c0 74.667 -106 135.334 -318 182.001c-66 14.667 -99 41.334 -99 80.001c0 39.333 29 59 87 59
c13.333 0 27.333 -1.66699 42 -5c106 -22 197.667 -55 275 -99c103.333 -58 155 -124.667 155 -200zM438 1057c-57.333 -5.33301 -100.333 -11.6699 -129 -19.0029c-61.333 -14.667 -110.166 -37.667 -146.499 -69s-62.833 -61.666 -79.5 -90.999
c-10 -16.667 -22 -25 -36 -25c-24 0 -36 12.667 -36 38c0 6.66699 1.66699 13.334 5 20.001c35.333 62.667 81.333 111 138 145c-84 14.667 -126 53.667 -126 117c0 55.333 28.667 98 86 128c45.333 24 98.666 36 159.999 36c40 0 60 -12.667 60 -38
c0 -24 -20.333 -36 -61 -36c-111.333 0 -167 -29.667 -167 -89c0 -34.667 52 -52 156 -52c59.333 0 115.333 4.33301 168 13c32.667 4.66699 49 -7.66602 49 -36.999c0 -24 -13.667 -37.667 -41 -41z" />
    <glyph glyph-name="uFE8C" unicode="&#x626;" horiz-adv-x="1073" arabic-form="medial" 
d="M1102 0h-77c-72 -0 -143.667 14.333 -215 43c-104 40.667 -182.667 105 -236 193c-60.667 -87.333 -147 -151.333 -259 -192c-82 -29.333 -168.333 -44 -259 -44h-86v141h84c130 0 236.167 27.5 318.5 82.5s126.5 130.5 132.5 226.5
c5.33301 99.333 8.33301 149.666 9 150.999c9.33301 61.333 29.333 92 60 92c48.667 0 73 -69.667 73 -209c0 -125.333 50.667 -218.666 152 -279.999c70 -42 145.667 -63 227 -63h76v-141zM714 1071c-57.333 -6 -100.333 -12.332 -129 -18.999
c-61.333 -14.667 -110 -37.834 -146 -69.501s-62.667 -62.167 -80 -91.5c-10 -16.667 -22 -25 -36 -25c-24 0 -36 12.667 -36 38c0 6.66699 1.66699 13.334 5 20.001c35.333 62.667 81.666 111 138.999 145c-84 14.667 -126 53.667 -126 117c0 55.333 28.333 98 85 128
c46 24 99.333 36 160 36c40.667 0 61 -12.333 61 -37c0 -24 -20.667 -36 -62 -36c-110.667 0 -166 -30 -166 -90c0 -34 52 -51 156 -51c58.667 0 114.334 4 167.001 12c33.333 4.66699 50 -7.33301 50 -36c0 -24.667 -14 -38.334 -42 -41.001z" />
    <glyph glyph-name="uFE8E" unicode="&#x627;" horiz-adv-x="841" arabic-form="final" 
d="M863 0l-61.001 0.000976562c-141.333 0 -265.666 44 -372.999 132c-112.667 92 -170.334 205.333 -173.001 340l-15 635c-2 61.333 21 92 69 92c44.667 0 67.667 -28.667 69 -86l17 -654c2 -76.667 45.333 -148.834 130 -216.501s175.334 -101.5 272.001 -101.5h65v-141z
" />
    <glyph glyph-name="uFE90" unicode="&#x628;" horiz-adv-x="2611" arabic-form="final" 
d="M1026 -266c0 26.667 15.333 47.667 46 63c26 13.333 57 20 93 20c93.333 0 140 -27.667 140 -83s-46.667 -83 -140 -83c-92.667 0 -139 27.667 -139 83zM2639 0l-90.002 0.000976562c-95.333 0 -191.666 24.667 -288.999 74c-101.333 52 -172 115 -212 189
c-75.333 -74 -203.333 -136.667 -384 -188c-177.333 -50 -354.666 -75 -531.999 -75c-216.667 0 -406.667 20 -570 60c-266.667 65.333 -400 176 -400 332c0 67.333 51.333 136.666 154 207.999c108.667 76 223.667 114.667 345 116c52.667 0.666992 79 -18.666 79 -57.999
c0 -19.333 -7.33301 -36.666 -22 -51.999c-16.667 -16.667 -36.334 -25 -59.001 -25c-51.333 0 -116.333 -15.333 -195 -46c-106 -42 -159 -94.667 -159 -158c0 -84.667 90 -147.334 270 -188.001c146 -33.333 335 -50 567 -50c200.667 0 384.667 26.333 552 79
c192.667 60.667 291.334 138 296.001 232c4.66699 91.333 7.66699 142.666 9 153.999c10 63.333 30.333 95 61 95c44 0 68.333 -80.667 73 -242c2 -85.333 46.667 -160 134 -224c84.667 -61.333 179.334 -92 284 -92h88v-141z" />
    <glyph glyph-name="uFE91" unicode="&#x628;" horiz-adv-x="821" arabic-form="initial" 
d="M822 407c0 -142 -89.667 -249.335 -269 -322.002c-140 -56.667 -308 -85 -504 -85h-80l2 141h66c126 0 247.333 13.667 364 41c186 44 279 113.333 279 208c0 74.667 -106 135.334 -318 182.001c-66 14.667 -99 41.334 -99 80.001c0 39.333 29 59 87 59
c13.333 0 27.333 -1.66699 42 -5c106 -22 197.667 -55 275 -99c103.333 -58 155 -124.667 155 -200zM125 -269.002c0 26.667 15.333 47.667 46 63c26 13.333 56.667 20 92 20c93.333 0 140 -27.667 140 -83s-46.667 -83 -140 -83c-92 0 -138 27.667 -138 83z" />
    <glyph glyph-name="uFE92" unicode="&#x628;" horiz-adv-x="1073" arabic-form="medial" 
d="M1102 0h-77c-72 -0 -143.667 14.333 -215 43c-104 40.667 -182.667 105 -236 193c-60.667 -87.333 -147 -151.333 -259 -192c-82 -29.333 -168.333 -44 -259 -44h-86v141h84c130 0 236.167 27.5 318.5 82.5s126.5 130.5 132.5 226.5
c5.33301 99.333 8.33301 149.666 9 150.999c9.33301 61.333 29.333 92 60 92c48.667 0 73 -69.667 73 -209c0 -125.333 50.667 -218.666 152 -279.999c70 -42 145.667 -63 227 -63h76v-141zM27 -271c0 27.333 15 48.333 45 63c26.667 13.333 57.667 20 93 20
c93.333 0 140 -27.667 140 -83c0 -54.667 -46.667 -82 -140 -82c-92 0 -138 27.333 -138 82z" />
    <glyph glyph-name="uFE96" unicode="&#x62a;" horiz-adv-x="2611" arabic-form="final" 
d="M2639 0l-90.002 0.000976562c-95.333 0 -191.666 24.667 -288.999 74c-101.333 52 -172 115 -212 189c-75.333 -74 -203.333 -136.667 -384 -188c-177.333 -50 -354.666 -75 -531.999 -75c-216.667 0 -406.667 20 -570 60c-266.667 65.333 -400 176 -400 332
c0 67.333 51.333 136.666 154 207.999c108.667 76 223.667 114.667 345 116c52.667 0.666992 79 -18.666 79 -57.999c0 -19.333 -7.33301 -36.666 -22 -51.999c-16.667 -16.667 -36.334 -25 -59.001 -25c-51.333 0 -116.333 -15.333 -195 -46
c-106 -42 -159 -94.667 -159 -158c0 -84.667 90 -147.334 270 -188.001c146 -33.333 335 -50 567 -50c200.667 0 384.667 26.333 552 79c192.667 60.667 291.334 138 296.001 232c4.66699 91.333 7.66699 142.666 9 153.999c10 63.333 30.333 95 61 95
c44 0 68.333 -80.667 73 -242c2 -85.333 46.667 -160 134 -224c84.667 -61.333 179.334 -92 284 -92h88v-141zM958.998 1016c0 26.667 15.333 47.667 46 63c26 13.333 56.667 20 92 20c93.333 0 140 -27.667 140 -83s-46.667 -83 -140 -83c-92 0 -138 27.667 -138 83z
M1334 1016c0 26.667 15.333 47.667 46 63c26 13.333 56.667 20 92 20c93.333 0 140 -27.667 140 -83s-46.667 -83 -140 -83c-92 0 -138 27.667 -138 83z" />
    <glyph glyph-name="uFE97" unicode="&#x62a;" horiz-adv-x="821" arabic-form="initial" 
d="M822 407c0 -142 -89.667 -249.335 -269 -322.002c-140 -56.667 -308 -85 -504 -85h-80l2 141h66c126 0 247.333 13.667 364 41c186 44 279 113.333 279 208c0 74.667 -106 135.334 -318 182.001c-66 14.667 -99 41.334 -99 80.001c0 39.333 29 59 87 59
c13.333 0 27.333 -1.66699 42 -5c106 -22 197.667 -55 275 -99c103.333 -58 155 -124.667 155 -200zM14 1019c0 26.667 15.333 47.667 46 63c26 13.333 56.667 20 92 20c93.333 0 140 -27.667 140 -83s-46.667 -83 -140 -83c-92 0 -138 27.667 -138 83zM389 1019
c0 26.667 15.333 47.667 46 63c26 13.333 56.667 20 92 20c93.333 0 140 -27.667 140 -83s-46.667 -83 -140 -83c-92 0 -138 27.667 -138 83z" />
    <glyph glyph-name="uFE98" unicode="&#x62a;" horiz-adv-x="1073" arabic-form="medial" 
d="M1102 0h-77c-72 -0 -143.667 14.333 -215 43c-104 40.667 -182.667 105 -236 193c-60.667 -87.333 -147 -151.333 -259 -192c-82 -29.333 -168.333 -44 -259 -44h-86v141h84c130 0 236.167 27.5 318.5 82.5s126.5 130.5 132.5 226.5
c5.33301 99.333 8.33301 149.666 9 150.999c9.33301 61.333 29.333 92 60 92c48.667 0 73 -69.667 73 -209c0 -125.333 50.667 -218.666 152 -279.999c70 -42 145.667 -63 227 -63h76v-141zM238 1026c0 26.667 15.333 47.667 46 63c26 12.667 56.667 19 92 19
c93.333 0 140 -27.333 140 -82c0 -55.333 -46.667 -83 -140 -83c-92 0 -138 27.667 -138 83zM613 1026c0 26.667 15.333 47.667 46 63c26 12.667 56.667 19 92 19c93.333 0 140 -27.333 140 -82c0 -55.333 -46.667 -83 -140 -83c-92 0 -138 27.667 -138 83z" />
    <glyph glyph-name="uFE9A" unicode="&#x62b;" horiz-adv-x="2611" arabic-form="final" 
d="M2639 0l-90.002 0.000976562c-95.333 0 -191.666 24.667 -288.999 74c-101.333 52 -172 115 -212 189c-75.333 -74 -203.333 -136.667 -384 -188c-177.333 -50 -354.666 -75 -531.999 -75c-216.667 0 -406.667 20 -570 60c-266.667 65.333 -400 176 -400 332
c0 67.333 51.333 136.666 154 207.999c108.667 76 223.667 114.667 345 116c52.667 0.666992 79 -18.666 79 -57.999c0 -19.333 -7.33301 -36.666 -22 -51.999c-16.667 -16.667 -36.334 -25 -59.001 -25c-51.333 0 -116.333 -15.333 -195 -46
c-106 -42 -159 -94.667 -159 -158c0 -84.667 90 -147.334 270 -188.001c146 -33.333 335 -50 567 -50c200.667 0 384.667 26.333 552 79c192.667 60.667 291.334 138 296.001 232c4.66699 91.333 7.66699 142.666 9 153.999c10 63.333 30.333 95 61 95
c44 0 68.333 -80.667 73 -242c2 -85.333 46.667 -160 134 -224c84.667 -61.333 179.334 -92 284 -92h88v-141zM1157 1244c0 26.667 15.333 47.667 46 63c26 12.667 56.667 19 92 19c93.333 0 140 -27.333 140 -82c0 -55.333 -46.667 -83 -140 -83c-92 0 -138 27.667 -138 83
zM969.998 1027c0 27.333 15.333 48.667 46 64c26 12.667 56.667 19 92 19c93.333 0 140 -27.667 140 -83c0 -54.667 -46.667 -82 -140 -82c-92 0 -138 27.333 -138 82zM1345 1027c0 27.333 15.333 48.667 46 64c26 12.667 56.667 19 92 19c93.333 0 140 -27.667 140 -83
c0 -54.667 -46.667 -82 -140 -82c-92 0 -138 27.333 -138 82z" />
    <glyph glyph-name="uFE9B" unicode="&#x62b;" horiz-adv-x="821" arabic-form="initial" 
d="M822 407c0 -142 -89.667 -249.335 -269 -322.002c-140 -56.667 -308 -85 -504 -85h-80l2 141h66c126 0 247.333 13.667 364 41c186 44 279 113.333 279 208c0 74.667 -106 135.334 -318 182.001c-66 14.667 -99 41.334 -99 80.001c0 39.333 29 59 87 59
c13.333 0 27.333 -1.66699 42 -5c106 -22 197.667 -55 275 -99c103.333 -58 155 -124.667 155 -200zM218 1241c0 26.667 15.333 47.667 46 63c26 13.333 56.667 20 92 20c93.333 0 140 -27.667 140 -83s-46.667 -83 -140 -83c-92 0 -138 27.667 -138 83zM31 1025
c0 26.667 15.333 47.667 46 63c26 12.667 56.667 19 92 19c93.333 0 140 -27.333 140 -82c0 -55.333 -46.667 -83 -140 -83c-92 0 -138 27.667 -138 83zM406 1025c0 26.667 15.333 47.667 46 63c26 12.667 56.667 19 92 19c93.333 0 140 -27.333 140 -82
c0 -55.333 -46.667 -83 -140 -83c-92 0 -138 27.667 -138 83z" />
    <glyph glyph-name="uFE9C" unicode="&#x62b;" horiz-adv-x="1073" arabic-form="medial" 
d="M1102 0h-77c-72 -0 -143.667 14.333 -215 43c-104 40.667 -182.667 105 -236 193c-60.667 -87.333 -147 -151.333 -259 -192c-82 -29.333 -168.333 -44 -259 -44h-86v141h84c130 0 236.167 27.5 318.5 82.5s126.5 130.5 132.5 226.5
c5.33301 99.333 8.33301 149.666 9 150.999c9.33301 61.333 29.333 92 60 92c48.667 0 73 -69.667 73 -209c0 -125.333 50.667 -218.666 152 -279.999c70 -42 145.667 -63 227 -63h76v-141zM430 1244c0 26.667 15 47.667 45 63c26 12.667 57 19 93 19
c93.333 0 140 -27.333 140 -82c0 -55.333 -46.667 -83 -140 -83c-92 0 -138 27.667 -138 83zM243 1027c0 27.333 15 48.667 45 64c26 12.667 57 19 93 19c93.333 0 140 -27.667 140 -83c0 -54.667 -46.667 -82 -140 -82c-92 0 -138 27.333 -138 82zM618 1027
c0 27.333 15 48.667 45 64c26 12.667 57 19 93 19c93.333 0 140 -27.667 140 -83c0 -54.667 -46.667 -82 -140 -82c-92 0 -138 27.333 -138 82z" />
    <glyph glyph-name="uFE9E" unicode="&#x62c;" horiz-adv-x="1563" arabic-form="final" 
d="M738 -280c0 26.667 15.333 47.667 46 63c26 13.333 56.667 20 92 20c93.333 0 140 -27.667 140 -83s-46.667 -83 -140 -83c-92 0 -138 27.667 -138 83zM1601 -662c0 -24.667 -53.9971 -55.001 -161.997 -91.001c-129.333 -42.667 -273.333 -64 -432 -64
c-246 0 -447.667 51.333 -605 154c-159.333 104.667 -239 241.334 -239 410.001c0 156 76 277.667 228 365c140 80.667 320.667 121 542 121c61.333 0 124.666 -6 189.999 -18c5.33301 23.333 8 50.666 8 81.999c0 63.333 -37.667 113.333 -113 150
c-72 34.667 -165.667 52 -281 52c-80.667 0 -152.667 -11 -216 -33l-97 -35c-44.667 -4.66699 -67 16 -67 62c0 25.333 33 53.666 99 84.999c82.667 38.667 183.334 58 302.001 58c140.667 0 258 -28 352 -84c105.333 -62 158 -147.667 158 -257
c0 -32.667 -3.33301 -71 -10 -115c110 -26 195.333 -39 256 -39h66l-1 -141h-61c-18 -2 -35.667 -3 -53 -3c-62.667 0 -150.334 15.833 -263.001 47.5s-202.334 47.5 -269.001 47.5c-207.333 0 -366.333 -33.333 -477 -100c-101.333 -61.333 -152 -143.666 -152 -246.999
c0 -109.333 56 -204.666 168 -285.999c127.333 -93.333 296.333 -140 507 -140c106 0 202.333 8 289 24c55.333 10.667 111.666 25.667 168.999 45c47.333 16 76 24 86 24c52 0 78 -24.667 78 -74z" />
    <glyph glyph-name="uFE9F" unicode="&#x62c;" horiz-adv-x="1023" arabic-form="initial" 
d="M992 198c-61.333 -35.333 -172.667 -73.668 -334 -115.001c-216 -55.333 -425.667 -83 -629 -83h-59l-4 141h62c217.333 0 430 30.333 638 91c16 38.667 24 73.334 24 104.001c0 60 -39 108.667 -117 146c-74 36 -166.667 54 -278 54
c-78 0 -151.167 -12.833 -219.5 -38.5s-103.833 -38.5 -106.5 -38.5c-47.333 0 -71 20.667 -71 62c0 30 43.667 63 131 99c92 38 184.333 57 277 57c140 0 259 -27.667 357 -83c110.667 -62 166 -146.333 166 -253c0 -21.333 -1.33301 -42 -4 -62l110 36
c6.66699 1.33301 13 2 19 2c45.333 0 68 -22.333 68 -67c0 -22.667 -10 -40 -30 -52zM256.999 -302.002c0 27.333 15 48.333 45 63c26 13.333 57 20 93 20c93.333 0 140 -27.667 140 -83c0 -54.667 -46.667 -82 -140 -82c-92 0 -138 27.333 -138 82z" />
    <glyph glyph-name="uFEA0" unicode="&#x62c;" horiz-adv-x="1072" arabic-form="medial" 
d="M270 -302c0 27.333 15.333 48.333 46 63c26 13.333 56.667 20 92 20c93.333 0 140 -27.667 140 -83c0 -54.667 -46.667 -82 -140 -82c-92 0 -138 27.333 -138 82zM1102 143l-0.999023 -143h-61c-140 0 -256.333 31 -349 93c-216 -62 -439.333 -93 -670 -93h-52v141h50
c87.333 0 198.666 9.33301 333.999 28c138.667 19.333 239.667 40.333 303 63c7.33301 18 11 52.667 11 104c0 60 -37.333 108.667 -112 146c-72 36 -163 54 -273 54c-78.667 0 -152 -12.833 -220 -38.5s-103.333 -38.5 -106 -38.5c-22 0 -40 7.66699 -54 23
c-11.333 12.667 -17 25.667 -17 39c0 30 43.667 63 131 99c92 38 184.333 57 277 57c138 0 257 -29.667 357 -89c110 -65.333 165 -151.333 165 -258c0 -19.333 -2 -38.333 -6 -57c68.667 20.667 104.334 31 107.001 31c44 0 70 -22.333 78 -67
c3.33301 -21.333 -33.334 -48.333 -110.001 -81c37.333 -8.66699 88 -13 152 -13h66z" />
    </font>
</defs>
</svg>
