<?xml version="1.0" standalone="no"?>
<!DOCTYPE svg PUBLIC "-//W3C//DTD SVG 1.1//EN" "http://www.w3.org/Graphics/SVG/1.1/DTD/svg11.dtd" >
<svg>
<metadata>
Created by FontForge 20090914 at Wed Oct 19 01:44:36 2011
 By www-data
(c) by Abolfazl Seilsepour - +98 912 591 3420  -  seilsepor@yahoo.com
</metadata>
<defs>
<font id="Far.RoyaBold" horiz-adv-x="0" >
  <font-face 
    font-family="Far.Roya"
    font-weight="700"
    font-stretch="normal"
    units-per-em="2048"
    panose-1="0 0 7 0 0 0 0 0 0 0"
    ascent="1638"
    descent="-410"
    bbox="-188 -1258 2207 2161"
    underline-thickness="100"
    underline-position="-900"
    unicode-range="U+0020-U+FEFC"
  />
<missing-glyph horiz-adv-x="1024" 
d="M128 0v1298h768v-1298h-768zM256 128h512v1042h-512v-1042z" />
    <glyph glyph-name="uE818" unicode="&#x651;&#x64b;" 
d="M507 1696c4.66699 -35.333 7.00098 -67.998 7.00098 -97.998c0 -144 -49.333 -216 -148 -216c-49.333 0 -82.666 32.667 -99.999 98c-40 -88.667 -93.667 -133 -161 -133c-60.667 0 -91 36.667 -91 110c0 47.333 14.333 95.666 43 144.999h55
c-15.333 -38.667 -23 -68.334 -23 -89.001c0 -33.333 18.333 -50 55 -50c29.333 0 53.666 21.667 72.999 65c14 31.333 22.667 65.333 26 102l66 25c0.666992 -47.333 3 -79.333 7 -96c9.33301 -38 29.666 -57 60.999 -57c47.333 0 71 28.667 71 86c0 22.667 -3 51 -9 85z
M486.001 2005l-449 -121l-17 76l447 127zM496.001 1829l-449 -121l-18 76l448 127z" />
    <glyph glyph-name="uFC5E" unicode="&#x651;&#x64c;" arabic-form="isolated" 
d="M532 1609c4.66699 -35.333 6.99902 -67.998 6.99902 -97.998c0 -144 -49 -216 -147 -216c-49.333 0 -82.666 32.667 -99.999 98c-40.667 -88.667 -94.667 -133 -162 -133c-60.667 0 -91 36.667 -91 110c0 47.333 14.667 95.666 44 144.999h54
c-14.667 -38.667 -22 -68.334 -22 -89.001c0 -33.333 18.333 -50 55 -50c29.333 0 53.333 21.667 72 65c14 31.333 23 65.333 27 102l65 25c0.666992 -47.333 3 -79.333 7 -96c9.33301 -38 30 -57 62 -57c47.333 0 71 28.667 71 86c0 22.667 -3 51 -9 85zM520.999 1961
c0 -76.667 -34.666 -141.334 -103.999 -194.001l63 -44l-52 -57c-35.333 18 -60.333 36 -75 54c-75.333 -50 -169.333 -88 -282 -114l-32 69c9.33301 4 19 9.33301 29 16c28 25.333 42 54.333 42 87c0 16 -6.33301 27 -19 33c-18 8 -40 4.33301 -66 -11l-6 43
c31.333 27.333 62 41 92 41c36.667 0 55 -21.667 55 -65c0 -26 -11.667 -61.667 -35 -107c67.333 14 120.666 40.333 159.999 79c-22 34 -33 65 -33 93c0 38.667 15.333 77.334 46 116.001c32.667 41.333 67.667 62 105 62c30.667 0 57 -9.33301 79 -28s33 -43 33 -73z
M455 1933c0 38.667 -22 57.999 -66 57.999c-16.667 0 -33 -9.66699 -49 -29s-24 -37.333 -24 -54c0 -15.333 5.33301 -32 16 -50s23 -29 37 -33c21.333 4.66699 41 18.334 59 41.001s27 45 27 67z" />
    <glyph glyph-name="uFC5F" unicode="&#x651;&#x64d;" arabic-form="isolated" 
d="M511 2161c4.66699 -36 7.00098 -68.666 7.00098 -97.999c0 -144 -49.333 -216 -148 -216c-48.667 0 -82 32.333 -100 97c-40 -88.667 -93.667 -133 -161 -133c-60.667 0 -91 36.667 -91 110c0 47.333 14.333 96 43 146h55c-14.667 -39.333 -22 -69.333 -22 -90
c0 -33.333 18 -50 54 -50c29.333 0 53.666 21.667 72.999 65c14 31.333 22.667 65.333 26 101.999l66 25c0.666992 -47.333 3 -79.333 7 -96c9.33301 -37.333 30 -56 62 -56c46.667 0 70 28.667 70 86c0 22 -3 50 -9 84zM507.001 1663l-449 -120l-17 74l448 128z
M517.001 1488l-448 -121l-18 75l448 128z" />
    <glyph glyph-name="uFC60" unicode="&#x651;&#x64e;" arabic-form="isolated" 
d="M534 1690c4.66699 -36 7 -68.667 7 -98c0 -144 -49 -216 -147 -216c-49.333 0 -82.666 32.667 -99.999 98c-40.667 -89.333 -94.667 -134 -162 -134c-60 0 -90 36.667 -90 110c0 47.333 14.333 96 43 146h54c-14.667 -39.333 -22 -69.333 -22 -90
c0 -33.333 18.333 -50 55 -50c29.333 0 53.666 21.667 72.999 65c14 31.333 22.667 65.333 26 102l65 25c0.666992 -47.333 3 -79.333 7 -96c9.33301 -37.333 30 -56 62 -56c47.333 0 71 28.667 71 86c0 22 -3 50.333 -9 85zM539 1831l-449 -121l-18 75l448 128z" />
    <glyph glyph-name="uFC61" unicode="&#x651;&#x64f;" arabic-form="isolated" 
d="M544 1562c4.66699 -35.333 7.00195 -67.998 7.00195 -97.998c0 -144 -49.333 -216 -148 -216c-48.667 0 -82 32.667 -100 98c-40 -88.667 -93.667 -133 -161 -133c-60.667 0 -91 36.667 -91 110c0 47.333 14.333 95.666 43 144.999h55
c-14.667 -38.667 -22 -68.334 -22 -89.001c0 -33.333 18 -50 54 -50c29.333 0 53.666 21.667 72.999 65c14 31.333 22.667 65.333 26 102l66 25c0.666992 -48 3 -80 7 -96c9.33301 -38 29.666 -57 60.999 -57c47.333 0 71 28.667 71 86c0 22.667 -3 51 -9 85zM546.002 1932
c0 -78 -35.3359 -141.999 -106.003 -191.999l63 -43l-51 -58c-31.333 22 -53.666 42 -66.999 60c-92 -60 -188.667 -100 -290 -120l-32 70c80 27.333 124 42.666 132 45.999c52.667 20.667 92.334 43.667 119.001 69c-22 35.333 -33 66.666 -33 93.999
c0 38.667 15.333 77.334 46 116.001c32.667 41.333 67.667 62 105 62c30.667 0 57.334 -9.66699 80.001 -29s34 -44.333 34 -75zM477.999 1907c0 38.667 -22 58.001 -66 58.001c-18 0 -35.667 -10.5 -53 -31.5s-26 -40.833 -26 -59.5c0 -38 18.667 -64.333 56 -79
c22.667 6.66699 43.167 21.167 61.5 43.5s27.5 45.166 27.5 68.499z" />
    <glyph glyph-name="uFC62" unicode="&#x651;&#x650;" arabic-form="isolated" 
d="M522 1944c5.33301 -36 8.00098 -68.667 8.00098 -98c0 -144 -49.333 -216 -148 -216c-49.333 0 -82.666 32.667 -99.999 98c-40.667 -89.333 -94.667 -134 -162 -134c-60 0 -90 36.667 -90 110c0 47.333 14.333 96 43 146h55c-15.333 -39.333 -23 -69.333 -23 -90
c0 -33.333 18.333 -50 55 -50c29.333 0 53.666 21.667 72.999 65c14 31.333 22.667 65.333 26 102l65 25c1.33301 -47.333 4 -79.333 8 -96c9.33301 -37.333 29.666 -56 60.999 -56c47.333 0 71 28.667 71 86c0 22 -3 50.333 -9 85zM510.001 1468l-448 -120l-17 75l447 127z
" />
    <glyph glyph-name="uFDF2" unicode="&#xfedf;&#xfee0;&#xfeea;" horiz-adv-x="1497" arabic-form="isolated" 
d="M1081 1523l-15 -237l-67 -29l-14 229zM1256 1272c4 -34.667 6.00195 -66.999 6.00195 -96.999c0 -145.333 -48.667 -218 -146 -218c-42.667 0 -73.667 20.667 -93 62c-36.667 -62.667 -84.334 -94 -143.001 -94c-62 0 -93 38 -93 114c0 47.333 14.333 94.666 43 141.999
h80c-20.667 -46.667 -31 -78 -31 -94c0 -19.333 12 -29 36 -29c43.333 0 68.666 48.333 75.999 145l86 31c0 -46.667 0.666992 -74.667 2 -84c5.33301 -38.667 20.333 -58 45 -58c34.667 0 52 20.667 52 62c0 20 -3.33301 49 -10 87zM1495 280.001
c0 -80.667 -20.6689 -148.333 -62.002 -203c-45.333 -60.667 -107 -91 -185 -91c-106.667 0 -186.334 38 -239.001 114c-47.333 -91.333 -120.666 -137 -219.999 -137c-66.667 0 -122.667 17.333 -168 52c-47.333 36 -77.666 86 -90.999 150c-38 -26.667 -104 -40 -198 -40
c-46 0 -85.333 16.5 -118 49.5s-49 72.833 -49 119.5c0 78.667 52.667 156.667 158 234c55.333 40.667 116.333 75.667 183 105v111l161 130c3.33301 -114.667 6.33301 -259.667 9 -435c1.33301 -83.333 9 -140.333 23 -171c16.667 -36.667 47.667 -55 93 -55
c71.333 0 107 56.333 107 169v434l192 85v-387c0 -88.667 5 -149.667 15 -183c20 -67.333 62.667 -101 128 -101c22.667 0 41.334 11.333 56.001 34c12.667 19.333 19 41 19 65c0 148.667 -15 329 -45 541l199 115c21.333 -283.333 32 -518.333 32 -705zM514 337.002
l-4.00098 139c-29.333 -6 -62.666 -20.667 -99.999 -44c-42.667 -26.667 -64 -51.667 -64 -75c0 -22.667 34 -34 102 -34c32 0 54 4.66699 66 14z" />
    <glyph glyph-name="uFEF5" unicode="&#xfedf;&#xfe82;" horiz-adv-x="1095" arabic-form="isolated" 
d="M1080 1236c7.33301 -71.333 11.002 -147.334 11.002 -228.001c0 -259.333 -40.333 -444.666 -121 -555.999c50.667 -97.333 76 -185.333 76 -264c0 -142 -106.667 -213 -320 -213c-63.333 0 -127.666 7 -192.999 21c-58.667 12.667 -96.334 25.334 -113.001 38.001
l38 204c15.333 -8 32.666 -12 51.999 -12c49.333 0 102.666 23.667 159.999 71c54 44 91 90.333 111 139c-42 70 -114 148.667 -216 236c-111.333 95.333 -222 167.666 -332 216.999l44 267c113.333 -50 231.333 -139 354 -267c92 -96 166.333 -190.333 223 -283
c18.667 36 28 117.333 28 244c0 91.333 -4.33301 192.333 -13 303zM905.002 239.999c0 28 -12 58.334 -36 91.001c-21.333 -24 -63 -60.667 -125 -110c22.667 -8.66699 50.667 -13.334 84 -14.001c51.333 -0.666992 77 10.333 77 33zM759.002 1413
c-23.333 -42.667 -57.8301 -78 -103.497 -106s-92.5 -42 -140.5 -42c-26.667 0 -65.834 4.66699 -117.501 14s-90.834 14 -117.501 14c-54 0 -99.333 -18.333 -136 -55l-72 98c53.333 66.667 115.666 100 186.999 100c25.333 0 63.5 -4.16699 114.5 -12.5
s89.167 -12.5 114.5 -12.5c96 0 169.667 32.333 221 97z" />
    <glyph glyph-name="uFEF6" unicode="&#xfee0;&#xfe82;" horiz-adv-x="1319" arabic-form="final" 
d="M1351 1l-92 0.000976562c-154.667 0 -247 134.333 -277 403c-23.333 -120 -83 -223 -179 -309c-98 -88 -207.333 -132 -328 -132l-153 163c76.667 0 163 19.333 259 58c112 45.333 177 99 195 161c1.33301 4.66699 2 9.66699 2 15c0 70 -75.667 166 -227 288
c-124.667 100.667 -234 172 -328 214l44 258c136.667 -69.333 268 -172 394 -308c118 -127.333 189.333 -236.333 214 -327c10.667 51.333 16 125.666 16 222.999c0 128 -8 275.667 -24 443l223 82l1 -242c1.33301 -262 15.333 -449 42 -561c31.333 -130 85 -195 161 -195
h57v-234zM759 1413c-23.333 -42.667 -57.8301 -78 -103.497 -106s-92.5 -42 -140.5 -42c-26.667 0 -65.834 4.66699 -117.501 14s-90.834 14 -117.501 14c-54 0 -99.333 -18.333 -136 -55l-72 98c53.333 66.667 115.666 100 186.999 100c25.333 0 63.5 -4.16699 114.5 -12.5
s89.167 -12.5 114.5 -12.5c96 0 169.667 32.333 221 97z" />
    <glyph glyph-name="uFEF7" unicode="&#xfedf;&#xfe84;" horiz-adv-x="947" arabic-form="isolated" 
d="M935 1236c8 -71.333 12.0029 -147.336 12.0029 -228.003c0 -259.333 -40.667 -444.666 -122 -555.999c50.667 -97.333 76 -185.333 76 -264c0 -142 -106.333 -213 -319 -213c-64 0 -128.667 7 -194 21c-58.667 12.667 -96.334 25.334 -113.001 38.001l39 204
c15.333 -8 32.333 -12 51 -12c49.333 0 102.666 23.667 159.999 71c54 44 91 90.333 111 139c-42.667 71.333 -114.334 150 -215.001 236c-110.667 94.667 -221.667 167 -333 217l44 267c114 -50 232.333 -139 355 -267c91.333 -95.333 165.333 -189.666 222 -282.999
c18.667 36 28 117.333 28 244c0 91.333 -4.33301 192.333 -13 303zM760.003 239.997c0 28 -11.999 58.334 -35.999 91.001c-21.333 -24 -63 -60.667 -125 -110c23.333 -8.66699 51.666 -13.334 84.999 -14.001c50.667 -0.666992 76 10.333 76 33zM461.004 1399
l-413.001 -105v78l104 42c-34.667 33.333 -52 67.333 -52 102c0 40.667 16.833 77.667 50.5 111s70.834 50 111.501 50c52.667 0 94 -14 124 -42l-25 -65c-25.333 11.333 -59.333 17 -102 17c-16 0 -33.667 -5 -53 -15c-22.667 -11.333 -34 -24.333 -34 -39
c0 -47.333 40.667 -71 122 -71c11.333 0 67 15.333 167 46v-109z" />
    <glyph glyph-name="uFEF8" unicode="&#xfee0;&#xfe84;" horiz-adv-x="1187" arabic-form="final" 
d="M1216 1l-91.999 0.000976562c-154.667 0 -247.334 134.333 -278.001 403c-22.667 -120 -82 -223 -178 -309c-98 -88 -207.333 -132 -328 -132l-153 163c76.667 0 163 19.333 259 58c112 45.333 177 99 195 161c1.33301 4.66699 2 9.66699 2 15c0 70 -75.667 166 -227 288
c-124.667 100.667 -234 172 -328 214l44 258c136.667 -69.333 268 -172 394 -308c118 -127.333 189.333 -236.333 214 -327c10.667 51.333 16 125.666 16 222.999c0 128 -8 275.667 -24 443l223 82v-242c0 -194.667 6 -337 18 -427c29.333 -219.333 91.333 -329 186 -329h57
v-234zM461.001 1342l-412.999 -106v79l104 41c-34.667 33.333 -52 67.333 -52 102c0 41.333 16.667 78.5 50 111.5s70.666 49.5 111.999 49.5c52.667 0 94 -14 124 -42l-25 -65c-25.333 11.333 -59.333 17 -102 17c-16 0 -33.667 -5 -53 -15
c-22.667 -11.333 -34 -24.333 -34 -39c0 -47.333 40.667 -71 122 -71c11.333 0 67 15.667 167 47v-109z" />
    <glyph glyph-name="uFEF9" unicode="&#xfedf;&#xfe88;" horiz-adv-x="947" arabic-form="isolated" 
d="M935 1236c8 -71.333 12.0029 -147.336 12.0029 -228.003c0 -259.333 -40.667 -444.666 -122 -555.999c50.667 -97.333 76 -185.333 76 -264c0 -142 -106.333 -213 -319 -213c-64 0 -128.667 7 -194 21c-58.667 12.667 -96.334 25.334 -113.001 38.001l39 204
c15.333 -8 32.333 -12 51 -12c49.333 0 102.666 23.667 159.999 71c54 44 91 90.333 111 139c-42.667 71.333 -114.334 150 -215.001 236c-110.667 94.667 -221.667 167 -333 217l44 267c114 -50 232.333 -139 355 -267c91.333 -95.333 165.333 -189.666 222 -282.999
c18.667 36 28 117.333 28 244c0 91.333 -4.33301 192.333 -13 303zM760.003 239.997c0 28 -11.999 58.334 -35.999 91.001c-21.333 -24 -63 -60.667 -125 -110c23.333 -8.66699 51.666 -13.334 84.999 -14.001c50.667 -0.666992 76 10.333 76 33zM587.004 -396.002
l-413.002 -105.001v78l104 42c-34.667 33.333 -52 67.333 -52 102c0 41.333 16.5 78.5 49.5 111.5s70.167 49.5 111.5 49.5c52.667 0 94.334 -14 125.001 -42l-26 -65c-25.333 11.333 -59.333 17 -102 17c-17.333 0 -35.333 -5 -54 -15c-22 -11.333 -33 -24.666 -33 -39.999
c0 -46.667 41 -70 123 -70c10.667 0 66.334 15.333 167.001 46v-109z" />
    <glyph glyph-name="uFEFA" unicode="&#xfee0;&#xfe88;" horiz-adv-x="1187" arabic-form="final" 
d="M1216 1l-91.999 0.000976562c-154.667 0 -247.334 134.333 -278.001 403c-22.667 -120 -82 -223 -178 -309c-98 -88 -207.333 -132 -328 -132l-153 163c76.667 0 163 19.333 259 58c112 45.333 177 99 195 161c1.33301 4.66699 2 9.66699 2 15c0 70 -75.667 166 -227 288
c-124.667 100.667 -234 172 -328 214l44 258c136.667 -69.333 268 -172 394 -308c118 -127.333 189.333 -236.333 214 -327c10.667 51.333 16 125.666 16 222.999c0 128 -8 275.667 -24 443l223 82v-242c0 -194.667 6 -337 18 -427c29.333 -219.333 91.333 -329 186 -329h57
v-234zM635.001 -443.999l-413.001 -105.001v78l104 42c-34.667 33.333 -52 67.333 -52 102c0 41.333 16.5 78.5 49.5 111.5s70.167 49.5 111.5 49.5c53.333 0 95 -14 125 -42l-25 -65c-26 10.667 -60.333 16 -103 16c-17.333 0 -35.333 -4.66699 -54 -14
c-21.333 -11.333 -32 -24.666 -32 -39.999c0 -46.667 40.667 -70 122 -70c10.667 0 66.334 15.333 167.001 46v-109z" />
    <glyph glyph-name="uFEFB" unicode="&#xfedf;&#xfe8e;" horiz-adv-x="947" arabic-form="isolated" 
d="M935 1236c8 -71.333 12.0029 -147.336 12.0029 -228.003c0 -259.333 -40.667 -444.666 -122 -555.999c50.667 -97.333 76 -185.333 76 -264c0 -142 -106.333 -213 -319 -213c-64 0 -128.667 7 -194 21c-58.667 12.667 -96.334 25.334 -113.001 38.001l39 204
c15.333 -8 32.333 -12 51 -12c49.333 0 102.666 23.667 159.999 71c54 44 91 90.333 111 139c-42.667 71.333 -114.334 150 -215.001 236c-110.667 94.667 -221.667 167 -333 217l44 267c114 -50 232.333 -139 355 -267c91.333 -95.333 165.333 -189.666 222 -282.999
c18.667 36 28 117.333 28 244c0 91.333 -4.33301 192.333 -13 303zM760.003 239.997c0 28 -11.999 58.334 -35.999 91.001c-21.333 -24 -63 -60.667 -125 -110c23.333 -8.66699 51.666 -13.334 84.999 -14.001c50.667 -0.666992 76 10.333 76 33z" />
    <glyph glyph-name="uFEFC" unicode="&#xfee0;&#xfe8e;" horiz-adv-x="1187" arabic-form="final" 
d="M1216 1l-91.999 0.000976562c-154.667 0 -247.334 134.333 -278.001 403c-22.667 -120 -82 -223 -178 -309c-98 -88 -207.333 -132 -328 -132l-153 163c76.667 0 163 19.333 259 58c112 45.333 177 99 195 161c1.33301 4.66699 2 9.66699 2 15c0 70 -75.667 166 -227 288
c-124.667 100.667 -234 172 -328 214l44 258c136.667 -69.333 268 -172 394 -308c118 -127.333 189.333 -236.333 214 -327c10.667 51.333 16 125.666 16 222.999c0 128 -8 275.667 -24 443l223 82v-242c0 -194.667 6 -337 18 -427c29.333 -219.333 91.333 -329 186 -329h57
v-234z" />
    <glyph glyph-name="u0652_u064E.liga" unicode="&#x652;&#x64e;" horiz-adv-x="1" 
d="M186 1283l1 -241l-60 1l-5 241z" />
    <glyph glyph-name="u0652_u064B.liga" unicode="&#x652;&#x64b;" horiz-adv-x="1" 
d="M575 1017l-110 -149l-136 97l-80 -112l-172 117l110 148l144 -98l79 112z" />
    <glyph glyph-name="u0652_u064D.liga" unicode="&#x652;&#x64d;" horiz-adv-x="1" 
d="M939 -694l-110 -149l-136 97l-80 -112l-172 117l110 148l144 -98l79 112z" />
    <glyph glyph-name="u0622" unicode="&#x622;" horiz-adv-x="714" arabic-form="isolated" 
d="M520 27l-152 -55l-58 1179l210 82v-1206zM768 1461c-24 -43.333 -58.3291 -78.667 -102.996 -106s-91.334 -41 -140.001 -41c-26.667 0 -65.834 4.66699 -117.501 14s-90.834 14 -117.501 14c-54.667 0 -100.334 -18.333 -137.001 -55l-71 97
c52.667 66.667 114.667 100 186 100c26 0 64.333 -4.16699 115 -12.5s89 -12.5 115 -12.5c95.333 0 169 32.333 221 97z" />
    <glyph glyph-name="u0623" unicode="&#x623;" horiz-adv-x="536" arabic-form="isolated" 
d="M433 27l-152 -55l-58 1179l210 82v-1206zM558 1361l-413.002 -105v78l104 41c-34.667 34 -52 68.333 -52 103c0 41.333 16.5 78.5 49.5 111.5s70.167 49.5 111.5 49.5c52.667 0 94.334 -14.333 125.001 -43l-26 -64c-25.333 10.667 -59.333 16 -102 16
c-17.333 0 -35.333 -4.66699 -54 -14c-22 -10.667 -33 -24 -33 -40c0 -46.667 41 -70 123 -70c10.667 0 66.334 15.333 167.001 46v-109z" />
    <glyph glyph-name="u0624" unicode="&#x624;" horiz-adv-x="744" arabic-form="isolated" 
d="M736 185c0 -128 -53.999 -255.001 -161.999 -381.001c-100.667 -117.333 -215 -198.333 -343 -243l-143 137c114.667 44.667 222.667 110.334 324 197.001c95.333 81.333 147.333 148.333 156 201c-38 -18 -81.667 -27 -131 -27c-144 0 -216 69 -216 207
c0 64 18 131.667 54 203c45.333 90 102.666 135 171.999 135c102 0 178.333 -48.667 229 -146c40 -76.667 60 -171 60 -283zM563.001 282.999c-2.66699 32 -13.999 61.332 -33.999 87.999c-22 30 -48.333 45 -79 45c-22.667 0 -42.667 -9.66699 -60 -29
s-26 -40.666 -26 -63.999c0 -40.667 34 -61 102 -61c41.333 0 73.666 7 96.999 21zM645.002 850.998l-413.001 -105v78l104 42c-34.667 33.333 -52 67.333 -52 102c0 41.333 16.5 78.5 49.5 111.5s70.167 49.5 111.5 49.5c52.667 0 94 -14 124 -42l-25 -65
c-25.333 10.667 -59.333 16 -102 16c-17.333 0 -35.333 -4.66699 -54 -14c-22 -10.667 -33 -24 -33 -40c0 -46.667 41 -70 123 -70c10.667 0 66.334 15.333 167.001 46v-109z" />
    <glyph glyph-name="u0625" unicode="&#x625;" horiz-adv-x="533" arabic-form="isolated" 
d="M433 27l-152 -55l-58 1179l210 82v-1206zM558 -415l-413.002 -105v78l104 41c-34.667 34 -52 68.333 -52 103c0 41.333 16.5 78.5 49.5 111.5s70.167 49.5 111.5 49.5c52.667 0 94.334 -14.333 125.001 -43l-26 -64c-25.333 10.667 -59.333 16 -102 16
c-17.333 0 -35.333 -4.66699 -54 -14c-22 -10.667 -33 -24 -33 -40c0 -46.667 41 -70 123 -70c10.667 0 66.334 15.333 167.001 46v-109z" />
    <glyph glyph-name="u0626" unicode="&#x626;" horiz-adv-x="1359" arabic-form="isolated" 
d="M1359 645l-53.002 -201.003c-38.667 16.667 -95.334 25 -170.001 25c-61.333 0 -116 -18.333 -164 -55c-42.667 -32.667 -64 -64.667 -64 -96c0 -17.333 9 -28.666 27 -33.999c13.333 -4 73 -10.333 179 -19c139.333 -11.333 209 -67.333 209 -168
c0 -144.667 -67.333 -264.667 -202 -360c-125.333 -88.667 -272.666 -133 -441.999 -133c-342.667 0 -514 144.333 -514 433c0 106.667 32.333 215.667 97 327l162 -55c-44 -69.333 -66 -141.666 -66 -216.999c0 -169.333 116.333 -254 349 -254
c60.667 0 129.334 10 206.001 30c106.667 28 186.334 68.333 239.001 121c12 12 18 23.667 18 35c0 18.667 -12.333 29.334 -37 32.001c-32 3.33301 -120 11 -264 23c-93.333 18.667 -140 71.667 -140 159c0 114 47.333 219 142 315s198.667 144 312 144
c64 0 122.667 -17.333 176 -52zM586.998 588.997l-413.002 -105v78l104 41c-34.667 34 -52 68.333 -52 103c0 41.333 16.5 78.5 49.5 111.5s70.167 49.5 111.5 49.5c52.667 0 94.334 -14.333 125.001 -43l-26 -64c-25.333 10.667 -59.333 16 -102 16
c-17.333 0 -35.333 -4.66699 -54 -14c-22 -10.667 -33 -24 -33 -40c0 -47.333 41 -71 123 -71c10.667 0 66.334 15.667 167.001 47v-109z" />
    <glyph glyph-name="u0627" unicode="&#x627;" horiz-adv-x="376" arabic-form="isolated" 
d="M375 27l-152 -55l-58 1179l210 82v-1206z" />
    <glyph glyph-name="u0628" unicode="&#x628;" horiz-adv-x="1651" arabic-form="isolated" 
d="M1650 372c0 -284.667 -297.001 -426.999 -891.001 -426.999c-396 0 -594 116 -594 348c0 70 25.667 156 77 258l151 -47c-29.333 -64 -44 -109.667 -44 -137c0 -56.667 21.667 -98.667 65 -126c64.667 -40.667 183.334 -61 356.001 -61h124c146.667 0 284.667 18 414 54
c120 33.333 180 65.666 180 96.999c0 24 -34 79 -102 165l132 190c88 -90 132 -194.667 132 -314zM1028 -330.999l-132 -176l-181 121l132 177z" />
    <glyph glyph-name="u0629" unicode="&#x629;" horiz-adv-x="714" arabic-form="isolated" 
d="M710 284c0 -88 -27.167 -160 -81.5 -216s-125.5 -84 -213.5 -84c-74 0 -133 17 -177 51c-48.667 37.333 -73 92 -73 164c0 81.333 38.667 183 116 305l-44 20l110 189c100.667 -35.333 184 -88.666 250 -159.999c75.333 -80.667 113 -170.334 113 -269.001zM553 271
c0 62 -51 117.667 -153 167c-50 -66 -75 -117.333 -75 -154c0 -54.667 32 -82 96 -82c28 0 55 5 81 15c34 13.333 51 31.333 51 54zM572 909l-413.001 -105v78l104 41c-34.667 34 -52 68.333 -52 103c0 41.333 16.5 78.5 49.5 111.5s70.167 49.5 111.5 49.5
c53.333 0 95 -14.333 125 -43l-25 -64c-26 10.667 -60.333 16 -103 16c-17.333 0 -35.333 -4.66699 -54 -14c-22 -10.667 -33 -24 -33 -40c0 -46.667 41 -70 123 -70c10.667 0 66.334 15.333 167.001 46v-109z" />
    <glyph glyph-name="u062A" unicode="&#x62a;" horiz-adv-x="1653" arabic-form="isolated" 
d="M1650 372c0 -284.667 -297.001 -426.999 -891.001 -426.999c-396 0 -594 116 -594 348c0 70 25.667 156 77 258l151 -47c-29.333 -64 -44 -109.667 -44 -137c0 -56.667 21.667 -98.667 65 -126c64.667 -40.667 183.334 -61 356.001 -61h124c146.667 0 284.667 18 414 54
c120 33.333 180 65.666 180 96.999c0 24 -34 79 -102 165l132 190c88 -90 132 -194.667 132 -314zM1094 842.001l-110 -149l-136 96l-80 -111l-172 116l110 149l144 -99l79 112z" />
    <glyph glyph-name="u062B" unicode="&#x62b;" horiz-adv-x="1652" arabic-form="isolated" 
d="M1650 372c0 -284.667 -297.001 -426.999 -891.001 -426.999c-396 0 -594 116 -594 348c0 70 25.667 156 77 258l151 -47c-29.333 -64 -44 -109.667 -44 -137c0 -56.667 21.667 -98.667 65 -126c64.667 -40.667 183.334 -61 356.001 -61h124c146.667 0 284.667 18 414 54
c120 33.333 180 65.666 180 96.999c0 24 -34 79 -102 165l132 190c88 -90 132 -194.667 132 -314zM652.999 661.001l102 140l133 -89l77 104l156 -104l-106 -139l-133 88l-72 -104zM729.999 888.001l103 136l144 -97l-101 -137z" />
    <glyph glyph-name="u062C" unicode="&#x62c;" horiz-adv-x="1202" arabic-form="isolated" 
d="M1282 -662c-140 -51.333 -280.333 -77 -421 -77c-464 0 -696 183.333 -696 550c0 124.667 54.333 243.667 163 357c86 90 194 165.333 324 226c-118 14.667 -191.333 22 -220 22c-31.333 0 -63.333 -26.333 -96 -79c-66 27.333 -117.333 52 -154 74
c63.333 157.333 137.333 236 222 236c66 0 164.833 -7.5 296.5 -22.5s230.5 -22.5 296.5 -22.5c72.667 0 138.334 3.33301 197.001 10l-28 -240c-164.667 0 -333.334 -53 -506.001 -159c-186.667 -114.667 -280 -239.667 -280 -375c0 -229.333 171.333 -344 514 -344
c114.667 0 222.667 14.667 324 44zM926 -136l-133 -176l-180 121l132 177z" />
    <glyph glyph-name="u062D" unicode="&#x62d;" horiz-adv-x="1199" arabic-form="isolated" 
d="M1282 -662c-140 -51.333 -280.333 -77 -421 -77c-464 0 -696 183.333 -696 550c0 124.667 54.333 243.667 163 357c86 90 194 165.333 324 226c-118 14.667 -191.333 22 -220 22c-31.333 0 -63.333 -26.333 -96 -79c-66 27.333 -117.333 52 -154 74
c63.333 157.333 137.333 236 222 236c66 0 164.833 -7.5 296.5 -22.5s230.5 -22.5 296.5 -22.5c72.667 0 138.334 3.33301 197.001 10l-28 -240c-164.667 0 -333.334 -53 -506.001 -159c-186.667 -114.667 -280 -239.667 -280 -375c0 -229.333 171.333 -344 514 -344
c114.667 0 222.667 14.667 324 44z" />
    <glyph glyph-name="u062E" unicode="&#x62e;" horiz-adv-x="1202" arabic-form="isolated" 
d="M1282 -662c-140 -51.333 -280.333 -77 -421 -77c-464 0 -696 183.333 -696 550c0 124.667 54.333 243.667 163 357c86 90 194 165.333 324 226c-118 14.667 -191.333 22 -220 22c-31.333 0 -63.333 -26.333 -96 -79c-66 27.333 -117.333 52 -154 74
c63.333 157.333 137.333 236 222 236c66 0 164.833 -7.5 296.5 -22.5s230.5 -22.5 296.5 -22.5c72.667 0 138.334 3.33301 197.001 10l-28 -240c-164.667 0 -333.334 -53 -506.001 -159c-186.667 -114.667 -280 -239.667 -280 -375c0 -229.333 171.333 -344 514 -344
c114.667 0 222.667 14.667 324 44zM866 997l-133 -176l-180 121l132 177z" />
    <glyph glyph-name="u062F" unicode="&#x62f;" horiz-adv-x="876" arabic-form="isolated" 
d="M874 323c0 -112.667 -37 -199.333 -111 -260c-68.667 -56.667 -160.334 -85 -275.001 -85c-153.333 0 -262.666 42.333 -327.999 127l96 177c58 -48 120.667 -72 188 -72c84 0 140.667 3 170 9c74.667 15.333 112 49 112 101c0 34.667 -28 80.667 -84 138
c-62.667 64 -139 119.667 -229 167l91 224c246.667 -150 370 -325.333 370 -526z" />
    <glyph glyph-name="u0630" unicode="&#x630;" horiz-adv-x="877" arabic-form="isolated" 
d="M874 323c0 -112.667 -37 -199.333 -111 -260c-68.667 -56.667 -160.334 -85 -275.001 -85c-153.333 0 -262.666 42.333 -327.999 127l96 177c58 -48 120.667 -72 188 -72c84 0 140.667 3 170 9c74.667 15.333 112 49 112 101c0 34.667 -28 80.667 -84 138
c-62.667 64 -139 119.667 -229 167l91 224c246.667 -150 370 -325.333 370 -526zM582 1101l-132 -175l-181 120l132 177z" />
    <glyph glyph-name="u0631" unicode="&#x631;" horiz-adv-x="808" arabic-form="isolated" 
d="M805 223c0 -132 -65.333 -258.998 -196 -380.998c-103.333 -96.667 -221.666 -171.334 -354.999 -224.001l-159 123c110.667 54 215 116.667 313 188c145.333 106 218 195.667 218 269c0 34.667 -13.333 70.667 -40 108l-81 108l155 181
c51.333 -64.667 86.666 -119 105.999 -163c26 -58.667 39 -128.334 39 -209.001z" />
    <glyph glyph-name="u0632" unicode="&#x632;" horiz-adv-x="808" arabic-form="isolated" 
d="M805 223c0 -132 -65.333 -258.998 -196 -380.998c-103.333 -96.667 -221.666 -171.334 -354.999 -224.001l-159 123c110.667 54 215 116.667 313 188c145.333 106 218 195.667 218 269c0 34.667 -13.333 70.667 -40 108l-81 108l155 181
c51.333 -64.667 86.666 -119 105.999 -163c26 -58.667 39 -128.334 39 -209.001zM651 910.002l-132 -176l-180 121l132 177z" />
    <glyph glyph-name="u0633" unicode="&#x633;" horiz-adv-x="1964" arabic-form="isolated" 
d="M1961 331c0 -81.333 -21.334 -154.665 -64.001 -219.998c-49.333 -75.333 -112.333 -113 -189 -113c-105.333 0 -182.333 36 -231 108c-40 -70 -96 -105 -168 -105c-74 0 -120.667 13.667 -140 41c0 -162 -49.333 -296 -148 -402
c-101.333 -108 -232.666 -162 -393.999 -162s-282 50.667 -362 152c-64.667 81.333 -97 185.666 -97 312.999c0 102 27.667 208.333 83 319l156 -55c-36.667 -94.667 -55 -168 -55 -220c0 -90 27 -159 81 -207c52 -45.333 123.333 -68 214 -68
c96.667 0 176.667 26.667 240 80c67.333 57.333 101 133.333 101 228c0 91.333 -33 181.333 -99 270l176 165c43.333 -86.667 67.333 -133 72 -139c38 -54 83.667 -81 137 -81c95.333 0 143 44 143 132v77l145 44v-102c0 -44 12.667 -80.667 38 -110
c26.667 -31.333 61.667 -47 105 -47c58.667 0 88 27.667 88 83c0 51.333 -22.667 98 -68 140l143 160c62 -68.667 93 -162.334 93 -281.001z" />
    <glyph glyph-name="u0634" unicode="&#x634;" horiz-adv-x="1967" arabic-form="isolated" 
d="M1961 331c0 -81.333 -21.334 -154.665 -64.001 -219.998c-49.333 -75.333 -112.333 -113 -189 -113c-105.333 0 -182.333 36 -231 108c-40 -70 -96 -105 -168 -105c-74 0 -120.667 13.667 -140 41c0 -162 -49.333 -296 -148 -402
c-101.333 -108 -232.666 -162 -393.999 -162s-282 50.667 -362 152c-64.667 81.333 -97 185.666 -97 312.999c0 102 27.667 208.333 83 319l156 -55c-36.667 -94.667 -55 -168 -55 -220c0 -90 27 -159 81 -207c52 -45.333 123.333 -68 214 -68
c96.667 0 176.667 26.667 240 80c67.333 57.333 101 133.333 101 228c0 91.333 -33 181.333 -99 270l176 165c43.333 -86.667 67.333 -133 72 -139c38 -54 83.667 -81 137 -81c95.333 0 143 44 143 132v77l145 44v-102c0 -44 12.667 -80.667 38 -110
c26.667 -31.333 61.667 -47 105 -47c58.667 0 88 27.667 88 83c0 51.333 -22.667 98 -68 140l143 160c62 -68.667 93 -162.334 93 -281.001zM1267 754.001l102 140l133 -89l77 104l156 -104l-106 -139l-133 88l-72 -104zM1343 981.001l104 136l144 -98l-101 -136z" />
    <glyph glyph-name="u0635" unicode="&#x635;" horiz-adv-x="2099" arabic-form="isolated" 
d="M2096 436c0 -142.667 -63.335 -253.666 -190.002 -332.999c-108.667 -68 -240.667 -102 -396 -102h-143c-106.667 0 -172.667 13.667 -198 41c0 -162 -49.333 -296 -148 -402c-101.333 -108 -232.666 -162 -393.999 -162s-282 50.667 -362 152
c-64.667 81.333 -97 185.666 -97 312.999c0 102 27.667 208.333 83 319l156 -55c-36.667 -94.667 -55 -168 -55 -220c0 -90 27 -159 81 -207c52 -45.333 123.333 -68 214 -68c96.667 0 176.667 26.667 240 80c67.333 57.333 101 133.333 101 228
c0 91.333 -33 181.333 -99 270l176 165c68.667 -144.667 124.334 -217 167.001 -217c22 0 37 3 45 9s23.333 23 46 51c210 256.667 380.667 385 512 385c76 0 138.5 -22.333 187.5 -67s73.5 -104.667 73.5 -180zM1931 375.001c0 56.667 -47.668 85 -143.001 85
c-60.667 0 -129 -31 -205 -93c-14.667 -12 -60 -56 -136 -132h99c72.667 0 146.334 9 221.001 27c109.333 26 164 63.667 164 113z" />
    <glyph glyph-name="u0636" unicode="&#x636;" horiz-adv-x="2099" arabic-form="isolated" 
d="M2096 436c0 -142.667 -63.335 -253.666 -190.002 -332.999c-108.667 -68 -240.667 -102 -396 -102h-143c-106.667 0 -172.667 13.667 -198 41c0 -162 -49.333 -296 -148 -402c-101.333 -108 -232.666 -162 -393.999 -162s-282 50.667 -362 152
c-64.667 81.333 -97 185.666 -97 312.999c0 102 27.667 208.333 83 319l156 -55c-36.667 -94.667 -55 -168 -55 -220c0 -90 27 -159 81 -207c52 -45.333 123.333 -68 214 -68c96.667 0 176.667 26.667 240 80c67.333 57.333 101 133.333 101 228
c0 91.333 -33 181.333 -99 270l176 165c68.667 -144.667 124.334 -217 167.001 -217c22 0 37 3 45 9s23.333 23 46 51c210 256.667 380.667 385 512 385c76 0 138.5 -22.333 187.5 -67s73.5 -104.667 73.5 -180zM1931 375.001c0 56.667 -47.668 85 -143.001 85
c-60.667 0 -129 -31 -205 -93c-14.667 -12 -60 -56 -136 -132h99c72.667 0 146.334 9 221.001 27c109.333 26 164 63.667 164 113zM1788 995.001l-132 -176l-180 121l132 177z" />
    <glyph glyph-name="u0637" unicode="&#x637;" horiz-adv-x="1283" arabic-form="isolated" 
d="M1282 436c0 -142.667 -65.333 -253.667 -196 -333c-112 -68 -251 -102 -417 -102h-160c-170 0 -284.667 43 -344 129l77 149c46 -26 96 -39 150 -39c76 0 123.333 36 142 108c6 23.333 9 91 9 203c0 162 -12.333 362 -37 600l213 82v-694c106 96 206.667 144 302 144
c76 0 138.5 -22.333 187.5 -67s73.5 -104.667 73.5 -180zM1117 375c0 56.667 -47.6699 85 -143.003 85c-61.333 0 -129.666 -31 -204.999 -93c-11.333 -9.33301 -56.666 -53.333 -135.999 -132h99c72.667 0 146.334 9 221.001 27c109.333 26 164 63.667 164 113z" />
    <glyph glyph-name="u0638" unicode="&#x638;" horiz-adv-x="1285" arabic-form="isolated" 
d="M1282 436c0 -142.667 -65.333 -253.667 -196 -333c-112 -68 -251 -102 -417 -102h-160c-170 0 -284.667 43 -344 129l77 149c46 -26 96 -39 150 -39c76 0 123.333 36 142 108c6 23.333 9 91 9 203c0 162 -12.333 362 -37 600l213 82v-694c106 96 206.667 144 302 144
c76 0 138.5 -22.333 187.5 -67s73.5 -104.667 73.5 -180zM1117 375c0 56.667 -47.6699 85 -143.003 85c-61.333 0 -129.666 -31 -204.999 -93c-11.333 -9.33301 -56.666 -53.333 -135.999 -132h99c72.667 0 146.334 9 221.001 27c109.333 26 164 63.667 164 113zM1207 1026
l-132 -176l-180 121l132 177z" />
    <glyph glyph-name="u0639" unicode="&#x639;" horiz-adv-x="1045" arabic-form="isolated" 
d="M1192 -671c-103.333 -44 -222.668 -66 -358.001 -66c-187.333 0 -339.666 36.667 -456.999 110c-140.667 88 -211 220 -211 396c0 170 93.667 324.333 281 463c-92.667 64 -139 148 -139 252c0 91.333 34 169.333 102 234s148 97 240 97c40 0 82 -10 126 -30
s77.333 -45.667 100 -77l-53 -132c-55.333 29.333 -117.666 44 -186.999 44c-35.333 0 -70 -8 -104 -24c-41.333 -19.333 -62 -45 -62 -77c0 -38 27 -72.333 81 -103c48 -27.333 93 -41 135 -41c18 0 69.333 10 154 30l165 39v-201c-429.333 -90 -644 -243.333 -644 -460
c0 -105.333 62.333 -183 187 -233c88.667 -35.333 195 -53 319 -53c105.333 0 190.666 12 255.999 36z" />
    <glyph glyph-name="u063A" unicode="&#x63a;" horiz-adv-x="1040" arabic-form="isolated" 
d="M1192 -671c-103.333 -44 -222.668 -66 -358.001 -66c-187.333 0 -339.666 36.667 -456.999 110c-140.667 88 -211 220 -211 396c0 170 93.667 324.333 281 463c-92.667 64 -139 148 -139 252c0 91.333 34 169.333 102 234s148 97 240 97c40 0 82 -10 126 -30
s77.333 -45.667 100 -77l-53 -132c-55.333 29.333 -117.666 44 -186.999 44c-35.333 0 -70 -8 -104 -24c-41.333 -19.333 -62 -45 -62 -77c0 -38 27 -72.333 81 -103c48 -27.333 93 -41 135 -41c18 0 69.333 10 154 30l165 39v-201c-429.333 -90 -644 -243.333 -644 -460
c0 -105.333 62.333 -183 187 -233c88.667 -35.333 195 -53 319 -53c105.333 0 190.666 12 255.999 36zM687.998 1095l-132 -175l-181 120l133 177z" />
    <glyph glyph-name="u0641" unicode="&#x641;" horiz-adv-x="1656" arabic-form="isolated" 
d="M1653 403c0 -305.333 -297.002 -458 -891.002 -458c-396 0 -594 116 -594 348c0 70 25.667 156 77 258l151 -47c-29.333 -64 -44 -109.667 -44 -137c0 -56.667 21.667 -98.667 65 -126c64.667 -40.667 183.334 -61 356.001 -61h124c165.333 0 308 18 428 54
c129.333 38.667 192 87.667 188 147c-25.333 -29.333 -75.666 -44 -150.999 -44c-130.667 0 -196 61.333 -196 184c0 58 19.667 122.667 59 194c48 86.667 105.333 130 172 130c82.667 0 148.667 -56 198 -168c38.667 -88 58 -179.333 58 -274zM1466 554
c-20 68 -50.998 102.001 -92.998 102.001c-14.667 0 -30.334 -8.83301 -47.001 -26.5s-25 -33.834 -25 -48.501c0 -47.333 25.667 -71 77 -71c45.333 0 74.666 14.667 87.999 44zM1441 1113l-132 -176l-181 121l132 176z" />
    <glyph glyph-name="u0642" unicode="&#x642;" horiz-adv-x="1231" arabic-form="isolated" 
d="M1225 190c0 -192.667 -48.3311 -342.331 -144.998 -448.998c-100.667 -111.333 -246.334 -167 -437.001 -167c-158 0 -280.333 50.667 -367 152c-74 86 -111 190.667 -111 314c0 99.333 27.333 205.666 82 318.999l153 -55c-8 -15.333 -18 -47.333 -30 -96
c-14 -55.333 -21 -96.666 -21 -123.999c0 -90 30.333 -159.333 91 -208c55.333 -45.333 129 -68 221 -68c117.333 0 214 23.333 290 70c93.333 57.333 136.666 140.666 129.999 249.999c-40.667 -35.333 -94 -53 -160 -53c-77.333 0 -135 23.667 -173 71
c-28.667 35.333 -43 77 -43 125c0 68.667 19.333 140.667 58 216c48 94 109.667 141 185 141c89.333 0 160.333 -53.333 213 -160c42.667 -86.667 64 -179.334 64 -278.001zM1028 317.003c-4.66699 26 -16 49.667 -34 71c-20.667 24.667 -43 37 -67 37
c-18 0 -35.833 -9.66699 -53.5 -29s-26.5 -38.333 -26.5 -57c0 -44 27.333 -66.667 82 -68c52.667 -1.33301 85.667 14 99 46zM1144 925.003l-110 -149l-136 96l-81 -111l-171 116l110 149l143 -99l80 112z" />
    <glyph glyph-name="u0643" unicode="&#x643;" horiz-adv-x="1922" arabic-form="isolated" 
d="M1931 1280l-31.0029 -239c-98.667 -22.667 -192.667 -45.667 -282 -69c-202.667 -53.333 -338.667 -96 -408 -128c-21.333 -10 -24.666 -20.667 -9.99902 -32c127.333 -96.667 198 -151.667 212 -165c111.333 -103.333 167 -197.666 167 -282.999
c0 -280.667 -263.667 -421 -791 -421c-415.333 0 -623 121 -623 363c0 76.667 26.667 167.667 80 273l159 -50c-30.667 -66 -46 -113.667 -46 -143c0 -60.667 22.667 -106.334 68 -137.001c68.667 -46 193.334 -69 374.001 -69h43c108.667 0 212.334 7 311.001 21
c169.333 24 254 63.667 254 119c0 52.667 -61 126.667 -183 222c-133.333 104 -207 173 -221 207c1.33301 36 9.33301 78 24 126c16.667 54.667 32.334 86 47.001 94c171.333 90 456.666 193.667 855.999 311z" />
    <glyph glyph-name="u0644" unicode="&#x644;" horiz-adv-x="1110" arabic-form="isolated" 
d="M1108 381c0 -184.667 -40.667 -330.333 -122 -437c-90.667 -120 -225.667 -180 -405 -180c-134 0 -236.833 38 -308.5 114s-107.5 181.333 -107.5 316c0 100.667 25.667 204 77 310l157 -55c-36.667 -80 -55 -153.667 -55 -221c0 -153.333 88 -230 264 -230
c210 0 315 109.667 315 329c0 14 -0.333008 28.333 -1 43l-36 781l222 82v-852z" />
    <glyph glyph-name="u0645" unicode="&#x645;" horiz-adv-x="918" arabic-form="isolated" 
d="M914 321c0 -43.333 -19.001 -97.333 -57.001 -162c-41.333 -70.667 -81.666 -106 -120.999 -106c-28.667 0 -71 3.66699 -127 11s-98.333 11 -127 11c-47.333 0 -79.333 -10.167 -96 -30.5s-25 -54.833 -25 -103.5v-711h-166l-30 763
c-2.66699 66.667 11.333 127.334 42 182.001c34 62 82 98.667 144 110c0 71.333 16 138.666 48 201.999c38.667 76.667 91 115 157 115c66.667 0 141.667 -30 225 -90c88.667 -64 133 -127.667 133 -191zM719.999 292c4.66699 25.333 -13.668 52 -55.001 80
c-37.333 25.333 -69.666 38 -96.999 38c-23.333 0 -42.833 -9 -58.5 -27s-23.5 -38.667 -23.5 -62c0 -7.33301 0.666992 -15 2 -23c136 -14.667 198 -22 186 -22c28.667 0 44 5.33301 46 16z" />
    <glyph glyph-name="u0646" unicode="&#x646;" horiz-adv-x="1187" arabic-form="isolated" 
d="M1185 301c0 -168.667 -51.1689 -302.168 -153.502 -400.501s-238.166 -147.5 -407.499 -147.5c-145.333 0 -258.166 39.5 -338.499 118.5s-120.5 190.833 -120.5 335.5c0 40 9 92.5 27 157.5s37.333 114.5 58 148.5l150 -55c-35.333 -73.333 -53 -143 -53 -209
c0 -87.333 28 -153.666 84 -198.999c51.333 -42 121.333 -63 210 -63c100 0 180.667 23 242 69c68 52 102 126.333 102 223c0 87.333 -31 173 -93 257l173 142c80 -94 120 -219.667 120 -377zM791.998 816.999l-132 -175l-180 120l132 177z" />
    <glyph glyph-name="u0647" unicode="&#x647;" horiz-adv-x="711" arabic-form="isolated" 
d="M710 284c0 -88 -27.167 -160 -81.5 -216s-125.5 -84 -213.5 -84c-74 0 -133 17 -177 51c-48.667 37.333 -73 92 -73 164c0 81.333 38.667 183 116 305l-44 20l110 189c100.667 -35.333 184 -88.666 250 -159.999c75.333 -80.667 113 -170.334 113 -269.001zM553 271
c0 62 -51 117.667 -153 167c-50 -66 -75 -117.333 -75 -154c0 -54.667 32 -82 96 -82c28 0 55 5 81 15c34 13.333 51 31.333 51 54z" />
    <glyph glyph-name="u0648" unicode="&#x648;" horiz-adv-x="739" arabic-form="isolated" 
d="M736 185c0 -128 -53.999 -255.001 -161.999 -381.001c-100.667 -117.333 -215 -198.333 -343 -243l-143 137c114.667 44.667 222.667 110.334 324 197.001c95.333 81.333 147.333 148.333 156 201c-38 -18 -81.667 -27 -131 -27c-144 0 -216 69 -216 207
c0 64 18 131.667 54 203c45.333 90 102.666 135 171.999 135c102 0 178.333 -48.667 229 -146c40 -76.667 60 -171 60 -283zM563.001 282.999c-2.66699 32 -13.999 61.332 -33.999 87.999c-22 30 -48.333 45 -79 45c-22.667 0 -42.667 -9.66699 -60 -29
s-26 -40.666 -26 -63.999c0 -40.667 34 -61 102 -61c41.333 0 73.666 7 96.999 21z" />
    <glyph glyph-name="u0649" unicode="&#x649;" horiz-adv-x="1359" arabic-form="isolated" 
d="M1359 645l-53.002 -201.003c-38.667 16.667 -95.334 25 -170.001 25c-61.333 0 -116 -18.333 -164 -55c-42.667 -32.667 -64 -64.667 -64 -96c0 -17.333 9 -28.666 27 -33.999c13.333 -4 73 -10.333 179 -19c139.333 -11.333 209 -67.333 209 -168
c0 -144.667 -67.333 -264.667 -202 -360c-125.333 -88.667 -272.666 -133 -441.999 -133c-342.667 0 -514 144.333 -514 433c0 106.667 32.333 215.667 97 327l162 -55c-44 -69.333 -66 -141.666 -66 -216.999c0 -169.333 116.333 -254 349 -254
c60.667 0 129.334 10 206.001 30c106.667 28 186.334 68.333 239.001 121c12 12 18 23.667 18 35c0 18.667 -12.333 29.334 -37 32.001c-32 3.33301 -120 11 -264 23c-93.333 18.667 -140 71.667 -140 159c0 114 47.333 219 142 315s198.667 144 312 144
c64 0 122.667 -17.333 176 -52z" />
    <glyph glyph-name="u064A" unicode="&#x64a;" horiz-adv-x="1359" arabic-form="isolated" 
d="M1359 645l-53.002 -201.003c-38.667 16.667 -95.334 25 -170.001 25c-61.333 0 -116 -18.333 -164 -55c-42.667 -32.667 -64 -64.667 -64 -96c0 -17.333 9 -28.666 27 -33.999c13.333 -4 73 -10.333 179 -19c139.333 -11.333 209 -67.333 209 -168
c0 -144.667 -67.333 -264.667 -202 -360c-125.333 -88.667 -272.666 -133 -441.999 -133c-342.667 0 -514 144.333 -514 433c0 106.667 32.333 215.667 97 327l162 -55c-44 -69.333 -66 -141.666 -66 -216.999c0 -169.333 116.333 -254 349 -254
c60.667 0 129.334 10 206.001 30c106.667 28 186.334 68.333 239.001 121c12 12 18 23.667 18 35c0 18.667 -12.333 29.334 -37 32.001c-32 3.33301 -120 11 -264 23c-93.333 18.667 -140 71.667 -140 159c0 114 47.333 219 142 315s198.667 144 312 144
c64 0 122.667 -17.333 176 -52z" />
    <glyph glyph-name="u067E" unicode="&#x67e;" horiz-adv-x="1652" arabic-form="isolated" 
d="M1650 372c0 -284.667 -297.001 -426.999 -891.001 -426.999c-396 0 -594 116 -594 348c0 70 25.667 156 77 258l151 -47c-29.333 -64 -44 -109.667 -44 -137c0 -56.667 21.667 -98.667 65 -126c64.667 -40.667 183.334 -61 356.001 -61h124c146.667 0 284.667 18 414 54
c120 33.333 180 65.666 180 96.999c0 24 -34 79 -102 165l132 190c88 -90 132 -194.667 132 -314zM1092 -259.999l-102 -140l-133 89l-77 -104l-157 104l107 139l133 -88l72 105zM1015 -485.999l-103 -137l-144 98l101 136z" />
    <glyph glyph-name="u0686" unicode="&#x686;" horiz-adv-x="1202" arabic-form="isolated" 
d="M1282 -662c-140 -51.333 -280.333 -77 -421 -77c-464 0 -696 183.333 -696 550c0 124.667 54.333 243.667 163 357c86 90 194 165.333 324 226c-118 14.667 -191.333 22 -220 22c-31.333 0 -63.333 -26.333 -96 -79c-66 27.333 -117.333 52 -154 74
c63.333 157.333 137.333 236 222 236c66 0 164.833 -7.5 296.5 -22.5s230.5 -22.5 296.5 -22.5c72.667 0 138.334 3.33301 197.001 10l-28 -240c-164.667 0 -333.334 -53 -506.001 -159c-186.667 -114.667 -280 -239.667 -280 -375c0 -229.333 171.333 -344 514 -344
c114.667 0 222.667 14.667 324 44zM993 -45l-101 -140l-133 88l-78 -104l-156 104l106 139l133 -87l73 104zM917 -272l-103 -136l-144 97l100 136z" />
    <glyph glyph-name="u0698" unicode="&#x698;" horiz-adv-x="837" arabic-form="isolated" 
d="M805 223c0 -132 -65.333 -258.998 -196 -380.998c-103.333 -96.667 -221.666 -171.334 -354.999 -224.001l-159 123c110.667 54 215 116.667 313 188c145.333 106 218 195.667 218 269c0 34.667 -13.333 70.667 -40 108l-81 108l155 181
c51.333 -64.667 86.666 -119 105.999 -163c26 -58.667 39 -128.334 39 -209.001zM370 760.002l101 139l133 -88l77 104l157 -104l-106 -139l-134 88l-72 -105zM446 986.002l103 136l144 -97l-100 -136z" />
    <glyph glyph-name="u06AF" unicode="&#x6af;" horiz-adv-x="1943" arabic-form="isolated" 
d="M1944 1483l-13.001 -116l-337 -108c-242 -80 -410.333 -141.667 -505 -185l28 110c122.667 57.333 398.334 157 827.001 299zM1931 1266l-31.002 -224.996c-104.667 -24.667 -197 -47.667 -277 -69c-200.667 -53.333 -335 -96 -403 -128
c-24 -11.333 -27.667 -22.333 -11 -33c246.667 -158.667 370 -307.667 370 -447c0 -280.667 -263.667 -421 -791 -421c-415.333 0 -623 121 -623 363c0 76.667 26.667 167.667 80 273l159 -50c-30.667 -66 -46 -113.667 -46 -143c0 -60.667 22.667 -106.334 68 -137.001
c68.667 -46 193.334 -69 374.001 -69h43c108.667 0 212.334 7 311.001 21c169.333 24 254 63.667 254 119c0 45.333 -31 96.666 -93 153.999c-15.333 14.667 -76.333 62.667 -183 144c-72 55.333 -114.667 99 -128 131c1.33301 31.333 8.33301 68.666 21 111.999
c15.333 53.333 32 84.666 50 93.999c174 92 459.333 195.667 856 311z" />
    <glyph glyph-name="uFB57" unicode="&#x67e;" horiz-adv-x="1733" arabic-form="final" 
d="M1762 1h-68c-101.333 0 -171 39.333 -209 118c-51.333 -68 -165.333 -117 -342 -147c-117.333 -20 -245.333 -30 -384 -30c-396 0 -594 116.333 -594 349c0 69.333 25.667 155 77 257l151 -47c-29.333 -64 -44 -109.667 -44 -137c0 -56.667 21.667 -98.667 65 -126
c64 -40 182.667 -60 356 -60h88c142 0 247 5 315 15c158.667 23.333 238 73 238 149v52l167 55v-48c0 -62 9.66699 -104.333 29 -127c21.333 -26 62.333 -39 123 -39h32v-234zM1072 -260l-101 -140l-133 89l-77 -104l-157 104l106 139l134 -88l72 105zM996 -486l-103 -137
l-144 98l100 136z" />
    <glyph glyph-name="uFB58" unicode="&#x67e;" horiz-adv-x="486" arabic-form="initial" 
d="M388 328c0 -107.333 -33.333 -189.666 -100 -246.999c-62 -53.333 -147.667 -80 -257 -80h-60v234h160c70 0 105 17.333 105 52c0 21.333 -15.333 51.666 -46 90.999l-69 88l132 190c90 -90 135 -199.333 135 -328zM501 -225l-101 -140l-134 89l-77 -104l-156 104
l106 139l133 -88l73 104zM425 -452l-104 -136l-143 98l100 136z" />
    <glyph glyph-name="uFB59" unicode="&#x67e;" horiz-adv-x="539" arabic-form="medial" 
d="M566 1h-76c-96 0 -159.333 35 -190 105c-50 -70 -129.667 -105 -239 -105h-90v234h82c102.667 0 154 35.667 154 107v80l167 55v-50c0 -128 41.333 -192 124 -192h68v-234zM501 -225l-101 -140l-134 89l-77 -104l-156 104l106 139l133 -88l73 104zM425 -452l-104 -136
l-143 98l100 136z" />
    <glyph glyph-name="uFB7B" unicode="&#x686;" horiz-adv-x="1318" arabic-form="final" 
d="M1347 1l-241.003 -0.000976562c-156.667 0 -233.667 107.333 -231 322c-132 -42 -245.667 -107.333 -341 -196c-102.667 -95.333 -154 -191.666 -154 -288.999c0 -229.333 171.333 -344 514 -344c125.333 0 233.333 15 324 45l64 -201
c-135.333 -51.333 -275.666 -77 -420.999 -77c-464 0 -696 183.333 -696 550c0 124.667 54.333 243.667 163 357c86 90 194 165.333 324 226c-118 14.667 -191.333 22 -220 22c-31.333 0 -63.333 -26.333 -96 -79c-66 27.333 -117.333 52 -154 74
c63.333 157.333 137.333 236 222 236c66 0 164.833 -7.5 296.5 -22.5s230.5 -22.5 296.5 -22.5c72.667 0 138.334 3.33301 197.001 10l-28 -240c-54 0 -110.667 -5.33301 -170 -16c4.66699 -34 12.334 -58.667 23.001 -74c22 -31.333 62 -47 120 -47h208v-234z
M957.997 -86.001l-101 -140l-133 89l-77 -104l-157 104l106 139l134 -88l72 104zM881.997 -313.001l-103 -136l-144 98l100 136z" />
    <glyph glyph-name="uFB7C" unicode="&#x686;" horiz-adv-x="1084" arabic-form="initial" 
d="M1078 516l-27.001 -210c-86.667 0 -175.667 -26.333 -267 -79l-259 -147c-99.333 -52.667 -218.333 -79 -357 -79h-197v234h194c100 0 195.333 15.333 286 46c12 4 85.667 30.667 221 80c-24 2.66699 -82 17.667 -174 45c-85.333 25.333 -137.666 38 -156.999 38
c-25.333 0 -46.666 -9 -63.999 -27l-37 -47c-60.667 24 -111.334 47.667 -152.001 71c60.667 146 134 219 220 219c68.667 0 180.167 -24.667 334.5 -74s271.833 -74 352.5 -74c28 0 55.667 1.33301 83 4zM925.999 -152l-102 -139l-133 88l-77 -104l-157 104l107 139
l133 -88l72 105zM848.999 -378l-103 -136l-144 97l101 136z" />
    <glyph glyph-name="uFB7D" unicode="&#x686;" horiz-adv-x="1208" arabic-form="medial" 
d="M1237 1h-227.005c-156.667 0 -236.667 97.333 -240 292c-39.333 -22 -99.666 -64.333 -180.999 -127c-70 -54 -129.333 -92.333 -178 -115c-72 -33.333 -151 -50 -237 -50h-203v234h172c102 0 193.333 21 274 63l205 110c-26 2.66699 -78.333 11 -157 25
c-71.333 12.667 -112.666 19 -123.999 19c-28.667 0 -60.667 -27.333 -96 -82c-63.333 26 -113.666 49.667 -150.999 71c64 159.333 137.333 239 220 239c76 0 188.833 -17.667 338.5 -53s262.834 -53 339.501 -53c39.333 0 76.333 2 111 6l-27 -227
c-65.333 0 -127.333 -9 -186 -27c6.66699 -28 16.334 -47.667 29.001 -59c24 -21.333 65.333 -32 124 -32h194v-234zM857.995 -152l-101 -139l-134 88l-77 -104l-156 104l106 139l133 -88l73 105zM781.995 -378l-104 -136l-143 97l100 136z" />
    <glyph glyph-name="uFB8B" unicode="&#x698;" horiz-adv-x="927" arabic-form="final" 
d="M954 -4h-64.999c-52.667 0 -91 13 -115 39c-10 -117.333 -70.333 -228 -181 -332c-91.333 -85.333 -201 -153.333 -329 -204l-170 117c100 42.667 202.667 101.667 308 177c142 101.333 213 187.333 213 258c0 39.333 -36 108 -108 206l159 172
c48.667 -80 86 -132 112 -156c31.333 -28.667 71.666 -43 120.999 -43h55v-234zM352.001 621l102 140l133 -89l77 104l156 -104l-106 -139l-133 88l-72 -105zM429.001 847l103 136l144 -97l-101 -136z" />
    <glyph glyph-name="uFEDA" unicode="&#x6a9;" horiz-adv-x="2013" arabic-form="final" 
d="M2042 1h-124.999c-83.333 0 -167.333 29 -252 87c-73.333 50 -137 113.667 -191 191c0 -222.667 -238 -334 -714 -334c-396.667 0 -595 116 -595 348c0 70 25.667 156 77 258l151 -47c-29.333 -64 -44 -109.667 -44 -137c0 -56.667 21.667 -98.667 65 -126
c64.667 -40.667 183.334 -61 356.001 -61h41c105.333 0 205.666 8.66699 300.999 26c155.333 28 233 74.333 233 139c0 42.667 -44 103.667 -132 183c-98.667 89.333 -154.667 150.333 -168 183c2 35.333 8.66699 75.333 20 120c13.333 52.667 27.666 83 42.999 91
c171.333 90 472 202 902 336l-27 -228c-112 -29.333 -203 -54 -273 -74c-203.333 -58 -360 -109.667 -470 -155c-24 -10 -27.333 -21.667 -10 -35c104.667 -82 216.334 -180.333 335.001 -295c91.333 -88.667 152.666 -144 183.999 -166c66 -46.667 136.667 -70 212 -70h81
v-234z" />
    <glyph glyph-name="uFEDB" unicode="&#x6a9;" horiz-adv-x="966" arabic-form="initial" 
d="M982 1280l-30.001 -239.002c-86 -19.333 -180 -42.666 -282 -69.999c-203.333 -54 -339.333 -96.333 -408 -127c-23.333 -10.667 -27.333 -21.334 -12 -32.001l126 -89c169.333 -122 254 -241.667 254 -359c0 -146.667 -52 -247.667 -156 -303
c-75.333 -40 -195.666 -60 -360.999 -60h-138v234h144c227.333 0 341 28.333 341 85c0 52.667 -60.667 126.667 -182 222c-134 105.333 -208.333 174.333 -223 207c1.33301 29.333 9 69 23 119c16 58.667 32.333 92.334 49 101.001
c172.667 90.667 457.667 194.334 855 311.001z" />
    <glyph glyph-name="uFEDC" unicode="&#x6a9;" horiz-adv-x="1065" arabic-form="medial" 
d="M1093 1l-112 0.000976562c-80.667 0 -162.334 26.667 -245.001 80c-72 47.333 -134.667 107.666 -188 180.999c-23.333 -174 -180 -261 -470 -261h-107v234h101c100.667 0 168.667 2.33301 204 7c96.667 12.667 145 42.334 145 89.001c0 43.333 -48 107 -144 191
c-105.333 92 -164.666 155 -177.999 189c2 35.333 8.66699 75.333 20 120c13.333 52.667 28 83 44 91c173.333 90.667 474 202.667 902 336l-28 -234c-102.667 -25.333 -194 -49 -274 -71c-204 -56.667 -360.333 -107.334 -469 -152.001c-24 -10 -27.333 -21.667 -10 -35
c110.667 -84 222.334 -182.333 335.001 -295c91.333 -91.333 153.666 -148.333 186.999 -171c63.333 -43.333 133 -65 209 -65h78v-234z" />
    <glyph glyph-name="uFB93" unicode="&#x6af;" horiz-adv-x="2013" arabic-form="final" 
d="M2024 1442l-13.999 -114l-363 -112c-257.333 -82 -432.333 -144.333 -525 -187l28 113c107.333 54 398.666 154 873.999 300zM2041 1l-124.003 -0.000976562c-79.333 0 -162.333 30 -249 90c-72 50 -136.667 112.667 -194 188c0 -132.667 -92.667 -226.334 -278 -281.001
c-117.333 -35.333 -262.666 -53 -435.999 -53c-396.667 0 -595 116 -595 348c0 70 25.667 156 77 258l151 -47c-29.333 -64 -44 -109.667 -44 -137c0 -56.667 21.667 -98.667 65 -126c64.667 -40.667 183.334 -61 356.001 -61h41c105.333 0 205.666 8.66699 300.999 26
c155.333 28 233 74.333 233 139c0 44.667 -44 106.334 -132 185.001c-98.667 88 -154.667 148.333 -168 181c2 36 8.33301 74 19 114c12.667 47.333 27.334 75.333 44.001 84c174.667 91.333 475.334 203 902.001 335l-27 -214c-114.667 -30 -205.667 -54.667 -273 -74
c-196.667 -56 -353.334 -107.667 -470.001 -155c-15.333 -6 -23 -12.333 -23 -19c0 -4.66699 4.33301 -10 13 -16c94.667 -67.333 206.334 -165.666 335.001 -294.999c91.333 -92 154.666 -150 189.999 -174c60.667 -41.333 129.334 -62 206.001 -62h80v-234z" />
    <glyph glyph-name="uFB94" unicode="&#x6af;" horiz-adv-x="987" arabic-form="initial" 
d="M996 1483l-14 -116c-142 -44 -254.667 -80 -338 -108c-240 -79.333 -407.667 -141 -503 -185l27 110c122.667 57.333 398.667 157 828 299zM982 1266l-29.998 -225.001l-351 -86c-136.667 -36 -249.667 -74.333 -339 -115c-24.667 -11.333 -28.667 -22.333 -12 -33
c253.333 -164 380 -311.667 380 -443c0 -142 -47 -241 -141 -297c-74 -44 -188.333 -66 -343 -66h-171v234h179c97.333 0 166.666 4 207.999 12c65.333 12.667 98 37 98 73c0 48.667 -60.667 121.334 -182 218.001c-134.667 107.333 -209 177.666 -223 210.999
c1.33301 29.333 8.66602 66.333 21.999 111c16 54.667 32.667 86.334 50 95.001c174 91.333 459 195 855 311z" />
    <glyph glyph-name="uFB95" unicode="&#x6af;" horiz-adv-x="1065" arabic-form="medial" 
d="M1078 1442l-13 -114.001l-363 -112c-261.333 -83.333 -436.666 -145.666 -525.999 -186.999l28 113c107.333 54 398.666 154 873.999 300zM1093 0.999023l-121.999 0.000976562c-77.333 0 -158.333 30.333 -243 91c-74.667 53.333 -135.667 116.333 -183 189
c0 -110 -46.333 -187 -139 -231c-68.667 -32.667 -171.667 -49 -309 -49h-126v234h129c102 0 164 1.66699 186 5c86.667 13.333 130 46.333 130 99c0 41.333 -47 103 -141 185c-103.333 90 -162 152.333 -176 187c2 34 8.66699 71.667 20 113c13.333 48 28 76.333 44 85
c172 90 472.667 201.667 902 335l-28 -214c-120 -31.333 -211.333 -56 -274 -74c-198 -56.667 -354.333 -108.334 -469 -155.001c-24.667 -10 -28 -21.667 -10 -35c83.333 -62 195 -160.333 335 -295c107.333 -103.333 168 -160 182 -170
c61.333 -44 132.666 -66 213.999 -66h78v-234z" />
    <glyph glyph-name="uFE94" unicode="&#x6c0;" horiz-adv-x="930" arabic-form="final" 
d="M959 0c-92.667 0 -145.331 0.665039 -157.998 1.99805c-62.667 6.66699 -109 26.334 -139 59.001c-24.667 26.667 -45.334 71.667 -62.001 135c-48.667 -47.333 -128.667 -71 -240 -71c-54.667 0 -99.667 12.667 -135 38c-40 28 -60 68.333 -60 121
c0 136 110.667 270 332 402l-19 88l149 154l110 -545c13.333 -65.333 32 -107.666 56 -126.999c17.333 -14 50.666 -21 99.999 -21h66v-235zM564.003 366.998l-34 154c-34 -10 -69.667 -28.333 -107 -55c-47.333 -34 -71 -66 -71 -96c0 -19.333 29.333 -29 88 -29
c64 0 105.333 8.66699 124 26zM642.003 1039l-413.001 -105v78l104 41c-34.667 34 -52 68.333 -52 103c0 41.333 16.5 78.5 49.5 111.5s70.167 49.5 111.5 49.5c53.333 0 95 -14.333 125 -43l-25 -64c-26 10.667 -60.333 16 -103 16c-17.333 0 -35.333 -4.66699 -54 -14
c-22 -10.667 -33 -24 -33 -40c0 -46.667 41 -70 123 -70c10.667 0 66.334 15.333 167.001 46v-109z" />
    <glyph glyph-name="uFEF2" unicode="&#x6cc;" horiz-adv-x="1281" arabic-form="final" 
d="M1310 1l-58.002 -0.000976562c-4 0 -75.333 4.66699 -214 14c-20 1.33301 -33.333 2 -40 2c-66.667 0 -100 -10 -100 -30c0 -12.667 13.333 -21 40 -25c63.333 -10 134.333 -20.667 213 -32c74 -20.667 111 -59.667 111 -117c0 -70.667 -49.667 -141 -149 -211
c-118 -82.667 -263 -124 -435 -124c-156.667 0 -279 34 -367 102c-97.333 74.667 -146 187.334 -146 338.001c0 105.333 31.333 212 94 320l156 -55c-13.333 -22 -27.166 -56.833 -41.499 -104.5s-21.5 -83.834 -21.5 -108.501c0 -170.667 112.667 -256 338 -256
c156.667 0 273.334 15.667 350.001 47c23.333 9.33301 35 18 35 26c0 7.33301 -10 12.333 -30 15c-16 2 -79 9.33301 -189 22c-97.333 23.333 -146 67.333 -146 132c0 92.667 61 165.334 183 218.001c94.667 40.667 195.667 61 303 61h114v-234z" />
    <glyph glyph-name="uFEF3" unicode="&#x6cc;" horiz-adv-x="534" arabic-form="initial" 
d="M388 328c0 -107.333 -33.333 -189.666 -100 -246.999c-62 -53.333 -147.667 -80 -257 -80h-60v234h160c70 0 105 17.333 105 52c0 21.333 -15.333 51.666 -46 90.999l-69 88l132 190c90 -90 135 -199.333 135 -328zM515 -247l-110 -149l-136 97l-80 -112l-172 117
l110 148l144 -98l79 112z" />
    <glyph glyph-name="uFEF4" unicode="&#x6cc;" horiz-adv-x="537" arabic-form="medial" 
d="M566 1h-76c-96 0 -159.333 35 -190 105c-50 -70 -129.667 -105 -239 -105h-90v234h82c102.667 0 154 35.667 154 107v80l167 55v-50c0 -128 41.333 -192 124 -192h68v-234zM515 -247l-110 -149l-136 97l-80 -112l-172 117l110 148l144 -98l79 112z" />
    <glyph glyph-name="Hcircumflex" unicode="&#x622;" horiz-adv-x="715" arabic-form="final" 
d="M745 1h-67c-139.333 0 -233.333 45.667 -282 137c-31.333 58.667 -49.333 161.667 -54 309l-23 704l204 82v-814c0 -122.667 49.333 -184 148 -184h74v-234zM768 1461c-24 -43.333 -58.3291 -78.667 -102.996 -106s-91.334 -41 -140.001 -41
c-26.667 0 -65.834 4.66699 -117.501 14s-90.834 14 -117.501 14c-54.667 0 -100.334 -18.333 -137.001 -55l-71 97c52.667 66.667 114.667 100 186 100c26 0 64.333 -4.16699 115 -12.5s89 -12.5 115 -12.5c95.333 0 169 32.333 221 97z" />
    <glyph glyph-name="uFE84" unicode="&#x623;" horiz-adv-x="632" arabic-form="final" 
d="M661 1h-67c-139.333 0 -233.333 45.667 -282 137c-31.333 58.667 -49.333 161.667 -54 309l-23 704l204 82v-814c0 -122.667 49.333 -184 148 -184h74v-234zM558 1361l-413.002 -105v78l104 41c-34.667 34 -52 68.333 -52 103c0 41.333 16.5 78.5 49.5 111.5
s70.167 49.5 111.5 49.5c52.667 0 94.334 -14.333 125.001 -43l-26 -64c-25.333 10.667 -59.333 16 -102 16c-17.333 0 -35.333 -4.66699 -54 -14c-22 -10.667 -33 -24 -33 -40c0 -46.667 41 -70 123 -70c10.667 0 66.334 15.333 167.001 46v-109z" />
    <glyph glyph-name="uFE86" unicode="&#x624;" horiz-adv-x="801" arabic-form="final" 
d="M830 1l-106.001 0.000976562c-24.667 -107.333 -87 -209 -187 -305c-90 -86.667 -191.667 -152 -305 -196l-147 139c95.333 35.333 191 87.666 287 156.999c104.667 75.333 168.334 142.333 191.001 201c-108.667 0 -187 11.667 -235 35c-70 34 -105 99 -105 195
c0 62.667 18 128.667 54 198c44.667 86.667 101.667 130 171 130c82 0 148.667 -36.333 200 -109c41.333 -58.667 67.333 -129 78 -211h104v-234zM566.999 234.001c-3.33301 30.667 -16 58.999 -38 84.999c-24 28.667 -50.667 43 -80 43
c-19.333 0 -37.833 -8.66699 -55.5 -26s-26.5 -35.666 -26.5 -54.999c0 -40 33 -60 99 -60c31.333 0 65 4.33301 101 13zM644.999 782l-413.001 -105v78l104 41c-34.667 34 -52 68.333 -52 103c0 41.333 16.5 78.5 49.5 111.5s70.167 49.5 111.5 49.5
c52.667 0 94 -14.333 124 -43l-25 -64c-25.333 10.667 -59.333 16 -102 16c-17.333 0 -35.333 -4.66699 -54 -14c-22 -10.667 -33 -24 -33 -40c0 -47.333 41 -71 123 -71c10.667 0 66.334 15.667 167.001 47v-109z" />
    <glyph glyph-name="uFE88" unicode="&#x625;" horiz-adv-x="623" arabic-form="final" 
d="M653 1h-67c-139.333 0 -233.333 45.667 -282 137c-31.333 58.667 -49.333 161.667 -54 309l-22 704l203 82v-814c0 -122.667 49.333 -184 148 -184h74v-234zM606 -386l-413 -105.001v78l104 41c-34.667 34 -52 68.333 -52 103c0 41.333 16.5 78.5 49.5 111.5
s70.167 49.5 111.5 49.5c53.333 0 95 -14.333 125 -43l-25 -64c-26 10.667 -60.333 16 -103 16c-17.333 0 -35.333 -4.66699 -54 -14c-21.333 -11.333 -32 -24.666 -32 -39.999c0 -46.667 40.667 -70 122 -70c11.333 0 67 15.333 167 46v-109z" />
    <glyph glyph-name="uFE8A" unicode="&#x626;" horiz-adv-x="1281" arabic-form="final" 
d="M1310 1l-58.002 -0.000976562c-4 0 -75.333 4.66699 -214 14c-20 1.33301 -33.333 2 -40 2c-66.667 0 -100 -10 -100 -30c0 -12.667 13.333 -21 40 -25c63.333 -10 134.333 -20.667 213 -32c74 -20.667 111 -59.667 111 -117c0 -70.667 -49.667 -141 -149 -211
c-118 -82.667 -263 -124 -435 -124c-156.667 0 -279 34 -367 102c-97.333 74.667 -146 187.334 -146 338.001c0 105.333 31.333 212 94 320l156 -55c-13.333 -22 -27.166 -56.833 -41.499 -104.5s-21.5 -83.834 -21.5 -108.501c0 -170.667 112.667 -256 338 -256
c156.667 0 273.334 15.667 350.001 47c23.333 9.33301 35 18 35 26c0 7.33301 -10 12.333 -30 15c-16 2 -79 9.33301 -189 22c-97.333 23.333 -146 67.333 -146 132c0 92.667 61 165.334 183 218.001c94.667 40.667 195.667 61 303 61h114v-234zM586.998 472.999
l-413.002 -105v78l104 41c-34.667 34 -52 68.333 -52 103c0 41.333 16.5 78.5 49.5 111.5s70.167 49.5 111.5 49.5c52.667 0 94.334 -14.333 125.001 -43l-26 -64c-25.333 10.667 -59.333 16 -102 16c-17.333 0 -35.333 -4.66699 -54 -14c-22 -10.667 -33 -24 -33 -40
c0 -46.667 41 -70 123 -70c10.667 0 66.334 15.333 167.001 46v-109z" />
    <glyph glyph-name="uFE8B" unicode="&#x626;" horiz-adv-x="440" arabic-form="initial" 
d="M388 328c0 -107.333 -33.333 -189.666 -100 -246.999c-62 -53.333 -147.667 -80 -257 -80h-60v234h160c70 0 105 17.333 105 52c0 21.333 -15.333 51.666 -46 90.999l-69 88l132 190c90 -90 135 -199.333 135 -328zM442 859l-413.001 -105v78l104 41
c-34.667 34 -52 68.333 -52 103c0 41.333 16.5 78.5 49.5 111.5s70.167 49.5 111.5 49.5c53.333 0 95 -14.333 125 -43l-25 -64c-26 10.667 -60.333 16 -103 16c-17.333 0 -35.333 -4.66699 -54 -14c-22 -10.667 -33 -24 -33 -40c0 -46.667 41 -70 123 -70
c10.667 0 66.334 15.333 167.001 46v-109z" />
    <glyph glyph-name="uFE8C" unicode="&#x626;" horiz-adv-x="512" arabic-form="medial" 
d="M566 1h-76c-96 0 -159.333 35 -190 105c-50 -70 -129.667 -105 -239 -105h-90v234h82c102.667 0 154 35.667 154 107v80l167 55v-50c0 -128 41.333 -192 124 -192h68v-234zM471 724l-413.002 -105v78l104 41c-34.667 34 -52 68.333 -52 103
c0 41.333 16.5 78.5 49.5 111.5s70.167 49.5 111.5 49.5c52.667 0 94.334 -14.333 125.001 -43l-25 -64c-26 10.667 -60.333 16 -103 16c-17.333 0 -35.333 -4.66699 -54 -14c-22 -10.667 -33 -24 -33 -40c0 -46.667 41 -70 123 -70c10.667 0 66.334 15.333 167.001 46v-109
z" />
    <glyph glyph-name="uFE8E" unicode="&#x627;" horiz-adv-x="561" arabic-form="final" 
d="M591 1h-68c-139.333 0 -233.333 45.667 -282 137c-31.333 58.667 -49.333 161.667 -54 309l-22 704l204 82v-814c0 -122.667 49 -184 147 -184h75v-234z" />
    <glyph glyph-name="uFE90" unicode="&#x628;" horiz-adv-x="1733" arabic-form="final" 
d="M1762 1h-68c-101.333 0 -171 39.333 -209 118c-51.333 -68 -165.333 -117 -342 -147c-117.333 -20 -245.333 -30 -384 -30c-396 0 -594 116.333 -594 349c0 69.333 25.667 155 77 257l151 -47c-29.333 -64 -44 -109.667 -44 -137c0 -56.667 21.667 -98.667 65 -126
c64 -40 182.667 -60 356 -60h88c142 0 247 5 315 15c158.667 23.333 238 73 238 149v52l167 55v-48c0 -62 9.66699 -104.333 29 -127c21.333 -26 62.333 -39 123 -39h32v-234zM980 -331l-133 -176l-180 121l132 177z" />
    <glyph glyph-name="uFE91" unicode="&#x628;" horiz-adv-x="407" arabic-form="initial" 
d="M388 328c0 -107.333 -33.333 -189.666 -100 -246.999c-62 -53.333 -147.667 -80 -257 -80h-60v234h160c70 0 105 17.333 105 52c0 21.333 -15.333 51.666 -46 90.999l-69 88l132 190c90 -90 135 -199.333 135 -328zM410 -292l-132 -176l-181 121l133 176z" />
    <glyph glyph-name="uFE92" unicode="&#x628;" horiz-adv-x="509" arabic-form="medial" 
d="M566 1h-76c-96 0 -159.333 35 -190 105c-50 -70 -129.667 -105 -239 -105h-90v234h82c102.667 0 154 35.667 154 107v80l167 55v-50c0 -128 41.333 -192 124 -192h68v-234zM410 -292l-132 -176l-181 121l133 176z" />
    <glyph glyph-name="uFE96" unicode="&#x62a;" horiz-adv-x="1733" arabic-form="final" 
d="M1762 1h-68c-101.333 0 -171 39.333 -209 118c-51.333 -68 -165.333 -117 -342 -147c-117.333 -20 -245.333 -30 -384 -30c-396 0 -594 116.333 -594 349c0 69.333 25.667 155 77 257l151 -47c-29.333 -64 -44 -109.667 -44 -137c0 -56.667 21.667 -98.667 65 -126
c64 -40 182.667 -60 356 -60h88c142 0 247 5 315 15c158.667 23.333 238 73 238 149v52l167 55v-48c0 -62 9.66699 -104.333 29 -127c21.333 -26 62.333 -39 123 -39h32v-234zM1094 842l-110 -149l-136 96l-80 -111l-172 116l110 149l144 -99l79 112z" />
    <glyph glyph-name="uFE97" unicode="&#x62a;" horiz-adv-x="504" arabic-form="initial" 
d="M388 328c0 -107.333 -33.333 -189.666 -100 -246.999c-62 -53.333 -147.667 -80 -257 -80h-60v234h160c70 0 105 17.333 105 52c0 21.333 -15.333 51.666 -46 90.999l-69 88l132 190c90 -90 135 -199.333 135 -328zM510 986l-110 -148l-137 96l-80 -112l-171 117l110 149
l143 -99l80 112z" />
    <glyph glyph-name="uFE98" unicode="&#x62a;" horiz-adv-x="537" arabic-form="medial" 
d="M566 1h-76c-96 0 -159.333 35 -190 105c-50 -70 -129.667 -105 -239 -105h-90v234h82c102.667 0 154 35.667 154 107v80l167 55v-50c0 -128 41.333 -192 124 -192h68v-234zM525 842l-110 -149l-136 96l-80 -111l-172 116l110 149l144 -99l79 112z" />
    <glyph glyph-name="uFE9A" unicode="&#x62b;" horiz-adv-x="1733" arabic-form="final" 
d="M1762 1h-68c-101.333 0 -171 39.333 -209 118c-51.333 -68 -165.333 -117 -342 -147c-117.333 -20 -245.333 -30 -384 -30c-396 0 -594 116.333 -594 349c0 69.333 25.667 155 77 257l151 -47c-29.333 -64 -44 -109.667 -44 -137c0 -56.667 21.667 -98.667 65 -126
c64 -40 182.667 -60 356 -60h88c142 0 247 5 315 15c158.667 23.333 238 73 238 149v52l167 55v-48c0 -62 9.66699 -104.333 29 -127c21.333 -26 62.333 -39 123 -39h32v-234zM653 661l102 140l133 -89l77 104l156 -104l-106 -139l-133 88l-72 -104zM730 888l103 136
l144 -97l-101 -137z" />
    <glyph glyph-name="uFE9B" unicode="&#x62b;" horiz-adv-x="493" arabic-form="initial" 
d="M388 328c0 -107.333 -33.333 -189.666 -100 -246.999c-62 -53.333 -147.667 -80 -257 -80h-60v234h160c70 0 105 17.333 105 52c0 21.333 -15.333 51.666 -46 90.999l-69 88l132 190c90 -90 135 -199.333 135 -328zM28 854l101 140l134 -89l77 105l156 -105l-106 -139
l-133 88l-73 -104zM104 1081l104 136l143 -97l-100 -137z" />
    <glyph glyph-name="uFE9C" unicode="&#x62b;" horiz-adv-x="537" arabic-form="medial" 
d="M566 1h-76c-96 0 -159.333 35 -190 105c-50 -70 -129.667 -105 -239 -105h-90v234h82c102.667 0 154 35.667 154 107v80l167 55v-50c0 -128 41.333 -192 124 -192h68v-234zM28 719l101 140l134 -89l77 104l156 -104l-106 -139l-133 88l-73 -104zM104 946l104 136l143 -98
l-100 -136z" />
    <glyph glyph-name="uFE9E" unicode="&#x62c;" horiz-adv-x="1318" arabic-form="final" 
d="M926 -155l-133 -176l-180 121l132 176zM1347 1l-241.003 -0.000976562c-156.667 0 -233.667 107.333 -231 322c-132 -42 -245.667 -107.333 -341 -196c-102.667 -95.333 -154 -191.666 -154 -288.999c0 -229.333 171.333 -344 514 -344c125.333 0 233.333 15 324 45
l64 -201c-135.333 -51.333 -275.666 -77 -420.999 -77c-464 0 -696 183.333 -696 550c0 124.667 54.333 243.667 163 357c86 90 194 165.333 324 226c-118 14.667 -191.333 22 -220 22c-31.333 0 -63.333 -26.333 -96 -79c-66 27.333 -117.333 52 -154 74
c63.333 157.333 137.333 236 222 236c66 0 164.833 -7.5 296.5 -22.5s230.5 -22.5 296.5 -22.5c72.667 0 138.334 3.33301 197.001 10l-28 -240c-54 0 -110.667 -5.33301 -170 -16c4.66699 -34 12.334 -58.667 23.001 -74c22 -31.333 62 -47 120 -47h208v-234z" />
    <glyph glyph-name="uFE9F" unicode="&#x62c;" horiz-adv-x="1081" arabic-form="initial" 
d="M1078 516l-27.001 -210c-86.667 0 -175.667 -26.333 -267 -79l-259 -147c-99.333 -52.667 -218.333 -79 -357 -79h-197v234h194c100 0 195.333 15.333 286 46c12 4 85.667 30.667 221 80c-24 2.66699 -82 17.667 -174 45c-85.333 25.333 -137.666 38 -156.999 38
c-25.333 0 -46.666 -9 -63.999 -27l-37 -47c-60.667 24 -111.334 47.667 -152.001 71c60.667 146 134 219 220 219c68.667 0 180.167 -24.667 334.5 -74s271.833 -74 352.5 -74c28 0 55.667 1.33301 83 4zM818.999 -242l-132 -176l-180 121l132 176z" />
    <glyph glyph-name="uFEA0" unicode="&#x62c;" horiz-adv-x="1208" arabic-form="medial" 
d="M1237 1h-227.005c-156.667 0 -236.667 97.333 -240 292c-39.333 -22 -99.666 -64.333 -180.999 -127c-70 -54 -129.333 -92.333 -178 -115c-72 -33.333 -151 -50 -237 -50h-203v234h172c102 0 193.333 21 274 63l205 110c-26 2.66699 -78.333 11 -157 25
c-71.333 12.667 -112.666 19 -123.999 19c-28.667 0 -60.667 -27.333 -96 -82c-63.333 26 -113.666 49.667 -150.999 71c64 159.333 137.333 239 220 239c76 0 188.833 -17.667 338.5 -53s262.834 -53 339.501 -53c39.333 0 76.333 2 111 6l-27 -227
c-65.333 0 -127.333 -9 -186 -27c6.66699 -28 16.334 -47.667 29.001 -59c24 -21.333 65.333 -32 124 -32h194v-234zM818.995 -242l-132 -176l-180 121l132 176z" />
    <glyph glyph-name="uFEA2" unicode="&#x62d;" horiz-adv-x="1318" arabic-form="final" 
d="M1347 1l-241.003 -0.000976562c-156.667 0 -233.667 107.333 -231 322c-132 -42 -245.667 -107.333 -341 -196c-102.667 -95.333 -154 -191.666 -154 -288.999c0 -229.333 171.333 -344 514 -344c125.333 0 233.333 15 324 45l64 -201
c-135.333 -51.333 -275.666 -77 -420.999 -77c-464 0 -696 183.333 -696 550c0 124.667 54.333 243.667 163 357c86 90 194 165.333 324 226c-118 14.667 -191.333 22 -220 22c-31.333 0 -63.333 -26.333 -96 -79c-66 27.333 -117.333 52 -154 74
c63.333 157.333 137.333 236 222 236c66 0 164.833 -7.5 296.5 -22.5s230.5 -22.5 296.5 -22.5c72.667 0 138.334 3.33301 197.001 10l-28 -240c-54 0 -110.667 -5.33301 -170 -16c4.66699 -34 12.334 -58.667 23.001 -74c22 -31.333 62 -47 120 -47h208v-234z" />
    <glyph glyph-name="uFEA3" unicode="&#x62d;" horiz-adv-x="1081" arabic-form="initial" 
d="M1078 516l-27.001 -210c-86.667 0 -175.667 -26.333 -267 -79l-259 -147c-99.333 -52.667 -218.333 -79 -357 -79h-197v234h194c100 0 195.333 15.333 286 46c12 4 85.667 30.667 221 80c-24 2.66699 -82 17.667 -174 45c-85.333 25.333 -137.666 38 -156.999 38
c-25.333 0 -46.666 -9 -63.999 -27l-37 -47c-60.667 24 -111.334 47.667 -152.001 71c60.667 146 134 219 220 219c68.667 0 180.167 -24.667 334.5 -74s271.833 -74 352.5 -74c28 0 55.667 1.33301 83 4z" />
    <glyph glyph-name="uFEA4" unicode="&#x62d;" horiz-adv-x="1208" arabic-form="medial" 
d="M1237 1h-227.005c-156.667 0 -236.667 97.333 -240 292c-39.333 -22 -99.666 -64.333 -180.999 -127c-70 -54 -129.333 -92.333 -178 -115c-72 -33.333 -151 -50 -237 -50h-203v234h172c102 0 193.333 21 274 63l205 110c-26 2.66699 -78.333 11 -157 25
c-71.333 12.667 -112.666 19 -123.999 19c-28.667 0 -60.667 -27.333 -96 -82c-63.333 26 -113.666 49.667 -150.999 71c64 159.333 137.333 239 220 239c76 0 188.833 -17.667 338.5 -53s262.834 -53 339.501 -53c39.333 0 76.333 2 111 6l-27 -227
c-65.333 0 -127.333 -9 -186 -27c6.66699 -28 16.334 -47.667 29.001 -59c24 -21.333 65.333 -32 124 -32h194v-234z" />
    <glyph glyph-name="uFEA6" unicode="&#x62e;" horiz-adv-x="1318" arabic-form="final" 
d="M1347 1l-241.003 -0.000976562c-156.667 0 -233.667 107.333 -231 322c-132 -42 -245.667 -107.333 -341 -196c-102.667 -95.333 -154 -191.666 -154 -288.999c0 -229.333 171.333 -344 514 -344c125.333 0 233.333 15 324 45l64 -201
c-135.333 -51.333 -275.666 -77 -420.999 -77c-464 0 -696 183.333 -696 550c0 124.667 54.333 243.667 163 357c86 90 194 165.333 324 226c-118 14.667 -191.333 22 -220 22c-31.333 0 -63.333 -26.333 -96 -79c-66 27.333 -117.333 52 -154 74
c63.333 157.333 137.333 236 222 236c66 0 164.833 -7.5 296.5 -22.5s230.5 -22.5 296.5 -22.5c72.667 0 138.334 3.33301 197.001 10l-28 -240c-54 0 -110.667 -5.33301 -170 -16c4.66699 -34 12.334 -58.667 23.001 -74c22 -31.333 62 -47 120 -47h208v-234z
M865.997 996.999l-133 -176l-180 121l132 177z" />
    <glyph glyph-name="uFEA7" unicode="&#x62e;" horiz-adv-x="1084" arabic-form="initial" 
d="M1078 516l-27.001 -210c-86.667 0 -175.667 -26.333 -267 -79l-259 -147c-99.333 -52.667 -218.333 -79 -357 -79h-197v234h194c100 0 195.333 15.333 286 46c12 4 85.667 30.667 221 80c-24 2.66699 -82 17.667 -174 45c-85.333 25.333 -137.666 38 -156.999 38
c-25.333 0 -46.666 -9 -63.999 -27l-37 -47c-60.667 24 -111.334 47.667 -152.001 71c60.667 146 134 219 220 219c68.667 0 180.167 -24.667 334.5 -74s271.833 -74 352.5 -74c28 0 55.667 1.33301 83 4zM865.999 997l-133 -176l-180 121l132 177z" />
    <glyph glyph-name="uFEA8" unicode="&#x62e;" horiz-adv-x="1208" arabic-form="medial" 
d="M1237 1h-227.005c-156.667 0 -236.667 97.333 -240 292c-39.333 -22 -99.666 -64.333 -180.999 -127c-70 -54 -129.333 -92.333 -178 -115c-72 -33.333 -151 -50 -237 -50h-203v234h172c102 0 193.333 21 274 63l205 110c-26 2.66699 -78.333 11 -157 25
c-71.333 12.667 -112.666 19 -123.999 19c-28.667 0 -60.667 -27.333 -96 -82c-63.333 26 -113.666 49.667 -150.999 71c64 159.333 137.333 239 220 239c76 0 188.833 -17.667 338.5 -53s262.834 -53 339.501 -53c39.333 0 76.333 2 111 6l-27 -227
c-65.333 0 -127.333 -9 -186 -27c6.66699 -28 16.334 -47.667 29.001 -59c24 -21.333 65.333 -32 124 -32h194v-234zM865.995 997l-133 -176l-180 121l132 177z" />
    <glyph glyph-name="uFEAA" unicode="&#x62f;" horiz-adv-x="1108" arabic-form="final" 
d="M1136 1h-69c-134.667 0 -229.667 54.333 -285 163c-54.667 -127.333 -164.334 -191 -329.001 -191c-131.333 0 -227.666 36.333 -288.999 109l71 188c55.333 -42 135.333 -63 240 -63c158 0 237 35.333 237 106c0 12 -2.33301 24.667 -7 38l-137 390l163 148l135 -434
c22 -71.333 43 -121.333 63 -150c32.667 -46.667 77.667 -70 135 -70h72v-234z" />
    <glyph glyph-name="uFEAC" unicode="&#x630;" horiz-adv-x="1106" arabic-form="final" 
d="M1136 1h-69c-134.667 0 -229.667 54.333 -285 163c-54.667 -127.333 -164.334 -191 -329.001 -191c-131.333 0 -227.666 36.333 -288.999 109l71 188c55.333 -42 135.333 -63 240 -63c158 0 237 35.333 237 106c0 12 -2.33301 24.667 -7 38l-137 390l163 148l135 -434
c22 -71.333 43 -121.333 63 -150c32.667 -46.667 77.667 -70 135 -70h72v-234zM761 1107l-132 -176l-180 121l132 177z" />
    <glyph glyph-name="uFEAE" unicode="&#x631;" horiz-adv-x="925" arabic-form="final" 
d="M954 1l-64.999 0.000976562c-52.667 0 -91 13 -115 39c-10 -118 -70 -228.667 -180 -332c-91.333 -86 -201.333 -154 -330 -204l-170 117c100 42.667 202.667 101.667 308 177c142 101.333 213 187.333 213 258c0 39.333 -36 108 -108 206l159 171
c48 -78.667 85.333 -130.334 112 -155.001c31.333 -28.667 71.666 -43 120.999 -43h55v-234z" />
    <glyph glyph-name="uFEB0" unicode="&#x632;" horiz-adv-x="927" arabic-form="final" 
d="M954 1l-64.999 0.000976562c-52.667 0 -91 13 -115 39c-10 -118 -70 -228.667 -180 -332c-91.333 -86 -201.333 -154 -330 -204l-170 117c100 42.667 202.667 101.667 308 177c142 101.333 213 187.333 213 258c0 39.333 -36 108 -108 206l159 171
c48 -78.667 85.333 -130.334 112 -155.001c31.333 -28.667 71.666 -43 120.999 -43h55v-234zM669.001 794.001l-132 -175l-181 120l132 177z" />
    <glyph glyph-name="uFEB2" unicode="&#x633;" horiz-adv-x="2066" arabic-form="final" 
d="M2095 1l-68.0039 0.000976562c-53.333 0 -95.666 10 -126.999 30c-23.333 14.667 -46 39.667 -68 75c-42.667 -70 -104 -105 -184 -105c-75.333 0 -131.333 35 -168 105c-52.667 -70 -116 -105 -190 -105c-61.333 0 -101.666 13.667 -120.999 41
c0 -162 -49.333 -296 -148 -402c-101.333 -108 -232.666 -162 -393.999 -162s-282 50.667 -362 152c-64.667 81.333 -97 185.666 -97 312.999c0 102 27.667 208.333 83 319l156 -55c-36.667 -94.667 -55 -168 -55 -220c0 -90 27 -159 81 -207
c52 -45.333 123.333 -68 214 -68c96.667 0 176.667 26.667 240 80c67.333 57.333 101 133.333 101 228c0 91.333 -33 181.333 -99 270l176 165c24.667 -50 56.334 -96.333 95.001 -139c49.333 -54 92.666 -81 129.999 -81c71.333 0 107 34 107 102v74l143 49v-66
c0 -106 37.667 -159 113 -159c84.667 0 127 34 127 102v74l145 49v-66c0 -64.667 3 -103.667 9 -117c12.667 -28 46.334 -42 101.001 -42h60v-234z" />
    <glyph glyph-name="uFEB3" unicode="&#x633;" horiz-adv-x="1122" arabic-form="initial" 
d="M1120 331c0 -81.333 -21.3311 -154.665 -63.998 -219.998c-49.333 -75.333 -112.333 -113 -189 -113c-106 0 -183 36 -231 108c-40.667 -70 -99.334 -105 -176.001 -105c-96 0 -164 35 -204 105c-20 -32.667 -52.667 -58.667 -98 -78c-41.333 -18 -83 -27 -125 -27h-62
v234h82c37.333 0 68.166 11 92.499 33s36.5 51.333 36.5 88v60l143 47v-63c0 -40.667 7.66699 -76.334 23 -107.001c19.333 -38.667 47.333 -58 84 -58c95.333 0 143 43 143 129v80l146 44v-102c0 -44 12.667 -80.667 38 -110c26.667 -31.333 61.667 -47 105 -47
c58.667 0 88 27.667 88 83c0 51.333 -23 98 -69 140l143 160c62.667 -68.667 94 -162.334 94 -281.001z" />
    <glyph glyph-name="uFEB4" unicode="&#x633;" horiz-adv-x="1213" arabic-form="medial" 
d="M1242 1h-62.001c-86 0 -151 35 -195 105c-43.333 -70 -104.666 -105 -183.999 -105c-76 0 -132 35 -168 105c-54 -70 -119 -105 -195 -105c-80.667 0 -137.667 35 -171 105c-44 -70 -108 -105 -192 -105h-104v234h109c56.667 0 85 34 85 102v74l146 49v-66
c0 -106 44 -159 132 -159c71.333 0 107 34 107 102v74l143 49v-66c0 -106 37.667 -159 113 -159c84.667 0 127 34 127 102v74l145 49v-66c0 -64 3 -103 9 -117c12 -28 45.667 -42 101 -42h54v-234z" />
    <glyph glyph-name="uFEB6" unicode="&#x634;" horiz-adv-x="2068" arabic-form="final" 
d="M2095 1l-68.0039 0.000976562c-53.333 0 -95.666 10 -126.999 30c-23.333 14.667 -46 39.667 -68 75c-42.667 -70 -104 -105 -184 -105c-75.333 0 -131.333 35 -168 105c-52.667 -70 -116 -105 -190 -105c-61.333 0 -101.666 13.667 -120.999 41
c0 -162 -49.333 -296 -148 -402c-101.333 -108 -232.666 -162 -393.999 -162s-282 50.667 -362 152c-64.667 81.333 -97 185.666 -97 312.999c0 102 27.667 208.333 83 319l156 -55c-36.667 -94.667 -55 -168 -55 -220c0 -90 27 -159 81 -207
c52 -45.333 123.333 -68 214 -68c96.667 0 176.667 26.667 240 80c67.333 57.333 101 133.333 101 228c0 91.333 -33 181.333 -99 270l176 165c24.667 -50 56.334 -96.333 95.001 -139c49.333 -54 92.666 -81 129.999 -81c71.333 0 107 34 107 102v74l143 49v-66
c0 -106 37.667 -159 113 -159c84.667 0 127 34 127 102v74l145 49v-66c0 -64.667 3 -103.667 9 -117c12.667 -28 46.334 -42 101.001 -42h60v-234zM1227 731.001l101 140l133 -89l77 104l157 -104l-106 -139l-134 88l-72 -105zM1303 957.001l103 136l144 -97l-100 -136z" />
    <glyph glyph-name="uFEB7" unicode="&#x634;" horiz-adv-x="1122" arabic-form="initial" 
d="M1120 331c0 -81.333 -21.3311 -154.665 -63.998 -219.998c-49.333 -75.333 -112.333 -113 -189 -113c-106 0 -183 36 -231 108c-40.667 -70 -99.334 -105 -176.001 -105c-96 0 -164 35 -204 105c-20 -32.667 -52.667 -58.667 -98 -78c-41.333 -18 -83 -27 -125 -27h-62
v234h82c37.333 0 68.166 11 92.499 33s36.5 51.333 36.5 88v60l143 47v-63c0 -40.667 7.66699 -76.334 23 -107.001c19.333 -38.667 47.333 -58 84 -58c95.333 0 143 43 143 129v80l146 44v-102c0 -44 12.667 -80.667 38 -110c26.667 -31.333 61.667 -47 105 -47
c58.667 0 88 27.667 88 83c0 51.333 -23 98 -69 140l143 160c62.667 -68.667 94 -162.334 94 -281.001zM387.002 775.001l101 140l134 -89l77 104l156 -104l-106 -139l-133 88l-73 -104zM463.002 1002l104 136l143 -98l-100 -136z" />
    <glyph glyph-name="uFEB8" unicode="&#x634;" horiz-adv-x="1213" arabic-form="medial" 
d="M1242 1h-62.001c-86 0 -151 35 -195 105c-43.333 -70 -104.666 -105 -183.999 -105c-76 0 -132 35 -168 105c-54 -70 -119 -105 -195 -105c-80.667 0 -137.667 35 -171 105c-44 -70 -108 -105 -192 -105h-104v234h109c56.667 0 85 34 85 102v74l146 49v-66
c0 -106 44 -159 132 -159c71.333 0 107 34 107 102v74l143 49v-66c0 -106 37.667 -159 113 -159c84.667 0 127 34 127 102v74l145 49v-66c0 -64 3 -103 9 -117c12 -28 45.667 -42 101 -42h54v-234zM357.999 736l101 140l134 -88l77 104l156 -104l-106 -139l-133 87l-73 -104
zM433.999 963l104 136l143 -97l-100 -136z" />
    <glyph glyph-name="uFEBA" unicode="&#x635;" horiz-adv-x="2178" arabic-form="final" 
d="M2207 1h-57.001c-101.333 0 -180 36.667 -236 110c-86.667 -73.333 -213 -110 -379 -110h-143c-124 0 -198.333 13.667 -223 41c0 -162 -49.333 -296 -148 -402c-101.333 -108 -232.666 -162 -393.999 -162s-282 50.667 -362 152c-64.667 81.333 -97 185.666 -97 312.999
c0 102 27.667 208.333 83 319l156 -55c-36.667 -94.667 -55 -168 -55 -220c0 -90 27 -159 81 -207c52 -45.333 123.333 -68 214 -68c96.667 0 176.667 26.667 240 80c67.333 57.333 101 133.333 101 228c0 91.333 -33 181.333 -99 270l176 165
c59.333 -143.333 115 -215 167 -215c23.333 0 41 5.66699 53 17c226.667 286 409 429 547 429c76.667 0 139 -22 187 -66c49.333 -46 74 -106.667 74 -182c0 -69.333 -15.667 -130.666 -47 -183.999c6.66699 -12.667 45.334 -19 116 -19h45v-234zM1928 372
c0 57.333 -47.666 86 -142.999 86c-60.667 0 -128.334 -30.667 -203.001 -92c-14.667 -12 -59.667 -55.667 -135 -131h99c71.333 0 144.333 8.66699 219 26c108.667 25.333 163 62.333 163 111z" />
    <glyph glyph-name="uFEBB" unicode="&#x635;" horiz-adv-x="1287" arabic-form="initial" 
d="M1285 438c0 -140.667 -65.001 -251.667 -195.001 -333c-111.333 -69.333 -241.666 -104 -390.999 -104h-204c-112 0 -189 30.333 -231 91c-40.667 -60.667 -104.667 -91 -192 -91h-101v234h76c86 0 129 39.333 129 118v69l157 44v-83c0 -48.667 3.66699 -82 11 -100
c12 -30 37.667 -45 77 -45c26.667 0 58 22 94 66c208 254.667 377.333 382 508 382c76 0 138.667 -22.667 188 -68s74 -105.333 74 -180zM1120 378c0 56.667 -47.667 85 -143 85c-61.333 0 -129 -30.333 -203 -91c-14.667 -12 -60 -56 -136 -132h99
c72.667 0 145.667 8.66699 219 26c109.333 26 164 63.333 164 112z" />
    <glyph glyph-name="uFEBC" unicode="&#x635;" horiz-adv-x="1367" arabic-form="medial" 
d="M1396 1h-59.001c-100.667 0 -178.667 36.667 -234 110c-88 -73.333 -214.333 -110 -379 -110h-231c-113.333 0 -189.666 30.333 -228.999 91c-40.667 -60.667 -104.667 -91 -192 -91h-101v234h76c86 0 129 39.333 129 118v69l157 44v-83c0 -48.667 3.66699 -82 11 -100
c12 -30 37.667 -45 77 -45c25.333 0 55.666 22 90.999 66c205.333 254.667 375 382 509 382c76.667 0 139 -22 187 -66c49.333 -46 74 -106.667 74 -182c0 -68.667 -15.667 -130 -47 -184c6.66699 -12.667 45.334 -19 116.001 -19h45v-234zM1117 378
c0 56.667 -47.667 85 -143 85c-61.333 0 -129 -30.333 -203 -91c-18.667 -15.333 -63.667 -59.333 -135 -132h99c72.667 0 145.667 8.66699 219 26c108.667 26 163 63.333 163 112z" />
    <glyph glyph-name="uFEBE" unicode="&#x636;" horiz-adv-x="2178" arabic-form="final" 
d="M2207 1h-57.001c-101.333 0 -180 36.667 -236 110c-86.667 -73.333 -213 -110 -379 -110h-143c-124 0 -198.333 13.667 -223 41c0 -162 -49.333 -296 -148 -402c-101.333 -108 -232.666 -162 -393.999 -162s-282 50.667 -362 152c-64.667 81.333 -97 185.666 -97 312.999
c0 102 27.667 208.333 83 319l156 -55c-36.667 -94.667 -55 -168 -55 -220c0 -90 27 -159 81 -207c52 -45.333 123.333 -68 214 -68c96.667 0 176.667 26.667 240 80c67.333 57.333 101 133.333 101 228c0 91.333 -33 181.333 -99 270l176 165
c59.333 -143.333 115 -215 167 -215c23.333 0 41 5.66699 53 17c226.667 286 409 429 547 429c76.667 0 139 -22 187 -66c49.333 -46 74 -106.667 74 -182c0 -69.333 -15.667 -130.666 -47 -183.999c6.66699 -12.667 45.334 -19 116 -19h45v-234zM1928 372
c0 57.333 -47.666 86 -142.999 86c-60.667 0 -128.334 -30.667 -203.001 -92c-14.667 -12 -59.667 -55.667 -135 -131h99c71.333 0 144.333 8.66699 219 26c108.667 25.333 163 62.333 163 111zM1788 995l-132 -176l-180 121l132 177z" />
    <glyph glyph-name="uFEBF" unicode="&#x636;" horiz-adv-x="1285" arabic-form="initial" 
d="M1285 438c0 -140.667 -65.001 -251.667 -195.001 -333c-111.333 -69.333 -241.666 -104 -390.999 -104h-204c-112 0 -189 30.333 -231 91c-40.667 -60.667 -104.667 -91 -192 -91h-101v234h76c86 0 129 39.333 129 118v69l157 44v-83c0 -48.667 3.66699 -82 11 -100
c12 -30 37.667 -45 77 -45c26.667 0 58 22 94 66c208 254.667 377.333 382 508 382c76 0 138.667 -22.667 188 -68s74 -105.333 74 -180zM1120 378c0 56.667 -47.667 85 -143 85c-61.333 0 -129 -30.333 -203 -91c-14.667 -12 -60 -56 -136 -132h99
c72.667 0 145.667 8.66699 219 26c109.333 26 164 63.333 164 112zM998.999 991l-132 -175l-181 120l132 177z" />
    <glyph glyph-name="uFEC0" unicode="&#x636;" horiz-adv-x="1367" arabic-form="medial" 
d="M1396 1h-59.001c-100.667 0 -178.667 36.667 -234 110c-88 -73.333 -214.333 -110 -379 -110h-231c-113.333 0 -189.666 30.333 -228.999 91c-40.667 -60.667 -104.667 -91 -192 -91h-101v234h76c86 0 129 39.333 129 118v69l157 44v-83c0 -48.667 3.66699 -82 11 -100
c12 -30 37.667 -45 77 -45c25.333 0 55.666 22 90.999 66c205.333 254.667 375 382 509 382c76.667 0 139 -22 187 -66c49.333 -46 74 -106.667 74 -182c0 -68.667 -15.667 -130 -47 -184c6.66699 -12.667 45.334 -19 116.001 -19h45v-234zM1117 378
c0 56.667 -47.667 85 -143 85c-61.333 0 -129 -30.333 -203 -91c-18.667 -15.333 -63.667 -59.333 -135 -132h99c72.667 0 145.667 8.66699 219 26c108.667 26 163 63.333 163 112zM998.999 991l-132 -175l-181 120l132 177z" />
    <glyph glyph-name="uFEC2" unicode="&#x637;" horiz-adv-x="1367" arabic-form="final" 
d="M1396 1h-58c-88 0 -162.667 40.333 -224 121c-98 -80.667 -246.333 -121 -445 -121h-160c-170 0 -284.667 43 -344 129l77 146c42 -27.333 90 -41 144 -41c80 0 126.667 29.333 140 88c11.333 50 17 126 17 228c0 162 -12.333 362 -37 600l213 82v-694
c106 96 206.667 144 302 144c76 0 138.5 -22.333 187.5 -67s73.5 -104.667 73.5 -180c0 -64 -17.333 -122.667 -52 -176c13.333 -16.667 54.333 -25 123 -25h43v-234zM1117 375c0 56.667 -47.6699 85 -143.003 85c-61.333 0 -129.666 -31 -204.999 -93
c-11.333 -9.33301 -56.666 -53.333 -135.999 -132h99c72.667 0 146.334 9 221.001 27c109.333 26 164 63.667 164 113z" />
    <glyph glyph-name="uFEC3" unicode="&#x637;" horiz-adv-x="925" arabic-form="initial" 
d="M924 436c0 -143.333 -65.332 -254.333 -195.999 -333c-112.667 -68 -251.667 -102 -417 -102h-340v234h57c80 0 126.667 29.333 140 88c11.333 50 17 127.333 17 232c0 161.333 -12 360 -36 596l213 82v-694c107.333 96 207.666 144 300.999 144
c76 0 138.5 -22.333 187.5 -67s73.5 -104.667 73.5 -180zM759.001 375c0 56.667 -47.668 85 -143.001 85c-60.667 0 -128.667 -31 -204 -93c-7.33301 -6 -53 -50 -137 -132h99c72.667 0 146.334 9 221.001 27c109.333 26 164 63.667 164 113z" />
    <glyph glyph-name="uFEC4" unicode="&#x637;" horiz-adv-x="1010" arabic-form="medial" 
d="M1038 1h-56.999c-88.667 0 -163.334 40.333 -224.001 121c-98 -80.667 -246.667 -121 -446 -121h-340v234h54c82.667 0 130.334 29.333 143.001 88c10.667 50 16 126.667 16 230c0 162 -11.667 361.333 -35 598l213 82v-694c107.333 96 207.666 144 300.999 144
c76 0 138.5 -22.333 187.5 -67s73.5 -104.667 73.5 -180c0 -67.333 -17.333 -126 -52 -176c14 -16.667 55.333 -25 124 -25h42v-234zM759.001 375c0 56.667 -47.668 85 -143.001 85c-60.667 0 -128.667 -31 -204 -93c-7.33301 -6 -53 -50 -137 -132h99
c72.667 0 146.334 9 221.001 27c109.333 26 164 63.667 164 113z" />
    <glyph glyph-name="uFEC6" unicode="&#x638;" horiz-adv-x="1367" arabic-form="final" 
d="M1396 1h-58c-88 0 -162.667 40.333 -224 121c-98 -80.667 -246.333 -121 -445 -121h-160c-170 0 -284.667 43 -344 129l77 146c42 -27.333 90 -41 144 -41c80 0 126.667 29.333 140 88c11.333 50 17 126 17 228c0 162 -12.333 362 -37 600l213 82v-694
c106 96 206.667 144 302 144c76 0 138.5 -22.333 187.5 -67s73.5 -104.667 73.5 -180c0 -64 -17.333 -122.667 -52 -176c13.333 -16.667 54.333 -25 123 -25h43v-234zM1117 375c0 56.667 -47.6699 85 -143.003 85c-61.333 0 -129.666 -31 -204.999 -93
c-11.333 -9.33301 -56.666 -53.333 -135.999 -132h99c72.667 0 146.334 9 221.001 27c109.333 26 164 63.667 164 113zM1207 1026l-132 -176l-180 121l132 177z" />
    <glyph glyph-name="uFEC7" unicode="&#x638;" horiz-adv-x="927" arabic-form="initial" 
d="M924 436c0 -143.333 -65.332 -254.333 -195.999 -333c-112.667 -68 -251.667 -102 -417 -102h-340v234h57c80 0 126.667 29.333 140 88c11.333 50 17 127.333 17 232c0 161.333 -12 360 -36 596l213 82v-694c107.333 96 207.666 144 300.999 144
c76 0 138.5 -22.333 187.5 -67s73.5 -104.667 73.5 -180zM759.001 375c0 56.667 -47.668 85 -143.001 85c-60.667 0 -128.667 -31 -204 -93c-7.33301 -6 -53 -50 -137 -132h99c72.667 0 146.334 9 221.001 27c109.333 26 164 63.667 164 113zM850 1026l-132 -176l-180 121
l132 177z" />
    <glyph glyph-name="uFEC8" unicode="&#x638;" horiz-adv-x="1010" arabic-form="medial" 
d="M1038 1h-56.999c-88.667 0 -163.334 40.333 -224.001 121c-98 -80.667 -246.667 -121 -446 -121h-340v234h54c82.667 0 130.334 29.333 143.001 88c10.667 50 16 126.667 16 230c0 162 -11.667 361.333 -35 598l213 82v-694c107.333 96 207.666 144 300.999 144
c76 0 138.5 -22.333 187.5 -67s73.5 -104.667 73.5 -180c0 -67.333 -17.333 -126 -52 -176c14 -16.667 55.333 -25 124 -25h42v-234zM759.001 375c0 56.667 -47.668 85 -143.001 85c-60.667 0 -128.667 -31 -204 -93c-7.33301 -6 -53 -50 -137 -132h99
c72.667 0 146.334 9 221.001 27c109.333 26 164 63.667 164 113zM850 1026l-132 -176l-180 121l132 177z" />
    <glyph glyph-name="uFECA" unicode="&#x639;" horiz-adv-x="1078" arabic-form="final" 
d="M1183 -671c-103.333 -44 -228.001 -65.999 -374.001 -65.999c-186.667 0 -335.667 36.333 -447 109c-131.333 86.667 -197 219 -197 397c0 141.333 52.333 272.333 157 393c34 39.333 105.333 102 214 188c0 35.333 -54 53 -162 53v30c0 68 25 125.667 75 173
c62 58.667 151.667 88 269 88c51.333 0 99 -11.667 143 -35c53.333 -28 80 -65.667 80 -113c0 -70.667 -16.667 -128.334 -50 -173.001c-19.333 -26 -53.333 -55.667 -102 -89c14 -32.667 65.333 -49 154 -49h164v-234h-216c-122.667 0 -209.667 57.667 -261 173
c-72 -38 -134 -92.333 -186 -163c-57.333 -76.667 -86 -152.667 -86 -228c0 -107.333 58 -185.333 174 -234c82.667 -34.667 186.334 -52 311.001 -52c106 0 196.333 12 271 36z" />
    <glyph glyph-name="uFECB" unicode="&#x639;" horiz-adv-x="806" arabic-form="initial" 
d="M803 309c-17.333 -130.667 -25.334 -199.332 -24.001 -205.999c-295.333 -68 -530 -102 -704 -102h-104v234h208l-32 68c-10 29.333 -15 68 -15 116c0 64 25.333 125.667 76 185c58.667 69.333 131.667 104 219 104c47.333 0 96.5 -11.5 147.5 -34.5
s90.5 -52.833 118.5 -89.5l-63 -126c-59.333 32.667 -122.666 49 -189.999 49c-35.333 0 -69 -7.33301 -101 -22c-40.667 -18.667 -61 -43.334 -61 -74.001c0 -41.333 27.667 -77.333 83 -108c49.333 -28 96 -41.333 140 -40c67.333 2 168 17.333 302 46z" />
    <glyph glyph-name="uFECC" unicode="&#x639;" horiz-adv-x="781" arabic-form="medial" 
d="M810 1l-162.001 0.000976562c-112 0 -197.667 46 -257 138c-121.333 -92 -246 -138 -374 -138h-46v234h54c146 0 235 26.667 267 80c0 22.667 -22.333 40.334 -67 53.001c-31.333 8.66699 -62.333 13 -93 13v27c0 64 23.333 118.667 70 164c58 56 142 84 252 84
c56.667 0 104.334 -11 143.001 -33c48 -26.667 72 -66.334 72 -119.001c0 -68.667 -19 -124.334 -57 -167.001l-89 -75c12 -18 60.667 -27 146 -27h141v-234z" />
    <glyph glyph-name="uFECE" unicode="&#x63a;" horiz-adv-x="1081" arabic-form="final" 
d="M1183 -671c-103.333 -44 -228.001 -65.999 -374.001 -65.999c-186.667 0 -335.667 36.333 -447 109c-131.333 86.667 -197 219 -197 397c0 141.333 52.333 272.333 157 393c34 39.333 105.333 102 214 188c0 35.333 -54 53 -162 53v30c0 68 25 125.667 75 173
c62 58.667 151.667 88 269 88c51.333 0 99 -11.667 143 -35c53.333 -28 80 -65.667 80 -113c0 -70.667 -16.667 -128.334 -50 -173.001c-19.333 -26 -53.333 -55.667 -102 -89c14 -32.667 65.333 -49 154 -49h164v-234h-216c-122.667 0 -209.667 57.667 -261 173
c-72 -38 -134 -92.333 -186 -163c-57.333 -76.667 -86 -152.667 -86 -228c0 -107.333 58 -185.333 174 -234c82.667 -34.667 186.334 -52 311.001 -52c106 0 196.333 12 271 36zM797.999 1003l-132 -176l-181 121l133 176z" />
    <glyph glyph-name="uFECF" unicode="&#x63a;" horiz-adv-x="803" arabic-form="initial" 
d="M803 309c-17.333 -130.667 -25.334 -199.332 -24.001 -205.999c-295.333 -68 -530 -102 -704 -102h-104v234h208l-32 68c-10 29.333 -15 68 -15 116c0 64 25.333 125.667 76 185c58.667 69.333 131.667 104 219 104c47.333 0 96.5 -11.5 147.5 -34.5
s90.5 -52.833 118.5 -89.5l-63 -126c-59.333 32.667 -122.666 49 -189.999 49c-35.333 0 -69 -7.33301 -101 -22c-40.667 -18.667 -61 -43.334 -61 -74.001c0 -41.333 27.667 -77.333 83 -108c49.333 -28 96 -41.333 140 -40c67.333 2 168 17.333 302 46zM546.999 1032
l-132 -176l-180 121l132 176z" />
    <glyph glyph-name="uFED0" unicode="&#x63a;" horiz-adv-x="780" arabic-form="medial" 
d="M810 1l-162.001 0.000976562c-112 0 -197.667 46 -257 138c-121.333 -92 -246 -138 -374 -138h-46v234h54c146 0 235 26.667 267 80c0 22.667 -22.333 40.334 -67 53.001c-31.333 8.66699 -62.333 13 -93 13v27c0 64 23.333 118.667 70 164c58 56 142 84 252 84
c56.667 0 104.334 -11 143.001 -33c48 -26.667 72 -66.334 72 -119.001c0 -68.667 -19 -124.334 -57 -167.001l-89 -75c12 -18 60.667 -27 146 -27h141v-234zM575.999 1003l-132 -176l-181 121l133 176z" />
    <glyph glyph-name="uFED2" unicode="&#x641;" horiz-adv-x="1766" arabic-form="final" 
d="M1794 1l-116.001 0.000976562c-38 0 -84.333 9.33301 -139 28c-58 19.333 -100 40.666 -126 63.999c-41.333 -32 -108.333 -61.667 -201 -89c-133.333 -39.333 -282.333 -59 -447 -59c-396 0 -594 116 -594 348c0 70 25.667 156 77 258l151 -47
c-29.333 -64 -44 -109.667 -44 -137c0 -56.667 21.667 -98.667 65 -126c64.667 -40.667 183.334 -61 356.001 -61h88c86 0 168.667 6.66699 248 20c67.333 11.333 110.333 23 129 35c-28 31.333 -42 79 -42 143c0 74.667 34.333 147.667 103 219
c64.667 66.667 125 100 181 100c58 0 105 -31.667 141 -95c30.667 -54 46 -112.333 46 -175c0 -82.667 -28.667 -146.667 -86 -192h210v-234zM1535 403.001c0 22 -9.50098 40.333 -28.501 55s-39.833 22 -62.5 22c-23.333 0 -46.666 -9 -69.999 -27
c-24.667 -20 -37 -41.333 -37 -64c0 -17.333 10.667 -33.333 32 -48c19.333 -14 38 -21 56 -21c20 0 43.333 9 70 27s40 36.667 40 56zM1603 1009l-132 -176l-181 121l133 176z" />
    <glyph glyph-name="uFED3" unicode="&#x641;" horiz-adv-x="573" arabic-form="initial" 
d="M571 359c0 -238.667 -146.668 -358 -440.001 -358h-160v234h278c114 0 171 39.333 171 118c-25.333 -29.333 -76 -44 -152 -44c-130 0 -195 61.333 -195 184c0 58.667 19.667 123.667 59 195c48 86.667 105.333 130 172 130c82.667 0 150.334 -58.667 203.001 -176
c42.667 -94.667 64 -189 64 -283zM372.999 526c-7.33301 23.333 -18.667 45 -34 65c-19.333 24.667 -39.333 37 -60 37c-14.667 0 -30.167 -8.66699 -46.5 -26s-24.5 -33.333 -24.5 -48c0 -48 25.667 -72 77 -72c46 0 75.333 14.667 88 44zM392.998 1099l-132 -175l-181 120
l132 177z" />
    <glyph glyph-name="uFED4" unicode="&#x641;" horiz-adv-x="677" arabic-form="medial" 
d="M706 1h-98.001c-117.333 0 -212.666 26.667 -285.999 80c-29.333 -20.667 -68.833 -39.167 -118.5 -55.5s-92.5 -24.5 -128.5 -24.5h-104v234h181c-26 30 -39 73 -39 129c0 76 33.667 149.333 101 220c63.333 66 123.333 99 180 99c58.667 0 105 -31.667 139 -95
c28 -52 42 -110 42 -174c0 -76 -26.667 -135.667 -80 -179h211v-234zM439.999 389c0 22 -8.5 40.332 -25.5 54.999s-36.833 22 -59.5 22s-45.667 -9.5 -69 -28.5s-35 -39.833 -35 -62.5c0 -17.333 9.66699 -33.166 29 -47.499s38 -21.5 56 -21.5c20.667 0 43.167 9 67.5 27
s36.5 36.667 36.5 56zM508.999 1003l-133 -176l-180 121l132 176z" />
    <glyph glyph-name="uFED6" unicode="&#x642;" horiz-adv-x="1318" arabic-form="final" 
d="M1347 1l-162 -0.000976562c-14 -116 -60.667 -219 -140 -309c-102 -115.333 -236 -173 -402 -173s-291 50.667 -375 152c-68.667 82.667 -103 187 -103 313c0 112.667 24.667 220 74 322l163 -60c-31.333 -78 -47 -150.333 -47 -217c0 -90 29.333 -159.333 88 -208
c54.667 -45.333 128 -68 220 -68c130.667 0 232.667 37 306 111c50.667 50.667 76 96.334 76 137.001h-58c-97.333 0 -168 12 -212 36c-60 32.667 -90 93 -90 181c0 64.667 17.667 131 53 199c44.667 86 102 129 172 129c76.667 0 141 -35.333 193 -106
c43.333 -58.667 70 -127 80 -205h164v-234zM1020 206.999c-2.66699 31.333 -13.999 61.666 -33.999 90.999c-22.667 33.333 -48.667 50 -78 50c-16 0 -32.833 -7.66699 -50.5 -23s-26.5 -30.666 -26.5 -45.999c0 -34 15.333 -55.667 46 -65
c15.333 -4.66699 45.666 -7 90.999 -7h52zM1147 846.999l-110 -148l-137 96l-80 -112l-171 117l110 149l143 -99l80 112z" />
    <glyph glyph-name="uFED7" unicode="&#x642;" horiz-adv-x="570" arabic-form="initial" 
d="M571 359c0 -238.667 -146.668 -358 -440.001 -358h-160v234h278c114 0 171 39.333 171 118c-25.333 -29.333 -76 -44 -152 -44c-130 0 -195 61.333 -195 184c0 58.667 19.667 123.667 59 195c48 86.667 105.333 130 172 130c82.667 0 150.334 -58.667 203.001 -176
c42.667 -94.667 64 -189 64 -283zM372.999 526c-7.33301 23.333 -18.667 45 -34 65c-19.333 24.667 -39.333 37 -60 37c-14.667 0 -30.167 -8.66699 -46.5 -26s-24.5 -33.333 -24.5 -48c0 -48 25.667 -72 77 -72c46 0 75.333 14.667 88 44zM538.998 1108l-110 -149l-137 97
l-80 -112l-171 117l110 148l143 -98l80 112z" />
    <glyph glyph-name="uFED8" unicode="&#x642;" horiz-adv-x="677" arabic-form="medial" 
d="M706 1h-98.001c-117.333 0 -212.666 26.667 -285.999 80c-29.333 -20.667 -68.833 -39.167 -118.5 -55.5s-92.5 -24.5 -128.5 -24.5h-104v234h181c-26 30 -39 73 -39 129c0 76 33.667 149.333 101 220c63.333 66 123.333 99 180 99c58.667 0 105 -31.667 139 -95
c28 -52 42 -110 42 -174c0 -76 -26.667 -135.667 -80 -179h211v-234zM439.999 389c0 22 -8.5 40.332 -25.5 54.999s-36.833 22 -59.5 22s-45.667 -9.5 -69 -28.5s-35 -39.833 -35 -62.5c0 -17.333 9.66699 -33.166 29 -47.499s38 -21.5 56 -21.5c20.667 0 43.167 9 67.5 27
s36.5 36.667 36.5 56zM595.999 980.999l-110 -149l-136 96l-80 -112l-172 117l110 149l144 -99l79 112z" />
    <glyph glyph-name="uFEDE" unicode="&#x644;" horiz-adv-x="1293" arabic-form="final" 
d="M1322 1h-58c-24.667 0 -52 8.5 -82 25.5s-50.667 36.167 -62 57.5c-6 -156.667 -41 -284 -105 -382c-84.667 -129.333 -215 -194 -391 -194c-161.333 0 -282 50.667 -362 152c-64.667 81.333 -97 185.666 -97 312.999c0 100.667 27.667 207.334 83 320.001l156 -55
c-39.333 -90 -59 -163.333 -59 -220c0 -90 26.667 -159 80 -207c50.667 -46 121.667 -69 213 -69c220 0 325.667 119.333 317 358l-39 1051l204 82v-808c0 -126.667 53 -190 159 -190h43v-234z" />
    <glyph glyph-name="uFEDF" unicode="&#x644;" horiz-adv-x="374" arabic-form="initial" 
d="M372 425c0 -130.667 -13.666 -225.668 -40.999 -285.001c-42.667 -92.667 -124.334 -139 -245.001 -139h-115v234h65c68.667 0 113 11.333 133 34c18 20.667 26 65.334 24 134.001l-25 748l204 82v-808z" />
    <glyph glyph-name="uFEE0" unicode="&#x644;" horiz-adv-x="542" arabic-form="medial" 
d="M571 1h-91.9971c-36.667 0 -75.334 12.333 -116.001 37s-67.334 53.667 -80.001 87c-40.667 -82.667 -106.334 -124 -197.001 -124h-115v234h65c73.333 0 119.333 11.667 138 35c15.333 18.667 21.666 63 18.999 133l-25 748l204 82v-808c0 -53.333 11.667 -97 35 -131
c26.667 -39.333 65.334 -59 116.001 -59h48v-234z" />
    <glyph glyph-name="uFEE2" unicode="&#x645;" horiz-adv-x="1110" arabic-form="final" 
d="M1139 1h-60.001c-79.333 0 -137.333 13.333 -174 40c14 -32 21 -70 21 -114c0 -56 -11.667 -102.333 -35 -139c-28 -44 -68.333 -66 -121 -66c-115.333 0 -193.666 61.667 -234.999 185c-17.333 52 -26.333 114 -27 186c-54 0 -92.167 -11.167 -114.5 -33.5
s-33.5 -60.5 -33.5 -114.5v-755h-165l-30 773c-4 108.667 28 197.5 96 266.5s156.333 103.5 265 103.5l33 107c108 -66.667 187 -111.667 237 -135c99.333 -46.667 189 -70 269 -70h74v-234zM648.999 141c-1.33301 -54 4.33301 -101.667 17 -143
c18.667 -60.667 49.667 -91 93 -91c28.667 0 43 18.667 43 56c0 66 -51 125.333 -153 178z" />
    <glyph glyph-name="uFEE3" unicode="&#x645;" horiz-adv-x="710" arabic-form="initial" 
d="M710 240c0 -43.333 -13.001 -88.667 -39.001 -136c-28.667 -52 -59.667 -78 -93 -78c-53.333 0 -111.666 14.667 -174.999 44c-50.667 23.333 -86.667 45.333 -108 66c-70.667 -90 -164.334 -135 -281.001 -135h-43v234h38c106 0 177.333 32 214 96l90 156
c56.667 76 117.334 114 182.001 114c79.333 0 138 -47.667 176 -143c26 -65.333 39 -138 39 -218zM574.999 264.999c0 31.333 -9.33301 62.667 -28 94c-22 36.667 -47.333 55 -76 55c-40.667 0 -70 -35 -88 -105c39.333 -28 87 -50 143 -66
c9.33301 -2.66699 17.333 -4 24 -4c16.667 0 25 8.66699 25 26z" />
    <glyph glyph-name="uFEE4" unicode="&#x645;" horiz-adv-x="870" arabic-form="medial" 
d="M899 1h-66.0029c-34.667 0 -71 8 -109 24c-41.333 17.333 -70.333 39.333 -87 66c-23.333 -104.667 -58.666 -157 -105.999 -157c-43.333 0 -103 19.333 -179 58c-61.333 31.333 -103.666 57.333 -126.999 78c-57.333 -46 -119.666 -69 -186.999 -69h-67v234h52
c73.333 0 122.333 12 147 36l107 132c55.333 66 106 99 152 99c49.333 0 103 -31.333 161 -94l133 -143c27.333 -20 65 -30 113 -30h63v-234zM516.997 166c0 28 -9.66602 59 -28.999 93c-22 38.667 -45.333 58 -70 58c-16.667 0 -35.667 -11 -57 -33
c-18.667 -20 -31.667 -39 -39 -57c41.333 -38 90.666 -65.667 147.999 -83c31.333 -9.33301 47 -2 47 22z" />
    <glyph glyph-name="uFEE6" unicode="&#x646;" horiz-adv-x="1326" arabic-form="final" 
d="M1355 1l-54.002 0.000976562c-70 0 -115 13.667 -135 41c0 -162 -49.333 -296 -148 -402c-101.333 -108 -232.666 -162 -393.999 -162s-282 50.667 -362 152c-64.667 81.333 -97 185.666 -97 312.999c0 102 27.667 208.333 83 319l156 -55
c-36.667 -94.667 -55 -168 -55 -220c0 -90 27 -159 81 -207c52 -45.333 123.333 -68 214 -68c96.667 0 176.667 26.667 240 80c67.333 57.333 101 133.333 101 228c0 91.333 -33 181.333 -99 270l176 165c38 -76 63 -122.333 75 -139c38.667 -54 83.334 -81 134.001 -81h84
v-234zM791.998 592.001l-132 -176l-180 121l132 176z" />
    <glyph glyph-name="uFEE7" unicode="&#x646;" horiz-adv-x="391" arabic-form="initial" 
d="M388 328c0 -107.333 -33.333 -189.666 -100 -246.999c-62 -53.333 -147.667 -80 -257 -80h-60v234h160c70 0 105 17.333 105 52c0 21.333 -15.333 51.666 -46 90.999l-69 88l132 190c90 -90 135 -199.333 135 -328zM381 980l-132 -176l-180 121l132 176z" />
    <glyph glyph-name="uFEE8" unicode="&#x646;" horiz-adv-x="512" arabic-form="medial" 
d="M566 1h-76c-96 0 -159.333 35 -190 105c-50 -70 -129.667 -105 -239 -105h-90v234h82c102.667 0 154 35.667 154 107v80l167 55v-50c0 -128 41.333 -192 124 -192h68v-234zM451 800l-133 -176l-180 121l132 177z" />
    <glyph glyph-name="uFEEA" unicode="&#x647;" horiz-adv-x="930" arabic-form="final" 
d="M959 0c-92.667 0 -145.331 0.665039 -157.998 1.99805c-62.667 6.66699 -109 26.334 -139 59.001c-24.667 26.667 -45.334 71.667 -62.001 135c-48.667 -47.333 -128.667 -71 -240 -71c-54.667 0 -99.667 12.667 -135 38c-40 28 -60 68.333 -60 121
c0 136 110.667 270 332 402l-19 88l149 154l110 -545c13.333 -65.333 32 -107.666 56 -126.999c17.333 -14 50.666 -21 99.999 -21h66v-235zM564.003 366.998l-34 154c-34 -10 -69.667 -28.333 -107 -55c-47.333 -34 -71 -66 -71 -96c0 -19.333 29.333 -29 88 -29
c64 0 105.333 8.66699 124 26z" />
    <glyph glyph-name="uFEEB" unicode="&#x647;" horiz-adv-x="825" arabic-form="initial" 
d="M823 207c0 -185.333 -61.666 -277.999 -184.999 -277.999c-28.667 0 -72.334 13.667 -131.001 41l-138 67c-36 -24 -126 -36 -270 -36h-128v234h138c-24 15.333 -36 50 -36 104c0 87.333 49 172.666 147 255.999l-44 28l99 211c132 -87.333 248.333 -182.333 349 -285
c132.667 -135.333 199 -249.333 199 -342zM680.001 180.001c-1.33301 22.667 -15.665 51.999 -42.998 87.999c-24 32 -47.333 56.667 -70 74c0.666992 -6 1 -12 1 -18c0 -23.333 -6.33301 -48.666 -19 -75.999c-13.333 -30 -29.333 -50 -48 -60
c7.33301 -10.667 29.666 -26.667 66.999 -48s61.666 -32 72.999 -32c28.667 0 41.667 24 39 72zM424.002 386c0 23.333 -10.168 45 -30.501 65s-42.166 30 -65.499 30c-22 0 -45.5 -12.667 -70.5 -38s-37.5 -49 -37.5 -71c0 -25.333 10 -47.5 30 -66.5
s42.667 -28.5 68 -28.5c30.667 0 56 10.5 76 31.5s30 46.833 30 77.5z" />
    <glyph glyph-name="uFEEC" unicode="&#x647;" horiz-adv-x="790" arabic-form="medial" 
d="M819 1l-132 -0.00292969c-33.333 0 -62.333 -7.66699 -87 -23c-28 -18 -42 -43 -42 -75c0 -47.333 30.333 -82.666 91 -105.999c-8.66699 -44.667 -20.667 -120.667 -36 -228c-148 25.333 -265 90.333 -351 195c-60.667 74 -98 153 -112 237h-179v234h161
c0 113.333 27.667 222.333 83 327c51.333 97.333 99.666 146 144.999 146c32 0 69.667 -38.667 113 -116c47.333 -84.667 71 -170.667 71 -258c0 -67.333 -20.333 -135.666 -61 -204.999c-46 -78 -100 -120.333 -162 -127c7.33301 -24 22.333 -48 45 -72
c24.667 -26 48.334 -41 71.001 -45c-3.33301 6.66699 -5 18.334 -5 35.001c0 66.667 19.333 130.667 58 192c52 82 125 123 219 123h110v-234zM415 325.997c0 39.333 -10.333 77.332 -31 113.999c-18 32 -32.333 48 -43 48c-11.333 0 -26.333 -23.333 -45 -70
c-21.333 -54 -32 -110.333 -32 -169c24.667 -3.33301 55 2.33398 91 17.001c40 16 60 36 60 60z" />
    <glyph glyph-name="uFEEE" unicode="&#x648;" horiz-adv-x="801" arabic-form="final" 
d="M830 1l-106.001 0.000976562c-24.667 -107.333 -87 -209 -187 -305c-90 -86.667 -191.667 -152 -305 -196l-147 139c95.333 35.333 191 87.666 287 156.999c104.667 75.333 168.334 142.333 191.001 201c-108.667 0 -187 11.667 -235 35c-70 34 -105 99 -105 195
c0 62.667 18 128.667 54 198c44.667 86.667 101.667 130 171 130c82 0 148.667 -36.333 200 -109c41.333 -58.667 67.333 -129 78 -211h104v-234zM566.999 234.001c-3.33301 30.667 -16 58.999 -38 84.999c-24 28.667 -50.667 43 -80 43
c-19.333 0 -37.833 -8.66699 -55.5 -26s-26.5 -35.666 -26.5 -54.999c0 -40 33 -60 99 -60c31.333 0 65 4.33301 101 13z" />
    <glyph glyph-name="uFEF0" unicode="&#x649;" horiz-adv-x="1281" arabic-form="final" 
d="M1310 1l-58.002 -0.000976562c-4 0 -75.333 4.66699 -214 14c-20 1.33301 -33.333 2 -40 2c-66.667 0 -100 -10 -100 -30c0 -12.667 13.333 -21 40 -25c63.333 -10 134.333 -20.667 213 -32c74 -20.667 111 -59.667 111 -117c0 -70.667 -49.667 -141 -149 -211
c-118 -82.667 -263 -124 -435 -124c-156.667 0 -279 34 -367 102c-97.333 74.667 -146 187.334 -146 338.001c0 105.333 31.333 212 94 320l156 -55c-13.333 -22 -27.166 -56.833 -41.499 -104.5s-21.5 -83.834 -21.5 -108.501c0 -170.667 112.667 -256 338 -256
c156.667 0 273.334 15.667 350.001 47c23.333 9.33301 35 18 35 26c0 7.33301 -10 12.333 -30 15c-16 2 -79 9.33301 -189 22c-97.333 23.333 -146 67.333 -146 132c0 92.667 61 165.334 183 218.001c94.667 40.667 195.667 61 303 61h114v-234z" />
    <glyph glyph-name=".notdef" horiz-adv-x="1024" 
d="M128 0v1298h768v-1298h-768zM256 128h512v1042h-512v-1042z" />
    <glyph glyph-name="space" unicode=" " horiz-adv-x="483" 
 />
    <glyph glyph-name="exclam" unicode="!" horiz-adv-x="425" 
d="M422 915l-60 -629h-133l-64 629v293h257v-293zM416 -33h-239v240h239v-240z" />
    <glyph glyph-name="percent" unicode="%" horiz-adv-x="1044" 
d="M403 1085l-158 -149l-157 149l157 147zM793 1211l-490 -1350l-106 45l481 1350zM954 56l-158 -150l-157 150l157 148z" />
    <glyph glyph-name="parenleft" unicode="(" horiz-adv-x="590" 
d="M589 -157c-21.333 -12 -57.667 -36.999 -109 -74.999c-209.333 244 -314 495 -314 753c0 107.333 21 219 63 335c54 149.333 137.667 289.333 251 420c28 -24 64.333 -49 109 -75c-154.667 -232.667 -232 -458.334 -232 -677.001c0 -221.333 77.333 -448.333 232 -681z
" />
    <glyph glyph-name="parenright" unicode=")" horiz-adv-x="588" 
d="M587 521c0 -258.667 -104.667 -509.668 -314 -753.001c-27.333 24 -63.666 49 -108.999 75c155.333 232.667 233 459.667 233 681c0 218.667 -77.667 444.334 -233 677.001c21.333 12 57.666 37 108.999 75c113.333 -129.333 197 -269.333 251 -420
c42 -117.333 63 -229 63 -335z" />
    </font>
</defs>
</svg>
