<?xml version="1.0" standalone="no"?>
<!DOCTYPE svg PUBLIC "-//W3C//DTD SVG 1.1//EN" "http://www.w3.org/Graphics/SVG/1.1/DTD/svg11.dtd" >
<svg>
<metadata>
Created by FontForge 20090914 at Wed Oct 19 01:46:07 2011
 By www-data
(c) by Abolfazl Seilsepour - +98 912 591 3420  -  seilsepor@yahoo.com
</metadata>
<defs>
<font id="FarSiavash" horiz-adv-x="0" >
  <font-face 
    font-family="Far.Siavash"
    font-weight="400"
    font-stretch="normal"
    units-per-em="2048"
    panose-1="0 0 4 0 0 0 0 0 0 0"
    ascent="1638"
    descent="-410"
    bbox="-190 -1174 2088 1941"
    underline-thickness="100"
    underline-position="-630"
    unicode-range="U+0020-U+FEFC"
  />
<missing-glyph horiz-adv-x="1024" 
d="M128 0v1266h768v-1266h-768zM256 128h512v1010h-512v-1010z" />
    <glyph glyph-name="uE818" unicode="&#x651;&#x64b;" 
d="M372 1429c3.33301 -42 -4.66699 -79 -24 -111c-16.667 -26.667 -39.667 -40 -69 -40l-28 3l-15 6l-15 10c-3.33301 -20.667 -14.5 -38.834 -33.5 -54.501s-38.833 -23.5 -59.5 -23.5c-18 0 -35.667 9 -53 27c-14 18.667 -21 42.334 -21 71.001c0 18 0.666992 29 2 33
l18 58l20 3c0 -66.667 11.667 -100 35 -100c35.333 0 62.333 48.667 81 146l17 5c12.667 -58.667 30 -88 52 -88c40 0 60 44 60 132l21 9l10 -47zM368 1847c0 -40 -10.667 -66 -32 -78l-272 -154c0 37.333 19.667 67.333 59 90zM368 1715c0 -39.333 -10.667 -65 -32 -77
l-272 -155c0 38 19.667 68.333 59 91z" />
    <glyph glyph-name="uFC5E" unicode="&#x651;&#x64c;" arabic-form="isolated" 
d="M381 1490c2.66699 -42 -5.66602 -79 -24.999 -111c-16.667 -26.667 -39.667 -40 -69 -40l-28 3l-15 6l-14 10c-4 -20.667 -15.5 -38.834 -34.5 -54.501s-38.833 -23.5 -59.5 -23.5c-18 0 -35.667 9 -53 27c-14 18.667 -21 42.334 -21 71.001c0 18 0.666992 29 2 33l18 58
l21 3c0 -66.667 11.667 -100 35 -100c34.667 0 61.667 48.667 81 146l16 5c13.333 -58.667 30.666 -88 51.999 -88c40.667 0 61 44.333 61 133l20 9l10 -48zM430 1704l-1.99902 -53.998l-39 23l-44 31c-37.333 -40 -73.666 -71.333 -108.999 -94
c-20.667 -14 -56.334 -26.333 -107.001 -37l19 41l14 35l4 19l2 21c0.666992 10 -4 20.833 -14 32.5s-20 17.5 -30 17.5c-25.333 0 -40 -23 -44 -69l-7 27l-2 20c0 23.333 6.66699 45 20 65c14.667 22.667 33 34 55 34c42.667 0 63 -30 61 -90l-1 -25l-5 -58
c24 9.33301 42 18.666 54 27.999c15.333 10 34.666 27.667 57.999 53c-19.333 11.333 -35.333 25.333 -48 42c-7.33301 17.333 -11 31.666 -11 42.999c0 29.333 10.667 58 32 86c23.333 30.667 49 46 77 46c15.333 0 29.5 -8.16699 42.5 -24.5s19.5 -32.166 19.5 -47.499
c0 -18.667 -3.33301 -36.334 -10 -53.001l-20 -49c24 -18.667 35.667 -39.667 35 -63zM362.001 1833c1.33301 32 -11 48 -37 48c-9.33301 0 -17.333 -7 -24 -21c0 -12.667 8 -25.667 24 -39l33 -23l3 17z" />
    <glyph glyph-name="uFC5F" unicode="&#x651;&#x64d;" arabic-form="isolated" 
d="M327 1816c3.33301 -42 -4.66699 -79 -24 -111c-16.667 -26.667 -39.667 -40 -69 -40l-28 3l-15 6l-15 10c-3.33301 -20.667 -14.5 -38.834 -33.5 -54.501s-38.833 -23.5 -59.5 -23.5c-18 0 -35.667 9 -53 27c-14 18.667 -21 42.334 -21 71.001c0 18 0.666992 29 2 33
l18 57l20 4c0 -66.667 11.667 -100 35 -100c35.333 0 62.333 48.667 81 146l17 5c12.667 -58.667 30 -88 52 -88c40 0 60 44 60 132l21 9l10 -47zM345 1638c0 -39.333 -10.333 -65.001 -31 -77.001l-273 -155c0 23.333 3.33301 40 10 50c8 12.667 24.333 26.334 49 41.001z
M345 1506c0 -40 -10.333 -66 -31 -78l-273 -154c0 23.333 3.33301 40 10 50c8 12.667 24.333 26 49 40z" />
    <glyph glyph-name="uFC60" unicode="&#x651;&#x64e;" arabic-form="isolated" 
d="M399 1465c3.33301 -42 -4.66699 -79 -24 -111c-16.667 -26.667 -39.667 -40 -69 -40l-28 3l-15 6l-15 10c-3.33301 -20.667 -14.5 -38.834 -33.5 -54.501s-38.833 -23.5 -59.5 -23.5c-18 0 -35.667 9 -53 27c-14 18.667 -21 42.334 -21 71.001c0 18 0.666992 29 2 33
l18 58l20 3c0 -66.667 11.667 -100 35 -100c35.333 0 62.333 48.667 81 146l17 5c12.667 -58.667 30 -88 52 -88c40 0 60 44 60 132l21 9l10 -47zM393 1789c0 -40 -10.667 -66 -32 -78l-272 -155c0 38 19.667 68.333 59 91z" />
    <glyph glyph-name="uFC61" unicode="&#x651;&#x64f;" arabic-form="isolated" 
d="M426 1447c3.33301 -42 -4.66699 -79 -24 -111c-16.667 -26.667 -39.667 -40 -69 -40l-28 3l-15 6l-15 10c-3.33301 -20.667 -14.5 -38.834 -33.5 -54.501s-38.833 -23.5 -59.5 -23.5c-18 0 -35.667 9 -53 27c-14 18.667 -21 42.334 -21 71.001c0 18 0.666992 29 2 33
l18 58l20 3c0 -66.667 11.667 -100 35 -100c35.333 0 62.333 48.667 81 146l17 5c12.667 -58.667 30 -88 52 -88c40 0 60 44 60 132l21 9l10 -47zM426 1676l-7.99902 -89.002l-33 21l-39 26c-32.667 -39.333 -61.667 -69.666 -87 -90.999c-30.667 -26 -60.667 -39 -90 -39
c-10.667 0 -21 1.66699 -31 5l-22 6l25 13l69 44c11.333 7.33301 44 35 98 83c-20 16 -34.333 29.667 -43 41l-8 16l-2 10c0 6 -0.666992 10.667 -2 14c0 28.667 10.667 62 32 100c19.333 34.667 43.333 52 72 52c43.333 0 63.666 -26.667 60.999 -80v-21
c-0.666992 -7.33301 -3 -16.666 -7 -27.999l-2 -12l-7 -18l-11 -26zM363.001 1755c0 36.667 -16 55 -48 55l-5 -2l-7 -3l-4 -13c0 -11.333 3.33301 -20.833 10 -28.5s22.667 -20.5 48 -38.5c4 12 6 22 6 30z" />
    <glyph glyph-name="uFC62" unicode="&#x651;&#x650;" arabic-form="isolated" 
d="M435 1645c3.33301 -42 -4.66699 -79 -24 -111c-16.667 -26.667 -39.667 -40 -69 -40l-28 3l-15 6l-15 10c-3.33301 -20.667 -14.5 -38.834 -33.5 -54.501s-38.833 -23.5 -59.5 -23.5c-18 0 -35.667 9 -53 27c-14 18.667 -21 42.334 -21 71.001c0 18 0.666992 29 2 33
l18 58l20 3c0 -66.667 11.667 -100 35 -100c35.333 0 62.333 48.667 81 146l17 5c12.667 -58.667 30 -88 52 -88c40 0 60 44 60 132l21 9l10 -47zM438 1480c0 -39.333 -10.667 -65.001 -32 -77.001l-272 -155c0 23.333 3 40 9 50c8 12.667 24.667 26.334 50 41.001z" />
    <glyph glyph-name="uFDF2" unicode="&#xfedf;&#xfee0;&#xfeea;" horiz-adv-x="1460" arabic-form="isolated" 
d="M636 0l-40.002 40.002c-6 6 -11.333 15 -16 27l-14 44c-22 72.667 -41.333 109 -58 109c-12 0 -32.667 -12 -62 -36c-9.33301 -14 -26.666 -38 -51.999 -72c-14 -18 -30 -29.667 -48 -35l-27 -3c-24 0 -47.667 9.33301 -71 28c-30 24 -54.333 40.333 -73 49l-103 32
c-34 10 -57.333 30.667 -70 62c-4 12 -6 22.333 -6 31c0 30.667 14.667 59 44 85l87 75c28.667 25.333 76.667 53.333 144 84c34 15.333 63.333 33.666 88 54.999l72 92c14.667 18.667 32.667 34.667 54 48l62 40l17 6c7.33301 0 12.666 -4.33301 15.999 -13l2 -15l-2 -14
v-12l-1 -44c-1.33301 -25.333 2 -57 10 -95c10 -28.667 22.333 -51 37 -67c26 -26.667 67.667 -40 125 -40c29.333 0 44 9.33301 44 28c0 14.667 -14.667 43.334 -44 86.001l-82 120c-14.667 26 -25.667 49 -33 69c-7.33301 28.667 -11 46.667 -11 54l2 27l11 23
c20.667 35.333 43.334 64 68.001 86s54.667 40 90 54c26 10 47.333 15 64 15c30.667 0 58.667 -8.66699 84 -26c60 -40.667 90 -94 90 -160c0 -13.333 -1.33301 -24.666 -4 -33.999l-5 -22c-4.66699 -18.667 -17 -35.667 -37 -51c-44.667 -34.667 -68 -59.334 -70 -74.001
l-4 -24l-1 -15v-12c0 -30 3.33301 -52.667 10 -68l9 -19l25 -31l14 -13l21 -13c11.333 -5.33301 23.333 -10 36 -14l38 -4l37 2c6.66699 0.666992 13 2.33398 19 5.00098l26 11l16 8l12 12c7.33301 7.33301 11 16.333 11 27c0 22 -13.333 52 -40 90l-80 109
c-29.333 41.333 -44 78.333 -44 111c0 29.333 19.333 65.666 58 108.999c10 11.333 28.333 27.333 55 48c40.667 30.667 81.667 46 123 46c64 0 113.667 -30 149 -90c18 -30.667 26.667 -62.667 26 -96l-1 -26c-0.666992 -20 -6.66699 -37.333 -18 -52
c-6 -8 -15 -17 -27 -27c-37.333 -26 -61.333 -50.667 -72 -74l-2 -14l-2 -12c0 -16.667 7 -36.667 21 -60c34.667 -58 53.667 -93.667 57 -107l36 -148c12.667 -50.667 19 -94.334 19 -131.001c0 -34.667 -3.66699 -66 -11 -94l-7 -23c-2 -8 -5 -15.333 -9 -22l-25 -45
c-32.667 -58.667 -83 -104.334 -151 -137.001c-61.333 -29.333 -128.333 -44 -201 -44s-147.667 16.333 -225 49c-37.333 15.333 -69.666 33.333 -96.999 54l-21 15l-20 19c-14.667 13.333 -28.667 28 -42 44zM1052 1013c-46 24.667 -85.999 37 -119.999 37
c-20 0 -48 -9 -84 -27l-16 -8l-16 -2h-5l-15 4l-20 8l-30 18c-8 8.66699 -14.667 22.334 -20 41.001c0 16 4.33301 29.333 13 40l12 15l25 22l9 5l11 4l4 -11l-22 -39c0 -23.333 16.667 -35 50 -35c32.667 0 68 8.66699 106 26c5.33301 2 13 7.33301 23 16l15 13l38 40
c0 -4.66699 -0.666992 -8 -2 -10l-2 -5l-5 -18l-2 -19c0 -13.333 4.33301 -25 13 -35c12.667 -11.333 27.667 -16.333 45 -15l35 3l25 5l30 11c2.66699 2 8 13.333 16 34c5.33301 21.333 14.666 34.333 27.999 39l7 3c3.33301 0 5 -2.33301 5 -7l-3 -21
c0 -58.667 -23 -97.334 -69 -116.001l-20 -8l-14 -8c-12 -3.33301 -20.667 -5 -26 -5zM1039 1364l15 -16l12 -32l1 -15l-3 -28l-2 -10l-5 -17l-7 -18l-7 -8l-4 5l-5 8l-4 17l-9 31l-4 24v14l-2 14c0 5.33301 2 10 6 14l6 9c1.33301 3.33301 5.33301 6 12 8zM356.999 374.002
c11.333 -14.667 31.667 -22 61 -22c37.333 0 61.333 11 72 33l8 35l1 35c2 36.667 -9.66699 55 -35 55c-21.333 0 -45.333 -13.5 -72 -40.5s-40 -52.167 -40 -75.5z" />
    <glyph glyph-name="uFEF5" unicode="&#xfedf;&#xfe82;" horiz-adv-x="894" arabic-form="isolated" 
d="M174 1170l7 0.000976562c16.667 0 33.667 -4.33301 51 -13l33 -12l30 -9l25 -8c12.667 0 25 2 37 6l14 3l29 9l12 5l15 7c6 2.66699 12 6.66699 18 12l23 15c3.33301 0 7 -3 11 -9l2 -8l2 -9c0 -4.66699 -5 -12.334 -15 -23.001l-20 -21l-21 -21l-21 -18l-23 -12l-22 -10
l-20 -6l-19 -1h-14l-17 3l-48 17l-47 15c-11.333 3.33301 -23.333 5 -36 5l-130 -25c-5.33301 0 -8.33301 2.33301 -9 7l6 10l19 22l66 49l20 13l19 5zM707 461.001c30 -44 49.3311 -85.333 57.998 -124l14 -61c4 -15.333 6 -35.333 6 -60c0 -40.667 -6 -77.667 -18 -111
c-2 -10.667 -5.66699 -20.334 -11 -29.001l-5 -13l-8 -10l-36 -53c-25.333 -38 -68 -72 -128 -102c-16 -6 -43 -14.333 -81 -25l-43 -7l-42 -3c-50.667 -3.33301 -105.667 8.66699 -165 36c-52.667 24 -96 57.667 -130 101c-28.667 36.667 -51.667 76.667 -69 120
c-14 36.667 -21 79 -21 127c0 42 6.66699 80.667 20 116c6 16.667 15.333 34 28 52l18 21l25 26c11.333 11.333 25 21.333 41 30l63 35l54 42c26.667 20 41 32 43 36c27.333 30.667 41 64.334 41 101.001l-4 26l-11 47c-2 11.333 -5 20.666 -9 27.999
c-13.333 23.333 -31.666 35 -54.999 35l-34 -10c-10.667 -4 -17.667 -6 -21 -6c-17.333 0 -34.666 6.66699 -51.999 20l-15 16l-20 26l-10 17l-7 24c0 8.66699 4 17.334 12 26.001l48 51c10.667 14.667 27.667 24.667 51 30l21 2c25.333 2 48.333 -6.33301 69 -25
c10 -8 29.333 -33.667 58 -77l19 -50l17 -31l18 -22c10.667 -6.66699 19 -11 25 -13c6 0 9 9.33301 9 28v29l-4 22l-9 111c-1.33301 16.667 0.666992 36.334 6 59.001c3.33301 16 11.333 31.333 24 46l24 21l20 12l49 25l37 19l13 4c7.33301 0 11.666 0.666992 12.999 2
l17 -6l15 -7l22 -28l7 -16l2 -15l6 -11c3.33301 -12.667 5 -26.667 5 -42c0 -10.667 -2.66699 -20.667 -8 -30l-18 -14l-37 -17l-24 -8c-22.667 -10.667 -34 -34.667 -34 -72v-10l-2 -13l-5 -23c-1.33301 -8.66699 -2.66602 -14.334 -3.99902 -17.001l-28 -74l-4 -25l-2 -19
c0 -54.667 25.667 -118.667 77 -192l61 -71zM323.998 461.001l-4 -15.002c0 -13.333 7.66699 -23.666 23 -30.999s37 -11 65 -11c64.667 0 105.667 19 123 57l4 17c0 9.33301 0.333008 15.333 1 18c0 18 -1 30.833 -3 38.5s-7.33301 18.834 -16 33.501
c-12 20.667 -27.667 31 -47 31c-6 0 -10.333 -0.333008 -13 -1c-10.667 -5.33301 -21.667 -16 -33 -32l-23 -40c-6 -8 -20 -18 -42 -30l-18 -14z" />
    <glyph glyph-name="uFEF6" unicode="&#xfee0;&#xfe82;" horiz-adv-x="1082" arabic-form="final" 
d="M516 1191h8.00098l11 1c8 0 22 -3.33301 42 -10l30 -17c13.333 -6.66699 22.666 -10.334 27.999 -11.001l28 -6h24l15 4l31 9l28 13l28 17l13 9l11 5l9 -9l1 -7c2 -4 0.333008 -12.667 -5 -26c-8.66699 -7.33301 -17 -15.666 -25 -24.999l-23 -23l-18 -16
c-15.333 -11.333 -31.333 -19.333 -48 -24l-20 -6l-19 -2c-15.333 0 -41 6.66699 -77 20c-38 14 -66.333 21 -85 21l-18 -3l-30 -6l-57 -14l-15 -1l-10 -2l-5 2l-5 3c0 5.33301 12.333 19.333 37 42l29 23l18 13l21 11l22 9zM243.001 828
c-6.66699 -8 -21.999 -14.9971 -45.999 -20.9971c-30 0 -61.333 20.333 -94 61l-17 22l-19 30c-8.66699 12 -18.667 33.667 -30 65l-4 14l3 17l6 22l15 29l20 34c40 63.333 70.667 95 92 95c65.333 0 166.666 -91.333 303.999 -274c34.667 -46 62.334 -106 83.001 -180
l49 -172c14 -50.667 26.667 -77.334 38 -80.001c7.33301 0 18 12.333 32 37l7 18l9 28l9 35l28 81l10 36l15 62l10 48l9 66c7.33301 52.667 11 115.334 11 188.001c0 7.33301 9.33301 18.333 28 33l28 23l38 37c16.667 12.667 29 19.667 37 21c5.33301 0 11.333 -3 18 -9
s10 -14 10 -24c0 -9.33301 -1.33301 -16 -4 -20l-9 -39l-13 -573l7 -37l17 -18l11 -8l13 -5l26 -4l16 -3h51l14 1l14 -1l17 -2c39.333 -10.667 70.333 -37.334 93 -80.001c24.667 -44.667 36 -92.334 34 -143.001l-1 -32v-18l-6 -26l-8 -32l-16 -36
c-17.333 -40 -49.333 -71.333 -96 -94l-15 -4l-20 -5l-38 -4c-35.333 0 -67.666 5 -96.999 15l-32 11l-30 13c-16.667 8 -32.334 45 -47.001 111c-13.333 63.333 -35.666 97.333 -66.999 102h-12c-23.333 0 -43.333 -13.333 -60 -40
c-48.667 -78 -79.334 -121.333 -92.001 -130l-57 -29l-63 -24l-59 -14l-63 -4c-70.667 -4 -130.334 19 -179.001 69c-51.333 52 -77 132.333 -77 241l-11 65c-4 21.333 -6 35.333 -6 42c0 29.333 11.667 44 35 44c10 0 23.667 -7.66699 41 -23l16 -10l21 -8l68 -14l34 -4h34
l59 4l30 4l17 3l21 9l19 9c10.667 5.33301 18.667 13.666 24 24.999l3 10l2 21l4 22v13c0 12.667 -3.66699 32.334 -11 59.001l-14 30l-23 34l-66 89c-14 39.333 -31.333 78.666 -52 117.999c-13.333 25.333 -27.333 38 -42 38c-6 0 -13 -2.33301 -21 -7
c-4 -2 -6.66699 -4.33301 -8 -7l-13 -32z" />
    <glyph glyph-name="uFEF7" unicode="&#xfedf;&#xfe84;" horiz-adv-x="921" arabic-form="isolated" 
d="M241 1075c14 -4 21.002 -14.668 21.002 -32.001c0 -12.667 -5 -26.667 -15 -42l-10 -16c-6 -9.33301 -13 -16.666 -21 -21.999c-2.66699 -2 -14.334 -5.33301 -35.001 -10c-12.667 0 -23.334 -1.33301 -32.001 -4l-42 -11c-8 0 -26 -8.33301 -54 -25l-16 -6l-13 -3
c-26.667 0 -40 17 -40 51c0 8.66699 0.666992 14 2 16l8 20c5.33301 12.667 14.333 23.334 27 32.001l16 4h14l5 2l7 3l5 11c0 4 -5.66699 14 -17 30l-9 20c0 27.333 11.167 51.666 33.5 72.999s45.833 32 70.5 32c13.333 0 28 -3.33301 44 -10c20 -8 30 -17.667 30 -29
l-2 -11l-6 -5l-8 -4l-12 -1h-21l-18 1c-6 0 -9.66699 -0.333008 -11 -1c-17.333 -10.667 -26 -22.667 -26 -36c0 -24 22.333 -36 67 -36l18 3l14 4l15 3zM781.002 460.999c29.333 -44 48.6631 -85.334 57.9961 -124.001l14 -61c4 -15.333 6 -35.333 6 -60
c0 -40.667 -6 -77.667 -18 -111c-2 -10.667 -5.66699 -20.334 -11 -29.001l-6 -13l-7 -10l-36 -53c-8 -12.667 -16.333 -22.667 -25 -30l-31 -27l-42 -28l-31 -17c-15.333 -6 -42.333 -14.333 -81 -25l-42 -7l-42 -3c-51.333 -3.33301 -106.333 8.66699 -165 36
c-52.667 24 -96 57.667 -130 101c-28.667 36.667 -51.667 76.667 -69 120c-14 36.667 -21 79 -21 127c0 42 6.33301 80.667 19 116c6.66699 16.667 16 34 28 52l18 21l25 25l17 13l23 16l65 37c58 44 96 74.667 114 92c8.66699 12.667 15 24.334 19 35.001l5 17l1 20l-1 15
l-4 26c-8.66699 36 -16 60.333 -22 73c-13.333 24.667 -31.333 37 -54 37l-33 -10c-10.667 -4 -17.667 -6 -21 -6c-16.667 0 -34.334 6.66699 -53.001 20l-34 42l-10 17l-7 24c0 7.33301 3.66699 15.333 11 24l24 20l39 39l19 14l19 10c6.66699 3.33301 15 5 25 5
c32.667 0 73.667 -34.333 123 -103l18 -48c8.66699 -23.333 20.334 -42.333 35.001 -57c10.667 -6.66699 18.334 -11 23.001 -13c7.33301 0 10.333 9.33301 9 28l-4 49v33l-3 35l-4 41c-1.33301 14 0.333984 36.333 5.00098 67l8 22c2.66699 6 8.33398 12.667 17.001 20
l24 21l20 12l49 25l37 19l13 4c7.33301 0 11.666 0.666992 12.999 2c9.33301 -2 19 -7 29 -15l23 -29c8.66699 -12 13.334 -26.333 14.001 -43l2 -44l2 -13l-4 -13c-3.33301 -8 -11.666 -15 -24.999 -21l-32 -10l-22 -6c-7.33301 -1.33301 -15 -8.66602 -23 -21.999l-14 -50
v-13c0 -13.333 -0.833008 -25 -2.5 -35s-3.5 -17 -5.5 -21l-8 -15l-20 -53l-5 -25l-1 -19c0 -54.667 25.667 -118.667 77 -192l61 -71zM397.999 460.998l-3.99805 -15.002c0 -13.333 7.66699 -23.666 23 -30.999s36.666 -11 63.999 -11c65.333 0 106.666 19 123.999 57l3 17
c0 9.33301 0.666992 15.333 2 18c0 18 -1 30.833 -3 38.5s-7.33301 18.834 -16 33.501c-12 20.667 -27.667 31 -47 31c-6 0 -10.333 -0.333008 -13 -1c-10.667 -5.33301 -21.667 -16 -33 -32l-23 -40c-6 -8 -20 -18 -42 -30l-18 -14z" />
    <glyph glyph-name="uFEF8" unicode="&#xfee0;&#xfe84;" horiz-adv-x="1082" arabic-form="final" 
d="M756 1075c12 -4 17.999 -14.668 17.999 -32.001c0 -13.333 -4.33301 -27.333 -13 -42l-15 -22l-14 -14c-3.33301 -3.33301 -15.666 -7.33301 -36.999 -12l-24 -1l-10 -3l-40 -11l-16 -6l-17 -9c-11.333 -6 -28 -12.333 -50 -19c-8 0 -15.333 2.33301 -22 7
c-12 10 -18 25.333 -18 46c0 10.667 0.333008 17 1 19l9 22c2 4 11 12.333 27 25l16 4h15c3.33301 0 7 1.66699 11 5l5 11c0 5.33301 -5.33301 15.333 -16 30l-5 7l-5 13c0 26.667 10.667 50.834 32 72.501s45.333 32.5 72 32.5c10 0 25.667 -3.66699 47 -11l17 -11l9 -17
l-3 -11l-3 -4l-6 -5l-15 -1h-28c-5.33301 0 -9 0.333008 -11 1c-6 0 -9.66699 -0.333008 -11 -1c-12 -6 -20.667 -18 -26 -36c0 -24 22.333 -36 67 -36l18 3l27 7zM242.999 827.999c-6.66699 -8 -21.999 -14.9971 -45.999 -20.9971c-30 0 -61.333 20.333 -94 61l-17 22
l-19 30c-8.66699 12 -18.667 33.667 -30 65l-4 14l3 17l6 22l15 29l20 34c40 63.333 70.667 95 92 95c65.333 0 166.666 -91.333 303.999 -274c34.667 -46 62.334 -106 83.001 -180l49 -172c14 -50.667 26.667 -77.334 38 -80.001c7.33301 0 18 12.333 32 37l7 18l9 28l9 35
l28 81l10 36l15 62l10 48l9 66c7.33301 52.667 11 115.334 11 188.001c0 4 2.66699 11.333 8 22l11 17c14 20.667 30 39 48 55l30 21l25 7c10.667 0 19.667 -5.66699 27 -17l8 -24l-6 -29c-3.33301 -12 -5 -22 -5 -30l-13 -573l7 -37l17 -18l11 -8l13 -5l26 -4l16 -3h51
l14 1l14 -1l17 -2c39.333 -10.667 70.333 -37.334 93 -80.001c24.667 -44.667 36 -92.334 34 -143.001l-1 -32v-18l-6 -26l-8 -32l-16 -36c-17.333 -40 -49.333 -71.333 -96 -94l-15 -4l-20 -5l-38 -4c-35.333 0 -67.666 5 -96.999 15l-32 11l-30 13
c-16.667 8 -32.334 45 -47.001 111c-13.333 63.333 -35.666 97.333 -66.999 102h-12c-23.333 0 -43.333 -13.333 -60 -40c-48.667 -78 -79.334 -121.333 -92.001 -130l-57 -29l-63 -24l-59 -14l-63 -4c-70.667 -4 -130.334 19 -179.001 69c-51.333 52 -77 132.333 -77 241
l-11 65c-4 21.333 -6 35.333 -6 42c0 29.333 11.667 44 35 44c10 0 23.667 -7.66699 41 -23l16 -10l21 -8l68 -14l34 -4h34l59 4l30 4l17 3l21 9l19 9c10.667 5.33301 18.667 13.666 24 24.999l3 10l2 21l4 22v13c0 12.667 -3.66699 32.334 -11 59.001l-14 30l-23 34l-66 89
c-14 39.333 -31.333 78.666 -52 117.999c-13.333 25.333 -27.333 38 -42 38c-6 0 -13 -2.33301 -21 -7c-4 -2 -6.66699 -4.33301 -8 -7l-13 -32z" />
    <glyph glyph-name="uFEF9" unicode="&#xfedf;&#xfe88;" horiz-adv-x="934" arabic-form="isolated" 
d="M475 -332c14 -5.33301 21 -15.667 21 -31c0 -18.667 -8 -38 -24 -58c-17.333 -22 -35.333 -33 -54 -33l-35 -3l-42 -11c-4.66699 0 -22.667 -9.33301 -54 -28l-15 -5l-14 -4c-26.667 0 -40 17.667 -40 53v17l2 10l9 14c3.33301 10.667 12 20 26 28l16 3h14l5 2l7 4l5 11
c0 4 -5.66699 13.667 -17 29c-5.33301 6 -8.33301 13 -9 21c0 26 10.667 50.667 32 74c23.333 20.667 47.333 31 72 31c11.333 0 18 -0.666992 20 -2l27 -10c18 -6 27 -15 27 -27l-2 -11l-6 -5l-8 -4l-14 -2h-18l-19 2c-6 0 -9.66699 -0.666992 -11 -2
c-17.333 -9.33301 -26 -21 -26 -35c0 -24.667 22.333 -37 67 -37l18 4l28 7zM707 460.999c30 -44 49.3311 -85.333 57.998 -124l14 -61c4 -15.333 6 -35.333 6 -60c0 -40.667 -6 -77.667 -18 -111c-2 -10.667 -5.66699 -20.334 -11 -29.001l-5 -13l-8 -10l-36 -53
c-25.333 -38 -68 -72 -128 -102c-16 -6 -43 -14.333 -81 -25l-43 -7l-42 -3c-50.667 -3.33301 -105.667 8.66699 -165 36c-52.667 24 -96 57.667 -130 101c-28.667 36.667 -51.667 76.667 -69 120c-14 36.667 -21 79 -21 127c0 42 6.66699 80.667 20 116
c6 16.667 15.333 34 28 52l18 21l25 26c11.333 11.333 25 21.333 41 30l63 35l54 42c26.667 20 41 32 43 36c27.333 30.667 41 64.334 41 101.001l-4 26l-11 47c-2 11.333 -5 20.666 -9 27.999c-13.333 23.333 -31.666 35 -54.999 35l-34 -10c-10.667 -4 -17.667 -6 -21 -6
c-17.333 0 -34.666 6.66699 -51.999 20l-15 16l-20 26l-10 17l-7 24c0 8.66699 4 17.334 12 26.001l48 51c10.667 14.667 27.667 24.667 51 30l21 2c25.333 2 48.333 -6.33301 69 -25c10 -8 29.333 -33.667 58 -77l19 -50l17 -31l18 -22c10.667 -6.66699 19 -11 25 -13
c6 0 9 9.33301 9 28v29l-4 22l-9 111c-1.33301 16.667 0.666992 36.334 6 59.001c3.33301 16 11.333 31.333 24 46l24 21l20 12l49 25l37 19l13 4c7.33301 0 11.666 0.666992 12.999 2l17 -6l15 -7l22 -28l7 -16l2 -15l6 -11c3.33301 -12.667 5 -26.667 5 -42
c0 -10.667 -2.66699 -20.667 -8 -30l-18 -14l-37 -17l-24 -8c-22.667 -10.667 -34 -34.667 -34 -72v-10l-2 -13l-5 -23c-1.33301 -8.66699 -2.66602 -14.334 -3.99902 -17.001l-28 -74l-4 -25l-2 -19c0 -54.667 25.667 -118.667 77 -192l61 -71zM323.998 460.999l-4 -15.002
c0 -13.333 7.66699 -23.666 23 -30.999s37 -11 65 -11c64.667 0 105.667 19 123 57l4 17c0 9.33301 0.333008 15.333 1 18c0 18 -1 30.833 -3 38.5s-7.33301 18.834 -16 33.501c-12 20.667 -27.667 31 -47 31c-6 0 -10.333 -0.333008 -13 -1
c-10.667 -5.33301 -21.667 -16 -33 -32l-23 -40c-6 -8 -20 -18 -42 -30l-18 -14z" />
    <glyph glyph-name="uFEFA" unicode="&#xfee0;&#xfe88;" horiz-adv-x="1082" arabic-form="final" 
d="M667 -332c10 -3.33301 15 -10.667 15 -22c0 -9.33301 -1.33301 -17 -4 -23l-17 -34l-19 -32l-67 -14l-42 -11l-106 -28l-1 15l-4 33l1 20c0.666992 17.333 8.33398 32.333 23.001 45l17 3h14l4 2l8 4l5 11c0 4 -5.66699 13.667 -17 29c-6 6 -9 13 -9 21
c-0.666992 26 9.66602 50.667 30.999 74c23.333 20.667 47.333 31 72 31c12 0 19 -0.666992 21 -2l27 -10c17.333 -6 26 -15 26 -27l-2 -11l-5 -5l-8 -4l-14 -2h-18l-19 2c-6 0 -9.66699 -0.666992 -11 -2c-17.333 -9.33301 -26 -21 -26 -35c0 -24.667 22 -37 66 -37l18 4
l28 7zM243 827.999c-6.66699 -8 -21.999 -14.9971 -45.999 -20.9971c-30 0 -61.333 20.333 -94 61l-17 22l-19 30c-8.66699 12 -18.667 33.667 -30 65l-4 14l3 17l6 22l15 29l20 34c40 63.333 70.667 95 92 95c65.333 0 166.666 -91.333 303.999 -274
c34.667 -46 62.334 -106 83.001 -180l49 -172c14 -50.667 26.667 -77.334 38 -80.001c7.33301 0 18 12.333 32 37l7 18l9 28l9 35l28 81l10 36l15 62l10 48l9 66c7.33301 52.667 11 115.334 11 188.001c0 4 2.66699 11.333 8 22l11 17c14 20.667 30 39 48 55l30 21l25 7
c10.667 0 19.667 -5.66699 27 -17l8 -24l-6 -29c-3.33301 -12 -5 -22 -5 -30l-13 -573l7 -37l17 -18l11 -8l13 -5l26 -4l16 -3h51l14 1l14 -1l17 -2c39.333 -10.667 70.333 -37.334 93 -80.001c24.667 -44.667 36 -92.334 34 -143.001l-1 -32v-18l-6 -26l-8 -32l-16 -36
c-17.333 -40 -49.333 -71.333 -96 -94l-15 -4l-20 -5l-38 -4c-35.333 0 -67.666 5 -96.999 15l-32 11l-30 13c-16.667 8 -32.334 45 -47.001 111c-13.333 63.333 -35.666 97.333 -66.999 102h-12c-23.333 0 -43.333 -13.333 -60 -40
c-48.667 -78 -79.334 -121.333 -92.001 -130l-57 -29l-63 -24l-59 -14l-63 -4c-70.667 -4 -130.334 19 -179.001 69c-51.333 52 -77 132.333 -77 241l-11 65c-4 21.333 -6 35.333 -6 42c0 29.333 11.667 44 35 44c10 0 23.667 -7.66699 41 -23l16 -10l21 -8l68 -14l34 -4h34
l59 4l30 4l17 3l21 9l19 9c10.667 5.33301 18.667 13.666 24 24.999l3 10l2 21l4 22v13c0 12.667 -3.66699 32.334 -11 59.001l-14 30l-23 34l-66 89c-14 39.333 -31.333 78.666 -52 117.999c-13.333 25.333 -27.333 38 -42 38c-6 0 -13 -2.33301 -21 -7
c-4 -2 -6.66699 -4.33301 -8 -7l-13 -32z" />
    <glyph glyph-name="uFEFB" unicode="&#xfedf;&#xfe8e;" horiz-adv-x="894" arabic-form="isolated" 
d="M707 461c30 -44 49.3311 -85.333 57.998 -124l14 -61c4 -15.333 6 -35.333 6 -60c0 -40.667 -6 -77.667 -18 -111c-2 -10.667 -5.66699 -20.334 -11 -29.001l-5 -13l-8 -10l-36 -53c-25.333 -38 -68 -72 -128 -102c-16 -6 -43 -14.333 -81 -25l-43 -7l-42 -3
c-50.667 -3.33301 -105.667 8.66699 -165 36c-52.667 24 -96 57.667 -130 101c-28.667 36.667 -51.667 76.667 -69 120c-14 36.667 -21 79 -21 127c0 42 6.66699 80.667 20 116c6 16.667 15.333 34 28 52l18 21l25 26c11.333 11.333 25 21.333 41 30l63 35l54 42
c26.667 20 41 32 43 36c27.333 30.667 41 64.334 41 101.001l-4 26l-11 47c-2 11.333 -5 20.666 -9 27.999c-13.333 23.333 -31.666 35 -54.999 35l-34 -10c-10.667 -4 -17.667 -6 -21 -6c-17.333 0 -34.666 6.66699 -51.999 20l-15 16l-20 26l-10 17l-7 24
c0 8.66699 4 17.334 12 26.001l48 51c10.667 14.667 27.667 24.667 51 30l21 2c25.333 2 48.333 -6.33301 69 -25c10 -8 29.333 -33.667 58 -77l19 -50l17 -31l18 -22c10.667 -6.66699 19 -11 25 -13c6 0 9 9.33301 9 28v29l-4 22l-9 111
c-1.33301 16.667 0.666992 36.334 6 59.001c3.33301 16 11.333 31.333 24 46l24 21l20 12l49 25l37 19l13 4c7.33301 0 11.666 0.666992 12.999 2l17 -6l15 -7l22 -28l7 -16l2 -15l6 -11c3.33301 -12.667 5 -26.667 5 -42c0 -10.667 -2.66699 -20.667 -8 -30l-18 -14
l-37 -17l-24 -8c-22.667 -10.667 -34 -34.667 -34 -72v-10l-2 -13l-5 -23c-1.33301 -8.66699 -2.66602 -14.334 -3.99902 -17.001l-28 -74l-4 -25l-2 -19c0 -54.667 25.667 -118.667 77 -192l61 -71zM323.998 461l-4 -15.002c0 -13.333 7.66699 -23.666 23 -30.999
s37 -11 65 -11c64.667 0 105.667 19 123 57l4 17c0 9.33301 0.333008 15.333 1 18c0 18 -1 30.833 -3 38.5s-7.33301 18.834 -16 33.501c-12 20.667 -27.667 31 -47 31c-6 0 -10.333 -0.333008 -13 -1c-10.667 -5.33301 -21.667 -16 -33 -32l-23 -40c-6 -8 -20 -18 -42 -30
l-18 -14z" />
    <glyph glyph-name="uFEFC" unicode="&#xfee0;&#xfe8e;" horiz-adv-x="1082" arabic-form="final" 
d="M243 828c-6.66699 -8 -21.9971 -14.999 -45.9971 -20.999c-30 0 -61.333 20.333 -94 61l-17 22l-19 30c-8.66699 12 -18.667 33.667 -30 65l-4 14l3 17l6 22l15 29l20 34c40 63.333 70.667 95 92 95c65.333 0 166.666 -91.333 303.999 -274
c34.667 -46 62.334 -106 83.001 -180l49 -172c14 -50.667 26.667 -77.334 38 -80.001c7.33301 0 18 12.333 32 37l7 18l9 28l9 35l28 81l10 36l15 62l10 48l9 66c7.33301 52.667 11 115.334 11 188.001c0 4 2.66699 11.333 8 22l11 17c14 20.667 30 39 48 55l30 21l25 7
c10.667 0 19.667 -5.66699 27 -17l8 -24l-6 -29c-3.33301 -12 -5 -22 -5 -30l-13 -573l7 -37l17 -18l11 -8l13 -5l24 -4c9.33301 0 14.666 -0.666992 15.999 -2l17 -1l22 1h23l17 -1l18 -2c39.333 -12 71 -39 95 -81c22.667 -39.333 33.334 -86.333 32.001 -141l-1 -33
l-1 -18l-6 -26c-2.66699 -12.667 -6.33398 -25.334 -11.001 -38.001l-13 -30c-16 -39.333 -47.667 -70.666 -95 -93.999l-35 -9l-39 -4c-33.333 0 -65 5 -95 15l-33 11l-14 6l-17 9c-10.667 6 -24 42.333 -40 109c-14.667 61.333 -38.667 95.333 -72 102h-12
c-23.333 0 -43.333 -13.333 -60 -40c-48.667 -78 -79.334 -121.333 -92.001 -130l-57 -29l-63 -24l-59 -14l-63 -4c-70.667 -4 -130.334 19 -179.001 69c-51.333 52 -77 132.333 -77 241l-11 65c-4 21.333 -6 35.333 -6 42c0 29.333 11.667 44 35 44
c10 0 23.667 -7.66699 41 -23l16 -10l21 -8l68 -14l34 -4h34l59 4l30 4l17 3l21 9l19 9c10.667 5.33301 18.667 13.666 24 24.999l3 10l2 21l4 22v13c0 12.667 -3.66699 32.334 -11 59.001l-14 30l-23 34l-66 89c-14 39.333 -31.333 78.666 -52 117.999
c-13.333 25.333 -27.333 38 -42 38c-6 0 -13 -2.33301 -21 -7c-4 -2 -6.66699 -4.33301 -8 -7l-13 -32z" />
    <glyph glyph-name="u0652_u064E.liga" unicode="&#x652;&#x64e;" horiz-adv-x="1" 
d="M144 905c-26.667 13.333 -43.334 24.999 -50.001 34.999c-9.33301 12.667 -13 32.667 -11 60l16 242c44.667 -23.333 66.334 -46.666 65.001 -69.999z" />
    <glyph glyph-name="u0652_u064B.liga" unicode="&#x652;&#x64b;" horiz-adv-x="1" 
d="M401 965c0 31.333 11.333 58.167 34 80.5s49.667 33.5 81 33.5c32 0 59 -11 81 -33s33 -49 33 -81c0 -30 -11 -57 -33 -81c-17.333 -16 -44.333 -27.333 -81 -34c-31.333 0 -58.333 11.5 -81 34.5s-34 49.833 -34 80.5zM158 965.001
c0 32.667 11.001 59.8311 33.001 81.498s49.333 32.5 82 32.5c31.333 0 58.166 -11.167 80.499 -33.5s33.5 -49.166 33.5 -80.499c0 -30 -11 -57 -33 -81c-11.333 -9.33301 -24 -17.666 -38 -24.999c-16 -6 -30.333 -9 -43 -9c-32 0 -59.167 11.167 -81.5 33.5
s-33.5 49.5 -33.5 81.5z" />
    <glyph glyph-name="u0652_u064D.liga" unicode="&#x652;&#x64d;" horiz-adv-x="1" 
d="M473 -613c0 32 11.167 59 33.5 81s49.5 33 81.5 33c32.667 0 59.834 -10.833 81.501 -32.5s32.5 -48.834 32.5 -81.501c0 -31.333 -11.333 -58.166 -34 -80.499s-49.334 -33.5 -80.001 -33.5c-29.333 0 -56.333 11 -81 33c-9.33301 10.667 -17.333 23.667 -24 39
s-10 29.333 -10 42zM230 -613c0 32 11.167 59.001 33.5 81.001s49.5 33 81.5 33c32.667 0 59.834 -10.833 81.501 -32.5s32.5 -48.834 32.5 -81.501c0 -52.667 -24.333 -87.667 -73 -105c-16.667 -6 -30.334 -9 -41.001 -9c-32 0 -59.167 11 -81.5 33s-33.5 49 -33.5 81z
" />
    <glyph glyph-name="u0622" unicode="&#x622;" horiz-adv-x="643" arabic-form="isolated" 
d="M199 1191l7.00098 0.000976562l20 -1c8 -0.666992 15 -2.33398 21 -5.00098l45 -20c24.667 -11.333 42.667 -17 54 -17l21 1c8 0.666992 14.333 2 19 4l28 8l31 13l28 17l14 9l9 3l7 -7l4 -7c1.33301 -8 -1.33398 -17.333 -8.00098 -28l-26 -25
c-12 -18 -24.333 -30.667 -37 -38l-21 -13l-28 -10l-20 -6l-19 -2c-8 0 -33.333 6.66699 -76 20l-50 15c-11.333 4 -23.333 6 -36 6l-17 -2l-13 -3l-19 -4l-54 -14l-28 -3l-5 2l-4 3c0 5.33301 12.333 19.333 37 42l29 23l18 13l21 11c10 7.33301 26 12.333 48 15z
M230.001 872.001l-5.00098 40.999l-7 30l-4 21l1 15l6 16c8.66699 14 23 24.667 43 32c24.667 0 41.667 1 51 3l23 4l20 7c12.667 4 31 11.667 55 23l31 19l26 6c5.33301 0 14 -3.66699 26 -11l34 -21c40.667 -24 60 -58.667 58 -104l-1 -20
c-0.666992 -8 -2.5 -17.167 -5.5 -27.5s-11.5 -28.5 -25.5 -54.5c0 -6 -0.666992 -10 -2 -12c-1.33301 -7.33301 -6.66602 -18 -15.999 -32l-12 -10l-12 -8l-30 -23c-12 -9.33301 -19 -16 -21 -20c24.667 -60.667 41 -111.667 49 -153l19 -95l4 -43l2 -42
c2 -45.333 -4.16699 -92.166 -18.5 -140.499s-38.833 -90.5 -73.5 -126.5l-6 -10l-2 -15l-1 -14c-3.33301 -8.66699 -12 -20 -26 -34l-66 -53l-11 -7l-12 -6l-22 -6l-21 -3h-9c-12.667 0 -22.667 4 -30 12c-6 12 -9 22.667 -9 32c0 12.667 5.66699 41.667 17 87l18 46l7 21
c0 4 -2.66699 10.667 -8 20c-84.667 96 -127 201.667 -127 317c0 56.667 10 112.667 30 168z" />
    <glyph glyph-name="u0623" unicode="&#x623;" horiz-adv-x="782" arabic-form="isolated" 
d="M475 1263c14 -7.33301 21 -18 21 -32c0 -12.667 -5 -26 -15 -40l-15 -23l-14 -15c-4.66699 -3.33301 -11.667 -6 -21 -8l-17 -4l-15 -2l-19 -2c-8 0 -14.667 -1.66699 -20 -5l-11 -3l-9 -4l-26 -12l-27 -12l-16 -8c-4 -1.33301 -8.33301 -2 -13 -2
c-6 0 -13.333 2.66699 -22 8c-12 10 -18 24.667 -18 44c0 9.33301 0.666992 15.333 2 18c0 5.33301 2.33301 12 7 20l11 20l17 10l16 4h14c4.66699 1.33301 8.66699 3 12 5l5 11c1.33301 4.66699 1 8.33398 -1 11.001l-16 18l-9 21l-2 14c0 17.333 11.5 36.833 34.5 58.5
s46.833 32.5 71.5 32.5c9.33301 0 25 -3.66699 47 -11c6.66699 -2 12.667 -5 18 -9s8.33301 -10.333 9 -19l-3 -12l-10 -8l-17 -1h-18l-19 1c-6 0 -9.66699 -0.333008 -11 -1c-17.333 -10.667 -26 -22.334 -26 -35.001c0 -24.667 22.333 -37 67 -37l18 3l28 9zM230 872
l-5.00098 40.999l-7 30l-4 21l1 15l6 16c8.66699 14 23 24.667 43 32c24.667 0 41.667 1 51 3l23 4l20 7c12.667 4 31 11.667 55 23l31 19l26 6c5.33301 0 14 -3.66699 26 -11l34 -21c40.667 -24 60 -58.667 58 -104l-1 -20c-0.666992 -8 -2.5 -17.167 -5.5 -27.5
s-11.5 -28.5 -25.5 -54.5c0 -6 -0.666992 -10 -2 -12c-1.33301 -7.33301 -6.66602 -18 -15.999 -32l-12 -10l-12 -8l-30 -23c-12 -9.33301 -19 -16 -21 -20c24.667 -60.667 41 -111.667 49 -153l19 -95l4 -43l2 -42c2 -45.333 -4.16699 -92.166 -18.5 -140.499
s-38.833 -90.5 -73.5 -126.5l-6 -10l-2 -15l-1 -14c-3.33301 -8.66699 -12 -20 -26 -34l-66 -53l-11 -7l-12 -6l-22 -6l-21 -3h-9c-12.667 0 -22.667 4 -30 12c-6 12 -9 22.667 -9 32c0 12.667 5.66699 41.667 17 87l18 46l7 21c0 4 -2.66699 10.667 -8 20
c-84.667 96 -127 201.667 -127 317c0 56.667 10 112.667 30 168z" />
    <glyph glyph-name="u0624" unicode="&#x624;" horiz-adv-x="1026" arabic-form="isolated" 
d="M890 -5c-21.333 -46 -50 -92.666 -86 -139.999c-30 -38.667 -65.333 -72.667 -106 -102c-74.667 -54 -153.667 -81 -237 -81c-56 0 -121.667 18 -197 54l-56 35c-13.333 7.33301 -33.333 21.333 -60 42c-52 36 -78 60.333 -78 73c0 3.33301 4.33301 6 13 8l12 -2
c7.33301 0 14.333 -2.33301 21 -7l28 -7l48 -7l42 -1c50 -2.66699 101.333 3.66602 154 18.999c44.667 12.667 87.334 37.667 128.001 75l24 16c8.66699 6 13 14.333 13 25c0 3.33301 -5 6.33301 -15 9l-21 -4l-21 -2h-21l-9 2l-18 1l-21 6c-17.333 4 -40.666 12 -69.999 24
l-14 7l-16 9l-9 6c-6 4 -11.667 9.66699 -17 17c-30.667 27.333 -46 79 -46 155c0 117.333 30.333 240 91 368c36 75.333 62.667 122.666 80 141.999c27.333 32 64.666 48 111.999 48l13 -2c67.333 0 124.666 -25 171.999 -75c36 -39.333 72.333 -100.666 109 -183.999
c50 -116 75 -248.333 75 -397c0 -62 -5.66699 -105.333 -17 -130zM324 918.001c14 -4 20.999 -14.668 20.999 -32.001c0 -10.667 -5 -24.667 -15 -42l-19 -26l-13 -12l-34 -10c-14 0 -25.333 -1 -34 -3l-40 -12c-7.33301 0 -25 -8.33301 -53 -25l-13 -5l-17 -5
c-6 0 -13.333 2.66699 -22 8c-12 10 -18 24.667 -18 44c0 10 0.333008 16 1 18c0 16.667 11.667 33.667 35 51l17 3h15c3.33301 0 7 2 11 6l5 10l-16 30l-10 20c0 26.667 10.667 50.834 32 72.501s45.333 32.5 72 32.5c12.667 0 27.334 -3.33301 44.001 -10
c19.333 -8 29 -17.333 29 -28l-1 -11l-6 -6l-8 -3l-14 -2h-18l-19 2c-6 0 -9.66699 -0.666992 -11 -2c-17.333 -10 -26 -21.667 -26 -35c0 -24.667 22 -37 66 -37l18 4l28 9zM681.999 477l-16 36l-13 16l-17 18l-28 23c-2.66699 2.66699 -13 8.66699 -31 18l-18 6l-12 4
l-20 -6l-20 -15c-9.33301 -14.667 -15 -30.667 -17 -48c0 -8 1.33301 -14.333 4 -19l14 -18l4 -3l10 -7l16 -7l39 -3l33 -6l15 -2h30l15 2l10 4l4 5z" />
    <glyph glyph-name="u0625" unicode="&#x625;" horiz-adv-x="683" arabic-form="isolated" 
d="M376 -328l-26.001 -110.001l-13 -2l-7 -3l-15 -3l-33 -9l-22 -4l-19 -5l-104 -28l18 112l44 11c-14.667 19.333 -22 39 -22 59c0 23.333 11 48 33 74c22 21.333 45.333 32 70 32c26.667 0 50.667 -16.333 72 -49c-33.333 0 -58.666 -4.66699 -75.999 -14
c-14 -5.33301 -22.333 -16.666 -25 -33.999c0 -24 22 -36 66 -36h12l17 1c9.33301 0 15 0.666992 17 2zM229.999 871.999l-5.00098 40.999l-7 30l-4 21l1 15l6 16c8.66699 14 23 24.667 43 32c24.667 0 41.667 1 51 3l23 4l20 7c12.667 4 31 11.667 55 23l31 19l26 6
c5.33301 0 14 -3.66699 26 -11l34 -21c40.667 -24 60 -58.667 58 -104l-1 -20c-0.666992 -8 -2.5 -17.167 -5.5 -27.5s-11.5 -28.5 -25.5 -54.5c0 -6 -0.666992 -10 -2 -12c-1.33301 -7.33301 -6.66602 -18 -15.999 -32l-12 -10l-12 -8l-30 -23
c-12 -9.33301 -19 -16 -21 -20c24.667 -60.667 41 -111.667 49 -153l19 -95l4 -43l2 -42c2 -45.333 -4.16699 -92.166 -18.5 -140.499s-38.833 -90.5 -73.5 -126.5l-6 -10l-2 -15l-1 -14c-3.33301 -8.66699 -12 -20 -26 -34l-66 -53l-11 -7l-12 -6l-22 -6l-21 -3h-9
c-12.667 0 -22.667 4 -30 12c-6 12 -9 22.667 -9 32c0 12.667 5.66699 41.667 17 87l18 46l7 21c0 4 -2.66699 10.667 -8 20c-84.667 96 -127 201.667 -127 317c0 56.667 10 112.667 30 168z" />
    <glyph glyph-name="u0626" unicode="&#x626;" horiz-adv-x="1273" arabic-form="isolated" 
d="M1106 844l14.001 0.000976562c38 0 69 -14.667 93 -44c22 -26 34.333 -61 37 -105l2 -26c2 -32.667 -8 -54.667 -30 -66l-15 -2l-20 6l-39 16l-42 7l-42 2c-31.333 1.33301 -60.333 -4 -87 -16c-24 -10 -43.667 -29 -59 -57c-3.33301 -8.66699 -5 -16.334 -5 -23.001
c0 -27.333 31 -52.333 93 -75c150.667 -55.333 233.667 -99 249 -131c14.667 -28.667 22 -62.334 22 -101.001c0 -123.333 -66.333 -245.333 -199 -366c-139.333 -126.667 -324 -213 -554 -259l-45 -9l-33 -3l-81 -3c-53.333 -2.66699 -107.333 6.33301 -162 27
c-51.333 20 -92.666 48.333 -123.999 85c-52.667 62.667 -79 146 -79 250c0 68.667 13 137.667 39 207l9 25l11 28l12 25l12 22c19.333 38 33.333 57 42 57c3.33301 0 5 -5.33301 5 -16l-3 -35v-34l-2 -24c-8 -110 32 -195 120 -255c63.333 -43.333 151.666 -65 264.999 -65
c60 0 124.667 6.33301 194 19c86 16.667 146.333 38.334 181 65.001c6.66699 6 10 12.333 10 19c0 8.66699 -35 23.667 -105 45c-94.667 28 -160.334 50.333 -197.001 67c-70.667 31.333 -106 64 -106 98c0 128 62 258.667 186 392c78 84 162 151.333 252 202
c4.66699 2.66699 15.667 6.66699 33 12l44 16zM310.001 616.001c12 -4 18.001 -14.668 18.001 -32.001c0 -11.333 -4.33301 -26 -13 -44l-14 -20l-18 -15c-6 -5.33301 -17.667 -9 -35 -11c-11.333 0 -21.333 -1.33301 -30 -4l-43 -11c-6 0 -24 -8.33301 -54 -25l-11 -5
l-18 -4c-27.333 0 -41 17 -41 51c0 9.33301 0.666992 15.333 2 18l1 7l2 5l5 9c6.66699 10.667 15.667 20.334 27 29.001l17 4h15c3.33301 0 6.66602 1.66699 9.99902 5l7 11c-1.33301 4 -3 7 -5 9l-12 21l-6 6l-3 14c0 25.333 10.833 49.166 32.5 71.499
s45.167 33.5 70.5 33.5c9.33301 0 25.333 -3.66699 48 -11c16.667 -7.33301 25 -16.666 25 -27.999l-2 -11l-6 -5l-6 -4l-13 -1h-21l-16 1c-7.33301 0 -11.666 -0.333008 -12.999 -1c-11.333 -8.66699 -20 -20.667 -26 -36c0 -24 22.333 -36 67 -36l23 5
c11.333 3.33301 19.666 5 24.999 5s9 -0.333008 11 -1z" />
    <glyph glyph-name="u0627" unicode="&#x627;" horiz-adv-x="746" arabic-form="isolated" 
d="M640 111l-32.002 -43.998c-7.33301 -10.667 -14.666 -18 -21.999 -22l-32 -17l-37 -14l-49 -12l-30 -4l-29 -2c-81.333 -4.66699 -147 41.666 -197 138.999c-44 86.667 -66 195.334 -66 326.001c0 134.667 23.667 263.667 71 387
c47.333 121.333 116.333 209.666 207 264.999l135 83c32 15.333 57.667 23 77 23c11.333 0 22.333 -2 33 -6l15 -5l20 -12c13.333 -8 24 -17.667 32 -29c32.667 -34 49 -75.333 49 -124c0 -26 -6.66699 -54.667 -20 -86c-6.66699 -16.667 -20.667 -33.334 -42 -50.001
l-34 -26c-8 -6.66699 -14.333 -13 -19 -19c-14 -20 -28.667 -46.333 -44 -79l-10 -44l-2 -44c-0.666992 -12 1 -32.333 5 -61v-12l4 -19l13 -41l41 -153c14 -54 21 -97.667 21 -131v-25l-4 -20l-2 -18l-6 -23c-7.33301 -27.333 -22.666 -54.333 -45.999 -81z" />
    <glyph glyph-name="u0628" unicode="&#x628;" horiz-adv-x="1653" arabic-form="isolated" 
d="M695 -449c0 31.333 11.168 58.167 33.501 80.5s49.166 33.5 80.499 33.5c30.667 0 57.334 -11.333 80.001 -34s34 -49.334 34 -80.001c0 -32 -11 -59 -33 -81c-2.66699 -3.33301 -10.667 -6.66602 -24 -9.99902l-19 3l-38 7c-0.666992 0 -13 -2 -37 -6l-21 -4
c-8.66699 0 -16.334 3.33301 -23.001 10c-22 22 -33 49 -33 81zM77.001 120.001c-22.667 29.333 -41.999 68.3369 -57.999 117.004c-5.33301 16 -10.333 38.667 -15 68c-4 22 -6 47.667 -6 77c0 51.333 11 118.666 33 201.999l12 44c8 31.333 28.667 55.666 62 72.999l25 8
c18 0 34.333 -19.333 49 -58c27.333 -95.333 53.666 -149 78.999 -161l22 -5l35 -10l36 -8l38 -6l181 -28l78 -6l87 -1l178 5l23 3l67 9l154 18l39 2h16l13 4l29 5c6 0 12.333 1.66699 19 5c30 10.667 45 30 45 58c0 10 -12 32.667 -36 68l-18 27l-6 11l-4 15l-4 23
c0 24.667 11.5 47.834 34.5 69.501s46.833 32.5 71.5 32.5c7.33301 0 12 -0.333008 14 -1s3.66699 -1.33398 5 -2.00098h1l4 -2l10 -6c6 -2 14.667 -11.333 26 -28l9 -23l5 -21l10 -40l6 -36l7 -54v-24c0 -4.66699 1.66699 -12 5 -22l36 -120v-11
c0 -4.66699 -0.333008 -9.33398 -1 -14.001s-3.66699 -12.334 -9 -23.001c-141.333 -394.667 -360.333 -592 -657 -592c-110.667 0 -232 29.667 -364 89c-80 35.333 -172.333 89 -277 161l-109 74v34z" />
    <glyph glyph-name="u0629" unicode="&#x629;" horiz-adv-x="805" arabic-form="isolated" 
d="M317 814l24.001 5.99902l14 2c24.667 0 58 -22 100 -66l44 -46l36 -30l103 -77c37.333 -28 63 -73.667 77 -137l4 -39v-27c0 -124 -43.667 -224 -131 -300c-77.333 -66.667 -169 -100 -275 -100c-76.667 0 -140.667 18.333 -192 55
c-57.333 41.333 -89.666 97.333 -96.999 168l-2 18v15l-1 20l2 56c0.666992 13.333 6 27.333 16 42l5 14l13 23l31 50c7.33301 10.667 46.666 35.334 117.999 74.001c26 13.333 39 28.333 39 45c0 8 -1.33301 14 -4 18c-1.33301 6.66699 -7.33301 16 -18 28l-11 17l-6 18
l-2 21c-1.33301 21.333 10 47.333 34 78l18 18l18 14c11.333 8.66699 25.666 16 42.999 22zM489.001 388.999c10.667 10.667 15.999 23.333 15.999 38c0 12.667 -5 27 -15 43c-7.33301 15.333 -18.333 30 -33 44c-31.333 30 -62.666 45 -93.999 45
c-7.33301 0 -13.333 -1.66699 -18 -5c-50.667 -20 -76 -50.333 -76 -91c0 -24 12.5 -48.5 37.5 -73.5s54.833 -37.5 89.5 -37.5h24c6 0 14.667 2.33301 26 7zM409 1048c12 -3.33301 18 -14 18 -32s-4.33301 -32 -13 -42l-14 -20l-17 -17c-5.33301 -4 -17 -7.66699 -35 -11
l-23 -1l-10 -3l-41 -11l-17 -6l-16 -7l-49 -22c-4.66699 0 -12.334 2.66699 -23.001 8c-12 10 -18 25.333 -18 46c0 11.333 0.666992 17.666 2 18.999l8 22c2.66699 4 11.667 12.333 27 25l16 4h16l3 2l6 3l7 11l-16 30l-9 20c0 26.667 10.333 50.834 31 72.501
s44.334 32.5 71.001 32.5c10 0 26 -3.66699 48 -11l16 -11l10 -17l-4 -11l-2 -4l-7 -5l-15 -1h-28c-4.66699 0 -8.33398 0.333008 -11.001 1c-5.33301 0 -8.66602 -0.333008 -9.99902 -1c-11.333 -6 -20.333 -18 -27 -36c0 -24 22.333 -36 67 -36l19 3l27 9z" />
    <glyph glyph-name="u062A" unicode="&#x62a;" horiz-adv-x="1456" arabic-form="isolated" 
d="M767 890c0 32.667 10.8311 59.834 32.498 81.501s48.834 32.5 81.501 32.5c32 0 59 -11 81 -33s33 -49 33 -81s-11 -59 -33 -81s-49 -33 -81 -33c-31.333 0 -58.166 11.167 -80.499 33.5s-33.5 49.166 -33.5 80.499zM500.998 890c0 32.667 11 59.835 33 81.502
s49.333 32.5 82 32.5c32 0 59 -10.833 81 -32.5s33 -48.834 33 -81.501c0 -32 -11 -59 -33 -81s-49 -33 -81 -33s-59.167 11.167 -81.5 33.5s-33.5 49.166 -33.5 80.499zM76.998 120.001c-22.667 29.333 -41.999 68.3369 -57.999 117.004c-5.33301 16 -10.333 38.667 -15 68
c-4 22 -6 47.667 -6 77c0 51.333 11 118.666 33 201.999l12 44c8 31.333 28.667 55.666 62 72.999l25 8c18 0 34.333 -19.333 49 -58c27.333 -95.333 53.666 -149 78.999 -161l22 -5l35 -10l36 -8l38 -6l181 -28l78 -6l87 -1l178 5l23 3l67 9l154 18l39 2h16l13 4l29 5
c6 0 12.333 1.66699 19 5c30 10.667 45 30 45 58c0 10 -12 32.667 -36 68l-18 27l-6 11l-4 15l-4 23c0 24.667 11.5 47.834 34.5 69.501s46.833 32.5 71.5 32.5c7.33301 0 12 -0.333008 14 -1s3.66699 -1.33398 5 -2.00098h1l4 -2l10 -6c6 -2 14.667 -11.333 26 -28l9 -23
l5 -21l10 -40l6 -36l7 -54v-24c0 -4.66699 1.66699 -12 5 -22l36 -120v-11c0 -4.66699 -0.333008 -9.33398 -1 -14.001s-3.66699 -12.334 -9 -23.001c-141.333 -394.667 -360.333 -592 -657 -592c-110.667 0 -232 29.667 -364 89c-80 35.333 -172.333 89 -277 161l-109 74
v34z" />
    <glyph glyph-name="u062B" unicode="&#x62b;" horiz-adv-x="1703" arabic-form="isolated" 
d="M804 890c0 32.667 10.832 59.834 32.499 81.501s48.834 32.5 81.501 32.5c32 0 59 -11 81 -33s33 -49 33 -81s-11 -59 -33 -81s-49 -33 -81 -33s-59 11.167 -81 33.5s-33 49.166 -33 80.499zM463.999 890c0 32.667 11 59.834 33 81.501s49.333 32.5 82 32.5
c32 0 59 -10.833 81 -32.5s33 -48.834 33 -81.501c0 -32 -11 -59 -33 -81s-49 -33 -81 -33s-59.167 11 -81.5 33s-33.5 49 -33.5 81zM631.999 1064c0 32 11.168 59.001 33.501 81.001s49.166 33 80.499 33c32 0 59 -10.833 81 -32.5s33 -48.834 33 -81.501
c0 -34 -10.5 -61.667 -31.5 -83s-48.5 -32 -82.5 -32c-30 0 -57 11.333 -81 34c-15.333 17.333 -26.333 44.333 -33 81zM77 120.001c-22.667 29.333 -41.999 68.3369 -57.999 117.004c-5.33301 16 -10.333 38.667 -15 68c-4 22 -6 47.667 -6 77
c0 51.333 11 118.666 33 201.999l12 44c8 31.333 28.667 55.666 62 72.999l25 8c18 0 34.333 -19.333 49 -58c27.333 -95.333 53.666 -149 78.999 -161l22 -5l35 -10l36 -8l38 -6l181 -28l78 -6l87 -1l178 5l23 3l67 9l154 18l39 2h16l13 4l29 5c6 0 12.333 1.66699 19 5
c30 10.667 45 30 45 58c0 10 -12 32.667 -36 68l-18 27l-6 11l-4 15l-4 23c0 24.667 11.5 47.834 34.5 69.501s46.833 32.5 71.5 32.5c7.33301 0 12 -0.333008 14 -1s3.66699 -1.33398 5 -2.00098h1l4 -2l10 -6c6 -2 14.667 -11.333 26 -28l9 -23l5 -21l10 -40l6 -36l7 -54
v-24c0 -4.66699 1.66699 -12 5 -22l36 -120v-11c0 -4.66699 -0.333008 -9.33398 -1 -14.001s-3.66699 -12.334 -9 -23.001c-141.333 -394.667 -360.333 -592 -657 -592c-110.667 0 -232 29.667 -364 89c-80 35.333 -172.333 89 -277 161l-109 74v34z" />
    <glyph glyph-name="u062C" unicode="&#x62c;" horiz-adv-x="828" arabic-form="isolated" 
d="M51 51c28.667 69.333 99.998 133.998 213.998 193.998c101.333 52.667 152 87.667 152 105l-3 12l-6 12c-16 22.667 -47.667 34 -95 34c-38 0 -74.333 -9.33301 -109 -28l-13 -18l-16 -23c-24 -44 -41.333 -66 -52 -66l-4 1l-10 6l-15 26l-2 39
c-2 40 14.667 82.333 50 127c20.667 25.333 41.334 46.333 62.001 63l20 10l19 8l21 9l28 6l21 2l19 -1l23 -3l18 -4c1.33301 0 10.666 -2.66699 27.999 -8l51 -15l38 -10l90 -17l62 -4l52 1l41 7l23 4l21 7l19 6l30 12l27 4c44 0 65 -33.667 63 -101l-1 -34v-15l-4 -17
l-3 -23c0 -5.33301 -2 -13.333 -6 -24l-4 -20l-8 -25c-5.33301 -19.333 -14.333 -46.333 -27 -81l-20 -44l-17 -33c-29.333 -55.333 -94 -91.333 -194 -108l-285 -17c-10 -2 -25.833 -7 -47.5 -15s-32.5 -21.333 -32.5 -40l3 -27l6 -20c9.33301 -30 37.333 -54.667 84 -74
c39.333 -16 77 -24 113 -24c34 0 63 3 87 9c26.667 8 55 19 85 33c8 2.66699 20.333 14 37 34l74 89c26.667 32.667 44.334 49 53.001 49s14.334 -7.66699 17.001 -23l2 -31v-32c0 -130 -48.667 -236 -146 -318c-84 -71.333 -187.333 -107 -310 -107
c-103.333 0 -190 27 -260 81c-76 58.667 -114 139.334 -114 242.001c0 62.667 17 135.334 51 218.001zM592.998 -78.002c0 -16 -7.33301 -33.667 -22 -53c-14.667 -15.333 -32.667 -23 -54 -23c-20 0 -37.333 7.5 -52 22.5s-22 32.833 -22 53.5
c0 18.667 7.33301 35.834 22 51.501s32 23.5 52 23.5c21.333 0 39.333 -7.33301 54 -22s22 -32.334 22 -53.001z" />
    <glyph glyph-name="u062D" unicode="&#x62d;" horiz-adv-x="828" arabic-form="isolated" 
d="M51 51c28.667 69.333 99.998 133.998 213.998 193.998c101.333 52.667 152 87.667 152 105l-3 12l-6 12c-16 22.667 -47.667 34 -95 34c-38 0 -74.333 -9.33301 -109 -28l-13 -18l-16 -23c-24 -44 -41.333 -66 -52 -66l-4 1l-10 6l-15 26l-2 39
c-2 40 14.667 82.333 50 127c20.667 25.333 41.334 46.333 62.001 63l20 10l19 8l21 9l28 6l21 2l19 -1l23 -3l18 -4c1.33301 0 10.666 -2.66699 27.999 -8l51 -15l38 -10l90 -17l62 -4l52 1l41 7l23 4l21 7l19 6l30 12l27 4c44 0 65 -33.667 63 -101l-1 -34v-15l-4 -17
l-3 -23c0 -5.33301 -2 -13.333 -6 -24l-4 -20l-8 -25c-5.33301 -19.333 -14.333 -46.333 -27 -81l-20 -44l-17 -33c-29.333 -55.333 -94 -91.333 -194 -108l-285 -17c-10 -2 -25.833 -7 -47.5 -15s-32.5 -21.333 -32.5 -40l3 -27l6 -20c9.33301 -30 37.333 -54.667 84 -74
c39.333 -16 77 -24 113 -24c34 0 63 3 87 9c26.667 8 55 19 85 33c8 2.66699 20.333 14 37 34l74 89c26.667 32.667 44.334 49 53.001 49s14.334 -7.66699 17.001 -23l2 -31v-32c0 -130 -48.667 -236 -146 -318c-84 -71.333 -187.333 -107 -310 -107
c-103.333 0 -190 27 -260 81c-76 58.667 -114 139.334 -114 242.001c0 62.667 17 135.334 51 218.001z" />
    <glyph glyph-name="u062E" unicode="&#x62e;" horiz-adv-x="828" arabic-form="isolated" 
d="M51 51c28.667 69.333 99.998 133.998 213.998 193.998c101.333 52.667 152 87.667 152 105l-3 12l-6 12c-16 22.667 -47.667 34 -95 34c-38 0 -74.333 -9.33301 -109 -28l-13 -18l-16 -23c-24 -44 -41.333 -66 -52 -66l-4 1l-10 6l-15 26l-2 39
c-2 40 14.667 82.333 50 127c20.667 25.333 41.334 46.333 62.001 63l20 10l19 8l21 9l28 6l21 2l19 -1l23 -3l18 -4c1.33301 0 10.666 -2.66699 27.999 -8l51 -15l38 -10l90 -17l62 -4l52 1l41 7l23 4l21 7l19 6l30 12l27 4c44 0 65 -33.667 63 -101l-1 -34v-15l-4 -17
l-3 -23c0 -5.33301 -2 -13.333 -6 -24l-4 -20l-8 -25c-5.33301 -19.333 -14.333 -46.333 -27 -81l-20 -44l-17 -33c-29.333 -55.333 -94 -91.333 -194 -108l-285 -17c-10 -2 -25.833 -7 -47.5 -15s-32.5 -21.333 -32.5 -40l3 -27l6 -20c9.33301 -30 37.333 -54.667 84 -74
c39.333 -16 77 -24 113 -24c34 0 63 3 87 9c26.667 8 55 19 85 33c8 2.66699 20.333 14 37 34l74 89c26.667 32.667 44.334 49 53.001 49s14.334 -7.66699 17.001 -23l2 -31v-32c0 -130 -48.667 -236 -146 -318c-84 -71.333 -187.333 -107 -310 -107
c-103.333 0 -190 27 -260 81c-76 58.667 -114 139.334 -114 242.001c0 62.667 17 135.334 51 218.001zM635.998 648.998c0 -16 -7.00098 -33.6689 -21.001 -53.002c-15.333 -15.333 -33.333 -23 -54 -23s-38.334 7.5 -53.001 22.5s-22 32.833 -22 53.5
c0 18.667 7.33301 35.834 22 51.501s32.334 23.5 53.001 23.5s38.334 -7.16699 53.001 -21.5s22 -32.166 22 -53.499z" />
    <glyph glyph-name="u062F" unicode="&#x62f;" horiz-adv-x="968" arabic-form="isolated" 
d="M182 83l-13.998 36.001l-7 34l-3 31v52l6 89l-3 16l-3 21l-10 46l-1 14c0 9.33301 0.333008 14.666 1 15.999l5 10c3.33301 5.33301 7.66602 9.33301 12.999 12l16 3c4 0 12.667 -3.66699 26 -11l16 -9l21 -8l40 -9l45 -2h33c158 0 237 30 237 90
c0 23.333 -12.667 48 -38 74c-1.33301 2 -28 14.667 -80 38c-13.333 6.66699 -27.333 16 -42 28c-9.33301 11.333 -14 25 -14 41v7c0 28 10.5 55 31.5 81s46.833 39 77.5 39c9.33301 0 16.333 -1.33301 21 -4l16 -8l21 -17l14 -18l16 -21l44 -57l20 -34l18 -31l26 -42
l26 -45l20 -36l12 -27l7 -20l8 -40l3 -77v-240c0 -10.667 -0.833008 -18.167 -2.5 -22.5s-5.5 -10.5 -11.5 -18.5l-12 -16c-38 -53.333 -83.667 -98 -137 -134c-61.333 -41.333 -120.333 -62 -177 -62c-52.667 0 -102.334 17 -149.001 51c-50 36 -95.333 96 -136 180z" />
    <glyph glyph-name="u0630" unicode="&#x630;" horiz-adv-x="968" arabic-form="isolated" 
d="M223 945c0 38 13.1689 70.334 39.502 97.001s58.5 40 96.5 40s70.667 -13 98 -39c26 -28.667 39 -61.334 39 -98.001c0 -16.667 -3.33301 -33.667 -10 -51s-16.334 -32 -29.001 -44c-26.667 -27.333 -59.334 -41 -98.001 -41c-37.333 0 -69.333 13.333 -96 40
s-40 58.667 -40 96zM208.002 83.001l-21.999 31.001c-12.667 19.333 -21.334 34 -26.001 44l-2 26v52l6 89l-3 16l-3 21l-10 46l-1 14c0 9.33301 0.333008 14.666 1 15.999l5 10c3.33301 5.33301 7.66602 9.33301 12.999 12l16 3c4 0 12.667 -3.66699 26 -11l16 -9l21 -8
l40 -9l45 -2h33c158 0 237 30 237 90c0 23.333 -12.667 48 -38 74c-1.33301 2 -28 14.667 -80 38c-13.333 6.66699 -27.333 16 -42 28c-9.33301 11.333 -14 25 -14 41v7c0 28 10.5 55 31.5 81s46.833 39 77.5 39c9.33301 0 16.333 -1.33301 21 -4l16 -8l21 -17l14 -18
l16 -21l44 -57l20 -34l18 -31l26 -42l26 -45l20 -36l12 -27l7 -20l8 -40l3 -77v-240c0 -10.667 -0.833008 -18.167 -2.5 -22.5s-5.5 -10.5 -11.5 -18.5l-12 -16c-73.333 -102 -167.666 -153 -282.999 -153c-56.667 0 -109 14.667 -157 44
c-40 24.667 -84.333 72.667 -133 144z" />
    <glyph glyph-name="u0631" unicode="&#x631;" horiz-adv-x="895" arabic-form="isolated" 
d="M0 -118l21.001 1.99902h16l12 -4l32 -3c121.333 0 245.666 31 372.999 93l139 69c39.333 19.333 59 46.333 59 81v17l-3 12c-3.33301 12.667 -9.66602 27 -18.999 43l-44 46l-20 22l-40 33c-7.33301 4.66699 -17 13.334 -29 26.001c-4 4.66699 -10 15 -18 31l-7 34l-2 38
c-2.66699 35.333 6.33301 73.333 27 114c18 35.333 42.333 53 73 53l19 -3c25.333 -8 46.333 -27 63 -57l36 -61l34 -53l13 -24l16 -30l27 -63l15 -42l14 -63l6 -73c8.66699 -117.333 -37 -222 -137 -314c-91.333 -84 -196.333 -126 -315 -126
c-71.333 0 -137 15.667 -197 47l-48 26l-53 29l-12 10c-46.667 30.667 -71.334 54.334 -74.001 71.001c0 9.33301 7.66699 15.666 23 18.999z" />
    <glyph glyph-name="u0632" unicode="&#x632;" horiz-adv-x="962" arabic-form="isolated" 
d="M365 892c0 37.333 13.333 69.5 40 96.5s58.667 40.5 96 40.5c36 0 67.833 -13.833 95.5 -41.5s41.5 -59.5 41.5 -95.5c0 -38.667 -13.167 -71 -39.5 -97s-58.833 -39 -97.5 -39c-37.333 0 -69.333 13.333 -96 40s-40 58.667 -40 96zM0 -118l21.001 1.99902h16l12 -4
l32 -3c121.333 0 245.666 31 372.999 93l139 69c39.333 19.333 59 46.333 59 81v17l-3 12c-3.33301 12.667 -9.66602 27 -18.999 43l-44 46l-20 22l-40 33c-7.33301 4.66699 -17 13.334 -29 26.001c-4 4.66699 -10 15 -18 31l-7 34l-2 38
c-2.66699 35.333 6.33301 73.333 27 114c18 35.333 42.333 53 73 53l19 -3c25.333 -8 46.333 -27 63 -57l36 -61l34 -53l13 -24l16 -30l27 -63l15 -42l14 -63l6 -73c8.66699 -117.333 -37 -222 -137 -314c-91.333 -84 -196.333 -126 -315 -126
c-71.333 0 -137 15.667 -197 47l-48 26l-53 29l-12 10c-46.667 30.667 -71.334 54.334 -74.001 71.001c0 9.33301 7.66699 15.666 23 18.999z" />
    <glyph glyph-name="u0633" unicode="&#x633;" horiz-adv-x="1765" arabic-form="isolated" 
d="M826 -220c-89.333 -83.333 -200.001 -124.997 -332.001 -124.997c-44 0 -96.667 5.66699 -158 17c-100.667 17.333 -181.667 60.333 -243 129c-63.333 70 -95 155.333 -95 256c0 68.667 17 138 51 208l31 50l20 28l25 31l33 53c8.66699 13.333 17 21.666 25 24.999l5 -3
l7 -6l4 -7l-2 -14l-7 -21l-6 -23c-3.33301 -16.667 -5 -32 -5 -46c0 -50.667 20.667 -100 62 -148l31 -27l36 -22l13 -6l27 -9l24 -5l24 -3l39 -1h10c13.333 0 34.333 1 63 3l33 3c3.33301 0 7.66602 0.666992 12.999 2l22 7c52 17.333 88.667 33.333 110 48
c49.333 33.333 74 78 74 134v19l-3 26c-1.33301 9.33301 -3.16602 17.333 -5.49902 24s-5.5 13.667 -9.5 21l-18 28l-8 19l-2 16c0 30 12.167 56.5 36.5 79.5s51.833 34.5 82.5 34.5c19.333 0 36 -6.33301 50 -19l16 -14l39 -41c9.33301 -10 29.333 -20.333 60 -31l32 -7
l36 -2l20 1c8 0 14.333 1 19 3c10 2 22 7.33301 36 16l24 31l9 17c11.333 14.667 25 22 41 22c13.333 0 24.333 -3.33301 33 -10l21 -21l23 -21l26 -18l42 -15c16 -3.33301 29.333 -5 40 -5c34 0 51 14 51 42l-7 10l-21 29c-5.33301 6.66699 -9.66602 16 -12.999 28l4 10
l7 11l11 8l46 46l24 18l28 12l9 2l14 2c33.333 0 54 -13.333 62 -40c6.66699 -20.667 10.667 -60.334 12 -119.001l4 -149v-118l2 -54v-48c0 -38 -2.33301 -66.667 -7 -86c-3.33301 -24 -9.66602 -39.667 -18.999 -47c-19.333 -6.66699 -40.333 -11.334 -63 -14.001l-46 -4
l-53 -2c-48.667 -1.33301 -99 4 -151 16c-8.66699 2.66699 -15.334 6 -20.001 10l-22 24l-17 21c-5.33301 5.33301 -12 8 -20 8l-10 -1l-15 -9l-14 -19l-20 -32c-16 -12 -34 -18 -54 -18c-8.66699 0 -16 1.66699 -22 5l-18 6l-17 6l-15 8l-23 14l-22 9l-14 2l-11 1
c-8.66699 0 -20 -5.33301 -34 -16l-22 -37l-9 -28l-10 -52l-9 -34c-13.333 -48.667 -30 -82.667 -50 -102z" />
    <glyph glyph-name="u0634" unicode="&#x634;" horiz-adv-x="1631" arabic-form="isolated" 
d="M826 -220c-88.667 -83.333 -199.332 -125.003 -331.999 -125.003c-44 0 -96.667 5.66699 -158 17c-100.667 17.333 -181.667 60.333 -243 129c-63.333 70 -95 155.333 -95 256c0 68.667 17 138 51 208l31 50l20 28l25 31c36.667 46 60 69 70 69l4 -7l-2 -14l-7 -21
l-6 -23c-3.33301 -15.333 -5 -30.666 -5 -45.999c0 -51.333 20.667 -100.666 62 -147.999l33 -27l36 -22l38 -15l48 -8l39 -1c99.333 -4.66699 183 16.333 251 63c49.333 34 74 78.667 74 134v15l-2 23l-1 15c-0.666992 6 -2.66699 12.333 -6 19l-27 46l-7 15l-3 20
c0 30 12.167 56.5 36.5 79.5s51.833 34.5 82.5 34.5l29 -5c6 -1.33301 18.333 -10.666 37 -27.999l23 -28l16 -13c47.333 -28.667 90 -42 128 -40l20 1c8 0 14.333 1 19 3c10 2 22 7.33301 36 16l24 31c8.66699 18 19.667 29.667 33 35l17 4c14 0 31.667 -9.66699 53 -29
l29 -26l19 -13l47 -17c14 -3.33301 26.333 -5 37 -5c34 0 51 14 51 42l-7 10l-21 29c-5.33301 6.66699 -9.66602 16 -12.999 28l4 10l7 11l11 8l46 46c14 12 31.333 22 52 30l9 2l14 2c47.333 0 72 -53 74 -159l4 -149v-118l2 -54v-48c0 -81.333 -8.33301 -125.5 -25 -132.5
s-38 -11.833 -64 -14.5l-46 -4l-53 -2c-48.667 -1.33301 -99 4 -151 16c-8.66699 2.66699 -15.334 6 -20.001 10l-22 24c-14.667 18 -27 27.667 -37 29l-10 -1c-4.66699 -2 -14.334 -11.333 -29.001 -28l-20 -32c-16 -12 -34 -18 -54 -18
c-11.333 0 -24.666 3.66699 -39.999 11l-33 15l-44 22l-14 2l-11 1c-23.333 0 -42 -17.667 -56 -53l-14 -53l-6 -32l-8 -29c-12.667 -43.333 -29.334 -77.333 -50.001 -102zM1205 889.997c0 32 11 59.001 33 81.001s49 33 81 33c32.667 0 60 -10.833 82 -32.5
s33 -48.834 33 -81.501c0 -32 -11.167 -59 -33.5 -81s-49.5 -33 -81.5 -33c-30 0 -57 11 -81 33l-10 13l-14 24l-6 21zM867.002 889.998c0 32.667 10.8311 59.833 32.498 81.5s48.834 32.5 81.501 32.5c32 0 59 -11 81 -33s33 -49 33 -81c0 -31.333 -11 -58.166 -33 -80.499
s-49 -33.5 -81 -33.5c-33.333 0 -60.666 11.167 -81.999 33.5s-32 49.166 -32 80.499zM1034 1064c0 52.667 24.666 87.666 73.999 104.999c16.667 6 30 9 40 9c32 0 59.167 -11.167 81.5 -33.5s33.5 -49.166 33.5 -80.499c0 -32.667 -11 -60 -33 -82s-49.333 -33 -82 -33
c-31.333 0 -58.166 11.167 -80.499 33.5s-33.5 49.5 -33.5 81.5z" />
    <glyph glyph-name="u0635" unicode="&#x635;" horiz-adv-x="1894" arabic-form="isolated" 
d="M983 46c-38 0 -67.666 -20.668 -88.999 -62.001l-7 -22l-32 -110c-15.333 -52.667 -35.333 -88.667 -60 -108c-30.667 -25.333 -75.334 -47 -134.001 -65c-54 -16.667 -108 -25 -162 -25c-122 0 -233 34.333 -333 103c-112 78 -168 175.333 -168 292
c0 37.333 3.66699 67.333 11 90l14 45c2 5.33301 9.66699 20.666 23 45.999l39 75l54 90l19 27c11.333 16 21 24 29 24l3 -5l7 -19c0 -5.33301 -1.66699 -13.333 -5 -24l-8 -52l-1 -22c-4.66699 -56.667 22.333 -110 81 -160c50 -34.667 112 -52 186 -52
c38.667 0 75.667 4.66699 111 14c39.333 10 74 24.333 104 43c66.667 42 100 95.667 100 161l-8 23l-11 22l-13 23c-3.33301 8.66699 -8 24.667 -14 48l2 15c3.33301 25.333 16.333 50 39 74c21.333 22 45.333 33 72 33c7.33301 0 12.5 -0.333008 15.5 -1
s8.5 -2.66699 16.5 -6s18 -14.666 30 -33.999l13 -21l11 -12c28 -24.667 53.333 -37 76 -37l21 4c33.333 5.33301 68 24 104 56l82 72l62 37l107 63c62 36.667 123.333 63.667 184 81c32 8.66699 66.333 13 103 13c46 0 84 -8.33301 114 -25c8 -2 14.667 -5.33301 20 -10
l34 -25l42 -53c18 -30 27 -73.333 27 -130c0 -55.333 -18 -161.666 -54 -318.999l-24 -101l-8 -28c-8.66699 -29.333 -28.667 -51.333 -60 -66l-14 -4l-33 -6l-50 -2l-171 -12l-164 -4l-127 2c-46 0.666992 -75 3 -87 7c-19.333 2 -40.333 9.66699 -63 23
c-21.333 8.66699 -40 14 -56 16zM1316 474.999l28.002 -9l31 -5l33 -2h43l25 2l150 5c9.33301 2 14.666 4.33301 15.999 7l6 12l2 14c0 24 -16 48 -48 72c-16 11.333 -33 20.333 -51 27l-27 6l-29 3c-32.667 0 -67.334 -9.33301 -104.001 -28l-62 -32
c-10.667 -5.33301 -20.667 -12.333 -30 -21c-5.33301 -7.33301 -9.33301 -14.333 -12 -21c0 -14 9.66699 -24 29 -30z" />
    <glyph glyph-name="u0636" unicode="&#x636;" horiz-adv-x="1894" arabic-form="isolated" 
d="M1180 756c-37.333 0 -69.5 13.333 -96.5 40s-40.5 58.667 -40.5 96c0 34 13 66 39 96c28 27.333 60.667 41 98 41c38 0 70.167 -13.333 96.5 -40s39.5 -59 39.5 -97c0 -37.333 -13.333 -69.333 -40 -96s-58.667 -40 -96 -40zM983 46
c-38 0 -67.666 -20.668 -88.999 -62.001l-7 -22l-32 -110c-15.333 -52.667 -35.333 -88.667 -60 -108c-30.667 -25.333 -75.334 -47 -134.001 -65c-54 -16.667 -108 -25 -162 -25c-122 0 -233 34.333 -333 103c-112 78 -168 175.333 -168 292c0 37.333 3.66699 67.333 11 90
l14 45c2 5.33301 9.66699 20.666 23 45.999l39 75l54 90l19 27c11.333 16 21 24 29 24l3 -5l7 -19c0 -5.33301 -1.66699 -13.333 -5 -24l-8 -52l-1 -22c-4.66699 -56.667 22.333 -110 81 -160c50 -34.667 112 -52 186 -52c38.667 0 75.667 4.66699 111 14
c39.333 10 74 24.333 104 43c66.667 42 100 95.667 100 161l-8 23l-11 22l-13 23c-3.33301 8.66699 -8 24.667 -14 48l2 15c3.33301 25.333 16.333 50 39 74c21.333 22 45.333 33 72 33c7.33301 0 12.5 -0.333008 15.5 -1s8.5 -2.66699 16.5 -6s18 -14.666 30 -33.999
l13 -21l11 -12c28 -24.667 53.333 -37 76 -37l21 4c33.333 5.33301 68 24 104 56l82 72l62 37l107 63c62 36.667 123.333 63.667 184 81c32 8.66699 66.333 13 103 13c46 0 84 -8.33301 114 -25c8 -2 14.667 -5.33301 20 -10l34 -25l42 -53c18 -30 27 -73.333 27 -130
c0 -55.333 -18 -161.666 -54 -318.999l-24 -101l-8 -28c-8.66699 -29.333 -28.667 -51.333 -60 -66l-14 -4l-33 -6l-50 -2l-171 -12l-164 -4l-127 2c-46 0.666992 -75 3 -87 7c-19.333 2 -40.333 9.66699 -63 23c-21.333 8.66699 -40 14 -56 16zM1316 474.999l28.002 -9
l31 -5l33 -2h43l25 2l150 5c9.33301 2 14.666 4.33301 15.999 7l6 12l2 14c0 24 -16 48 -48 72c-16 11.333 -33 20.333 -51 27l-27 6l-29 3c-32.667 0 -67.334 -9.33301 -104.001 -28l-62 -32c-10.667 -5.33301 -20.667 -12.333 -30 -21
c-5.33301 -7.33301 -9.33301 -14.333 -12 -21c0 -14 9.66699 -24 29 -30z" />
    <glyph glyph-name="u0637" unicode="&#x637;" horiz-adv-x="949" arabic-form="isolated" 
d="M-28 0l-35 75.998l-32 79c-21.333 67.333 -32 120.666 -32 159.999c0 36 7.33301 67.333 22 94c20 28 45.667 45.333 77 52l21 2l18 1h50l36 6c6.66699 0.666992 16 3.66699 28 9c38 16 63.333 43.667 76 83l1 18l2 23c2.66699 32.667 1 73 -5 121l-11 85l-68 229
c0 12.667 1.66699 25.334 5 38.001l3 10l4 10l14 19l29 36l27 29c28 20.667 50.333 31 67 31c12.667 0 25.667 -5.66699 39 -17c4 -3.33301 7.66699 -9 11 -17l9 -27l6 -39l3 -11l7 -16l4 -15l-2 -11c0 -3.33301 -5.5 -8.16602 -16.5 -14.499s-17.5 -10.833 -19.5 -13.5
l-10 -17l-10 -18l-7 -19l-1 -9v-10l2 -35l4 -17l9 -20l42 -125l2 -25v-14c0 -12.667 0.666992 -20 2 -22l3 -8l6 -9l22 -12c7.33301 0 18 6 32 18l51 44l20 12l61 23l55 16c30.667 8.66699 62.667 13 96 13c78.667 0 139 -25.667 181 -77c24.667 -30 43.667 -73.333 57 -130
c14.667 -63.333 22 -122.666 22 -177.999v-81l2 -26v-84c0 -10 -0.666992 -16 -2 -18c0 -6 -0.333008 -10 -1 -12l-1 -19l-3 -22l-12 -54c-3.33301 -15.333 -7.33301 -26 -12 -32c-5.33301 -9.33301 -13 -17.333 -23 -24l-55 -39c-63.333 -58.667 -141 -106.5 -233 -143.5
s-180.667 -55.5 -266 -55.5c-84.667 0 -156.667 15.333 -216 46c-61.333 31.333 -113 82.333 -155 153zM345 476.998l22 -9.00098l25 -4l32 -5h81l135 4c12 0 20.333 1 25 3l12 6l7 9c4.66699 6 7 15 7 27c0 27.333 -16.333 49 -49 65
c-17.333 8.66699 -33.333 14.334 -48 17.001l-37 8l-31 1c-32 2 -70.333 -7.66699 -115 -29l-26 -17l-13 -10l-9 -5c-18 -16 -27 -30 -27 -42c0 -4 3 -10.333 9 -19z" />
    <glyph glyph-name="u0638" unicode="&#x638;" horiz-adv-x="949" arabic-form="isolated" 
d="M619 830c-37.333 0 -69.333 13.333 -96 40s-40 58.667 -40 96s13.333 69.333 40 96s58.667 40 96 40c36 0 67.833 -13.667 95.5 -41s41.5 -59 41.5 -95s-13.833 -67.667 -41.5 -95s-59.5 -41 -95.5 -41zM-28 0l-35 75.998l-32 79c-21.333 67.333 -32 120.666 -32 159.999
c0 36 7.33301 67.333 22 94c20 28 45.667 45.333 77 52l21 2l18 1h50l36 6c6.66699 0.666992 16 3.66699 28 9c38 16 63.333 43.667 76 83l1 18l2 23c2.66699 32.667 1 73 -5 121l-11 85l-68 229c0 12.667 1.66699 25.334 5 38.001l3 10l4 10l14 19l29 36l27 29
c28 20.667 50.333 31 67 31c12.667 0 25.667 -5.66699 39 -17c4 -3.33301 7.66699 -9 11 -17l9 -27l6 -39l3 -11l7 -16l4 -15l-2 -11c0 -3.33301 -5.5 -8.16602 -16.5 -14.499s-17.5 -10.833 -19.5 -13.5l-10 -17l-10 -18l-7 -19l-1 -9v-10l2 -35l4 -17l9 -20l42 -125l2 -25
v-14c0 -12.667 0.666992 -20 2 -22l3 -8l6 -9l22 -12c7.33301 0 18 6 32 18l51 44l20 12l61 23l55 16c30.667 8.66699 62.667 13 96 13c78.667 0 139 -25.667 181 -77c24.667 -30 43.667 -73.333 57 -130c14.667 -63.333 22 -122.666 22 -177.999v-81l2 -26v-84
c0 -10 -0.666992 -16 -2 -18c0 -6 -0.333008 -10 -1 -12l-1 -19l-3 -22l-12 -54c-3.33301 -15.333 -7.33301 -26 -12 -32c-5.33301 -9.33301 -13 -17.333 -23 -24l-55 -39c-63.333 -58.667 -141 -106.5 -233 -143.5s-180.667 -55.5 -266 -55.5
c-84.667 0 -156.667 15.333 -216 46c-61.333 31.333 -113 82.333 -155 153zM345 476.998l22 -9.00098l25 -4l32 -5h81l135 4c12 0 20.333 1 25 3l12 6l7 9c4.66699 6 7 15 7 27c0 27.333 -16.333 49 -49 65c-17.333 8.66699 -33.333 14.334 -48 17.001l-37 8l-31 1
c-32 2 -70.333 -7.66699 -115 -29l-26 -17l-13 -10l-9 -5c-18 -16 -27 -30 -27 -42c0 -4 3 -10.333 9 -19z" />
    <glyph glyph-name="u0639" unicode="&#x639;" horiz-adv-x="807" arabic-form="isolated" 
d="M807 11c33.333 0 50.002 -12.998 50.002 -38.998c0 -32 -24 -80.667 -72 -146c-36.667 -49.333 -80.334 -98.333 -131.001 -147c-106.667 -103.333 -216 -152 -328 -146l-52 3c-8 0 -15.333 1 -22 3l-22 7c-22.667 6.66699 -49 21.667 -79 45
c-53.333 41.333 -92 83.333 -116 126c-26 46 -39 91.667 -39 137c0 38 13 82.667 39 134c23.333 46.667 55 94.667 95 144l21 20l50 42l16 17l21 28l7 17l2 10c0 6 -7.33301 13.667 -22 23l-39 16l-13 5c-4 1.33301 -7 3.66602 -9 6.99902c-54 30.667 -81 63.667 -81 99
c0 72.667 27.667 130 83 172c45.333 34 106.666 51 183.999 51c63.333 0 121.333 -13 174 -39c14 -6.66699 25.5 -13 34.5 -19s16.833 -13.667 23.5 -23c10.667 -10 21.334 -31 32.001 -63v-5c0 -4 -3.66699 -7.66699 -11 -11l-21 -4l-16 -2l-26 4l-30 4l-37 1l-25 2l-27 -1
c-9.33301 0 -18 -1 -26 -3l-20 -6l-20 -11c-8.66699 -3.33301 -17 -13.333 -25 -30l-6 -22l-4 -25l4 -25l6 -15c3.33301 -6 11.333 -12.667 24 -20l40 -14l52 -3l46 1l43 7l36 12l39 17l6 -3c6 -2.66699 14 -12 24 -28c0 -8 -2 -16 -6 -24l-20 -46l-4 -30
c-0.666992 -6.66699 -4.33398 -19 -11.001 -37c-11.333 -18.667 -32.666 -28 -63.999 -28s-55 -4.66699 -71 -14l-48 -30c-10.667 -6.66699 -19.667 -13.334 -27 -20.001c-23.333 -21.333 -35 -43.333 -35 -66v-19c0 -4 1 -10 3 -18c8 -26.667 22.667 -49 44 -67l36 -14
c16 -4.66699 30 -6.33398 42 -5.00098l40 2c10 0.666992 24.333 4 43 10l53 16l45 17l27 14c12.667 6.66699 27.667 16.334 45 29.001l38 19c13.333 4.66699 25.666 7 36.999 7z" />
    <glyph glyph-name="u063A" unicode="&#x63a;" horiz-adv-x="807" arabic-form="isolated" 
d="M332 778c-38 0 -70.333 13.168 -97 39.501s-40 58.166 -40 95.499c0 36.667 13.833 68.667 41.5 96s59.5 41 95.5 41c38.667 0 71 -13.167 97 -39.5s39 -58.833 39 -97.5c0 -35.333 -13.667 -67 -41 -95c-8 -8.66699 -22.333 -19 -43 -31c-16.667 -6 -34 -9 -52 -9z
M807 11.001c33.333 0 50.002 -12.998 50.002 -38.998c0 -32 -24 -80.667 -72 -146c-36.667 -49.333 -80.334 -98.333 -131.001 -147c-106.667 -103.333 -216 -152 -328 -146l-52 3c-8 0 -15.333 1 -22 3l-22 7c-22.667 6.66699 -49 21.667 -79 45
c-53.333 41.333 -92 83.333 -116 126c-26 46 -39 91.667 -39 137c0 38 13 82.667 39 134c23.333 46.667 55 94.667 95 144l21 20l50 42l16 17l21 28l7 17l2 10c0 6 -7.33301 13.667 -22 23l-39 16l-13 5c-4 1.33301 -7 3.66602 -9 6.99902c-54 30.667 -81 63.667 -81 99
c0 72.667 27.667 130 83 172c45.333 34 106.666 51 183.999 51c63.333 0 121.333 -13 174 -39c14 -6.66699 25.5 -13 34.5 -19s16.833 -13.667 23.5 -23c10.667 -10 21.334 -31 32.001 -63v-5c0 -4 -3.66699 -7.66699 -11 -11l-21 -4l-16 -2l-26 4l-30 4l-37 1l-25 2l-27 -1
c-9.33301 0 -18 -1 -26 -3l-20 -6l-20 -11c-8.66699 -3.33301 -17 -13.333 -25 -30l-6 -22l-4 -25l4 -25l6 -15c3.33301 -6 11.333 -12.667 24 -20l40 -14l52 -3l46 1l43 7l36 12l39 17l6 -3c6 -2.66699 14 -12 24 -28c0 -8 -2 -16 -6 -24l-20 -46l-4 -30
c-0.666992 -6.66699 -4.33398 -19 -11.001 -37c-11.333 -18.667 -32.666 -28 -63.999 -28s-55 -4.66699 -71 -14l-48 -30c-10.667 -6.66699 -19.667 -13.334 -27 -20.001c-23.333 -21.333 -35 -43.333 -35 -66v-19c0 -4 1 -10 3 -18c8 -26.667 22.667 -49 44 -67l36 -14
c16 -4.66699 30 -6.33398 42 -5.00098l40 2c10 0.666992 24.333 4 43 10l53 16l45 17l27 14c12.667 6.66699 27.667 16.334 45 29.001l38 19c13.333 4.66699 25.666 7 36.999 7z" />
    <glyph glyph-name="u0641" unicode="&#x641;" horiz-adv-x="1426" arabic-form="isolated" 
d="M877 752c-35.333 0 -67.333 13.667 -96 41c-8 8 -18 22.333 -30 43c-6.66699 16.667 -10 34 -10 52c0 36 13.667 67.833 41 95.5s59 41.5 95 41.5c38.667 0 71 -13.167 97 -39.5s39 -58.833 39 -97.5c0 -37.333 -13.167 -69.333 -39.5 -96s-58.5 -40 -96.5 -40zM1254 470
c18.667 12.667 28 29.334 28 50.001c0 30 -16.333 59 -49 87c-26.667 22 -50.667 33 -72 33c-9.33301 0 -14.666 -0.666992 -15.999 -2c-28.667 -8.66699 -43 -27.334 -43 -56.001c0 -26 13 -53 39 -81l17 -15l22 -16c12.667 -7.33301 26 -11 40 -11
c3.33301 0 14.666 3.66699 33.999 11zM1426 0c-1.33301 -43.333 -17.001 -77.665 -47.001 -102.998c-10.667 -9.33301 -25.667 -16 -45 -20l-26 -6l-33 -1c-36 -2.66699 -95.333 8 -178 32l-220 63c-88.667 25.333 -158.667 37 -210 35l-42 -2h-29l-214 3l-16 3l-55 9
l-49 13l-25 6c-11.333 3.33301 -19.666 6.33301 -24.999 9l-46 20c-52 22 -93.667 62.333 -125 121c-28.667 53.333 -43 108.666 -43 165.999c0 70 16.667 137.667 50 203c10 20 19 35.333 27 46l40 54l40 42c8 8.66699 16.667 15 26 19l3 -8l-3 -11l-12 -26l-5 -18l-2 -17
c0 -42 21 -79.333 63 -112c14.667 -11.333 33 -19.333 55 -24l96 -21l114 -14l72 -12l266 -58l81 -14l44 -4h48l16 2c6.66699 0 13 2.33301 19 7c14 5.33301 21 15.666 21 30.999c0 8 -1.66699 14.667 -5 20l-4 14l-9 14l-61 74l-16 38l-4 20v14c0 46 21.333 83.667 64 113
c36.667 25.333 79.334 38 128.001 38c65.333 0 122.666 -25.333 171.999 -76c45.333 -46 74 -102.667 86 -170l6 -29l5 -59l7 -185l2 -93v-104z" />
    <glyph glyph-name="u0642" unicode="&#x642;" horiz-adv-x="1117" arabic-form="isolated" 
d="M654 1242c18 0 35.6689 16.666 53.002 49.999c18.667 36 33 55.667 43 59l25 3c28 0 49 -6 63 -18l19 -17c24 -20 36 -47 36 -81c0 -35.333 -11.833 -66.166 -35.5 -92.499s-53.167 -39.5 -88.5 -39.5c-16.667 0 -42 23.333 -76 70c-16.667 22.667 -35.334 34 -56.001 34
c-12 0 -26.333 -18 -43 -54s-34.334 -54 -53.001 -54l-9 -1c-30 0 -56.5 11.833 -79.5 35.5s-34.5 50.5 -34.5 80.5c0 36 10.667 67 32 93c22.667 28.667 51.334 43 86.001 43c19.333 0 39.666 -18.5 60.999 -55.5s40.333 -55.5 57 -55.5zM90.002 292.999l1.00098 24.002v16
l4 23c0.666992 10 3.33398 20.333 8.00098 31c7.33301 22.667 18 34 32 34c16 0 27 -18.333 33 -55c24 -144.667 74 -258.667 150 -342c69.333 -76 148.666 -114 237.999 -114c59.333 0 112.666 17.333 159.999 52c20.667 14.667 47.667 39 81 73c40 40 60 66.333 60 79
c0 5.33301 -4 8.33301 -12 9l-10 -2c-11.333 -2 -28.666 -12.667 -51.999 -32c-16 -16 -31 -28.333 -45 -37c-33.333 -16 -68 -24 -104 -24c-32 0 -65 7.66699 -99 23c-44 20.667 -77.333 46.667 -100 78c-8.66699 11.333 -14.334 20.666 -17.001 27.999l-12 32l-6 32l-2 31
v17l3 25l14 58l16 55l19 61l24 71c11.333 33.333 27.666 71.333 48.999 114c37.333 76 78.666 143 123.999 201c49.333 63.333 92.333 95 129 95c99.333 0 182.333 -120 249 -360c29.333 -108 44 -209.333 44 -304c0 -276 -89.333 -478.667 -268 -608
c-75.333 -54.667 -160.666 -82 -255.999 -82c-147.333 0 -273.666 69.333 -378.999 208c-17.333 22 -30.333 45 -39 69l-14 37l-12 46c-10.667 39.333 -16 98.333 -16 177v29c0 17.333 0.333008 27.666 1 30.999v68zM689.003 712.001l-15.002 -16.001
c-3.33301 -5.33301 -7 -12 -11 -20c-4.66699 -16.667 -7.66699 -30.667 -9 -42c0 -36 15.667 -65 47 -87l51 -36c24 -14 44.667 -21 62 -21l21 3l18 12c12 10.667 18 23.667 18 39c0 20.667 -11 47.334 -33 80.001l-30 43c-27.333 39.333 -55.666 59 -84.999 59
c-13.333 0 -24.666 -4.66699 -33.999 -14z" />
    <glyph glyph-name="u0643" unicode="&#x643;" horiz-adv-x="1555" arabic-form="isolated" 
d="M740 436l-38.001 3.00098l-176 6l-76 15h-10l-18 1l-142 3c-28 0.666992 -58.667 27.334 -92 80.001c-20 31.333 -31.667 53.333 -35 66l-6 15l-1 14c-1.33301 2.66699 -2 9 -2 19v35c0 10.667 -3 16 -9 16c-14 0 -31.667 -15 -53 -45l-30 -41l-9 -20l-6 -15l-12 -22
c-1.33301 -2 -3.33301 -9.33301 -6 -22l-11 -46c-5.33301 -23.333 -8 -59 -8 -107v-24l4 -35l5 -42l7 -39l24 -67c4.66699 -15.333 11.667 -30 21 -44c39.333 -58.667 97 -98.334 173 -119.001c4.66699 -1.33301 37.334 -7 98.001 -17l16 -3l21 -1h346
c2 0 46.667 -7 134 -21l34 -5l20 -2h15l26 2l26 5c10 5.33301 18 8.66602 24 9.99902l22 11c27.333 18.667 46.166 38 56.499 58s15.5 43.667 15.5 71c0 16 -3.33301 37 -10 63l-12 49l-16 54l-16 54l-7 28l-3 23c-5.33301 44.667 -8 71.667 -8 81l-12 144
c0 20.667 14.667 75.334 44 164.001l63 191c14.667 43.333 32.667 78 54 104c26 29.333 77.667 58.666 155 87.999c98.667 33.333 153.334 50 164.001 50l25 -3l26 -10l23 -11c4.66699 -2.66699 9 -4 13 -4h20c12 6.66699 19.333 12.667 22 18l18 42l2 6v12
c1.33301 2 2 5.33301 2 10v62l-13 107c-2 14 -7 23.667 -15 29l-18 18c-6.66699 5.33301 -14 8 -22 8l-16 -2l-25 -6l-87 -9c-8 -2.66699 -18.333 -4 -31 -4l-110 -1c-18.667 0 -52.334 -10.667 -101.001 -32l-144 -58l-116 -62c-69.333 -34 -115.333 -85 -138 -153
c-16 -48.667 -24 -92 -24 -130c0 -41.333 8.33301 -84 25 -128l14 -52l60 -148c10 -24.667 17.333 -50.334 22 -77.001l6 -28c1.33301 -3.33301 2 -8 2 -14v-11c0 -21.333 -5.33301 -44 -16 -68l-18 -29c-8.66699 -10.667 -18 -18.667 -28 -24
c-15.333 -7.33301 -31 -14.333 -47 -21c-21.333 -9.33301 -39.666 -13.666 -54.999 -12.999z" />
    <glyph glyph-name="u0644" unicode="&#x644;" horiz-adv-x="994" arabic-form="isolated" 
d="M571 1043l10.9961 18.998l19 16l33 35c6.66699 7.33301 17.667 25.666 33 54.999c4.66699 9.33301 9.33398 16.333 14.001 21l21 12l15 -5l6 -5c6 -6 10.667 -11.667 14 -17l15 -31l17 -19c8 -9.33301 20 -21.666 36 -36.999c21.333 -19.333 32 -37.666 32 -54.999
l-5 -20c-2.66699 -8 -6 -13.667 -10 -17l-13 -17l-20 -36l-6 -19l-2 -12l14 -120l37 -310l18 -182v-34l3 -53l2 -48c3.33301 -86.667 -2.66699 -167 -18 -241c-21.333 -106.667 -64.666 -190.667 -129.999 -252c-22.667 -21.333 -49.667 -39.333 -81 -54
c-56 -27.333 -119.667 -41 -191 -41c-114 0 -212.667 32 -296 96c-92.667 70 -139 157.667 -139 263c0 36.667 2.66699 65.334 8 86.001l11 41l7 23l11 22l57 122c26.667 57.333 47 86 61 86l3 -6l4 -14l-2 -19v-18l-2 -29c-2 -36 4 -71.667 18 -107
c32.667 -82.667 102.334 -124 209.001 -124h38c2.66699 1.33301 4.66699 2 6 2c21.333 0 47.333 4.66699 78 14c11.333 4 23 9.33301 35 16c49.333 19.333 84.333 43.333 105 72l9 35l4 67c2.66699 52 -6.66602 181 -27.999 387l-3 26l-5 29
c-2.66699 12 -5.33398 21.667 -8.00098 29l-6 18c-1.33301 3.33301 -3.66602 8.66602 -6.99902 15.999l-23 61c0 0.666992 -7 21.334 -21 62.001c-16 44 -23.667 77.333 -23 100l1 28l1 11l6 18c4.66699 12 13.667 30 27 54z" />
    <glyph glyph-name="u0645" unicode="&#x645;" horiz-adv-x="891" arabic-form="isolated" 
d="M522 682l19.999 2.00195h14c78.667 0 144 -35 196 -105c39.333 -64 59 -145.667 59 -245c0 -115.333 -25.333 -223 -76 -323c-52 -103.333 -117.667 -155 -197 -155c-11.333 0 -62.333 32 -153 96l-28 20l-27 15c-17.333 7.33301 -37 11 -59 11h-39
c-4.66699 0 -10.167 -1.83301 -16.5 -5.5s-13.833 -9.83398 -22.5 -18.501l-7 -12l-5 -13l-10 -43l-4 -48c-2 -28.667 6.66699 -105 26 -229l19 -119l8 -55c0 -8 -0.666992 -13.333 -2 -16l-6 -14c-2.66699 -12 -6.66699 -21.333 -12 -28c-2.66699 -4.66699 -9 -13 -19 -25
c-14 -16 -30.333 -24 -49 -24c-26.667 0 -40 12.333 -40 37c0 7.33301 0.666992 12 2 14v8l5 17l4 25l2 18v27l-2 8l-5 35l-13 80l-52 320l-26 220l-3 63c-4 63.333 5 117.666 27 162.999c12.667 25.333 33.667 44.333 63 57c8 4 22.333 8.66699 43 14l32 4l15 1l135 -7
c14 0 26 9.66699 36 29l25 83c4 14 11.333 28.333 22 43l13 18l18 20c14.667 14 44.334 26.333 89.001 37zM701.999 359.002l10 14l8 18l4 22c0 15.333 -3.83301 29 -11.5 41s-18.834 24.667 -33.501 38l-23 15l-24 10l-24 9l-14 1h-12l-31 -5
c-27.333 -10.667 -46.333 -20.667 -57 -30l-11 -15l-8 -16l-2 -15c0 -12 15.667 -26 47 -42l62 -22l68 -19l38 -8c6.66699 0 11.334 1.33301 14.001 4z" />
    <glyph glyph-name="u0646" unicode="&#x646;" horiz-adv-x="874" arabic-form="isolated" 
d="M805 709c18 0 30 -14 36 -42v-17l1 -18l8 -33c16 -72.667 24 -147 24 -223c0 -136.667 -21.667 -254.667 -65 -354c-57.333 -130.667 -145.333 -213 -264 -247l-31 -9l-39 -7l-35 -6h-32c-114 0 -210.5 43.333 -289.5 130s-118.5 186 -118.5 298
c-0 70 16.333 133.333 49 190c18 30 41.667 63.667 71 101c34.667 44 59.667 66 75 66c10 0 14.333 -7.33301 13 -22l-2 -22l-5 -24l-4 -22v-21c0 -66.667 22.333 -120 67 -160c38 -34 87.667 -51 149 -51c69.333 0 129.333 22 180 66c57.333 48.667 86 113 86 193v18l-4 10
l-8 26l-2 18l2 19l6 15l20 27l40 35l32 45c10 14 23.333 21 40 21zM446 756c-37.333 0 -69.333 13.167 -96 39.5s-40 58.5 -40 96.5s13 70.333 39 97s58.333 40 97 40s71 -13.333 97 -40s39 -59 39 -97s-13.167 -70.167 -39.5 -96.5s-58.5 -39.5 -96.5 -39.5z" />
    <glyph glyph-name="u0647" unicode="&#x647;" horiz-adv-x="832" arabic-form="isolated" 
d="M317 814l24.001 5.99902l14 2c24.667 0 58 -22 100 -66l44 -46l36 -30l103 -77c37.333 -28 63 -73.667 77 -137l4 -39v-27c0 -124 -43.667 -224 -131 -300c-77.333 -66.667 -169 -100 -275 -100c-76.667 0 -140.667 18.333 -192 55
c-57.333 41.333 -89.666 97.333 -96.999 168l-2 18v15l-1 20l2 56c0.666992 13.333 6 27.333 16 42l5 14l13 23l31 50c7.33301 10.667 46.666 35.334 117.999 74.001c26 13.333 39 28.333 39 45c0 8 -1.33301 14 -4 18c-1.33301 6.66699 -7.33301 16 -18 28l-11 17l-6 18
l-2 21c-1.33301 21.333 10 47.333 34 78l18 18l18 14c11.333 8.66699 25.666 16 42.999 22zM489.001 388.999c10.667 10.667 15.999 23.333 15.999 38c0 12.667 -5 27 -15 43c-7.33301 15.333 -18.333 30 -33 44c-31.333 30 -62.666 45 -93.999 45
c-7.33301 0 -13.333 -1.66699 -18 -5c-50.667 -20 -76 -50.333 -76 -91c0 -24 12.5 -48.5 37.5 -73.5s54.833 -37.5 89.5 -37.5h24c6 0 14.667 2.33301 26 7z" />
    <glyph glyph-name="u0648" unicode="&#x648;" horiz-adv-x="1012" arabic-form="isolated" 
d="M890 -5c-21.333 -46 -50 -92.666 -86 -139.999c-30 -38.667 -65.333 -72.667 -106 -102c-74.667 -54 -153.667 -81 -237 -81c-56 0 -121.667 18 -197 54l-56 35c-13.333 7.33301 -33.333 21.333 -60 42c-52 36 -78 60.333 -78 73c0 3.33301 4.33301 6 13 8l12 -2
c7.33301 0 14.333 -2.33301 21 -7l28 -7l48 -7l42 -1c50 -2.66699 101.333 3.66602 154 18.999c44.667 12.667 87.334 37.667 128.001 75l24 16c8.66699 6 13 14.333 13 25c0 3.33301 -5 6.33301 -15 9l-21 -4l-21 -2h-21l-9 2l-18 1l-21 6c-17.333 4 -40.666 12 -69.999 24
l-14 7l-16 9l-9 6c-6 4 -11.667 9.66699 -17 17c-30.667 27.333 -46 79 -46 155c0 117.333 30.333 240 91 368c36 75.333 62.667 122.666 80 141.999c27.333 32 64.666 48 111.999 48l13 -2c67.333 0 124.666 -25 171.999 -75c36 -39.333 72.333 -100.666 109 -183.999
c50 -116 75 -248.333 75 -397c0 -62 -5.66699 -105.333 -17 -130zM682 477.001l-16 36l-13 16l-17 18l-28 23c-2.66699 2.66699 -13 8.66699 -31 18l-18 6l-12 4l-20 -6l-20 -15c-9.33301 -14.667 -15 -30.667 -17 -48c0 -8 1.33301 -14.333 4 -19l14 -18l4 -3l10 -7l16 -7
l39 -3l33 -6l15 -2h30l15 2l10 4l4 5z" />
    <glyph glyph-name="u0649" unicode="&#x649;" horiz-adv-x="1273" arabic-form="isolated" 
d="M1106 844l14.001 0.000976562c38 0 69 -14.667 93 -44c22 -26 34.333 -61 37 -105l2 -26c2 -32.667 -8 -54.667 -30 -66l-15 -2l-20 6l-39 16l-42 7l-42 2c-31.333 1.33301 -60.333 -4 -87 -16c-24 -10 -43.667 -29 -59 -57c-3.33301 -8.66699 -5 -16.334 -5 -23.001
c0 -27.333 31 -52.333 93 -75c150.667 -55.333 233.667 -99 249 -131c14.667 -28.667 22 -62.334 22 -101.001c0 -123.333 -66.333 -245.333 -199 -366c-139.333 -126.667 -324 -213 -554 -259l-45 -9l-33 -3l-81 -3c-53.333 -2.66699 -107.333 6.33301 -162 27
c-51.333 20 -92.666 48.333 -123.999 85c-52.667 62.667 -79 146 -79 250c0 68.667 13 137.667 39 207l9 25l11 28l12 25l12 22c19.333 38 33.333 57 42 57c3.33301 0 5 -5.33301 5 -16l-3 -35v-34l-2 -24c-8 -110 32 -195 120 -255c63.333 -43.333 151.666 -65 264.999 -65
c60 0 124.667 6.33301 194 19c86 16.667 146.333 38.334 181 65.001c6.66699 6 10 12.333 10 19c0 8.66699 -35 23.667 -105 45c-94.667 28 -160.334 50.333 -197.001 67c-70.667 31.333 -106 64 -106 98c0 128 62 258.667 186 392c78 84 162 151.333 252 202
c4.66699 2.66699 15.667 6.66699 33 12l44 16z" />
    <glyph glyph-name="u064A" unicode="&#x64a;" horiz-adv-x="1273" arabic-form="isolated" 
d="M1106 844l14.001 0.000976562c38 0 69 -14.667 93 -44c22 -26 34.333 -61 37 -105l2 -26c2 -32.667 -8 -54.667 -30 -66l-15 -2l-20 6l-39 16l-42 7l-42 2c-31.333 1.33301 -60.333 -4 -87 -16c-24 -10 -43.667 -29 -59 -57c-3.33301 -8.66699 -5 -16.334 -5 -23.001
c0 -27.333 31 -52.333 93 -75c150.667 -55.333 233.667 -99 249 -131c14.667 -28.667 22 -62.334 22 -101.001c0 -123.333 -66.333 -245.333 -199 -366c-139.333 -126.667 -324 -213 -554 -259l-45 -9l-33 -3l-81 -3c-53.333 -2.66699 -107.333 6.33301 -162 27
c-51.333 20 -92.666 48.333 -123.999 85c-52.667 62.667 -79 146 -79 250c0 68.667 13 137.667 39 207l9 25l11 28l12 25l12 22c19.333 38 33.333 57 42 57c3.33301 0 5 -5.33301 5 -16l-3 -35v-34l-2 -24c-8 -110 32 -195 120 -255c63.333 -43.333 151.666 -65 264.999 -65
c60 0 124.667 6.33301 194 19c86 16.667 146.333 38.334 181 65.001c6.66699 6 10 12.333 10 19c0 8.66699 -35 23.667 -105 45c-94.667 28 -160.334 50.333 -197.001 67c-70.667 31.333 -106 64 -106 98c0 128 62 258.667 186 392c78 84 162 151.333 252 202
c4.66699 2.66699 15.667 6.66699 33 12l44 16z" />
    <glyph glyph-name="u067E" unicode="&#x67e;" horiz-adv-x="1703" arabic-form="isolated" 
d="M831 -388c0 32.667 10.832 59.834 32.499 81.501s48.834 32.5 81.501 32.5c32 0 59 -11 81 -33s33 -49 33 -81s-11 -59 -33 -81s-49 -33 -81 -33s-59 11.167 -81 33.5s-33 49.166 -33 80.499zM490.999 -388c0 32.667 11 59.834 33 81.501s49.333 32.5 82 32.5
c32 0 59 -10.833 81 -32.5s33 -48.834 33 -81.501c0 -32 -11 -59 -33 -81s-49 -33 -81 -33s-59.167 11 -81.5 33s-33.5 49 -33.5 81zM658.999 -556c0 32 11.168 59.001 33.501 81.001s49.166 33 80.499 33c32 0 59 -10.833 81 -32.5s33 -48.834 33 -81.501
c0 -34 -10.5 -61.5 -31.5 -82.5s-48.5 -31.5 -82.5 -31.5c-30 0 -57 11 -81 33c-15.333 17.333 -26.333 44.333 -33 81zM77 120.001c-22.667 29.333 -41.999 68.3369 -57.999 117.004c-5.33301 16 -10.333 38.667 -15 68c-4 22 -6 47.667 -6 77
c0 51.333 11 118.666 33 201.999l12 44c8 31.333 28.667 55.666 62 72.999l25 8c18 0 34.333 -19.333 49 -58c27.333 -95.333 53.666 -149 78.999 -161l22 -5l35 -10l36 -8l38 -6l181 -28l78 -6l87 -1l178 5l23 3l67 9l154 18l39 2h16l13 4l29 5c6 0 12.333 1.66699 19 5
c30 10.667 45 30 45 58c0 10 -12 32.667 -36 68l-18 27l-6 11l-4 15l-4 23c0 24.667 11.5 47.834 34.5 69.501s46.833 32.5 71.5 32.5c7.33301 0 12 -0.333008 14 -1s3.66699 -1.33398 5 -2.00098h1l4 -2l10 -6c6 -2 14.667 -11.333 26 -28l9 -23l5 -21l10 -40l6 -36l7 -54
v-24c0 -4.66699 1.66699 -12 5 -22l36 -120v-11c0 -4.66699 -0.333008 -9.33398 -1 -14.001s-3.66699 -12.334 -9 -23.001c-141.333 -394.667 -360.333 -592 -657 -592c-110.667 0 -232 29.667 -364 89c-80 35.333 -172.333 89 -277 161l-109 74v34z" />
    <glyph glyph-name="u0686" unicode="&#x686;" horiz-adv-x="828" arabic-form="isolated" 
d="M51 51c28.667 69.333 99.999 134 213.999 194c101.333 52.667 152 87.667 152 105l-3 12l-6 12c-16 22.667 -47.667 34 -95 34c-38 0 -74.333 -9.33301 -109 -28l-13 -18l-16 -23c-24 -44 -41.333 -66 -52 -66l-4 1l-10 6l-15 26l-2 39c-2 40 14.667 82.333 50 127
c20.667 25.333 41.334 46.333 62.001 63l20 10l19 8l21 9l28 6l21 2l19 -1l23 -3l18 -4c1.33301 0 10.666 -2.66699 27.999 -8l51 -15l38 -10l90 -17l62 -4l52 1l41 7l23 4l21 7l19 6l30 12l27 4c44 0 65 -33.667 63 -101l-1 -34v-15l-4 -17l-3 -23
c0 -5.33301 -2 -13.333 -6 -24l-4 -20l-8 -25c-5.33301 -19.333 -14.333 -46.333 -27 -81l-20 -44l-17 -33c-29.333 -55.333 -94 -91.333 -194 -108l-285 -17c-10 -2 -26 -6.66699 -48 -14c-22.667 -9.33301 -38.334 -28.666 -47.001 -57.999l-14 -50
c-1.33301 -33.333 6.33398 -64.333 23.001 -93c12 -20.667 38.333 -43.334 79 -68.001c37.333 -22.667 81.666 -34 132.999 -34c34 0 63 3 87 9c26.667 8 55 19 85 33c8 2.66699 20.333 14 37 34l74 89c26.667 32.667 44.334 49 53.001 49s14.334 -7.66699 17.001 -23l2 -31
v-32c0 -130 -48.667 -236 -146 -318c-84 -71.333 -187.333 -107 -310 -107c-103.333 0 -190 27 -260 81c-35.333 27.333 -64 73.666 -86 138.999c-18.667 56.667 -28 113.334 -28 170.001c0 96 17 185.333 51 268zM497.999 -75c0 -19.333 -7.33203 -37.333 -21.999 -54
c-15.333 -14 -33.333 -21 -54 -21c-14.667 0 -32.334 7 -53.001 21c-14.667 17.333 -22 35.333 -22 54c0 20.667 7.5 38.167 22.5 52.5s32.5 21.5 52.5 21.5c20.667 0 38.5 -7.16699 53.5 -21.5s22.5 -31.833 22.5 -52.5zM651 -69c0 -20 -7.49902 -37.667 -22.499 -53
s-32.833 -23 -53.5 -23c-28.667 0 -46.334 7.33301 -53.001 22c-14.667 16.667 -22 34.667 -22 54c0 20 7.5 37.167 22.5 51.5s32.5 21.5 52.5 21.5c20.667 0 38.5 -7.16699 53.5 -21.5s22.5 -31.5 22.5 -51.5zM588.001 -222c0 -20 -7.49902 -37.667 -22.499 -53
s-32.833 -23 -53.5 -23c-28.667 0 -46.334 7.33301 -53.001 22c-14.667 16.667 -22 34.667 -22 54c0 20 7.5 37.333 22.5 52s32.5 22 52.5 22c20.667 0 38.5 -7.33301 53.5 -22s22.5 -32 22.5 -52z" />
    <glyph glyph-name="u0698" unicode="&#x698;" horiz-adv-x="962" arabic-form="isolated" 
d="M0 -118l21.001 1.99902h16l12 -4l32 -3c121.333 0 245.666 31 372.999 93l139 69c39.333 19.333 59 46.333 59 81v17l-3 12c-3.33301 12.667 -9.66602 27 -18.999 43l-44 46l-20 22l-40 33c-7.33301 4.66699 -17 13.334 -29 26.001c-4 4.66699 -10 15 -18 31l-7 34l-2 38
c-2.66699 35.333 6.33301 73.333 27 114c18 35.333 42.333 53 73 53l19 -3c25.333 -8 46.333 -27 63 -57l36 -61l34 -53l13 -24l16 -30l27 -63l15 -42l14 -63l6 -73c8.66699 -117.333 -37 -222 -137 -314c-91.333 -84 -196.333 -126 -315 -126
c-71.333 0 -137 15.667 -197 47l-48 26l-53 29l-12 10c-46.667 30.667 -71.334 54.334 -74.001 71.001c0 9.33301 7.66699 15.666 23 18.999zM550.001 910.999c0 32.667 10.8311 59.833 32.498 81.5s48.834 32.5 81.501 32.5s59.834 -11 81.501 -33s32.5 -49 32.5 -81
c0 -29.333 -11 -56.333 -33 -81c-10.667 -9.33301 -23.667 -17.333 -39 -24s-29.333 -10 -42 -10c-32 0 -59 11.167 -81 33.5s-33 49.5 -33 81.5zM210.999 910.998c0 32.667 10.833 59.832 32.5 81.499s48.834 32.5 81.501 32.5c31.333 0 58.166 -11.167 80.499 -33.5
s33.5 -49.166 33.5 -80.499c0 -30 -11 -57 -33 -81c-10.667 -9.33301 -23.667 -17.333 -39 -24s-29.333 -10 -42 -10c-32 0 -59 11.167 -81 33.5s-33 49.5 -33 81.5zM377.999 1084c0 30 11.667 56.668 35 80.001s49.666 35 78.999 35c32.667 0 60 -11 82 -33
s33 -49.333 33 -82c0 -32 -11 -59 -33 -81s-49.333 -33 -82 -33c-31.333 0 -58.166 11.167 -80.499 33.5s-33.5 49.166 -33.5 80.499z" />
    <glyph glyph-name="u06AF" unicode="&#x6af;" horiz-adv-x="1555" arabic-form="isolated" 
d="M740 436l-38.001 3.00098l-176 6l-76 15h-10l-18 1l-142 3c-28 0.666992 -58.667 27.334 -92 80.001c-20 31.333 -31.667 53.333 -35 66l-6 15l-1 14c-1.33301 2.66699 -2 9 -2 19v35c0 10.667 -3 16 -9 16c-14 0 -31.667 -15 -53 -45l-30 -41l-9 -20l-6 -15l-12 -22
c-1.33301 -2 -3.33301 -9.33301 -6 -22l-11 -46c-5.33301 -23.333 -8 -59 -8 -107v-24l4 -35l5 -42l7 -39l24 -67c4.66699 -15.333 11.667 -30 21 -44c39.333 -58.667 97 -98.334 173 -119.001c4.66699 -1.33301 37.334 -7 98.001 -17l16 -3l21 -1h346
c2 0 46.667 -7 134 -21l34 -5l20 -2h15l26 2l26 5c10 5.33301 18 8.66602 24 9.99902l22 11c27.333 18.667 46.166 38 56.499 58s15.5 43.667 15.5 71c0 16 -3.33301 37 -10 63l-12 49l-16 54l-16 54l-7 28l-3 23c-5.33301 44.667 -8 71.667 -8 81l-12 144
c0 20.667 14.667 75.334 44 164.001l63 191c14.667 43.333 32.667 78 54 104c26 29.333 77.667 58.666 155 87.999c98.667 33.333 153.334 50 164.001 50l25 -3l26 -10l23 -11c4.66699 -2.66699 9 -4 13 -4h20c12 6.66699 19.333 12.667 22 18l18 42l2 6v12
c1.33301 2 2 5.33301 2 10v62l-13 107c-2 14 -7 23.667 -15 29l-18 18c-6.66699 5.33301 -14 8 -22 8l-16 -2l-25 -6l-87 -9c-8 -2.66699 -18.333 -4 -31 -4l-110 -1c-18.667 0 -52.334 -10.667 -101.001 -32l-144 -58l-116 -62c-69.333 -34 -115.333 -85 -138 -153
c-16 -48.667 -24 -92 -24 -130c0 -41.333 8.33301 -84 25 -128l14 -52l60 -148c10 -24.667 17.333 -50.334 22 -77.001l6 -28c1.33301 -3.33301 2 -8 2 -14v-11c0 -21.333 -5.33301 -44 -16 -68l-18 -29c-8.66699 -10.667 -18 -18.667 -28 -24
c-15.333 -7.33301 -31 -14.333 -47 -21c-21.333 -9.33301 -39.666 -13.666 -54.999 -12.999zM1031 1541c-0.666992 4.66699 3.66699 18.333 13 41c15.333 36.667 43 63.334 83 80.001l32 7l23 4c110 8 156.667 12.667 140 14l43 -3l19 -1c7.33301 0 13 0.333008 17 1l49 1
l14 3h9c4.66699 0 9 -1.33301 13 -4l9 -12c3.33301 -2.66699 5.66602 -8 6.99902 -16l2 -20l-2 -35c-0.666992 -2.66699 -1.33398 -4.33398 -2.00098 -5.00098l-1 -7l-1 -3l-3 -6l-9 -17c-1.33301 -2.66699 -5.66602 -5.66699 -12.999 -9l-11 1c-2.66699 0 -5 0.666992 -7 2
l-12 7l-14 7l-14 3c-9.33301 0.666992 -50.666 -8.33301 -123.999 -27l-128 -27l-27 -3l-7 -1c-0.666992 0 -1.66699 -0.333008 -3 -1l-3 -1c-2 -2 -5.33301 -4.66699 -10 -8c-7.33301 -4.66699 -16.333 -7 -27 -7c-34 0 -52.333 14 -55 42z" />
    <glyph glyph-name="uFB57" unicode="&#x67e;" horiz-adv-x="1560" arabic-form="final" 
d="M376 0l-48 12.9971c-6 0 -10 0.333008 -12 1l-10 6l-26 10c-65.333 24.667 -125.333 63.334 -180 116.001c-66.667 64 -100 141.333 -100 232c-0 45.333 9.33301 95.666 28 150.999l11 57l2 19l7 31c9.33301 48.667 24.333 73 45 73c5.33301 0 11.666 -2.33301 18.999 -7
c18.667 -12 28 -33.333 28 -64v-15l4 -22l5 -19c14.667 -29.333 48.667 -55 102 -77l110 -33l30 -11c96 -38 203.667 -57 323 -57c58.667 0 110.667 3.66699 156 11l289 46l76 9c20 0 35.333 5 46 15c25.333 15.333 38 35.333 38 60c0 16.667 -5.33301 37.334 -16 62.001
l-8 6l-18 12c-12.667 10 -20 19.667 -22 29c0 4 3 11 9 21l15 16l42 55c12.667 16 29.667 26 51 30l9 -2c4 0 7 -0.666992 9 -2c18 -7.33301 29 -23.666 33 -48.999c0 -18.667 0.666992 -29.334 2 -32.001l9 -35l1 -14v-16l-1 -37l-9 -62c0 -12.667 0.333008 -20 1 -22
l6 -20l12 -14l12 -10l16 -6l19 -3l16 2l28 7l32 3l23 -3c28.667 -9.33301 52.667 -26.666 72 -51.999c14 -22.667 21 -51 21 -85c0 -55.333 -15.333 -123 -46 -203l-47 -121c-32.667 -85.333 -79.667 -145.666 -141 -180.999c-57.333 -32.667 -128.666 -49 -213.999 -49
c-74.667 0 -165.667 13.333 -273 40l-189 48l-74 21l-69 23l-83 31l-98 39zM948 -379.003c0 32.667 10.832 59.834 32.499 81.501s48.834 32.5 81.501 32.5c32 0 59 -11 81 -33s33 -49 33 -81s-11 -59 -33 -81s-49 -33 -81 -33s-59 11.167 -81 33.5s-33 49.166 -33 80.499z
M607.999 -379.003c0 32.667 11 59.834 33 81.501s49.333 32.5 82 32.5c32 0 59 -10.833 81 -32.5s33 -48.834 33 -81.501c0 -32 -11 -59 -33 -81s-49 -33 -81 -33s-59.167 11 -81.5 33s-33.5 49 -33.5 81zM775.999 -547.003c0 32 11.168 59.001 33.501 81.001
s49.166 33 80.499 33c32 0 59 -10.833 81 -32.5s33 -48.834 33 -81.501c0 -34 -10.5 -61.5 -31.5 -82.5s-48.5 -31.5 -82.5 -31.5c-30 0 -57 11 -81 33c-15.333 17.333 -26.333 44.333 -33 81z" />
    <glyph glyph-name="uFB58" unicode="&#x67e;" horiz-adv-x="623" arabic-form="initial" 
d="M445 772c10 -3.33301 19.333 -13.335 28 -30.002l3 -18l5 -15l9 -23l6 -25l7 -47l14 -125c0 -8.66699 1.66699 -16.334 5 -23.001l16 -65l30 -123c9.33301 -40 14 -75.667 14 -107v-28l-7 -39c-1.33301 -8.66699 -3.66602 -16.334 -6.99902 -23.001l-12 -24l-10 -16
l-19 -23l-15 -18c-18 -21.333 -37.333 -37.666 -58 -48.999l-29 -17l-42 -20l-34 -13l-39 -11c-20 -5.33301 -46 -8 -78 -8c-45.333 0 -93.333 9.33301 -144 28c-44.667 16.667 -83.334 45.334 -116.001 86.001c-10 12 -23.667 31.667 -41 59l-36 70l-22 76
c-5.33301 18.667 -8 41.334 -8 68.001c0 86 34.333 150 103 192l21 7l15 5l36 4l32 -2l57 -11l31 -3c16.667 0 26 -0.666992 28 -2h13l15 2l67 7c19.333 2 37 7.66699 53 17c24.667 14.667 37 34.667 37 60l-3 26l-6 15l-9 16c-4 8 -15.667 18 -35 30
c-14 8.66699 -19.333 18.334 -16 29.001c2 6 5 10.667 9 14l17 13l27 21l37 42c3.33301 4.66699 9 9.66699 17 15l22 8zM336 -280.002c0 32.667 10.832 59.834 32.499 81.501s48.834 32.5 81.501 32.5c32 0 59 -11 81 -33s33 -49 33 -81s-11 -59 -33 -81s-49 -33 -81 -33
s-59 11.167 -81 33.5s-33 49.166 -33 80.499zM-4.00098 -280.002c0 32.667 11 59.834 33 81.501s49.333 32.5 82 32.5c32 0 59 -10.833 81 -32.5s33 -48.834 33 -81.501c0 -32 -11 -59 -33 -81s-49 -33 -81 -33s-59.167 11 -81.5 33s-33.5 49 -33.5 81zM163.999 -448.002
c0 32 11.168 59.001 33.501 81.001s49.166 33 80.499 33c32 0 59 -10.833 81 -32.5s33 -48.834 33 -81.501c0 -34 -10.5 -61.5 -31.5 -82.5s-48.5 -31.5 -82.5 -31.5c-30 0 -57 11 -81 33c-15.333 17.333 -26.333 44.333 -33 81z" />
    <glyph glyph-name="uFB59" unicode="&#x67e;" horiz-adv-x="1004" arabic-form="medial" 
d="M540 596l9 2.00293c2.66699 0 9.66699 -14 21 -42c5.33301 -26.667 13 -44.334 23 -53.001l30 -16l40 -15l52 -11l24 -4l26 -2c12.667 -0.666992 36.667 2.33301 72 9l116 23c28.667 0 56.334 -8.66699 83.001 -26c38 -24.667 64.333 -56.667 79 -96l10 -26l13 -35l4 -35
l3 -33c2.66699 -36 -7.33301 -80.333 -30 -133c-20.667 -46.667 -47 -81 -79 -103l-36 -24l-24 -11l-18 -7c-14 -6 -27 -9.66699 -39 -11l-24 -3l-19 -1h-33l-50 9l-17 6l-25 6l-28 11l-28 11l-28 14l-12 4l-17 10l-22 12l-30 19l-16 16l-19 34c-4 16.667 -12.333 26 -25 28
c-10.667 0 -20 -7.66699 -28 -23l-4 -9l-9 -12l-33 -28c-11.333 -8.66699 -31.333 -19.667 -60 -33l-62 -18l-110 -35c-54.667 -9.33301 -90 -14 -106 -14h-29c-8 0.666992 -23 3.5 -45 8.5s-46 18.667 -72 41s-51.667 55.5 -77 99.5l-11 27l-10 34l-5 32l-2 36l1 29
c0.666992 13.333 2.66699 26 6 38c3.33301 20 9.66602 39.667 18.999 59c19.333 41.333 45.666 76.666 78.999 105.999c6.66699 5.33301 13.667 9.66602 21 12.999l24 11c24 6 40 9 48 9c22.667 0 58.834 -7.33301 108.501 -22s87.5 -22 113.5 -22h19c10 0 16 0.666992 18 2
l28 9l67 24l34 17c9.33301 6 19.333 14.333 30 25l17 15l9 12l15 23l8 10zM300 -207.997c0 32.667 10.832 59.834 32.499 81.501s48.834 32.5 81.501 32.5c32 0 59 -11 81 -33s33 -49 33 -81s-11 -59 -33 -81s-49 -33 -81 -33s-59 11.167 -81 33.5s-33 49.166 -33 80.499z
M-40.001 -207.997c0 32.667 11 59.834 33 81.501s49.333 32.5 82 32.5c32 0 59 -10.833 81 -32.5s33 -48.834 33 -81.501c0 -32 -11 -59 -33 -81s-49 -33 -81 -33s-59.167 11 -81.5 33s-33.5 49 -33.5 81zM127.999 -375.997c0 32 11.168 59.001 33.501 81.001
s49.166 33 80.499 33c32 0 59 -10.833 81 -32.5s33 -48.834 33 -81.501c0 -34 -10.5 -61.5 -31.5 -82.5s-48.5 -31.5 -82.5 -31.5c-30 0 -57 11 -81 33c-15.333 17.333 -26.333 44.333 -33 81z" />
    <glyph glyph-name="uFB7B" unicode="&#x686;" horiz-adv-x="1032" arabic-form="final" 
d="M1062 461c14 -2 31.667 -11.3301 53 -27.9971c13.333 -10.667 28 -29.667 44 -57c22 -48 33 -97.667 33 -149c0 -54 -11 -102.667 -33 -146c-23.333 -45.333 -55.666 -72.333 -96.999 -81l-37 -4l-67 4h-75c-8.66699 0 -19.334 1.66699 -32.001 5l-25 16
c-44.667 19.333 -81 50.333 -109 93l-61 127c-16 35.333 -40.667 81.666 -74 138.999l-21 29c-8.66699 12 -15.667 20 -21 24c-14 16 -30 24 -48 24c-8.66699 0 -15.334 -1 -20.001 -3l-22 -14c-22 -9.33301 -44.333 -27 -67 -53l-42 -63
c-24.667 -36.667 -37 -78.334 -37 -125.001c0 -74.667 38 -141 114 -199c40 -30 83 -50 129 -60l33 -7l51 -9c17.333 -3.33301 42.666 -5 75.999 -5h51l51 7c4.66699 -1.33301 9 -4.33301 13 -9c0 -6.66699 -19.667 -23 -59 -49l-30 -20l-18 -14l-91 -82l-36 -30l-18 -13
l-24 -14l-52 -25l-51 -15l-35 -1c-6 -0.666992 -12.333 -1.33398 -19 -2.00098c-106.667 0 -198.5 41 -275.5 123s-115.5 176.667 -115.5 284c0 36.667 2.66699 66 8 88l11 43l8 22l10 22c28.667 62 67.334 121.667 116.001 179c10 12 30.333 26.667 61 44l55 32l78 40
c36.667 19.333 55 38.333 55 57c0 8.66699 -4.33301 19 -13 31c-5.33301 13.333 -16 23.333 -32 30l-20 5l-31 2c-33.333 2 -72.666 -9.66699 -117.999 -35l-5 -4l-10 -10l-16 -25c-16 -33.333 -29.667 -52.666 -41 -57.999l-12 9l-12 18l-4 28c0 48 19.333 99 58 153
c42 58.667 91.667 88 149 88l20 -2l24 -5l183 -44l71 -11l63 -4c40.667 -2 81.334 3 122.001 15l37 11l38 9c6 0 14.667 -2 26 -6l20 -12l16 -18c10 -18 14 -36 12 -54l-3 -32c0 -4 -1 -8.33301 -3 -13l-6 -16c-2 -8.66699 -5.33301 -16.334 -10 -23.001l-27 -29l-11 -7
l-14 -7l-16 -4h-17c-24 0 -42.333 -3.33301 -55 -10l-84 -30c-15.333 -8 -23 -16.333 -23 -25c0 -2.66699 10 -8.66699 30 -18l53 -13l46 -6l45 -1l127 -2c5.33301 0 8.66602 0.666992 9.99902 2l53 3zM489 199.003c0 -20 -7.49902 -37.667 -22.499 -53
s-32.833 -23 -53.5 -23c-14.667 0 -32.334 7.33301 -53.001 22c-14.667 16.667 -22 34.667 -22 54c0 20 7.5 37.333 22.5 52s32.5 22 52.5 22c20.667 0 38.5 -7.33301 53.5 -22s22.5 -32 22.5 -52zM642.001 204.003c0 -19.333 -7.33203 -37.333 -21.999 -54
c-15.333 -14 -33.333 -21 -54 -21c-28.667 0 -46.334 7 -53.001 21c-14.667 17.333 -22 35.333 -22 54c0 20.667 7.5 38.167 22.5 52.5s32.5 21.5 52.5 21.5c20.667 0 38.5 -7.16699 53.5 -21.5s22.5 -31.833 22.5 -52.5zM579.002 51.0029
c0 -19.333 -7.33203 -37.333 -21.999 -54c-15.333 -14 -33.333 -21 -54 -21c-28.667 0 -46.334 7 -53.001 21c-14.667 17.333 -22 35.333 -22 54c0 20.667 7.5 38.167 22.5 52.5s32.5 21.5 52.5 21.5c20.667 0 38.5 -7.16699 53.5 -21.5s22.5 -31.833 22.5 -52.5z" />
    <glyph glyph-name="uFB7C" unicode="&#x686;" horiz-adv-x="1173" arabic-form="initial" 
d="M1173 461c0 -24 -11.334 -56.001 -34.001 -96.001l-33 -59l-58 -160c-18 -51.333 -45 -100 -81 -146c-58.667 -76 -139.167 -135.833 -241.5 -179.5s-205.166 -65.5 -308.499 -65.5c-160 0 -283 45.333 -369 136c-36 37.333 -61.333 73.666 -76 108.999l-27 65l-11 30
l-10 34l-12 63v10l-2 16l-2 30v20l4 32c1.33301 12.667 5.33301 30.334 12 53.001c24 85.333 63.333 138.333 118 159c30.667 11.333 63.334 17 98.001 17c46 0 114.667 -11 206 -33c28.667 -7.33301 95.667 -28.333 201 -63c62 -20.667 107.667 -32.334 137 -35.001
c12.667 0 20 5 22 15c0 8.66699 -8 24.667 -24 48l-24 29l-10 11l-16 16l-59 47c-22 18 -54 34.333 -96 49c-34 12.667 -67 19 -99 19c-28 0 -60 -5.33301 -96 -16l-44 -30l-25 -16l-27 -8c-19.333 0 -29 8 -29 24c0 17.333 15 50 45 98l42 53l29 32c33.333 36 80 54 140 54
c57.333 0 118.333 -18.667 183 -56c55.333 -32.667 95.666 -68 120.999 -106c50 -73.333 88.333 -119.666 115 -138.999l19 -8l32 -2l30 2h15c6 0 12.667 1 20 3l123 12c22 0 36.833 -0.666992 44.5 -2s18.167 -5.66602 31.5 -12.999c17.333 -9.33301 26 -27 26 -53z
M488.999 -397.001c0 32.667 10.832 59.834 32.499 81.501s48.834 32.5 81.501 32.5c32 0 59 -11 81 -33s33 -49 33 -81s-11 -59 -33 -81s-49 -33 -81 -33s-59 11.167 -81 33.5s-33 49.166 -33 80.499zM148.998 -397.001c0 32.667 11 59.834 33 81.501s49.333 32.5 82 32.5
c32 0 59 -10.833 81 -32.5s33 -48.834 33 -81.501c0 -32 -11 -59 -33 -81s-49 -33 -81 -33s-59.167 11 -81.5 33s-33.5 49 -33.5 81zM316.998 -565.001c0 32 11.168 59.001 33.501 81.001s49.166 33 80.499 33c32 0 59 -10.833 81 -32.5s33 -48.834 33 -81.501
c0 -34 -10.5 -61.5 -31.5 -82.5s-48.5 -31.5 -82.5 -31.5c-30 0 -57 11 -81 33c-15.333 17.333 -26.333 44.333 -33 81z" />
    <glyph glyph-name="uFB7D" unicode="&#x686;" horiz-adv-x="1038" arabic-form="medial" 
d="M804 586c9.33301 -12 25.3291 -27.666 47.9961 -46.999c14 -11.333 36.667 -25.666 68 -42.999l35 -15l39 -11l79 -9c29.333 -7.33301 53.333 -24 72 -50l9 -20l7 -18c4.66699 -19.333 6.33398 -36.333 5.00098 -51l-2 -46c-0.666992 -6.66699 -2 -14.334 -4 -23.001
l-6 -28c-7.33301 -30.667 -20.333 -70 -39 -118l-42 -107c-37.333 -94 -110.666 -169 -219.999 -225c-54 -28 -106 -46 -156 -54l-86 -14c-21.333 -4 -51.666 -6 -90.999 -6c-126 0 -236.667 24.667 -332 74c-114.667 59.333 -188.334 134.333 -221.001 225l-24 65l-20 64
l-13 63l-3 37l-1 24l1 23l3 28c1.33301 12.667 5 29.667 11 51c1.33301 7.33301 3.66602 16.333 6.99902 27c2 6.66699 5.66699 14.667 11 24l14 31l14 24c14.667 25.333 38.667 44 72 56l19 8l30 8l34 2l29 1c48.667 2 123 -9.66699 223 -35
c19.333 -4.66699 48 -12.667 86 -24c16 -4.66699 40.333 -12.334 73 -23.001l56 -19l91 -26l50 -9c10.667 0 17.667 4.33301 21 13c0 8 -9 23.333 -27 46l-36 39c-9.33301 9.33301 -27.333 23.333 -54 42c-71.333 50.667 -143.666 76 -216.999 76h-24
c-12.667 0 -20 -0.666992 -22 -2l-21 -3l-16 -4l-16 -9l-28 -23l-25 -14c-5.33301 0 -8.66602 2.33301 -9.99902 7l-7 16v23c0 18 8.33301 42 25 72l37 44c50 60 107 90 171 90c74.667 0 152.667 -40.667 234 -122c24.667 -24.667 54.334 -59.667 89.001 -105z
M587.996 -459.999c0 32.667 10.832 59.834 32.499 81.501s48.834 32.5 81.501 32.5c32 0 59 -11 81 -33s33 -49 33 -81s-11 -59 -33 -81s-49 -33 -81 -33s-59 11.167 -81 33.5s-33 49.166 -33 80.499zM247.995 -459.999c0 32.667 11 59.834 33 81.501s49.333 32.5 82 32.5
c32 0 59 -10.833 81 -32.5s33 -48.834 33 -81.501c0 -32 -11 -59 -33 -81s-49 -33 -81 -33s-59.167 11 -81.5 33s-33.5 49 -33.5 81zM415.995 -627.999c0 32 11.168 59.001 33.501 81.001s49.166 33 80.499 33c32 0 59 -10.833 81 -32.5s33 -48.834 33 -81.501
c0 -34 -10.5 -61.5 -31.5 -82.5s-48.5 -31.5 -82.5 -31.5c-30 0 -57 11 -81 33c-15.333 17.333 -26.333 44.333 -33 81z" />
    <glyph glyph-name="uFB8B" unicode="&#x698;" horiz-adv-x="890" arabic-form="final" 
d="M772 448c12 0 26 1.99902 42 5.99902l41 9l30 5c12.667 0 25 -2.33301 37 -7c84 -34.667 126 -115 126 -241v-22c0 -9.33301 -0.333008 -17.166 -1 -23.499s-2.66699 -16.5 -6 -30.5c-8.66699 -48 -30.334 -86.667 -65.001 -116
c-10.667 -9.33301 -28.667 -18.666 -54 -27.999l-30 -4l-33 4l-36 2h-16l-12 -2c-30.667 -9.33301 -55.334 -29.666 -74.001 -60.999l-39 -92c-14.667 -34.667 -33.667 -60.334 -57 -77.001c-79.333 -56.667 -164.666 -85 -255.999 -85c-70 0 -137.333 16.667 -202 50
c-32.667 16.667 -70 38.667 -112 66c-48.667 32 -73 55 -73 69c0 6.66699 4.33301 11.334 13 14.001h19l30 -4l26 -3c76 0 152.333 10.333 229 31c30 8.66699 57 17 81 25l60 22c32.667 12 53.667 21.667 63 29c36.667 15.333 68.667 36 96 62l33 47
c10 14.667 19.333 34 28 58l3 18c0 10 -6 20 -18 30l-31 26l-18 18c-9.33301 10.667 -29.333 28.667 -60 54c-20.667 12.667 -36 31 -46 55c-7.33301 32 -11 55.333 -11 70c0 41.333 9.33301 80.666 28 117.999s42 55 70 53l14 -1
c3.33301 -0.666992 5.33301 -1.33398 6 -2.00098l8 -4c10.667 -4 20.334 -9.33301 29.001 -16l44 -45l15 -26c20.667 -34 47 -51 79 -51zM550 910.999c0 32.667 10.8311 59.833 32.498 81.5s48.834 32.5 81.501 32.5s59.834 -11 81.501 -33s32.5 -49 32.5 -81
c0 -29.333 -11 -56.333 -33 -81c-10.667 -9.33301 -23.667 -17.333 -39 -24s-29.333 -10 -42 -10c-32 0 -59 11.167 -81 33.5s-33 49.5 -33 81.5zM210.998 910.998c0 32.667 10.833 59.832 32.5 81.499s48.834 32.5 81.501 32.5c31.333 0 58.166 -11.167 80.499 -33.5
s33.5 -49.166 33.5 -80.499c0 -30 -11 -57 -33 -81c-10.667 -9.33301 -23.667 -17.333 -39 -24s-29.333 -10 -42 -10c-32 0 -59 11.167 -81 33.5s-33 49.5 -33 81.5zM377.998 1084c0 30 11.667 56.668 35 80.001s49.666 35 78.999 35c32.667 0 60 -11 82 -33
s33 -49.333 33 -82c0 -32 -11 -59 -33 -81s-49.333 -33 -82 -33c-31.333 0 -58.166 11.167 -80.499 33.5s-33.5 49.166 -33.5 80.499z" />
    <glyph glyph-name="uFEDA" unicode="&#x6a9;" horiz-adv-x="1143" arabic-form="final" 
d="M742 860l60.001 -147.998c10 -24.667 17.333 -50.334 22 -77.001l6 -28c1.33301 -3.33301 2 -8 2 -14v-11c0 -21.333 -5.33301 -44 -16 -68l-18 -29c-8.66699 -10.667 -18 -18.667 -28 -24c-63.333 -46 -132.666 -69 -207.999 -69c-43.333 0 -84.666 6.33301 -123.999 19
l-67 22l-61 28l-57 24l-27 14l-19 12c-11.333 10 -19 21 -23 33l-1 17l3 35l4 25v21c-4 29.333 -12.667 47 -26 53c-10.667 6 -18 9 -22 9c-21.333 0 -43 -20.667 -65 -62l-5 -14l-13 -25l-11 -28l-11 -30c-26 -50.667 -39 -102 -39 -154
c0 -104.667 48.667 -197.667 146 -279c25.333 -20.667 48.666 -37.667 69.999 -51l33 -20l35 -13c26 -10 47.333 -16.333 64 -19l48 -7l32 -2l32 -5l23 -2l43 -6l95 -9l44 -1l50 2l48 5c13.333 1.33301 49 6.66602 107 15.999l66 11l72 28l4 -2l26 -11l30 -22
c10.667 -4 25.667 -6 45 -6h25l25 2c41.333 8.66699 74.666 33.334 99.999 74.001c9.33301 19.333 17 40.666 23 63.999c7.33301 30 10 56 8 78l-2 42l-8 42l-7 27l-6 17l-10 25c-26.667 48.667 -59.334 79.334 -98.001 92.001c-3.33301 1.33301 -9.33301 2.33301 -18 3
l-21 2l-70 -7h-13l-29 2l-37 14l-24 21c-12 20.667 -18 44.667 -18 72c0 23.333 14 82.666 42 177.999l66 225c12.667 40.667 31.167 75.667 55.5 105s75.5 58.333 153.5 87c98.667 33.333 153.334 50 164.001 50l25 -3l26 -10l23 -11c4.66699 -2.66699 9 -4 13 -4h20
c12 6.66699 19.333 12.667 22 18l18 42l2 6v12c1.33301 2 2 5.33301 2 10v62l-13 107c-2 14 -7 23.667 -15 29l-18 18c-6.66699 5.33301 -14 8 -22 8l-16 -2l-25 -6l-87 -9c-8 -2.66699 -18.333 -4 -31 -4l-110 -1c-18.667 0 -52.334 -10.667 -101.001 -32l-144 -58
l-116 -62c-69.333 -34 -115.333 -85 -138 -153c-16 -48.667 -24 -92 -24 -130c0 -41.333 8.33301 -84 25 -128z" />
    <glyph glyph-name="uFEDB" unicode="&#x6a9;" horiz-adv-x="922" arabic-form="initial" 
d="M529 461l6.00098 1.99707l-2 10l-52 26l-72 43l-129 57c-25.333 11.333 -44.666 23 -57.999 35c-16 14 -29.667 30.667 -41 50l-11 26l-13 34l-4 30v13l-2 11v25l1 18l6 21l8 37l5 16l10 25c30 73.333 76 124.333 138 153c20 9.33301 54 18.333 102 27
c38 6.66699 78.333 10.334 121 11.001l76 2l78 5l27 1c10 0.666992 17 2 21 4l25 3l26 6l16 2c16.667 0 30 -8.66699 40 -26c3.33301 -5.33301 8.33301 -18 15 -38l4 -24l2 -28v-36c0 -4.66699 -0.666992 -8 -2 -10c0 -5.33301 -2.66699 -14.666 -8 -27.999l-12 -32
c-2.66699 -4.66699 -10 -10.667 -22 -18h-6l-22 2l-26 11c-24.667 10 -42.334 15 -53.001 15c-2.66699 0 -26.667 -6.33301 -72 -19l-94 -26l-38 -3l-40 -2l-31 -2c-36 -2 -63.833 -9 -83.5 -21s-36.167 -30.333 -49.5 -55l-4 -17l-3 -18c0 -31.333 58.333 -62.333 175 -93
l48 -13l44 -13l35 -12l26 -14l159 -68c51.333 -22 92.333 -57 123 -105l17 -35l15 -39c6.66699 -19.333 10 -45 10 -77v-27l-1 -11c0 -7.33301 -0.666992 -13.333 -2 -18l-6 -22c-7.33301 -29.333 -17 -55.666 -29 -78.999l-16 -29l-25 -43l-26 -40l-31 -41
c-54 -70.667 -121 -121.667 -201 -153l-55 -22l-64 -18c-32 -8.66699 -75.667 -13 -131 -13c-89.333 0 -166.333 16.333 -231 49c-71.333 36.667 -127.333 89.667 -168 159l-30 65l-13 31l-11 33l-7 30l-7 32c-4 16.667 -6 37.334 -6 62.001v26
c0 11.333 1.33301 20.666 4 27.999l5 24c0 3.33301 1.33301 7.33301 4 12l6 16c2 8.66699 4.66699 16.667 8 24c1.33301 6.66699 5.66602 15 12.999 25c23.333 47.333 53 79.333 89 96c20.667 9.33301 45 14 73 14c28.667 0 62.667 -6.33301 102 -19l122 -38l62 -13
c18 -3.33301 35.333 -5 52 -5h19l26 3l24 4z" />
    <glyph glyph-name="uFEDC" unicode="&#x6a9;" horiz-adv-x="986" arabic-form="medial" 
d="M-28 0l-25.001 67l-24 68l-8 34l-9 42l-3 35l-1 19l1 25v14l4 19c0 6.66699 1.33301 13.334 4 20.001l8 21c1.33301 6 8.66602 22 21.999 48l6 13l8 11c4 9.33301 9 16.666 15 21.999c6.66699 8.66699 14.667 16 24 22l24 14c19.333 7.33301 40.333 11 63 11
c38 0 81.667 -9.33301 131 -28l151 -57c49.333 -18.667 86 -28 110 -28c40 0 60 23 60 69s-26 82.333 -78 109l-154 53c-60 20 -98.667 53.667 -116 101c-16.667 44.667 -25 87.667 -25 129c0 38 8 81.333 24 130c23.333 68 69.333 119 138 153l57 17l39 10
c54.667 7.33301 97 11 127 11h77l34 1c12.667 0.666992 23 2 31 4l87 9l24 6l16 2c8 0 15.667 -2.33301 23 -7l18 -19c6.66699 -4.66699 11.334 -14.334 14.001 -29.001l7 -35v-62c0 -4 -0.666992 -7.33301 -2 -10l-1 -12l-2 -6l-4 -10l-14 -31
c-2 -5.33301 -9 -11.333 -21 -18h-20c-4 0 -8.66699 1 -14 3l-22 11l-26 10l-26 4c-15.333 0 -87.666 -21 -216.999 -63l-103 -34l-49 -9l-10 -2c-3.33301 -1.33301 -5.33301 -2 -6 -2l-6 -4c-4.66699 -2 -10 -6.66699 -16 -14l-9 -20c0 -12.667 20.333 -26.334 61 -41.001
c52 -18 84.333 -31.333 97 -40l98 -67l87 -61l100 -64l81 -63l17 -11l29 -17l14 -5l28 -7l20 -2l27 2l23 2l18 -2c29.333 -7.33301 54 -22.666 74 -45.999c16 -25.333 24 -55 24 -89v-22l-4 -35l-1 -14c-2.66699 -10 -6 -20.667 -10 -32l-7 -31l-19 -55l-13 -30l-8 -25
l-8 -21l-14 -30l-14 -31c-42 -89.333 -111.333 -158.666 -208 -207.999c-49.333 -25.333 -97.666 -42.333 -144.999 -51l-38 -7l-41 -6l-41 -3l-45 -1c-56.667 -1.33301 -111.334 4.16699 -164.001 16.5s-101 29.5 -145 51.5c-93.333 46.667 -163 116 -209 208z" />
    </font>
</defs>
</svg>
