<?xml version="1.0" standalone="no"?>
<!DOCTYPE svg PUBLIC "-//W3C//DTD SVG 1.1//EN" "http://www.w3.org/Graphics/SVG/1.1/DTD/svg11.dtd" >
<svg>
<metadata>
Created by FontForge 20090914 at Wed Oct 19 02:00:54 2011
 By www-data
(c) by Abolfazl Seilsepour - +98 912 591 3420  -  seilsepor@yahoo.com
</metadata>
<defs>
<font id="FarVahidBold" horiz-adv-x="0" >
  <font-face 
    font-family="Far.Vahid"
    font-weight="700"
    font-stretch="normal"
    units-per-em="2048"
    panose-1="0 0 7 0 0 0 0 0 0 0"
    ascent="1638"
    descent="-410"
    bbox="-166 -1487 1943 2041"
    underline-thickness="100"
    underline-position="-950"
    unicode-range="U+0020-U+FEFC"
  />
<missing-glyph horiz-adv-x="1024" 
d="M128 0v1185h768v-1185h-768zM256 128h512v929h-512v-929z" />
    <glyph glyph-name="uE818" unicode="&#x651;&#x64b;" 
d="M452 1424c0 -38.667 -10.333 -75.333 -31 -110c-23.333 -40 -53 -60 -89 -60c-29.333 0 -52.666 15.667 -69.999 47c-25.333 -54.667 -59.333 -82 -102 -82c-28 0 -49.667 13 -65 39c-13.333 22 -20 48 -20 78c0 78 15 117 45 117c3.33301 0 10.333 -16.833 21 -50.5
s25.667 -50.5 45 -50.5c20 0 38.667 19.833 56 59.5s29.666 59.5 36.999 59.5c3.33301 0 9.5 -14.667 18.5 -44s19.833 -44 32.5 -44c21.333 0 41.833 17.333 61.5 52s30.167 52 31.5 52c19.333 0 29 -21 29 -63zM428 1721l-20 -106l-372 -115l15 106zM428 1912l-20 -106
l-372 -115l15 106z" />
    <glyph glyph-name="uFC5E" unicode="&#x651;&#x64c;" arabic-form="isolated" 
d="M437 1440c0 -38.667 -10.333 -75 -31 -109c-23.333 -39.333 -53.666 -59 -90.999 -59c-28.667 0 -51 15.333 -67 46c-25.333 -54.667 -59.333 -82 -102 -82c-28 0 -50 13.333 -66 40c-13.333 22 -20 48 -20 78c0 76.667 15.333 115 46 115
c2.66699 0 9.16699 -16.333 19.5 -49s25.5 -49 45.5 -49c20.667 0 39.5 19.667 56.5 59s29.167 59 36.5 59c4 0 10.5 -14.833 19.5 -44.5s18.833 -44.5 29.5 -44.5c22 0 42.667 17.667 62 53s29.666 53 30.999 53c20.667 0 31 -22 31 -66zM417 1770
c0 -28 -15.6689 -66.332 -47.002 -114.999l-75 31c-19.333 -24 -49.666 -49.667 -90.999 -77c-52 -34 -97.667 -51 -137 -51c-8 0 -17 26.333 -27 79c4.66699 1.33301 18 6.66602 40 15.999c1.33301 14.667 2 28 2 40c0 40 -11.667 60 -35 60
c-8.66699 0 -19.5 -8.66699 -32.5 -26s-20.167 -26 -21.5 -26c-16 0 -24 20.667 -24 62c0 22.667 9.66699 46.5 29 71.5s40 37.5 62 37.5c26 0 47.167 -10.667 63.5 -32s24.5 -45.333 24.5 -72c0 -44.667 -3 -75.667 -9 -93c40 22 67.333 44 82 66
c-33.333 30 -50 67 -50 111c0 42.667 11.667 83.334 35 122.001c26.667 44.667 59.334 67 98.001 67c61.333 0 92 -38.667 92 -116c0 -46.667 -10.333 -90.334 -31 -131.001c8 -8.66699 25.333 -16.667 52 -24zM302.998 1830c13.333 19.333 20 38.668 20 58.001
c0 40 -14 60 -42 60c-22 0 -33 -17.333 -33 -52c0 -12.667 6 -25.834 18 -39.501s24.333 -22.5 37 -26.5z" />
    <glyph glyph-name="uFC5F" unicode="&#x651;&#x64d;" arabic-form="isolated" 
d="M419 1748c0 -39.333 -10.333 -76 -31 -110c-23.333 -38.667 -53.666 -58 -90.999 -58c-29.333 0 -51.666 15.333 -66.999 46c-26.667 -54.667 -60.667 -82 -102 -82c-28.667 0 -51.334 13.333 -68.001 40c-13.333 22 -20 48 -20 78c0 76.667 15.667 115 47 115
c2 0 8.33301 -16.333 19 -49s25.667 -49 45 -49c20 0 38.667 19.667 56 59s30.333 59 39 59c3.33301 0 9.5 -14.833 18.5 -44.5s19.167 -44.5 30.5 -44.5c22 0 42.667 17.667 62 53s29.666 53 30.999 53c20.667 0 31 -22 31 -66zM417 1356l-20 -98l-348 -108l15 99z
M417 1535l-20 -99l-348 -107l15 98z" />
    <glyph glyph-name="uFC60" unicode="&#x651;&#x64e;" arabic-form="isolated" 
d="M437 1453c0 -39.333 -10.333 -76 -31 -110c-23.333 -38.667 -53.666 -58 -90.999 -58c-28.667 0 -51 15.333 -67 46c-25.333 -54.667 -59.333 -82 -102 -82c-28 0 -50 13.333 -66 40c-13.333 22 -20 48 -20 78c0 76.667 15.333 115 46 115
c2.66699 0 9.16699 -16.5 19.5 -49.5s25.5 -49.5 45.5 -49.5c20.667 0 39.5 19.833 56.5 59.5s29.167 59.5 36.5 59.5c4 0 10.5 -14.833 19.5 -44.5s18.833 -44.5 29.5 -44.5c22 0 42.667 17.5 62 52.5s29.666 52.5 30.999 52.5c20.667 0 31 -21.667 31 -65zM456 1775
l-22 -105l-370 -115l14 105z" />
    <glyph glyph-name="uFC61" unicode="&#x651;&#x64f;" arabic-form="isolated" 
d="M423 1444c0 -39.333 -10.333 -76.333 -31 -111c-24 -39.333 -54.333 -59 -91 -59c-29.333 0 -52 15.667 -68 47c-26.667 -54.667 -60.667 -82 -102 -82c-58 0 -87 39 -87 117s15.667 117 47 117c2 0 8.33301 -16.5 19 -49.5s25.667 -49.5 45 -49.5
c20 0 38.667 19.833 56 59.5s30.333 59.5 39 59.5c2 0 7.83301 -15 17.5 -45s20.167 -45 31.5 -45c21.333 0 41.833 17.333 61.5 52s30.167 52 31.5 52c20.667 0 31 -21 31 -63zM379 1739c0 -24.667 -13.999 -59.333 -41.999 -104l-69 29
c-20.667 -24.667 -48 -48.334 -82 -71.001c-45.333 -30.667 -86.666 -46 -123.999 -46c-8.66699 0 -17.334 24 -26.001 72c79.333 20.667 134 52 164 94c-30 28 -45 61.667 -45 101s10.333 76.333 31 111c24.667 41.333 55 62 91 62c54.667 0 82 -36 82 -108
c0 -40 -9.66699 -79.333 -29 -118c7.33301 -7.33301 23.666 -14.666 48.999 -21.999zM273.001 1794c12.667 18 19 36 19 54c0 36.667 -12.333 55 -37 55c-20.667 0 -31 -16.333 -31 -49c0 -28 16.333 -48 49 -60z" />
    <glyph glyph-name="uFC62" unicode="&#x651;&#x650;" arabic-form="isolated" 
d="M443 1547c0 -39.333 -10.333 -75.667 -31 -109c-23.333 -38.667 -53.666 -58 -90.999 -58c-29.333 0 -52 15 -68 45c-26.667 -53.333 -61.334 -80 -104.001 -80c-56.667 0 -85 39 -85 117c0 76.667 15 115 45 115c3.33301 0 10.333 -16.5 21 -49.5s25.667 -49.5 45 -49.5
c20 0 38.667 19.833 56 59.5s29.666 59.5 36.999 59.5c4.66699 0 11.334 -15 20.001 -45s19 -45 31 -45c21.333 0 41.833 17.667 61.5 53s30.167 53 31.5 53c20.667 0 31 -22 31 -66zM439 1343l-22 -100l-350 -107l13 98z" />
    <glyph glyph-name="uFDF2" unicode="&#xfedf;&#xfee0;&#xfeea;" horiz-adv-x="1656" arabic-form="isolated" 
d="M1125 1131c0 -44.667 -6.66699 -86.332 -20 -124.999c-12.667 -35.333 -24.667 -53 -36 -53c-8 0 -12 12.333 -12 37c0 -0.666992 1.5 7.16602 4.5 23.499s4.5 32.166 4.5 47.499c0 65.333 -26.333 120 -79 164l45 94c17.333 -11.333 36 -33.666 56 -66.999
c24.667 -42 37 -82.333 37 -121zM1244 860.002c0 -40 -11.5 -74.5 -34.5 -103.5s-51.167 -43.5 -84.5 -43.5c-37.333 0 -58.333 16.667 -63 50c-18.667 -38.667 -47 -58 -85 -58c-53.333 0 -80 37.333 -80 112c0 36.667 11 71.667 33 105c20 30 37 45 51 45
c5.33301 0 8 -4 8 -12c0 -58 0.333008 -76.667 1 -56c-0.666992 -12 -4.66699 -19 -12 -21c-22 -4 -33 -14.333 -33 -31c0 -22.667 14 -34 42 -34c41.333 0 62 25.667 62 77c0 15.333 6.33301 23 19 23c11.333 -0.666992 17 -8.33398 17 -23.001c0 -51.333 19 -77 57 -77
c31.333 0 47 8.33301 47 25c0 32.667 -14.333 50.334 -43 53.001l24 90c49.333 -14.667 74 -55 74 -121zM1656 434.002c0 -289.333 -94.333 -433.998 -283 -433.998h-148c-47.333 0 -87.333 28.667 -120 86c-27.333 -57.333 -69.333 -86 -126 -86h-141
c-106.667 0 -163 60.667 -169 182c-31.333 -8 -62.333 -16.333 -93 -25c-46 -10 -102.667 -15 -170 -15c-137.333 0 -206 59.333 -206 178c0 91.333 38 179.666 114 264.999c81.333 90.667 173 136 275 136c70 0 116 -18.667 138 -56c28 -48 42 -151.667 42 -311
c0 -102 29.667 -153 89 -153h109c68.667 0 103 37.667 103 113c0 47.333 -13.667 108.333 -41 183l154 168c44 -75.333 66 -155.333 66 -240c0 -31.333 -3.33301 -67.833 -10 -109.5s-10 -66.834 -10 -75.501c0 -26 11.667 -39 35 -39h167c59.333 0 89 39.667 89 119
c0 141.333 -43 300.666 -129 477.999l141 165c82.667 -141.333 124 -317.666 124 -528.999zM641 371.004c-1.33301 56.667 -9.00098 95.668 -23.001 117.001c-18 26 -51.667 39 -101 39s-96.166 -12.333 -140.499 -37s-66.5 -52.334 -66.5 -83.001
c0 -40.667 42.667 -61 128 -61c57.333 0 125 8.33301 203 25z" />
    <glyph glyph-name="uFEF5" unicode="&#xfedf;&#xfe82;" horiz-adv-x="841" arabic-form="isolated" 
d="M841 432c0 -88.667 -37.666 -179.998 -112.999 -273.998c-84 -105.333 -178.667 -158 -284 -158h-190l64 201h94c18 7.33301 27 66.666 27 177.999c0 213.333 -58 377.666 -174 492.999l85 154c3.33301 6 8.33301 9 15 9c34.667 0 74 -47.333 118 -142
c52.667 -112 79 -240.667 79 -386c0 -128.667 -18 -231 -54 -307c136.667 19.333 205 58.333 205 117c0 146 -27.333 343.667 -82 593c22.667 34 68 97.667 136 191c1.33301 2 2.66602 3 3.99902 3c14.667 0 30 -74.667 46 -224c16 -152 24 -301.333 24 -448zM736.001 1321
l-73 -155h-432c-64.667 0 -97 -19.333 -97 -58c0 -30.667 32.333 -46 97 -46h24l-50 -129h-28c-90.667 0 -136 38 -136 114c0 28 7 60.667 21 98c46 117.333 112.333 176 199 176h475z" />
    <glyph glyph-name="uFEF6" unicode="&#xfee0;&#xfe82;" horiz-adv-x="1141" arabic-form="final" 
d="M1179 0l-160.001 0.00390625c-56.667 0 -97.667 17.667 -123 53c-31.333 44 -47 122.667 -47 236c-21.333 -34.667 -45.333 -67.667 -72 -99c-63.333 -74.667 -134.333 -134.334 -213 -179.001c-83.333 -48.667 -183.333 -78.334 -300 -89.001l49 211
c20 0.666992 38.667 2 56 4c42.667 6 75.334 16.333 98.001 31c14.667 58 22 121.333 22 190c0 218 -77.333 386 -232 504c14 31.333 35.667 87.333 65 168c2 6 6.66699 9 14 9c31.333 0 73.666 -33 126.999 -99c63.333 -78 106 -168.333 128 -271
c14.667 -67.333 22 -134.333 22 -201c0 -99.333 -14.333 -186 -43 -260c148 67.333 222 156.666 222 267.999c0 53.333 -15.333 201.666 -46 444.999c24.667 30 67.667 85.333 129 166c2 2.66699 4 4 6 4c18.667 0 38.334 -115.333 59.001 -346
c17.333 -194.667 26 -326.667 26 -396c0 -98.667 33.667 -148 101 -148h112v-201zM735.999 1331l-73 -155h-432c-64.667 0 -97 -19.333 -97 -58c0 -30.667 32.333 -46 97 -46h24l-50 -129h-28c-90.667 0 -136 38 -136 114c0 28 7 60.667 21 98
c46 117.333 112.333 176 199 176h475z" />
    <glyph glyph-name="uFEF7" unicode="&#xfedf;&#xfe84;" horiz-adv-x="789" arabic-form="isolated" 
d="M789 432c0 -88.667 -37.667 -179.998 -113 -273.998c-84 -105.333 -178.667 -158 -284 -158h-190l63 201h94c18.667 7.33301 28 66.666 28 177.999c0 213.333 -58.333 377.666 -175 492.999l86 154c3.33301 6 8 9 14 9c34.667 0 74.334 -47.333 119.001 -142
c52.667 -112 79 -240.667 79 -386c0 -128.667 -18 -231 -54 -307c136 19.333 204 58.333 204 117c0 146 -27 343.667 -81 593c22.667 34 68 97.667 136 191c1.33301 2 2.66602 3 3.99902 3c14.667 0 30 -74.667 46 -224c16 -152 24 -301.333 24 -448zM501 1297
c8 0 12 -4.66895 12 -14.002c0 -14 -6.16699 -32.333 -18.5 -55s-20.833 -34 -25.5 -34c-17.333 0 -46 -8 -86 -24c-59.333 -24 -110.333 -56.667 -153 -98c-10.667 -10 -18 -15 -22 -15c-5.33301 0 -8 21.667 -8 65c0 8.66699 24.333 31 73 67
c-30.667 10.667 -46 29.334 -46 56.001c0 22.667 14 52.334 42 89.001c32.667 42 65.667 63 99 63c34.667 0 60.334 -15.667 77.001 -47l-52 -62c-14 20 -32.667 30 -56 30c-25.333 0 -38 -9.66699 -38 -29c0 -17.333 24 -26 72 -26c24.667 0 52.167 5.66699 82.5 17
s46.166 17 47.499 17z" />
    <glyph glyph-name="uFEF8" unicode="&#xfee0;&#xfe84;" horiz-adv-x="1088" arabic-form="final" 
d="M1127 0l-161.001 0.00390625c-56 0 -96.667 17.667 -122 53c-31.333 44 -47 122.667 -47 236c-21.333 -34.667 -45.333 -67.667 -72 -99c-64 -74.667 -135 -134.334 -213 -179.001c-84 -48.667 -184.333 -78.334 -301 -89.001l49 211c20.667 0.666992 39.667 2 57 4
c42.667 6 75.334 16.333 98.001 31c14.667 58 22 121.333 22 190c0 218 -77.333 386 -232 504c13.333 31.333 35 87.333 65 168c2 6 6.33301 9 13 9c32 0 74.667 -33 128 -99c63.333 -78 106 -168.333 128 -271c14 -67.333 21 -134.333 21 -201c0 -99.333 -14 -186 -42 -260
c148 67.333 222 156.666 222 267.999c0 53.333 -15.333 201.666 -46 444.999c24.667 30 67.667 85.333 129 166c1.33301 2.66699 3 4 5 4c19.333 0 39.333 -115.333 60 -346c17.333 -194.667 26 -326.667 26 -396c0 -98.667 33.333 -148 100 -148h113v-201zM500.999 1317
c8 0 12 -4.66895 12 -14.002c0 -14 -6.16699 -32.333 -18.5 -55s-20.833 -34 -25.5 -34c-17.333 0 -46 -8 -86 -24c-59.333 -24 -110.333 -56.667 -153 -98c-10.667 -10 -18 -15 -22 -15c-5.33301 0 -8 21.667 -8 65c0 8.66699 24.333 31 73 67
c-30.667 10.667 -46 29.334 -46 56.001c0 22.667 14 52.334 42 89.001c32.667 42 65.667 63 99 63c34.667 0 60.334 -15.667 77.001 -47l-52 -62c-14 20 -32.667 30 -56 30c-25.333 0 -38 -9.66699 -38 -29c0 -17.333 24 -26 72 -26c24.667 0 52.167 5.66699 82.5 17
s46.166 17 47.499 17z" />
    <glyph glyph-name="uFEF9" unicode="&#xfedf;&#xfe88;" horiz-adv-x="796" arabic-form="isolated" 
d="M796 432c0 -88.667 -37.666 -179.998 -112.999 -273.998c-84 -105.333 -178.667 -158 -284 -158h-190l63 201h94c18.667 7.33301 28 66.666 28 177.999c0 213.333 -58 377.666 -174 492.999l85 154c3.33301 6 8.33301 9 15 9c34.667 0 74 -47.333 118 -142
c52.667 -112 79 -240.667 79 -386c0 -128.667 -18 -231 -54 -307c136.667 19.333 205 58.333 205 117c0 146 -27.333 343.667 -82 593c22.667 34 68 97.667 136 191c1.33301 2 2.66602 3 3.99902 3c14.667 0 30 -74.667 46 -224c16 -152 24 -301.333 24 -448z
M441.001 -201.998c8 0 12 -5 12 -15c0 -13.333 -6.16699 -31.5 -18.5 -54.5s-20.833 -34.5 -25.5 -34.5c-17.333 0 -46 -8 -86 -24c-59.333 -23.333 -110.333 -56 -153 -98c-10.667 -10 -18 -15 -22 -15c-5.33301 0 -8 21.667 -8 65c0 9.33301 24.333 31.666 73 66.999
c-30.667 11.333 -46 30.333 -46 57c0 22.667 14 52.334 42 89.001c32.667 42 65.667 63 99 63c34.667 0 60.334 -16 77.001 -48l-52 -61c-14 20 -32.667 30 -56 30c-25.333 0 -38 -9.66699 -38 -29c0 -18 24 -27 72 -27c24.667 0 52.167 5.83301 82.5 17.5
s46.166 17.5 47.499 17.5z" />
    <glyph glyph-name="uFEFA" unicode="&#xfee0;&#xfe88;" horiz-adv-x="1095" arabic-form="final" 
d="M1134 0l-160.002 0.00390625c-56.667 0 -97.667 17.667 -123 53c-31.333 44 -47 122.667 -47 236c-21.333 -34.667 -45.333 -67.667 -72 -99c-64 -74.667 -135 -134.334 -213 -179.001c-84 -48.667 -184 -78.334 -300 -89.001l49 211c20 0.666992 38.667 2 56 4
c42.667 6 75.334 16.333 98.001 31c14.667 58 22 121.333 22 190c0 218 -77.333 386 -232 504c13.333 31.333 35 87.333 65 168c2 6 6.33301 9 13 9c32 0 74.667 -33 128 -99c63.333 -78 106 -168.333 128 -271c14 -67.333 21 -134.333 21 -201c0 -99.333 -14 -186 -42 -260
c148 67.333 222 156.666 222 267.999c0 53.333 -15.333 201.666 -46 444.999c24.667 30 67.667 85.333 129 166c2 2.66699 4 4 6 4c18.667 0 38.334 -115.333 59.001 -346c17.333 -194.667 26 -326.667 26 -396c0 -98.667 33.667 -148 101 -148h112v-201zM440.998 -271.996
c8 0 12 -5 12 -15c0 -13.333 -6.16699 -31.5 -18.5 -54.5s-20.833 -34.5 -25.5 -34.5c-17.333 0 -46 -8 -86 -24c-59.333 -23.333 -110.333 -56 -153 -98c-10.667 -10 -18 -15 -22 -15c-5.33301 0 -8 21.667 -8 65c0 9.33301 24.333 31.666 73 66.999
c-30.667 11.333 -46 30.333 -46 57c0 22.667 14 52.334 42 89.001c32.667 42 65.667 63 99 63c34.667 0 60.334 -16 77.001 -48l-52 -61c-14 20 -32.667 30 -56 30c-25.333 0 -38 -9.66699 -38 -29c0 -18 24 -27 72 -27c24.667 0 52.167 5.83301 82.5 17.5
s46.166 17.5 47.499 17.5z" />
    <glyph glyph-name="uFEFB" unicode="&#xfedf;&#xfe8e;" horiz-adv-x="787" arabic-form="isolated" 
d="M787 432c0 -88.667 -37.666 -179.998 -112.999 -273.998c-84 -105.333 -178.667 -158 -284 -158h-190l63 201h94c18.667 7.33301 28 66.666 28 177.999c0 213.333 -58 377.666 -174 492.999l85 154c3.33301 6 8.33301 9 15 9c34.667 0 74 -47.333 118 -142
c52.667 -112 79 -240.667 79 -386c0 -128.667 -18 -231 -54 -307c136.667 19.333 205 58.333 205 117c0 146 -27.333 343.667 -82 593c22.667 34 68 97.667 136 191c1.33301 2 2.66602 3 3.99902 3c14.667 0 30 -74.667 46 -224c16 -152 24 -301.333 24 -448z" />
    <glyph glyph-name="uFEFC" unicode="&#xfee0;&#xfe8e;" horiz-adv-x="1084" arabic-form="final" 
d="M1122 0l-160.002 0.00390625c-56.667 0 -97.667 17.667 -123 53c-31.333 44 -47 122.667 -47 236c-21.333 -34.667 -45.333 -67.667 -72 -99c-63.333 -74.667 -134.333 -134.334 -213 -179.001c-84 -48.667 -184 -78.334 -300 -89.001l49 211c20 0.666992 38.667 2 56 4
c42.667 6 75.334 16.333 98.001 31c14.667 58 22 121.333 22 190c0 218 -77.333 386 -232 504c13.333 31.333 35 87.333 65 168c2 6 6.33301 9 13 9c32 0 74.667 -33 128 -99c63.333 -78 106 -168.333 128 -271c14 -67.333 21 -134.333 21 -201c0 -99.333 -14 -186 -42 -260
c148 67.333 222 156.666 222 267.999c0 53.333 -15.333 201.666 -46 444.999c24.667 30 67.667 85.333 129 166c2 2.66699 4 4 6 4c18.667 0 38.334 -115.333 59.001 -346c17.333 -194.667 26 -326.667 26 -396c0 -98.667 33.667 -148 101 -148h112v-201z" />
    <glyph glyph-name="u0652_u064E.liga" unicode="&#x652;&#x64e;" horiz-adv-x="1" 
d="M358 632l-53 -38.999c2.66699 164.667 1 247 -5 247c-1.33301 -0.666992 -2.33301 -2.33398 -3 -5.00098l49 56c2 2 3.66699 3 5 3c4.66699 0 7 -17 7 -51v-211z" />
    <glyph glyph-name="u0652_u064B.liga" unicode="&#x652;&#x64b;" horiz-adv-x="1" 
d="M694 915c-20.667 -73.333 -35.333 -120.334 -44 -141.001h-90l12 37c1.33301 4 2 7.66699 2 11c0 13.333 -11.667 20 -35 20h-281l48 182h310c58.667 0 88 -17 88 -51c0 -13.333 -3.33301 -32.666 -10 -57.999z" />
    <glyph glyph-name="u0652_u064D.liga" unicode="&#x652;&#x64d;" horiz-adv-x="1" 
d="M815 -613c-20.667 -73.333 -35.333 -120.333 -44 -141h-90l12 37c1.33301 4.66699 2 8.66699 2 12c0 12.667 -11.667 19 -35 19h-281l48 182h310c58.667 0 88 -16.667 88 -50c0 -14 -3.33301 -33.667 -10 -59z" />
    <glyph glyph-name="u0622" unicode="&#x622;" horiz-adv-x="667" arabic-form="isolated" 
d="M766 1267l-72.999 -155h-432c-64.667 0 -97 -19.333 -97 -58c0 -30.667 32.333 -46 97 -46h24l-50 -128h-29c-90.667 0 -136 37.667 -136 113c0 28 7.33301 61 22 99c45.333 116.667 111.666 175 198.999 175h475zM510.001 412c0 -98 -27.998 -187.332 -83.998 -267.999
c-58.667 -84 -126.334 -126 -203.001 -126l34 182c80 -0.666992 120 37.666 120 114.999c0 164 -6.66699 349.333 -20 556l124 141c3.33301 4 6.66602 6 9.99902 6c12.667 0 19 -42 19 -126v-480z" />
    <glyph glyph-name="u0623" unicode="&#x623;" horiz-adv-x="561" arabic-form="isolated" 
d="M561 1268c7.33301 0 11 -4.66895 11 -14.002c0 -13.333 -6 -31.5 -18 -54.5s-20.667 -34.5 -26 -34.5c-17.333 0 -46 -8 -86 -24c-58.667 -23.333 -109.667 -56 -153 -98c-10 -10 -17.333 -15 -22 -15c-5.33301 0 -8 21.667 -8 65c0 8.66699 24.333 31 73 67
c-30.667 10.667 -46 29.334 -46 56.001c0 22.667 14.333 52.334 43 89.001c32 42 64.667 63 98 63c35.333 0 61 -15.667 77 -47l-52 -61c-14 19.333 -32.667 29 -56 29c-25.333 0 -38 -9.33301 -38 -28c0 -18 24 -27 72 -27c25.333 0 53 5.66699 83 17s46 17 48 17z
M488 395.998c0 -98 -28.333 -187.333 -85 -268c-58 -83.333 -125.667 -125 -203 -125l35 182c79.333 -0.666992 119 37.333 119 114c0 164 -6.66699 349.667 -20 557l124 141c4 4 7.33301 6 10 6c13.333 0 20 -42 20 -126v-481z" />
    <glyph glyph-name="u0624" unicode="&#x624;" horiz-adv-x="788" arabic-form="isolated" 
d="M629 954c7.33301 0 11.002 -5 11.002 -15c0 -13.333 -6 -31.5 -18 -54.5s-20.667 -34.5 -26 -34.5c-17.333 0 -46 -8 -86 -24c-58.667 -23.333 -109.667 -56 -153 -98c-10 -10 -17.333 -15 -22 -15s-7 21.667 -7 65c0 8.66699 24 31 72 67
c-30.667 11.333 -46 30.333 -46 57c0 22 14.333 51.667 43 89c32 41.333 64.667 62 98 62c35.333 0 61 -15.667 77 -47l-52 -61c-14 20 -32.667 30 -56 30c-25.333 0 -38 -9.66699 -38 -29c0 -18 24 -27 72 -27c25.333 0 53.166 5.83301 83.499 17.5
s46.166 17.5 47.499 17.5zM788.002 108c0 -202.667 -86.335 -362.001 -259.002 -478.001c-76 -50.667 -185.667 -96.667 -329 -138l52 206c99.333 30.667 192 74.334 278 131.001c98.667 64.667 148 122.334 148 173.001c0 30.667 -15 46 -45 46h-200
c-71.333 0 -116.666 22.667 -135.999 68c-8.66699 19.333 -13 59.333 -13 120c0 50.667 12.667 112.667 38 186c12.667 37.333 30.667 71.666 54 102.999c32.667 42.667 66.334 64 101.001 64c73.333 0 143.5 -52.667 210.5 -158s100.5 -213 100.5 -323zM590 248.999
c-24 77.333 -72.001 116 -144.001 116c-19.333 0 -35.166 -6.83301 -47.499 -20.5s-18.5 -29.167 -18.5 -46.5c0 -32.667 18.667 -49 56 -49h154z" />
    <glyph glyph-name="u0625" unicode="&#x625;" horiz-adv-x="494" arabic-form="isolated" 
d="M495 396c0 -98 -27.998 -187.333 -83.998 -268c-58.667 -83.333 -126.334 -125 -203.001 -125l34 182c80 -0.666992 120 37.333 120 114c0 164 -6.66699 365.667 -20 605l124 141c3.33301 4 6.66602 6 9.99902 6c12.667 0 19 -42 19 -126v-529zM501.002 -182
c8 0 12 -5 12 -15c0 -13.333 -6.16699 -31.5 -18.5 -54.5s-20.833 -34.5 -25.5 -34.5c-17.333 0 -46 -8 -86 -24c-59.333 -23.333 -110.333 -56 -153 -98c-10.667 -10 -18 -15 -22 -15c-5.33301 0 -8 21.667 -8 65c0 9.33301 24.333 31.666 73 66.999
c-30.667 11.333 -46 30.333 -46 57c0 22.667 14 52.334 42 89.001c32.667 42 65.667 63 99 63c34.667 0 60.334 -16 77.001 -48l-52 -61c-14 20 -32.667 30 -56 30c-25.333 0 -38 -9.66699 -38 -29c0 -18 24 -27 72 -27c24.667 0 52.167 5.83301 82.5 17.5
s46.166 17.5 47.499 17.5z" />
    <glyph glyph-name="u0626" unicode="&#x626;" horiz-adv-x="1352" arabic-form="isolated" 
d="M1354 577l-54 -208.004c-51.333 24.667 -111 37 -179 37c-62.667 0 -119.167 -9.5 -169.5 -28.5s-75.5 -39.167 -75.5 -60.5c0 -47.333 69.667 -71 209 -71c120.667 0 181 -50.333 181 -151c0 -7.33301 -0.333008 -16.666 -1 -27.999s-1 -18.666 -1 -21.999
c0 -82 -53 -168.333 -159 -259c-131.333 -114 -296.333 -171 -495 -171c-273.333 0 -410 111 -410 333c0 116.667 34 217.334 102 302.001c74.667 93.333 173 140 295 140c16 0 32.667 -0.666992 50 -2l-44 -223c-13.333 3.33301 -30.333 5 -51 5
c-58.667 0 -111 -11.333 -157 -34c-58.667 -29.333 -88 -70.666 -88 -123.999c0 -122.667 113.333 -184 340 -184c114.667 0 227 23.667 337 71c102 44 153 84.667 153 122c0 18 -32 27 -96 27c-104.667 0 -175 8.66699 -211 26c-50.667 24.667 -76 76 -76 154
c0 62 29.333 133 88 213c81.333 111.333 190.333 167 327 167c57.333 0 119 -10.333 185 -31zM554 586.996c7.33301 0 11 -5 11 -15c0 -13.333 -6 -31.5 -18 -54.5s-20.667 -34.5 -26 -34.5c-17.333 0 -46 -8 -86 -24c-58.667 -23.333 -109.667 -56 -153 -98
c-10.667 -10 -18 -15 -22 -15c-5.33301 0 -8 21.667 -8 65c0 9.33301 24.333 31.666 73 66.999c-30.667 11.333 -46 30.333 -46 57c0 22.667 14.333 52.334 43 89.001c32 42 64.667 63 98 63c35.333 0 61 -15.667 77 -47l-52 -62c-14 20 -32.667 30 -56 30
c-25.333 0 -38 -9.66699 -38 -29c0 -18 24 -27 72 -27c25.333 0 53 5.83301 83 17.5s46 17.5 48 17.5z" />
    <glyph glyph-name="u0627" unicode="&#x627;" horiz-adv-x="486" arabic-form="isolated" 
d="M488 396c0 -98 -28.333 -187.333 -85 -268c-58 -83.333 -125.667 -125 -203 -125l35 182c79.333 -0.666992 119 37.333 119 114c0 164 -6.66699 365.667 -20 605l124 141c4 4 7.33301 6 10 6c13.333 0 20 -42 20 -126v-529z" />
    <glyph glyph-name="u0628" unicode="&#x628;" horiz-adv-x="1481" arabic-form="isolated" 
d="M1481 227c0 -71.333 -17.334 -127.001 -52.001 -167.001s-81.667 -60 -141 -60h-839c-166 0 -249 76 -249 228c0 60 16 119.333 48 178c38.667 71.333 88.334 107 149.001 107h143l-49 -184h-124c-52.667 0 -79 -13.333 -79 -40c0 -58.667 52.333 -88 157 -88h852
c59.333 0 79 -0.333008 59 -1c19.333 0.666992 29 7.33398 29 20.001c0 30 -57 70 -171 120l44 189c148.667 -50 223 -150.667 223 -302zM956.999 -234.001c-20 -73.333 -36 -126.667 -48 -160h-90l11 37c1.33301 4 2 7.66699 2 11c0 13.333 -11.333 20 -34 20h-99l51 201
h127c60 0 90 -17.333 90 -52c0 -13.333 -3.33301 -32.333 -10 -57z" />
    <glyph glyph-name="u0629" unicode="&#x629;" horiz-adv-x="722" arabic-form="isolated" 
d="M642 1067c8 0 12 -5 12 -15c0 -13.333 -6.16699 -31.5 -18.5 -54.5s-20.833 -34.5 -25.5 -34.5c-17.333 0 -46 -8 -86 -24c-59.333 -23.333 -110.333 -56 -153 -98c-10.667 -10 -18 -15 -22 -15c-5.33301 0 -8 21.667 -8 65c0 9.33301 24.333 31.666 73 66.999
c-30.667 11.333 -46 30.333 -46 57c0 22.667 14 52.334 42 89.001c32.667 42 65.667 63 99 63c34.667 0 60.334 -15.667 77.001 -47l-52 -62c-14 20 -32.667 30 -56 30c-25.333 0 -38 -9.66699 -38 -29c0 -18 24 -27 72 -27c24.667 0 52.167 5.83301 82.5 17.5
s46.166 17.5 47.499 17.5zM727 681l-33.9961 -169.999c-28.667 0 -56.334 -2 -83.001 -6c69.333 -38 104 -98.667 104 -182c0 -86 -25 -161 -75 -225c-52 -66.667 -117 -100 -195 -100c-120 0 -180 71.333 -180 214c0 76 16.333 143 49 201
c-18.667 8 -56.334 21.333 -113.001 40l42 226c19.333 -2.66699 39.666 -7.33398 60.999 -14.001c51.333 -16 103.666 -40.667 156.999 -74c123.333 60 212.333 90 267 90zM612.004 251.001c0 15.333 -26.002 40.667 -78.002 76s-89.667 53 -113 53
c-19.333 0 -36.166 -10.167 -50.499 -30.5s-21.5 -42.5 -21.5 -66.5c0 -54.667 40.667 -82 122 -82c34.667 0 66.834 5.33301 96.501 16s44.5 22 44.5 34z" />
    <glyph glyph-name="u062A" unicode="&#x62a;" horiz-adv-x="1481" arabic-form="isolated" 
d="M1083 403c-20.667 -73.333 -35.333 -120.333 -44 -141h-90l12 37c1.33301 4.66699 2 8.66699 2 12c0 12.667 -11.667 19 -35 19h-281l48 182h310c58.667 0 88 -16.667 88 -50c0 -14 -3.33301 -33.667 -10 -59zM1481 227c0 -71.333 -17.334 -127.001 -52.001 -167.001
s-81.667 -60 -141 -60h-839c-166 0 -249 76 -249 228c0 60 16 119.333 48 178c38.667 71.333 88.334 107 149.001 107h143l-49 -184h-124c-52.667 0 -79 -13.333 -79 -40c0 -58.667 52.333 -88 157 -88h852c59.333 0 79 -0.333008 59 -1
c19.333 0.666992 29 7.33398 29 20.001c0 30 -57 70 -171 120l44 189c148.667 -50 223 -150.667 223 -302z" />
    <glyph glyph-name="u062B" unicode="&#x62b;" horiz-adv-x="1481" arabic-form="isolated" 
d="M1002 686c-10.667 -38.667 -22.667 -77.333 -36 -116h-91l10 31c1.33301 4.66699 2 8.66699 2 12c0 12.667 -11.667 19 -35 19h-60l43 163h89c59.333 0 89 -16.667 89 -50c0 -14 -3.66699 -33.667 -11 -59zM1073 403.001c-20 -73.333 -34.333 -120.333 -43 -141h-90
l11 37c1.33301 4.66699 2 8.66699 2 12c0 12.667 -11.333 19 -34 19h-282l48 182h310c59.333 0 89 -16.667 89 -50c0 -14 -3.66699 -33.667 -11 -59zM1481 227.001c0 -71.333 -17.334 -127.001 -52.001 -167.001s-81.667 -60 -141 -60h-839c-166 0 -249 76 -249 228
c0 60 16 119.333 48 178c38.667 71.333 88.334 107 149.001 107h143l-49 -184h-124c-52.667 0 -79 -13.333 -79 -40c0 -58.667 52.333 -88 157 -88h852c59.333 0 79 -0.333008 59 -1c19.333 0.666992 29 7.33398 29 20.001c0 30 -57 70 -171 120l44 189
c148.667 -50 223 -150.667 223 -302z" />
    <glyph glyph-name="u062C" unicode="&#x62c;" horiz-adv-x="1058" arabic-form="isolated" 
d="M1058 -363l-49.0049 -192.999c-34.667 6.66699 -70.667 10 -108 10c-45.333 0 -99.166 -5.83301 -161.499 -17.5s-100.166 -17.5 -113.499 -17.5c-130 0 -226.667 20.333 -290 61c-90.667 59.333 -136 167 -136 323c0 69.333 16.333 144.333 49 225
c53.333 130 138.666 225.667 255.999 287c13.333 6.66699 20 11.667 20 15s-5.66699 8 -17 14c-36 20 -72.667 30 -110 30c-44.667 0 -87.5 -14.833 -128.5 -44.5s-60.167 -44.5 -57.5 -44.5c-2.66699 0.666992 -4 3 -4 7c0 6 4 25.5 12 58.5s12 56.5 12 70.5
c0 20.667 20 47.667 60 81c45.333 36.667 90 55 134 55c48.667 0 105.334 -11 170.001 -33c85.333 -29.333 128.333 -44 129 -44c58 -12.667 135 -20.334 231 -23.001l-42 -193c-150 4.66699 -266.5 -10.333 -349.5 -45s-147.5 -85 -193.5 -151
c-43.333 -61.333 -65 -127.333 -65 -198c0 -118.667 52.667 -197 158 -235c46.667 -16.667 115.334 -25 206.001 -25c25.333 0 75.333 4.83301 150 14.5s137.334 14.5 188.001 14.5c16.667 0 33.334 -0.666992 50.001 -2zM800.995 -82.999
c-20 -72.667 -35.667 -126.001 -47 -160.001h-91l12 38c1.33301 4 2 7.66699 2 11c0 12.667 -11.667 19 -35 19h-99l51 202h128c60 0 90 -17.333 90 -52c0 -13.333 -3.66699 -32.666 -11 -57.999z" />
    <glyph glyph-name="u062D" unicode="&#x62d;" horiz-adv-x="1058" arabic-form="isolated" 
d="M1058 -363l-49.0049 -192.999c-34.667 6.66699 -70.667 10 -108 10c-45.333 0 -99.166 -5.83301 -161.499 -17.5s-100.166 -17.5 -113.499 -17.5c-130 0 -226.667 20.333 -290 61c-90.667 59.333 -136 167 -136 323c0 69.333 16.333 144.333 49 225
c53.333 130 138.666 225.667 255.999 287c13.333 6.66699 20 11.667 20 15s-5.66699 8 -17 14c-36 20 -72.667 30 -110 30c-44.667 0 -87.5 -14.833 -128.5 -44.5s-60.167 -44.5 -57.5 -44.5c-2.66699 0.666992 -4 3 -4 7c0 6 4 25.5 12 58.5s12 56.5 12 70.5
c0 20.667 20 47.667 60 81c45.333 36.667 90 55 134 55c48.667 0 105.334 -11 170.001 -33c85.333 -29.333 128.333 -44 129 -44c58 -12.667 135 -20.334 231 -23.001l-42 -193c-150 4.66699 -266.5 -10.333 -349.5 -45s-147.5 -85 -193.5 -151
c-43.333 -61.333 -65 -127.333 -65 -198c0 -118.667 52.667 -197 158 -235c46.667 -16.667 115.334 -25 206.001 -25c25.333 0 75.333 4.83301 150 14.5s137.334 14.5 188.001 14.5c16.667 0 33.334 -0.666992 50.001 -2z" />
    <glyph glyph-name="u062E" unicode="&#x62e;" horiz-adv-x="1058" arabic-form="isolated" 
d="M696 812c-20 -73.333 -36 -127 -48 -161h-90l11 38c1.33301 4 2 7.66699 2 11c0 12.667 -11.333 19 -34 19h-99l51 202h127c60 0 90 -17.333 90 -52c0 -13.333 -3.33301 -32.333 -10 -57zM1058 -363l-49.0049 -192.999c-34.667 6.66699 -70.667 10 -108 10
c-45.333 0 -99.166 -5.83301 -161.499 -17.5s-100.166 -17.5 -113.499 -17.5c-130 0 -226.667 20.333 -290 61c-90.667 59.333 -136 167 -136 323c0 69.333 16.333 144.333 49 225c53.333 130 138.666 225.667 255.999 287c13.333 6.66699 20 11.667 20 15
s-5.66699 8 -17 14c-36 20 -72.667 30 -110 30c-44.667 0 -87.5 -14.833 -128.5 -44.5s-60.167 -44.5 -57.5 -44.5c-2.66699 0.666992 -4 3 -4 7c0 6 4 25.5 12 58.5s12 56.5 12 70.5c0 20.667 20 47.667 60 81c45.333 36.667 90 55 134 55
c48.667 0 105.334 -11 170.001 -33c85.333 -29.333 128.333 -44 129 -44c58 -12.667 135 -20.334 231 -23.001l-42 -193c-150 4.66699 -266.5 -10.333 -349.5 -45s-147.5 -85 -193.5 -151c-43.333 -61.333 -65 -127.333 -65 -198c0 -118.667 52.667 -197 158 -235
c46.667 -16.667 115.334 -25 206.001 -25c25.333 0 75.333 4.83301 150 14.5s137.334 14.5 188.001 14.5c16.667 0 33.334 -0.666992 50.001 -2z" />
    <glyph glyph-name="u062F" unicode="&#x62f;" horiz-adv-x="822" arabic-form="isolated" 
d="M816 327c0 -218 -84.334 -326.999 -253.001 -326.999h-363l54 201h382c58 0 87 14.333 87 43c0 51.333 -41.167 104.666 -123.5 159.999s-159.833 83 -232.5 83l53 201c102.667 0 195.334 -40.333 278.001 -121c78.667 -76 118 -156 118 -240z" />
    <glyph glyph-name="u0630" unicode="&#x630;" horiz-adv-x="816" arabic-form="isolated" 
d="M699 946c-20 -73.333 -36 -126.667 -48 -160h-90l11 37c1.33301 4 2 7.66699 2 11c0 13.333 -11.333 20 -34 20h-99l51 201h127c60 0 90 -17.333 90 -52c0 -13.333 -3.33301 -32.333 -10 -57zM816 326.999c0 -218 -84.334 -326.999 -253.001 -326.999h-363l54 201h382
c58 0 87 14.333 87 43c0 51.333 -41.167 104.666 -123.5 159.999s-159.833 83 -232.5 83l53 201c102.667 0 195.334 -40.333 278.001 -121c78.667 -76 118 -156 118 -240z" />
    <glyph glyph-name="u0631" unicode="&#x631;" horiz-adv-x="578" arabic-form="isolated" 
d="M578 80c0 -172.667 -87.667 -314.332 -263 -424.999c-98.667 -62.667 -203.667 -106.334 -315 -131.001l52 206c53.333 10.667 130.333 45 231 103c129.333 74 194 142.667 194 206c0 74 -56.333 138 -169 192l58 202c141.333 -87.333 212 -205 212 -353z" />
    <glyph glyph-name="u0632" unicode="&#x632;" horiz-adv-x="578" arabic-form="isolated" 
d="M500 708c-20 -73.333 -36 -126.667 -48 -160h-90l11 37c1.33301 4 2 7.66699 2 11c0 13.333 -11.333 20 -34 20h-99l51 201h127c60 0 90 -17.333 90 -52c0 -13.333 -3.33301 -32.333 -10 -57zM578 79.999c0 -172.667 -87.667 -314.332 -263 -424.999
c-98.667 -62.667 -203.667 -106.334 -315 -131.001l52 206c53.333 10.667 130.333 45 231 103c129.333 74 194 142.667 194 206c0 74 -56.333 138 -169 192l58 202c141.333 -87.333 212 -205 212 -353z" />
    <glyph glyph-name="u0633" unicode="&#x633;" horiz-adv-x="1671" arabic-form="isolated" 
d="M1666 205c0 -59.333 -21.667 -109.999 -65 -151.999c-35.333 -35.333 -68.666 -53 -99.999 -53h-83c-58 0 -102.667 39.333 -134 118c-2.66699 6 -4 5.66699 -4 -1c0 -24.667 -10 -48.667 -30 -72c-25.333 -30 -59.333 -45 -102 -45h-40
c-20.667 -146.667 -87.334 -255.334 -200.001 -326.001c-87.333 -55.333 -191.333 -83 -312 -83c-264 0 -396 118.667 -396 356c0 81.333 29 158 87 230c78 96 189.667 144 335 144c30 0 61 -2 93 -6l-52 -183c-19.333 2 -39.333 3 -60 3c-80 0 -149.333 -12.333 -208 -37
c-63.333 -26.667 -95 -61.334 -95 -104.001c0 -62 27.667 -111.667 83 -149c60 -40.667 144 -61 252 -61c100.667 0 191 20.667 271 62c85.333 42.667 128 94.667 128 156c0 62 -54 132 -162 210l56 197c54 -39.333 99.667 -87 137 -143c30 -44 47 -66 51 -66h53
c38.667 0 63.667 14.333 75 43c5.33301 14.667 8 43.334 8 86.001s14.667 64 44 64c30.667 0 46 -21.333 46 -64c0 -86 20 -129 60 -129c3.33301 0 7.66602 0.333008 12.999 1h12h110c33.333 0 50 7.33301 50 22c0 17.333 -19 38 -57 62
c-23.333 14.667 -59.666 28.667 -108.999 42l58 177c125.333 -40 188 -122.333 188 -247c0 -6.66699 -0.333008 -16 -1 -28v-24z" />
    <glyph glyph-name="u0634" unicode="&#x634;" horiz-adv-x="1670" arabic-form="isolated" 
d="M1415 924c-10.667 -38.667 -22.667 -77.333 -36 -116h-90l9 31c1.33301 4.66699 2 8.66699 2 12c0 12.667 -11.333 19 -34 19h-61l44 163h89c58.667 0 88 -16.667 88 -50c0 -14 -3.66699 -33.667 -11 -59zM1486 641.001c-20 -73.333 -34.333 -120.334 -43 -141.001h-90
l12 37c1.33301 4.66699 2 8.33398 2 11.001c0 13.333 -11.667 20 -35 20h-281l48 182h310c58.667 0 88 -16.667 88 -50c0 -14 -3.66699 -33.667 -11 -59zM1666 205c0 -52 -15.668 -97.999 -47.001 -137.999c-34 -44.667 -78 -67 -132 -67h-41
c-61.333 0 -105.666 24.667 -132.999 74c-12 22 -18 36.333 -18 43c0 -24.667 -10 -48.667 -30 -72c-25.333 -30 -59.333 -45 -102 -45h-55c-20.667 -146.667 -87.334 -256 -200.001 -328c-88 -56.667 -192 -85 -312 -85c-264 0 -396 120 -396 360c0 81.333 29 158 87 230
c78 96 189.667 144 335 144c30 0 61 -2 93 -6l-52 -183c-19.333 2 -39.333 3 -60 3c-80 0 -149.333 -12.333 -208 -37c-63.333 -26.667 -95 -61.334 -95 -104.001c0 -62 27.667 -111.667 83 -149c60 -40.667 144 -61 252 -61c100 0 188 20.667 264 62
c79.333 42.667 119 94.667 119 156c0 62 -48.667 132 -146 210l56 197c46.667 -34.667 85 -82 115 -142c22 -44 46.333 -66 73 -66h67c38.667 0 64 14.333 76 43c6 14.667 9 43.167 9 85.5s14.333 63.5 43 63.5c30 0 45 -21.333 45 -64c0 -57.333 11.667 -95 35 -113
c12 -10 34.333 -15 67 -15h74c33.333 0 50 9.66699 50 29c0 17.333 -12.667 35.5 -38 54.5s-51.666 33.167 -78.999 42.5l58 177c69.333 -45.333 113.333 -99.333 132 -162c7.33301 -25.333 11 -71 11 -137z" />
    <glyph glyph-name="u0635" unicode="&#x635;" horiz-adv-x="1793" arabic-form="isolated" 
d="M1792 350c0 -80.667 -28.334 -157.331 -85.001 -229.998c-63.333 -80 -138.333 -120 -225 -120h-363c-7.33301 -111.333 -58.666 -207.333 -153.999 -288c-102.667 -86.667 -228.667 -130 -378 -130c-128 0 -225.333 32 -292 96c-63.333 61.333 -95 147.666 -95 258.999
c0 106 38.333 196 115 270c82.667 80 191.667 120 327 120c21.333 0 43 -1.33301 65 -4l-51 -190c-24.667 2.66699 -51.667 4 -81 4c-185.333 0 -278 -48.667 -278 -146c0 -55.333 23.667 -102.333 71 -141c57.333 -46.667 140 -70 248 -70c97.333 0 188.333 19.333 273 58
c94.667 43.333 142 96.333 142 159c0 67.333 -51.667 137.333 -155 210l48 183c48 -5.33301 109 -68.333 183 -189h71c44.667 99.333 103 179.666 175 240.999c76 65.333 154.333 98 235 98c59.333 0 107 -15 143 -45c40.667 -34 61 -82.333 61 -145zM1594 201.003
c58 0 87.001 18.668 87.001 56.001c0 23.333 -12.667 44.666 -38 63.999c-28 20.667 -63 31 -105 31c-68.667 0 -133 -20.333 -193 -61c-44.667 -30 -75.334 -60 -92.001 -90h341z" />
    <glyph glyph-name="u0636" unicode="&#x636;" horiz-adv-x="1797" arabic-form="isolated" 
d="M1705 785c-20 -73.333 -36 -126.667 -48 -160h-90l12 37c0.666992 4 1 7.66699 1 11c0 13.333 -11.333 20 -34 20h-99l51 201h128c59.333 0 89 -17.333 89 -52c0 -13.333 -3.33301 -32.333 -10 -57zM1793 349.999c0 -80.667 -28.333 -157.332 -85 -229.999
c-63.333 -80 -138 -120 -224 -120h-365c-6.66699 -108.667 -60.334 -204 -161.001 -286c-104.667 -84.667 -228 -127 -370 -127c-127.333 0 -224.666 32.333 -291.999 97c-64 60.667 -96 145 -96 253c0 106 38.333 196 115 270c82.667 80 191.667 120 327 120
c22 0 44 -1.33301 66 -4l-51 -190c-25.333 2.66699 -52.333 4 -81 4c-186 0 -279 -48.667 -279 -146c0 -56 23.667 -103 71 -141c57.333 -46.667 140.333 -70 249 -70c97.333 0 188 19.333 272 58c94.667 43.333 142 96.333 142 159c0 67.333 -51.333 137.333 -154 210
l48 183c48 -5.33301 109 -68.333 183 -189h70c45.333 99.333 103.666 179.666 174.999 240.999c76.667 65.333 155.334 98 236.001 98c59.333 0 107.333 -15 144 -45c40 -34 60 -82.333 60 -145zM1595 201.001c58.667 0 88.001 18.668 88.001 56.001
c0 23.333 -13 44.666 -39 63.999c-28 20.667 -63 31 -105 31c-68.667 0 -133 -20.333 -193 -61c-44.667 -30 -75.334 -60 -92.001 -90h341z" />
    <glyph glyph-name="u0637" unicode="&#x637;" horiz-adv-x="1033" arabic-form="isolated" 
d="M1031 366c0 -108 -38.333 -197.333 -115 -268c-70.667 -65.333 -152.667 -98 -246 -98h-470l46 201h154c23.333 58.667 63.666 130.667 120.999 216c4.66699 26 7 52.333 7 79c0 133.333 -46.333 258.666 -139 375.999l98 192
c100.667 -113.333 151 -252.666 151 -417.999c0 -54 -6 -108 -18 -162c54.667 53.333 130.334 80 227.001 80c41.333 0 79.333 -13.667 114 -41c46.667 -36 70 -88.333 70 -157zM820 201c64.667 0 97 24.667 97 74c0 25.333 -11.667 47 -35 65
c-26 20.667 -60.667 31 -104 31c-127.333 0 -227 -56.667 -299 -170h341z" />
    <glyph glyph-name="u0638" unicode="&#x638;" horiz-adv-x="1033" arabic-form="isolated" 
d="M961 823c-20.667 -72.667 -36.667 -126 -48 -160h-90l11 37c1.33301 4.66699 2 8.66699 2 12c0 12.667 -11.667 19 -35 19h-98l51 201h127c60 0 90 -17 90 -51c0 -14 -3.33301 -33.333 -10 -58zM1031 366c0 -108 -38.333 -197.333 -115 -268
c-70.667 -65.333 -152.667 -98 -246 -98h-470l46 201h154c23.333 58.667 63.666 130.667 120.999 216c4.66699 26 7 52.333 7 79c0 133.333 -46.333 258.666 -139 375.999l98 192c100.667 -113.333 151 -252.666 151 -417.999c0 -54 -6 -108 -18 -162
c54.667 53.333 130.334 80 227.001 80c41.333 0 79.333 -13.667 114 -41c46.667 -36 70 -88.333 70 -157zM820 201c64.667 0 97 24.667 97 74c0 25.333 -11.667 47 -35 65c-26 20.667 -60.667 31 -104 31c-127.333 0 -227 -56.667 -299 -170h341z" />
    <glyph glyph-name="u0639" unicode="&#x639;" horiz-adv-x="933" arabic-form="isolated" 
d="M1079 -578l-50.998 -202.999c-46.667 4 -121.334 -6.33301 -224.001 -31c-107.333 -26 -171.333 -39 -192 -39c-274.667 0 -412 142.667 -412 428c0 181.333 58.333 325.333 175 432c-33.333 33.333 -55.333 59.666 -66 78.999c-14 25.333 -21 57 -21 95
c0 70 20.667 138 62 204c48.667 78.667 110.667 118 186 118c31.333 0 74.166 -3 128.499 -9s82.833 -9 85.5 -9l-34 -170c-70.667 12.667 -133.334 19 -188.001 19c-88.667 0 -133 -18.667 -133 -56c0 -59.333 68.667 -89 206 -89c35.333 0 146.333 7.66699 333 23
l-44 -189c-113.333 0.666992 -210.666 -11 -291.999 -35c-194.667 -56 -292 -168 -292 -336c0 -76.667 24 -144 72 -202c55.333 -67.333 129.333 -101 222 -101c45.333 0 122.5 11.833 231.5 35.5s191.5 35.5 247.5 35.5z" />
    <glyph glyph-name="u063A" unicode="&#x63a;" horiz-adv-x="933" arabic-form="isolated" 
d="M717 785c-20 -73.333 -36 -126.667 -48 -160h-90l11 37c1.33301 4 2 7.66699 2 11c0 13.333 -11.333 20 -34 20h-99l51 201h127c60 0 90 -17.333 90 -52c0 -13.333 -3.33301 -32.333 -10 -57zM1079 -578.001l-51.001 -202.999c-46.667 4 -121.334 -6.33301 -224.001 -31
c-107.333 -26 -171.333 -39 -192 -39c-274.667 0 -412 142.667 -412 428c0 181.333 58.333 325.333 175 432c-33.333 33.333 -55.333 59.666 -66 78.999c-14 25.333 -21 57 -21 95c0 70 20.667 138 62 204c48.667 78.667 110.667 118 186 118c30.667 0 72.834 -3 126.501 -9
s82.834 -9 87.501 -9l-34 -170c-70.667 12.667 -133.334 19 -188.001 19c-88.667 0 -133 -18.667 -133 -56c0 -59.333 68.667 -89 206 -89c35.333 0 146.333 7.66699 333 23l-44 -189c-113.333 0.666992 -210.666 -11 -291.999 -35c-194.667 -56 -292 -168 -292 -336
c0 -76.667 24 -144 72 -202c55.333 -67.333 129.333 -101 222 -101c45.333 0 122.5 11.833 231.5 35.5s191.5 35.5 247.5 35.5z" />
    <glyph glyph-name="u0641" unicode="&#x641;" horiz-adv-x="1545" arabic-form="isolated" 
d="M1394 1092c-20 -73.333 -36 -126.667 -48 -160h-90l12 37c1.33301 4 2 7.66699 2 11c0 13.333 -11.667 20 -35 20h-99l51 201h128c60 0 90 -17.333 90 -52c0 -13.333 -3.66699 -32.333 -11 -57zM1544 383.999c0 -81.333 -16.002 -156.998 -48.002 -226.998
c-47.333 -104.667 -121.333 -157 -222 -157h-825c-64 0 -119.667 16.333 -167 49c-54.667 38 -82 89.333 -82 154c0 84 15 157.667 45 221c38 77.333 91.333 116 160 116h238l-76 -190h-199c-50.667 0 -76 -17 -76 -51c0 -26.667 13.333 -49.667 40 -69s59.667 -29 99 -29
h877c86 0 129 22.333 129 67c0 37.333 -19.333 55.666 -58 54.999l-152 -2c-119.333 -1.33301 -179 42.667 -179 132c0 81.333 18.667 163.666 56 246.999c42.667 94.667 92.334 142 149.001 142c66.667 0 131.334 -46.667 194.001 -140c64.667 -97.333 97 -203.333 97 -318
zM1353 535.001c-10.667 31.333 -31.001 57.334 -61.001 78.001c-27.333 18.667 -54.666 28 -81.999 28c-39.333 0 -59 -18 -59 -54c0 -32.667 22.333 -49.334 67 -50.001z" />
    <glyph glyph-name="u0642" unicode="&#x642;" horiz-adv-x="1151" arabic-form="isolated" 
d="M1105 748c-20.667 -72.667 -35.333 -119.667 -44 -141h-90l12 38c1.33301 4 2 7.66699 2 11c0 12.667 -11.667 19 -35 19h-281l48 183h310c58.667 0 88 -17 88 -51c0 -13.333 -3.33301 -33 -10 -59zM1153 19c0 -131.333 -50.335 -240.666 -151.002 -327.999
c-104 -90 -240.667 -135 -410 -135c-126.667 0 -223.667 31.667 -291 95s-101 151 -101 263c0 115.333 39.667 211.333 119 288c74.667 72 162.334 108 263.001 108l-48 -197c-72.667 0 -129.667 -14.333 -171 -43s-62 -65 -62 -109c0 -52.667 26.667 -98 80 -136
c58.667 -42.667 135.667 -64 231 -64c122.667 0 231 26.333 325 79c76.667 43.333 115 79.666 115 108.999c0 34 -23.667 51 -71 51h-187c-91.333 0 -137 42 -137 126c0 92.667 17 178.667 51 258c39.333 91.333 89 137 149 137c76.667 0 144.334 -46.333 203.001 -139
c62 -98 93 -219 93 -363zM966.999 201c-30.667 74.667 -77.668 112 -141.001 112c-46.667 0 -70 -23 -70 -69c0 -20.667 9 -33.667 27 -39c8.66699 -2.66699 29.334 -4 62.001 -4h122z" />
    <glyph glyph-name="u0643" unicode="&#x643;" horiz-adv-x="1770" arabic-form="isolated" 
d="M1768 933c0 -38 -21.332 -81.668 -63.999 -131.001c-56.667 -66 -129.334 -99 -218.001 -99h-166c-74 0 -125 -11.667 -153 -35c168.667 -78.667 253 -207 253 -385c0 -84.667 -16.833 -153 -50.5 -205s-77.5 -78 -131.5 -78h-814c-149.333 0 -224 74.333 -224 223
c0 88.667 23 161 69 217c40 50 84.667 75 134 75h202l-55 -190h-187c-52 0 -78 -14.667 -78 -44c0 -24 14.667 -43.333 44 -58s65.333 -22 108 -22h829c22 0 37.333 2 46 6c11.333 4.66699 17 15.334 17 32.001c0 63.333 -41.667 127.333 -125 192
c-61.333 48 -122 82.333 -182 103c8 34.667 21.667 91 41 169c18.667 66.667 64.667 113.667 138 141c42.667 16 88.667 24 138 24h163c113.333 0 186.333 26 219 78c12.667 18.667 23 28 31 28c10.667 0 16 -13.667 16 -41z" />
    <glyph glyph-name="u0644" unicode="&#x644;" horiz-adv-x="1127" arabic-form="isolated" 
d="M1127 34c0 -122.667 -44.666 -236.335 -133.999 -341.002c-104.667 -124 -240 -186 -406 -186c-138 0 -240.333 34.667 -307 104c-53.333 54.667 -80 125.334 -80 212.001c0 174.667 55.667 308.334 167 401.001c91.333 76 202.333 114 333 114c19.333 0 38 -1 56 -3
l-42 -203c-270 -6.66699 -405 -79.334 -405 -218.001c0 -46 22.333 -88.333 67 -127c55.333 -48.667 131.666 -73 228.999 -73c176 0 294 39.333 354 118c29.333 38.667 44 93.334 44 164.001c0 167.333 -17.667 444 -53 830l99 194c14 26 25 39 33 39
c10 0 15.667 -20.667 17 -62z" />
    <glyph glyph-name="u0645" unicode="&#x645;" horiz-adv-x="987" arabic-form="isolated" 
d="M988 30c0 -78.667 -17.668 -149.333 -53.001 -212c-43.333 -76.667 -102.333 -115 -177 -115c-40.667 0 -78 18 -112 54c-42 45.333 -63 107 -63 185c0 16.667 1 33.667 3 51c-20 2.66699 -41.667 4 -65 4c-143.333 0 -215 -45 -215 -135
c0 -49.333 18.667 -114.333 56 -195c58 -124 149 -247.667 273 -371l-53 -224c-95.333 70 -183.666 175 -264.999 315c-78 134.667 -117 243 -117 325c0 108 19 204 57 288c62 134.667 164.333 202 307 202c17.333 0 26 10 26 30c0 14.667 -19 30 -57 46l78 194
c0.666992 3.33301 3.66699 5 9 5c28 0 79.667 -32.667 155 -98c66.667 -58 112.667 -104 138 -138c50 -66 75 -136.333 75 -211zM868.999 -47.999c0 64 -54.667 131 -164 201c-23.333 -54 -35 -93.667 -35 -119c0 -42 18.667 -74.667 56 -98c28 -17.333 57 -26 87 -26
c37.333 0 56 14 56 42z" />
    <glyph glyph-name="u0646" unicode="&#x646;" horiz-adv-x="1193" arabic-form="isolated" 
d="M876 746c-20 -72.667 -36 -126 -48 -160h-90l12 38c1.33301 4 2 7.66699 2 11c0 12.667 -11.667 19 -35 19h-99l51 202h128c60 0 90 -17.333 90 -52c0 -14 -3.66699 -33.333 -11 -58zM1193 112c0 -123.333 -47.666 -233.668 -142.999 -331.001
c-108 -110.667 -249 -166 -423 -166c-284.667 0 -427 124 -427 372c0 103.333 36 195.333 108 276c86 96 203 144 351 144c24.667 0 50 -1.33301 76 -4l-47 -204c-126.667 4.66699 -223.334 -8.33301 -290.001 -39c-58 -26.667 -87 -63 -87 -109
c0 -77.333 38.333 -137.666 115 -180.999c60.667 -33.333 127.667 -50 201 -50c127.333 0 237.333 24.667 330 74c82.667 44 124 89.667 124 137c0 88 -56.333 171 -169 249l52 208c152.667 -100 229 -225.333 229 -376z" />
    <glyph glyph-name="u0647" unicode="&#x647;" horiz-adv-x="722" arabic-form="isolated" 
d="M727 681l-33.9961 -169.999c-28.667 0 -56.334 -2 -83.001 -6c69.333 -38 104 -98.667 104 -182c0 -86 -25 -161 -75 -225c-52 -66.667 -117 -100 -195 -100c-120 0 -180 71.333 -180 214c0 76 16.333 143 49 201c-18.667 8 -56.334 21.333 -113.001 40l42 226
c19.333 -2.66699 39.666 -7.33398 60.999 -14.001c51.333 -16 103.666 -40.667 156.999 -74c123.333 60 212.333 90 267 90zM612.004 251.001c0 15.333 -26.002 40.667 -78.002 76s-89.667 53 -113 53c-19.333 0 -36.166 -10.167 -50.499 -30.5s-21.5 -42.5 -21.5 -66.5
c0 -54.667 40.667 -82 122 -82c34.667 0 66.834 5.33301 96.501 16s44.5 22 44.5 34z" />
    <glyph glyph-name="u0648" unicode="&#x648;" horiz-adv-x="788" arabic-form="isolated" 
d="M788 108c0 -202.667 -86.335 -362.001 -259.002 -478.001c-76 -50.667 -185.667 -96.667 -329 -138l52 206c99.333 30.667 192 74.334 278 131.001c98.667 64.667 148 122.334 148 173.001c0 30.667 -15 46 -45 46h-200c-71.333 0 -116.666 22.667 -135.999 68
c-8.66699 19.333 -13 59.333 -13 120c0 50.667 12.667 112.667 38 186c12.667 37.333 30.667 71.666 54 102.999c32.667 42.667 66.334 64 101.001 64c73.333 0 143.5 -52.667 210.5 -158s100.5 -213 100.5 -323zM589.998 248.999c-24 77.333 -72.001 116 -144.001 116
c-19.333 0 -35.166 -6.83301 -47.499 -20.5s-18.5 -29.167 -18.5 -46.5c0 -32.667 18.667 -49 56 -49h154z" />
    <glyph glyph-name="u0649" unicode="&#x649;" horiz-adv-x="1352" arabic-form="isolated" 
d="M1354 577l-54 -208.004c-51.333 24.667 -111 37 -179 37c-62.667 0 -119.167 -9.5 -169.5 -28.5s-75.5 -39.167 -75.5 -60.5c0 -47.333 69.667 -71 209 -71c120.667 0 181 -50.333 181 -151c0 -7.33301 -0.333008 -16.666 -1 -27.999s-1 -18.666 -1 -21.999
c0 -82 -53 -168.333 -159 -259c-131.333 -114 -296.333 -171 -495 -171c-273.333 0 -410 111 -410 333c0 116.667 34 217.334 102 302.001c74.667 93.333 173 140 295 140c16 0 32.667 -0.666992 50 -2l-44 -223c-13.333 3.33301 -30.333 5 -51 5
c-58.667 0 -111 -11.333 -157 -34c-58.667 -29.333 -88 -70.666 -88 -123.999c0 -122.667 113.333 -184 340 -184c114.667 0 227 23.667 337 71c102 44 153 84.667 153 122c0 18 -32 27 -96 27c-104.667 0 -175 8.66699 -211 26c-50.667 24.667 -76 76 -76 154
c0 62 29.333 133 88 213c81.333 111.333 190.333 167 327 167c57.333 0 119 -10.333 185 -31z" />
    <glyph glyph-name="u064A" unicode="&#x64a;" horiz-adv-x="1352" arabic-form="isolated" 
d="M1354 577l-54 -208.004c-51.333 24.667 -111 37 -179 37c-62.667 0 -119.167 -9.5 -169.5 -28.5s-75.5 -39.167 -75.5 -60.5c0 -47.333 69.667 -71 209 -71c120.667 0 181 -50.333 181 -151c0 -7.33301 -0.333008 -16.666 -1 -27.999s-1 -18.666 -1 -21.999
c0 -82 -53 -168.333 -159 -259c-131.333 -114 -296.333 -171 -495 -171c-273.333 0 -410 111 -410 333c0 116.667 34 217.334 102 302.001c74.667 93.333 173 140 295 140c16 0 32.667 -0.666992 50 -2l-44 -223c-13.333 3.33301 -30.333 5 -51 5
c-58.667 0 -111 -11.333 -157 -34c-58.667 -29.333 -88 -70.666 -88 -123.999c0 -122.667 113.333 -184 340 -184c114.667 0 227 23.667 337 71c102 44 153 84.667 153 122c0 18 -32 27 -96 27c-104.667 0 -175 8.66699 -211 26c-50.667 24.667 -76 76 -76 154
c0 62 29.333 133 88 213c81.333 111.333 190.333 167 327 167c57.333 0 119 -10.333 185 -31z" />
    <glyph glyph-name="u067E" unicode="&#x67e;" horiz-adv-x="1481" arabic-form="isolated" 
d="M1481 227c0 -71.333 -17.334 -127.001 -52.001 -167.001s-81.667 -60 -141 -60h-839c-166 0 -249 76 -249 228c0 60 16 119.333 48 178c38.667 71.333 88.334 107 149.001 107h143l-49 -184h-124c-52.667 0 -79 -13.333 -79 -40c0 -58.667 52.333 -88 157 -88h852
c59.333 0 79 -0.333008 59 -1c19.333 0.666992 29 7.33398 29 20.001c0 30 -57 70 -171 120l44 189c148.667 -50 223 -150.667 223 -302zM1088 -234.001c-20 -73.333 -34.333 -120.333 -43 -141h-90l12 37c0.666992 4.66699 1 8.66699 1 12c0 12.667 -11.333 19 -34 19h-281
l48 182h310c58.667 0 88 -16.667 88 -50c0 -14 -3.66699 -33.667 -11 -59zM892.999 -473.001c-10.667 -38.667 -23 -77.333 -37 -116h-90l10 32c0.666992 4 1 7.66699 1 11c0 12.667 -11.333 19 -34 19h-60l43 163h89c58.667 0 88 -16.667 88 -50
c0 -14 -3.33301 -33.667 -10 -59z" />
    <glyph glyph-name="u0686" unicode="&#x686;" horiz-adv-x="1058" arabic-form="isolated" 
d="M931 35c-20.667 -73.333 -35 -120.334 -43 -141.001h-91l12 37c1.33301 4 2 7.66699 2 11c0 13.333 -11.667 20 -35 20h-281l48 182h310c58.667 0 88 -17 88 -51c0 -13.333 -3.33301 -32.666 -10 -57.999zM1058 -363.001l-49.0049 -192.999
c-34.667 6.66699 -70.667 10 -108 10c-45.333 0 -99.166 -5.83301 -161.499 -17.5s-100.166 -17.5 -113.499 -17.5c-130 0 -226.667 20.333 -290 61c-90.667 59.333 -136 167 -136 323c0 69.333 16.333 144.333 49 225c53.333 130 138.666 225.667 255.999 287
c13.333 6.66699 20 11.667 20 15s-5.66699 8 -17 14c-36 20 -72.667 30 -110 30c-44.667 0 -87.5 -14.833 -128.5 -44.5s-60.167 -44.5 -57.5 -44.5c-2.66699 0.666992 -4 3 -4 7c0 6 4 25.5 12 58.5s12 56.5 12 70.5c0 20.667 20 47.667 60 81c45.333 36.667 90 55 134 55
c48.667 0 105.334 -11 170.001 -33c85.333 -29.333 128.333 -44 129 -44c58 -12.667 135 -20.334 231 -23.001l-42 -193c-150 4.66699 -266.5 -10.333 -349.5 -45s-147.5 -85 -193.5 -151c-43.333 -61.333 -65 -127.333 -65 -198c0 -118.667 52.667 -197 158 -235
c46.667 -16.667 115.334 -25 206.001 -25c25.333 0 75.333 4.83301 150 14.5s137.334 14.5 188.001 14.5c16.667 0 33.334 -0.666992 50.001 -2zM764.995 -204c-10.667 -38.667 -22.667 -77.334 -36 -116.001h-91l10 31c1.33301 4.66699 2 8.33398 2 11.001
c0 13.333 -11.667 20 -35 20h-60l43 163h89c59.333 0 89 -16.667 89 -50c0 -14 -3.66699 -33.667 -11 -59z" />
    <glyph glyph-name="u0698" unicode="&#x698;" horiz-adv-x="629" arabic-form="isolated" 
d="M529 924c-10.667 -38.667 -23 -77.333 -37 -116h-90l10 31c0.666992 4.66699 1 8.66699 1 12c0 12.667 -11.333 19 -34 19h-61l44 163h89c58.667 0 88 -16.667 88 -50c0 -14 -3.33301 -33.667 -10 -59zM600 641.001c-20.667 -73.333 -35.333 -120.334 -44 -141.001h-90
l12 37c1.33301 4.66699 2 8.33398 2 11.001c0 13.333 -11.667 20 -35 20h-281l48 182h310c58.667 0 88 -16.667 88 -50c0 -14 -3.33301 -33.667 -10 -59zM578.001 80c0 -172.667 -87.667 -314.332 -263 -424.999c-98.667 -62.667 -203.667 -106.334 -315 -131.001l52 206
c53.333 10.667 130.333 45 231 103c129.333 74 194 142.667 194 206c0 74 -56.333 138 -169 192l58 202c141.333 -87.333 212 -205 212 -353z" />
    <glyph glyph-name="u06AF" unicode="&#x6af;" horiz-adv-x="1804" arabic-form="isolated" 
d="M1769 1062c-36 -73.333 -101.666 -110.001 -196.999 -110.001c-230.667 0 -369.334 -17 -416.001 -51c-12 -8.66699 -21.667 -13 -29 -13c-6.66699 0 -10 3.66699 -10 11c0 10.667 6 24.667 18 42c45.333 64 119 96 221 96c209.333 0 325 8.33301 347 25
c50 36.667 75 45.334 75 26.001c0 -6 -3 -14.667 -9 -26zM1806 932.999c0 -38 -21.332 -81.668 -63.999 -131.001c-56 -66 -128.333 -99 -217 -99h-205c-74 0 -125 -11.667 -153 -35c168.667 -78.667 253 -207 253 -385c0 -84.667 -16.833 -153 -50.5 -205
s-77.5 -78 -131.5 -78h-814c-149.333 0 -224 74.333 -224 223c0 88.667 23 161 69 217c40 50 84.667 75 134 75h202l-55 -190h-187c-52 0 -78 -14.667 -78 -44c0 -24 14.667 -43.333 44 -58s65.333 -22 108 -22h829c22 0 37.333 2 46 6c11.333 4.66699 17 15.334 17 32.001
c0 63.333 -41.667 127.333 -125 192c-61.333 48 -122 82.333 -182 103c8 34.667 21.667 91 41 169c18.667 66.667 64.667 113.667 138 141c42.667 16 88.667 24 138 24h201c113.333 0 186.666 26 219.999 78c12 18.667 22 28 30 28c10.667 0 16 -13.667 16 -41z" />
    <glyph glyph-name="uFB57" unicode="&#x67e;" horiz-adv-x="1574" arabic-form="final" 
d="M1618 0l-97 -0.000976562c-32 0 -61.667 10.667 -89 32c-34.667 26 -52 61.333 -52 106c0 12.667 -0.333008 19 -1 19c2 0 -4.33301 -13.667 -19 -41c-17.333 -31.333 -39.333 -56.333 -66 -75c-38.667 -27.333 -85.667 -41 -141 -41h-746c-58.667 0 -107 17.333 -145 52
c-41.333 36.667 -62 86 -62 148c0 84.667 20.667 158.334 62 221.001c36 55.333 72 83 108 83h160l-49 -186h-136c-36 0 -54 -14.667 -54 -44c0 -22 11.333 -39.667 34 -53c20 -13.333 44.333 -20 73 -20h822c94.667 0 142 45 142 135c0 34 14.667 51 44 51
c23.333 0 35 -17 35 -51c0 -90 31.333 -135 94 -135h83v-201zM1062 -234.001c-20 -73.333 -34.333 -120.333 -43 -141h-90l12 37c1.33301 4.66699 2 8.66699 2 12c0 12.667 -11.667 19 -35 19h-281l48 182h310c58.667 0 88 -16.667 88 -50c0 -14 -3.66699 -33.667 -11 -59z
M867 -473.001c-10.667 -38.667 -23 -77.333 -37 -116h-90l10 32c1.33301 4 2 7.66699 2 11c0 12.667 -11.667 19 -35 19h-60l43 163h89c58.667 0 88 -16.667 88 -50c0 -14 -3.33301 -33.667 -10 -59z" />
    <glyph glyph-name="uFB58" unicode="&#x67e;" horiz-adv-x="520" arabic-form="initial" 
d="M520 228c0 -72 -19.333 -129.332 -58 -171.999c-34 -37.333 -73 -56 -117 -56h-389v201h411c41.333 0 62 5 62 15c0 39.333 -52 75.666 -156 108.999l58 182c126 -45.333 189 -138.333 189 -279zM423 -233.999c-20 -73.333 -34.333 -120.333 -43 -141h-91l12 37
c1.33301 4.66699 2 8.66699 2 12c0 12.667 -11.667 19 -35 19h-281l48 182h310c58.667 0 88 -16.667 88 -50c0 -14 -3.33301 -33.667 -10 -59zM227 -472.999c-10.667 -38.667 -22.667 -77.333 -36 -116h-91l10 32c1.33301 4 2 7.66699 2 11c0 12.667 -11.667 19 -35 19h-60
l43 163h89c59.333 0 89 -16.667 89 -50c0 -14 -3.66699 -33.667 -11 -59z" />
    <glyph glyph-name="uFB59" unicode="&#x67e;" horiz-adv-x="528" arabic-form="medial" 
d="M566 0h-213c-24 0 -44.167 7 -60.5 21s-24.5 29.333 -24.5 46c0 8.66699 -1 13 -3 13c3.33301 0 -7.66699 -13.333 -33 -40s-55.333 -40 -90 -40h-189v201h215c46 0 69 30.333 69 91c0 38 12.667 57 38 57c26 0 39 -20 39 -60c0 -58.667 24 -88 72 -88h180v-201z
M412 -234c-20 -73.333 -34.333 -120.333 -43 -141h-90l12 37c1.33301 4.66699 2 8.66699 2 12c0 12.667 -11.667 19 -35 19h-281l48 182h310c58.667 0 88 -16.667 88 -50c0 -14 -3.66699 -33.667 -11 -59zM217 -473c-10.667 -38.667 -23 -77.333 -37 -116h-90l10 32
c1.33301 4 2 7.66699 2 11c0 12.667 -11.667 19 -35 19h-60l43 163h89c58.667 0 88 -16.667 88 -50c0 -14 -3.33301 -33.667 -10 -59z" />
    <glyph glyph-name="uFB7B" unicode="&#x686;" horiz-adv-x="1058" arabic-form="final" 
d="M1097 0l-235.999 -0.000976562c-91.333 0 -137 54.667 -137 164c0 26.667 2.33301 52.334 7 77.001c-6.66699 2.66699 -16.334 4 -29.001 4c-77.333 0 -156.666 -28.333 -237.999 -85c-105.333 -74 -158 -170.667 -158 -290c0 -174.667 121.333 -262 364 -262
c24.667 0 74.167 4.83301 148.5 14.5s136.166 14.5 185.499 14.5c18 0 36 -0.666992 54 -2l-49 -192c-34 6 -69.333 9 -106 9c-46 0 -100.333 -5.66699 -163 -17s-100.667 -17 -114 -17c-130 0 -226.667 20.333 -290 61c-90.667 58.667 -136 166.334 -136 323.001
c0 69.333 16.333 144 49 224c54 130.667 139.667 227 257 289c13.333 6.66699 20 11.334 20 14.001s-6 7.33398 -18 14.001c-36 20 -72.333 30 -109 30c-44.667 0 -87.5 -15 -128.5 -45s-60.5 -45 -58.5 -45c-2.66699 0 -4 2.66699 -4 8
c0 7.33301 3.83301 27.166 11.5 59.499s11.5 55.166 11.5 68.499c0 20.667 20 47.667 60 81c46 37.333 91 56 135 56c48.667 0 105.334 -11 170.001 -33c85.333 -29.333 128.666 -44 129.999 -44c58 -12.667 146.333 -23.334 265 -32.001l-51 -198c-64 0 -110.333 1 -139 3
c-2.66699 -4.66699 -4 -9.66699 -4 -15c0 -24 27 -36 81 -36h219v-201zM691.001 -145.001c-1.33301 -4 -2.66699 -6.66797 -4 -8.00098h-73l10 30c5.33301 16 -3.66699 24 -27 24h-229l39 149h253c48 0 72 -13.667 72 -41c0 -9.33301 -2 -21.333 -6 -36
c-13.333 -51.333 -25 -90.666 -35 -117.999zM564 -233.002c-8.66699 -31.333 -18.333 -62.666 -29 -93.999h-75l9 26c5.33301 16 -3.66699 24 -27 24h-49l35 133h73c47.333 0 71 -14 71 -42c0 -10.667 -2.66699 -26.334 -8 -47.001z" />
    <glyph glyph-name="uFB7C" unicode="&#x686;" horiz-adv-x="929" arabic-form="initial" 
d="M925 444l-39.0029 -188.004c-137.333 0.666992 -237.666 -36.666 -300.999 -111.999c-80.667 -96 -170.667 -144 -270 -144h-359v201h371c44 0 97.667 14.333 161 43c57.333 25.333 86 42.333 86 51c0 6 -24 18.333 -72 37c-54 20.667 -99.333 31 -136 31
c-44 0 -86.5 -15.167 -127.5 -45.5s-60.5 -45.5 -58.5 -45.5c-2 1.33301 -3 4 -3 8c0 6.66699 3.83301 26.334 11.5 59.001s11.5 56.334 11.5 71.001c0 20.667 20 47.334 60 80.001c45.333 37.333 90 56 134 56c48.667 0 105.334 -11 170.001 -33
c86 -30 129.667 -45 131 -45c62.667 -13.333 139.334 -21.333 230.001 -24zM474.997 -234.004c-20.667 -73.333 -35.333 -120.333 -44 -141h-90l12 37c1.33301 4.66699 2 8.66699 2 12c0 12.667 -11.667 19 -35 19h-281l48 182h310c58.667 0 88 -16.667 88 -50
c0 -14 -3.33301 -33.667 -10 -59zM278.998 -473.004c-10.667 -38.667 -22.667 -77.333 -36 -116h-91l10 32c1.33301 4 2 7.66699 2 11c0 12.667 -11.667 19 -35 19h-60l43 163h89c59.333 0 89 -16.667 89 -50c0 -14 -3.66699 -33.667 -11 -59z" />
    <glyph glyph-name="uFB7D" unicode="&#x686;" horiz-adv-x="946" arabic-form="medial" 
d="M985 0l-283.002 0.00390625c-98.667 0 -148 49.667 -148 149c0 11.333 0.666992 24 2 38s2 21.667 2 23c0 3.33301 -0.666992 4.66602 -2 3.99902l-54 -64c-44 -50.667 -82.667 -86.334 -116 -107.001c-46 -28.667 -99 -43 -159 -43h-271v201h268
c72.667 0 138.334 15 197.001 45c46 23.333 69 41 69 53c0 6 -24 18 -72 36c-54 20.667 -99 31 -135 31c-44 0 -86.667 -14.833 -128 -44.5s-60.666 -44.5 -57.999 -44.5c-2.66699 0 -4 2.66699 -4 8c0 6.66699 3.83301 26.167 11.5 58.5s11.5 55.5 11.5 69.5
c0 21.333 20 48.333 60 81c45.333 37.333 90.333 56 135 56c48.667 0 105 -11.333 169 -34c84 -28.667 127.333 -43.334 130 -44.001c58 -12 135 -19.667 231 -23l-43 -193c-54.667 5.33301 -104 0.666016 -148 -14.001c-16.667 -6 -25 -13.667 -25 -23c0 -12 21 -18 63 -18
h297v-201zM446.998 -233.996c-20.667 -73.333 -35 -120.333 -43 -141h-91l12 37c1.33301 4.66699 2 8.66699 2 12c0 12.667 -11.667 19 -35 19h-281l48 182h310c58.667 0 88 -16.667 88 -50c0 -14 -3.33301 -33.667 -10 -59zM250.998 -472.996
c-10.667 -38.667 -22.667 -77.333 -36 -116h-91l10 32c1.33301 4 2 7.66699 2 11c0 12.667 -11.667 19 -35 19h-60l43 163h89c59.333 0 89 -16.667 89 -50c0 -14 -3.66699 -33.667 -11 -59z" />
    <glyph glyph-name="uFB8B" unicode="&#x698;" horiz-adv-x="730" arabic-form="final" 
d="M533 924c-10.667 -38.667 -22.667 -77.333 -36 -116h-90l9 31c1.33301 4.66699 2 8.66699 2 12c0 12.667 -11.333 19 -34 19h-61l43 163h90c58.667 0 88 -16.667 88 -50c0 -14 -3.66699 -33.667 -11 -59zM604 641.001c-20 -73.333 -34.333 -120.334 -43 -141.001h-90
l12 37c0.666992 4.66699 1 8.33398 1 11.001c0 13.333 -11.333 20 -34 20h-281l48 182h310c58.667 0 88 -16.667 88 -50c0 -14 -3.66699 -33.667 -11 -59zM767 0l-188.998 0.00195312c0 -161.333 -86 -299 -258 -413c-106.667 -70.667 -213.334 -117.667 -320.001 -141
l54 214c65.333 13.333 146.666 49.666 243.999 108.999c121.333 74 182 144.667 182 212c0 71.333 -57.667 138.666 -173 201.999l59 209c19.333 -8 72.333 -54 159 -138c31.333 -35.333 61.333 -53 90 -53h152v-201z" />
    <glyph glyph-name="uFEDA" unicode="&#x6a9;" horiz-adv-x="1865" arabic-form="final" 
d="M1904 0h-328.002c-48 0 -86 16.667 -114 50c-17.333 21.333 -32.333 52.666 -45 93.999c-10.667 33.333 -18.667 50 -24 50c-2 0 -8.66699 -16.667 -20 -50c-12.667 -40 -29.667 -71.333 -51 -94c-31.333 -33.333 -73 -50 -125 -50h-790c-58.667 0 -107 17.333 -145 52
c-41.333 36.667 -62 86 -62 148c0 84.667 20.667 158.334 62 221.001c36 55.333 72 83 108 83h160l-49 -186h-136c-36 0 -54 -14.667 -54 -44c0 -22 11.333 -39.667 34 -53c20 -13.333 44.333 -20 73 -20h864c40 0 60 16 60 48c0 56 -43.667 118.333 -131 187
c-67.333 53.333 -129 91 -185 113l65 201c28.667 89.333 144.667 134 348 134c186 0 300.667 28.333 344 85c12 16.667 22.667 25 32 25c7.33301 0 11 -6.66699 11 -20c0 -21.333 -10.333 -51.333 -31 -90c-37.333 -71.333 -88.333 -119.666 -153 -144.999
c-60.667 -23.333 -158 -35 -292 -35c-93.333 0 -147.666 -10.333 -162.999 -31c102.667 -54 190.334 -137 263.001 -249c56.667 -86.667 85 -148.334 85 -185.001c0 -25.333 22.333 -38 67 -38h322v-201z" />
    <glyph glyph-name="uFEDB" unicode="&#x6a9;" horiz-adv-x="848" arabic-form="initial" 
d="M815 875c-36 -58 -70.3311 -97.6699 -102.998 -119.003c-63.333 -40 -158.333 -60 -285 -60c-128.667 0 -205.334 -7.66699 -230.001 -23c82.667 -43.333 145.667 -103.666 189 -180.999c40 -70 60 -146.667 60 -230c0 -67.333 -15.333 -126.666 -46 -177.999
c-33.333 -56 -75.333 -84 -126 -84h-321v201h355c34 0 49.333 15.667 46 47c-4.66699 44.667 -33.667 95.334 -87 152.001c-62.667 66 -137.667 112.667 -225 140l53 171c32.667 104.667 120.667 157 264 157c247.333 0 391.666 24.333 432.999 73c19.333 22 34 33 44 33
c6.66699 0 10 -5.66699 10 -17c0 -22 -10.333 -49.333 -31 -82z" />
    <glyph glyph-name="uFEDC" unicode="&#x6a9;" horiz-adv-x="707" arabic-form="medial" 
d="M815 875c-36 -58 -70.3311 -97.6699 -102.998 -119.003c-63.333 -40 -158.333 -60 -285 -60c-128.667 0 -205.334 -7.66699 -230.001 -23c82.667 -43.333 145.667 -103.666 189 -180.999c40 -70 60 -146.667 60 -230c0 -67.333 -15.333 -126.666 -46 -177.999
c-33.333 -56 -75.333 -84 -126 -84h-321v201h355c34 0 49.333 15.667 46 47c-4.66699 44.667 -33.667 95.334 -87 152.001c-62.667 66 -137.667 112.667 -225 140l53 171c32.667 104.667 120.667 157 264 157c247.333 0 391.666 24.333 432.999 73c19.333 22 34 33 44 33
c6.66699 0 10 -5.66699 10 -17c0 -22 -10.333 -49.333 -31 -82zM738.002 -0.00292969h-328v201h328v-201z" />
    <glyph glyph-name="uFB93" unicode="&#x6af;" horiz-adv-x="1865" arabic-form="final" 
d="M1768 1058c-39.333 -62.667 -178.669 -94 -418.002 -94c-65.333 0 -124 -17 -176 -51c-13.333 -8.66699 -23.666 -13 -30.999 -13c-6.66699 0 -10 3.66699 -10 11c0 12.667 10 31.667 30 57c48 60.667 108.333 91 181 91c224.667 0 354.334 14.667 389.001 44
c21.333 18 38 27 50 27c7.33301 0 11 -3.66699 11 -11c0 -12.667 -8.66699 -33 -26 -61zM1904 0h-328.002c-48 0 -86 16.667 -114 50c-17.333 21.333 -32.333 52.666 -45 93.999c-10.667 33.333 -18.667 50 -24 50c-2 0 -8.66699 -16.667 -20 -50
c-12.667 -40 -29.667 -71.333 -51 -94c-31.333 -33.333 -73 -50 -125 -50h-790c-58.667 0 -107 17.333 -145 52c-41.333 36.667 -62 86 -62 148c0 84.667 20.667 158.334 62 221.001c36 55.333 72 83 108 83h160l-49 -186h-136c-36 0 -54 -14.667 -54 -44
c0 -22 11.333 -39.667 34 -53c20 -13.333 44.333 -20 73 -20h864c40 0 60 16 60 48c0 56 -43.667 118.333 -131 187c-67.333 53.333 -129 91 -185 113l65 201c28.667 89.333 144.667 134 348 134c190 0 304.667 26 344 78c13.333 18 24.333 27 33 27
c6.66699 0 10 -5.66699 10 -17c0 -20 -10.333 -49.333 -31 -88c-37.333 -71.333 -88.333 -119.666 -153 -144.999c-60.667 -23.333 -158 -35 -292 -35c-93.333 0 -147.666 -10.333 -162.999 -31c102.667 -54 190.334 -137 263.001 -249
c56.667 -86.667 85 -148.334 85 -185.001c0 -25.333 22.333 -38 67 -38h322v-201z" />
    <glyph glyph-name="uFB94" unicode="&#x6af;" horiz-adv-x="848" arabic-form="initial" 
d="M829 1081c-36.667 -73.333 -102.667 -110 -198 -110c-230 0 -368.333 -17 -415 -51c-12 -8.66699 -21.667 -13 -29 -13c-6.66699 0 -10 3.66699 -10 11c0 10.667 6 24.667 18 42c44.667 64 118 96 220 96c210 0 326.333 8.33301 349 25c49.333 36 74 44.667 74 26
c0 -5.33301 -3 -14 -9 -26zM815 875c-36 -58 -70.3311 -97.6699 -102.998 -119.003c-63.333 -40 -158.333 -60 -285 -60c-128.667 0 -205.334 -7.66699 -230.001 -23c82.667 -43.333 145.667 -103.666 189 -180.999c40 -70 60 -146.667 60 -230
c0 -67.333 -15.333 -126.666 -46 -177.999c-33.333 -56 -75.333 -84 -126 -84h-321v201h355c34 0 49.333 15.667 46 47c-4.66699 44.667 -33.667 95.334 -87 152.001c-62.667 66 -137.667 112.667 -225 140l53 171c32.667 104.667 120.667 157 264 157
c247.333 0 391.666 24.333 432.999 73c19.333 22 34 33 44 33c6.66699 0 10 -5.66699 10 -17c0 -22 -10.333 -49.333 -31 -82z" />
    <glyph glyph-name="uFB95" unicode="&#x6af;" horiz-adv-x="714" arabic-form="medial" 
d="M829 1081c-36.667 -73.333 -102.667 -110 -198 -110c-230 0 -368.333 -17 -415 -51c-12 -8.66699 -21.667 -13 -29 -13s-11 3.66699 -11 11c0 10.667 6.33301 24.667 19 42c44.667 64 118 96 220 96c210 0 326.333 8.33301 349 25c49.333 36 74 44.667 74 26
c0 -5.33301 -3 -14 -9 -26zM815 875c-36 -58 -70.3311 -97.6699 -102.998 -119.003c-63.333 -40 -158.333 -60 -285 -60c-128.667 0 -205.334 -7.66699 -230.001 -23c82.667 -43.333 145.667 -103.666 189 -180.999c40 -70 60 -146.667 60 -230
c0 -67.333 -15.333 -126.666 -46 -177.999c-33.333 -56 -75.333 -84 -126 -84h-321v201h355c34 0 49.333 15.667 46 47c-4.66699 44.667 -33.667 95.334 -87 152.001c-62.667 66 -137.667 112.667 -225 140l53 171c32.667 104.667 120.667 157 264 157
c247.333 0 391.666 24.333 432.999 73c19.333 22 34 33 44 33c6.66699 0 10 -5.66699 10 -17c0 -22 -10.333 -49.333 -31 -82zM738.002 -0.00292969h-328v201h328v-201z" />
    <glyph glyph-name="uFE94" unicode="&#x6c0;" horiz-adv-x="967" arabic-form="final" 
d="M670 1097c7.33301 0 11 -5 11 -15c0 -13.333 -6 -31.5 -18 -54.5s-20.667 -34.5 -26 -34.5c-17.333 0 -46 -8 -86 -24c-58.667 -23.333 -109.667 -56 -153 -98c-10.667 -10 -18 -15 -22 -15c-5.33301 0 -8 21.667 -8 65c0 8.66699 24.333 31 73 67
c-30.667 11.333 -46 30.333 -46 57c0 22 14.333 51.333 43 88c32 42 64.667 63 98 63c35.333 0 61 -15.667 77 -47l-52 -61c-14 20 -32.667 30 -56 30c-25.333 0 -38 -9.66699 -38 -29c0 -18 24 -27 72 -27c25.333 0 53 5.83301 83 17.5s46 17.5 48 17.5zM1005 0
l-167 0.000976562c-106.667 0 -163 60.667 -169 182c-31.333 -8 -62.333 -16.333 -93 -25c-46 -10 -102.667 -15 -170 -15c-137.333 0 -206 59.333 -206 178c0 91.333 38 179.666 114 264.999c81.333 90.667 173 136 275 136c70 0 116 -18.667 138 -56
c28 -48 42 -151.667 42 -311c0 -102 29.667 -153 89 -153h147v-201zM641 371.001c-1.33301 56.667 -9.00098 95.668 -23.001 117.001c-18 26 -51.667 39 -101 39s-96.166 -12.333 -140.499 -37s-66.5 -52.334 -66.5 -83.001c0 -40.667 42.667 -61 128 -61
c57.333 0 125 8.33301 203 25z" />
    <glyph glyph-name="uFEF2" unicode="&#x6cc;" horiz-adv-x="1354" arabic-form="final" 
d="M1392 0l-128 -0.000976562c0 -82 -53 -168.333 -159 -259c-131.333 -112.667 -296.333 -169 -495 -169c-273.333 0 -410 109.333 -410 328c0 116.667 34 217.334 102 302.001c74.667 93.333 173 140 295 140c16 0 32.667 -0.666992 50 -2l-44 -223
c-13.333 3.33301 -30.333 5 -51 5c-58.667 0 -111 -11.333 -157 -34c-58.667 -29.333 -88 -70.333 -88 -123c0 -120 113.333 -180 340 -180c118 0 230.333 21.667 337 65c102 41.333 153 82.333 153 123c0 18 -32 27 -96 27h-266l38 201h579v-201z" />
    <glyph glyph-name="uFEF3" unicode="&#x6cc;" horiz-adv-x="520" arabic-form="initial" 
d="M520 228c0 -72 -19.333 -129.332 -58 -171.999c-34 -37.333 -73 -56 -117 -56h-389v201h411c41.333 0 62 5 62 15c0 39.333 -52 75.666 -156 108.999l58 182c126 -45.333 189 -138.333 189 -279zM416 -233.999c-20 -73.333 -34.333 -120.333 -43 -141h-90l12 37
c1.33301 4.66699 2 8.66699 2 12c0 12.667 -11.667 19 -35 19h-281l48 182h310c58.667 0 88 -16.667 88 -50c0 -14 -3.66699 -33.667 -11 -59z" />
    <glyph glyph-name="uFEF4" unicode="&#x6cc;" horiz-adv-x="528" arabic-form="medial" 
d="M566 0h-213c-24 0 -44.167 7 -60.5 21s-24.5 29.333 -24.5 46c0 8.66699 -1 13 -3 13c3.33301 0 -7.66699 -13.333 -33 -40s-55.333 -40 -90 -40h-189v201h215c46 0 69 30.333 69 91c0 38 12.667 57 38 57c26 0 39 -20 39 -60c0 -58.667 24 -88 72 -88h180v-201z
M405 -234c-20 -73.333 -34.333 -120.333 -43 -141h-90l11 37c1.33301 4.66699 2 8.66699 2 12c0 12.667 -11.667 19 -35 19h-281l48 182h310c58.667 0 88 -16.667 88 -50c0 -14 -3.33301 -33.667 -10 -59z" />
    <glyph glyph-name="Hcircumflex" unicode="&#x622;" horiz-adv-x="653" arabic-form="final" 
d="M681 0h-161c-116.667 0 -175 65.667 -175 197v390c-2 95.333 -9.33301 187 -22 275l109 147c7.33301 10 13.333 15 18 15c6.66699 0 13 -9.33301 19 -28c3.33301 -10 5 -166.667 5 -470c0 -154 0.333008 -236 1 -246c5.33301 -52.667 24.333 -79 57 -79h149v-201z
M766 1286l-72.999 -155h-432c-64.667 0 -97 -19.333 -97 -58c0 -30.667 32.333 -46 97 -46h24l-50 -128h-29c-90.667 0 -136 37.667 -136 113c0 28.667 7.33301 61.667 22 99c45.333 116.667 111.666 175 198.999 175h475z" />
    <glyph glyph-name="uFE84" unicode="&#x623;" horiz-adv-x="555" arabic-form="final" 
d="M463 1270c8 0 12.001 -4.66895 12.001 -14.002c0 -13.333 -6 -31.5 -18 -54.5s-20.667 -34.5 -26 -34.5c-17.333 0 -46 -8 -86 -24c-59.333 -23.333 -110.333 -56 -153 -98c-10.667 -10 -18 -15 -22 -15c-5.33301 0 -8 21.667 -8 65c0 8.66699 24.333 31 73 67
c-30.667 10.667 -46 29.334 -46 56.001c0 22.667 14 52.334 42 89.001c32.667 42 65.667 63 99 63c35.333 0 61 -15.667 77 -47l-52 -61c-14 19.333 -32.667 29 -56 29c-25.333 0 -38 -9.66699 -38 -29c0 -17.333 24 -26 72 -26c24.667 0 52.167 5.66699 82.5 17
s46.166 17 47.499 17zM604.001 -0.00195312h-161c-116 0 -174 65.667 -174 197c0 240.667 -0.333008 370.667 -1 390c-2 95.333 -9 187 -21 275l108 147c7.33301 10 13.333 15 18 15c6.66699 0 13 -9.33301 19 -28c3.33301 -10 5 -166.667 5 -470
c0 -154 0.666992 -236 2 -246c5.33301 -52.667 24.333 -79 57 -79h148v-201z" />
    <glyph glyph-name="uFE86" unicode="&#x624;" horiz-adv-x="874" arabic-form="final" 
d="M646 935c8 0 12.002 -4.66699 12.002 -14c0 -13.333 -6.16699 -31.5 -18.5 -54.5s-21.166 -34.5 -26.499 -34.5c-17.333 0 -46 -8 -86 -24c-58.667 -23.333 -109.334 -56 -152.001 -98c-10.667 -10 -18.334 -15 -23.001 -15s-7 21.667 -7 65c0 8.66699 24.333 31 73 67
c-30.667 10.667 -46 29.667 -46 57c0 22 14 51.333 42 88c32.667 42 65.667 63 99 63c34.667 0 60 -15.667 76 -47l-51 -61c-14 19.333 -32.667 29 -56 29c-25.333 0 -38 -9.33301 -38 -28c0 -18 24 -27 72 -27c24.667 0 52.167 5.66699 82.5 17s46.166 17 47.499 17z
M913.002 0l-129.003 -0.000976562c-14.667 -179.333 -104.667 -321.666 -270 -426.999c-74 -47.333 -178.667 -90.333 -314 -129l52 206c99.333 31.333 192 75 278 131c98.667 64.667 148 122.334 148 173.001c0 30.667 -15.333 46 -46 46h-200
c-71.333 0 -116.666 22.667 -135.999 68c-8.66699 19.333 -13 59.333 -13 120c0 50.667 12.667 112.667 38 186c12.667 37.333 30.667 71.666 54 102.999c32.667 42.667 66.334 64 101.001 64c57.333 0 114.333 -34.667 171 -104c54.667 -66 94.334 -144.667 119.001 -236
h147v-201zM588.999 200.999c-24 77.333 -72.001 116 -144.001 116c-19.333 0 -35.166 -6.83301 -47.499 -20.5s-18.5 -29.167 -18.5 -46.5c0 -32.667 18.667 -49 56 -49h154z" />
    <glyph glyph-name="uFE88" unicode="&#x625;" horiz-adv-x="536" arabic-form="final" 
d="M578 0h-161.001c-116.667 0 -175 65.667 -175 197c0 370 -7.33301 607.667 -22 713l109 147c6.66699 10 12.334 15 17.001 15c7.33301 0 14 -9.33301 20 -28c3.33301 -10 5 -182.667 5 -518c0 -153.333 0.333008 -235.333 1 -246c5.33301 -52.667 24.333 -79 57 -79h149
v-201zM500.999 -182c8 0 12 -5 12 -15c0 -13.333 -6.16699 -31.5 -18.5 -54.5s-20.833 -34.5 -25.5 -34.5c-17.333 0 -46 -8 -86 -24c-59.333 -23.333 -110.333 -56 -153 -98c-10.667 -10 -18 -15 -22 -15c-5.33301 0 -8 21.667 -8 65c0 9.33301 24.333 31.666 73 66.999
c-30.667 11.333 -46 30.333 -46 57c0 22.667 14 52.334 42 89.001c32.667 42 65.667 63 99 63c34.667 0 60.334 -16 77.001 -48l-52 -61c-14 20 -32.667 30 -56 30c-25.333 0 -38 -9.66699 -38 -29c0 -18 24 -27 72 -27c24.667 0 52.167 5.83301 82.5 17.5
s46.166 17.5 47.499 17.5z" />
    <glyph glyph-name="uFE8A" unicode="&#x626;" horiz-adv-x="1354" arabic-form="final" 
d="M1392 0l-128 -0.000976562c0 -82 -53 -168.333 -159 -259c-131.333 -112.667 -296.333 -169 -495 -169c-273.333 0 -410 109.333 -410 328c0 116.667 34 217.334 102 302.001c74.667 93.333 173 140 295 140c16 0 32.667 -0.666992 50 -2l-44 -223
c-13.333 3.33301 -30.333 5 -51 5c-58.667 0 -111 -11.333 -157 -34c-58.667 -29.333 -88 -70.333 -88 -123c0 -120 113.333 -180 340 -180c118 0 230.333 21.667 337 65c102 41.333 153 82.333 153 123c0 18 -32 27 -96 27h-266l38 201h579v-201zM554 538.999
c7.33301 0 11 -5 11 -15c0 -13.333 -6 -31.5 -18 -54.5s-20.667 -34.5 -26 -34.5c-17.333 0 -46 -8 -86 -24c-58.667 -23.333 -109.667 -56 -153 -98c-10.667 -10 -18 -15 -22 -15c-5.33301 0 -8 21.667 -8 65c0 9.33301 24.333 31.666 73 66.999
c-30.667 11.333 -46 30.333 -46 57c0 22.667 14.333 52.334 43 89.001c32 42 64.667 63 98 63c35.333 0 61 -15.667 77 -47l-52 -62c-14 20 -32.667 30 -56 30c-25.333 0 -38 -9.66699 -38 -29c0 -18 24 -27 72 -27c25.333 0 53 5.83301 83 17.5s46 17.5 48 17.5z" />
    <glyph glyph-name="uFE8B" unicode="&#x626;" horiz-adv-x="472" arabic-form="initial" 
d="M386 817c7.33301 0 11 -4.66699 11 -14c0 -13.333 -6 -31.5 -18 -54.5s-20.667 -34.5 -26 -34.5c-17.333 0 -46 -8 -86 -24c-58.667 -23.333 -109.667 -56 -153 -98c-10 -10 -17.333 -15 -22 -15c-5.33301 0 -8 21.667 -8 65c0 8.66699 24.333 31 73 67
c-30.667 10.667 -46 29.667 -46 57c0 22 14.333 51.333 43 88c32 42 64.667 63 98 63c35.333 0 61 -15.667 77 -47l-52 -61c-14 19.333 -32.667 29 -56 29c-25.333 0 -38 -9.33301 -38 -28c0 -18 24 -27 72 -27c25.333 0 53 5.66699 83 17s46 17 48 17zM472 228
c0 -72 -19.333 -129.332 -58 -171.999c-34 -37.333 -73 -56 -117 -56h-341v201h363c41.333 0 62 5 62 15c0 39.333 -52 75.666 -156 108.999l58 182c126 -45.333 189 -138.333 189 -279z" />
    <glyph glyph-name="uFE8C" unicode="&#x626;" horiz-adv-x="528" arabic-form="medial" 
d="M399 700c8 0 12.002 -4.66699 12.002 -14c0 -13.333 -6.16699 -31.5 -18.5 -54.5s-21.166 -34.5 -26.499 -34.5c-17.333 0 -46 -8 -86 -24c-58.667 -23.333 -109.334 -56 -152.001 -98c-10.667 -10 -18.334 -15 -23.001 -15s-7 21.667 -7 65c0 8.66699 24.333 31 73 67
c-30.667 10.667 -46 29.667 -46 57c0 22 14 51.333 42 88c32.667 42 65.667 63 99 63c34.667 0 60 -15.667 76 -47l-51 -61c-14 19.333 -32.667 29 -56 29c-25.333 0 -38 -9.33301 -38 -28c0 -18 24 -27 72 -27c24.667 0 52.167 5.66699 82.5 17s46.166 17 47.499 17z
M566.002 0h-213c-24 0 -44.167 7 -60.5 21s-24.5 29.333 -24.5 46c0 8.66699 -1 13 -3 13c3.33301 0 -7.66699 -13.333 -33 -40s-55.333 -40 -90 -40h-189v201h215c46 0 69 30.333 69 91c0 38 12.667 57 38 57c26 0 39 -20 39 -60c0 -58.667 24 -88 72 -88h180v-201z" />
    <glyph glyph-name="uFE8E" unicode="&#x627;" horiz-adv-x="516" arabic-form="final" 
d="M558 0h-161c-116.667 0 -175 65.667 -175 197c0 370 -7.33301 607.667 -22 713l108 147c7.33301 10 13.333 15 18 15c7.33301 0 14 -9.33301 20 -28c3.33301 -10 5 -182.667 5 -518c0 -153.333 0.333008 -235.333 1 -246c5.33301 -52.667 24.333 -79 57 -79h149v-201z
" />
    <glyph glyph-name="uFE90" unicode="&#x628;" horiz-adv-x="1574" arabic-form="final" 
d="M1618 0l-97 -0.000976562c-32 0 -61.667 10.667 -89 32c-34.667 26 -52 61.333 -52 106c0 12.667 -0.333008 19 -1 19c2 0 -4.33301 -13.667 -19 -41c-17.333 -31.333 -39.333 -56.333 -66 -75c-38.667 -27.333 -85.667 -41 -141 -41h-746c-58.667 0 -107 17.333 -145 52
c-41.333 36.667 -62 86 -62 148c0 84.667 20.667 158.334 62 221.001c36 55.333 72 83 108 83h160l-49 -186h-136c-36 0 -54 -14.667 -54 -44c0 -22 11.333 -39.667 34 -53c20 -13.333 44.333 -20 73 -20h822c94.667 0 142 45 142 135c0 34 14.667 51 44 51
c23.333 0 35 -17 35 -51c0 -90 31.333 -135 94 -135h83v-201zM960 -234.001c-20 -73.333 -36 -126.667 -48 -160h-90l11 37c1.33301 4 2 7.66699 2 11c0 13.333 -11.333 20 -34 20h-99l51 201h127c60 0 90 -17.333 90 -52c0 -13.333 -3.33301 -32.333 -10 -57z" />
    <glyph glyph-name="uFE91" unicode="&#x628;" horiz-adv-x="472" arabic-form="initial" 
d="M472 228c0 -72 -19.333 -129.332 -58 -171.999c-34 -37.333 -73 -56 -117 -56h-341v201h363c41.333 0 62 5 62 15c0 39.333 -52 75.666 -156 108.999l58 182c126 -45.333 189 -138.333 189 -279zM261 -233.999c-20 -73.333 -36 -126.667 -48 -160h-90l12 37
c1.33301 4 2 7.66699 2 11c0 13.333 -11.667 20 -35 20h-99l51 201h128c60 0 90 -17.333 90 -52c0 -13.333 -3.66699 -32.333 -11 -57z" />
    <glyph glyph-name="uFE92" unicode="&#x628;" horiz-adv-x="528" arabic-form="medial" 
d="M566 0h-213c-24 0 -44.167 7 -60.5 21s-24.5 29.333 -24.5 46c0 8.66699 -1 13 -3 13c3.33301 0 -7.66699 -13.333 -33 -40s-55.333 -40 -90 -40h-189v201h215c46 0 69 30.333 69 91c0 38 12.667 57 38 57c26 0 39 -20 39 -60c0 -58.667 24 -88 72 -88h180v-201z
M240 -234c-20.667 -73.333 -36.667 -126.667 -48 -160h-90l11 37c1.33301 4 2 7.66699 2 11c0 13.333 -11.667 20 -35 20h-98l51 201h127c60 0 90 -17.333 90 -52c0 -13.333 -3.33301 -32.333 -10 -57z" />
    <glyph glyph-name="uFE96" unicode="&#x62a;" horiz-adv-x="1568" arabic-form="final" 
d="M1080 405c-20.667 -73.333 -35 -120.334 -43 -141.001h-91l12 37c1.33301 4.66699 2 8.33398 2 11.001c0 13.333 -11.667 20 -35 20h-281l48 182h310c58.667 0 88 -16.667 88 -50c0 -14 -3.33301 -33.667 -10 -59zM1618 -0.000976562l-97 -0.000976562
c-32 0 -61.667 10.667 -89 32c-34.667 26 -52 61.333 -52 106c0 12.667 -0.333008 19 -1 19c2 0 -4.33301 -13.667 -19 -41c-17.333 -31.333 -39.333 -56.333 -66 -75c-38.667 -27.333 -85.667 -41 -141 -41h-746c-58.667 0 -107 17.333 -145 52
c-41.333 36.667 -62 86 -62 148c0 84.667 20.667 158.334 62 221.001c36 55.333 72.333 83 109 83h159l-50 -186h-134c-36.667 0 -55 -14.667 -55 -44c0 -21.333 11 -38.833 33 -52.5s47 -20.5 75 -20.5h821c94 0 141 45.333 141 136c0 33.333 14.667 50 44 50
c24.667 0 37 -16.667 37 -50c0 -60 11.333 -99.667 34 -119c12.667 -11.333 32.667 -17 60 -17h82v-201z" />
    <glyph glyph-name="uFE97" unicode="&#x62a;" horiz-adv-x="498" arabic-form="initial" 
d="M485 710c-20 -73.333 -34.333 -120.333 -43 -141h-90l12 37c1.33301 4.66699 2 8.66699 2 12c0 12.667 -11.667 19 -35 19h-281l48 182h310c58.667 0 88 -16.667 88 -50c0 -14 -3.66699 -33.667 -11 -59zM472 228c0 -72 -19.333 -129.332 -58 -171.999
c-34 -37.333 -73 -56 -117 -56h-341v201h363c41.333 0 62 5 62 15c0 39.333 -52 75.666 -156 108.999l58 182c126 -45.333 189 -138.333 189 -279z" />
    <glyph glyph-name="uFE98" unicode="&#x62a;" horiz-adv-x="528" arabic-form="medial" 
d="M466 710c-20 -73.333 -34.333 -120.333 -43 -141h-90l11 37c1.33301 4.66699 2 8.66699 2 12c0 12.667 -11.333 19 -34 19h-281l48 182h310c58.667 0 88 -16.667 88 -50c0 -14 -3.66699 -33.667 -11 -59zM566 0h-213c-24 0 -44.167 7 -60.5 21s-24.5 29.333 -24.5 46
c0 8.66699 -1 13 -3 13c3.33301 0 -7.66699 -13.333 -33 -40s-55.333 -40 -90 -40h-189v201h215c46 0 69 30.333 69 91c0 38 12.667 57 38 57c26 0 39 -20 39 -60c0 -58.667 24 -88 72 -88h180v-201z" />
    <glyph glyph-name="uFE9A" unicode="&#x62b;" horiz-adv-x="1569" arabic-form="final" 
d="M1000 686c-10.667 -38.667 -22.667 -77.333 -36 -116h-91l10 31c1.33301 4.66699 2 8.66699 2 12c0 12.667 -11.667 19 -35 19h-60l43 163h89c59.333 0 89 -16.667 89 -50c0 -14 -3.66699 -33.667 -11 -59zM1071 403.001c-20 -73.333 -34.333 -120.333 -43 -141h-90
l11 37c1.33301 4.66699 2 8.66699 2 12c0 12.667 -11.333 19 -34 19h-281l48 182h309c59.333 0 89 -16.667 89 -50c0 -14 -3.66699 -33.667 -11 -59zM1617 0.000976562l-96 -0.000976562c-32 0 -62 10.667 -90 32c-34 26 -51 61.333 -51 106c0 12.667 -0.333008 19 -1 19
c2 0 -4.66699 -13.667 -20 -41c-16.667 -31.333 -38.667 -56.333 -66 -75c-38.667 -27.333 -85.667 -41 -141 -41h-745c-58.667 -0 -107 17.333 -145 52c-41.333 36.667 -62 86 -62 148c0 84.667 20.333 158.334 61 221.001c36 55.333 72.333 83 109 83h159l-49 -186h-135
c-36.667 0 -55 -14.667 -55 -44c0 -21.333 11 -38.833 33 -52.5s47 -20.5 75 -20.5h822c94 0 141 45.333 141 136c0 33.333 14.667 50 44 50c24 0 36 -16.667 36 -50c0 -60 11.333 -99.667 34 -119c12.667 -11.333 32.667 -17 60 -17h82v-201z" />
    <glyph glyph-name="uFE9B" unicode="&#x62b;" horiz-adv-x="472" arabic-form="initial" 
d="M376 993c-10.667 -38.667 -22.667 -77.333 -36 -116h-91l10 31c1.33301 4.66699 2 8.66699 2 12c0 12.667 -11.667 19 -35 19h-60l43 163h89c59.333 0 89 -16.667 89 -50c0 -14 -3.66699 -33.667 -11 -59zM447 710.001c-20 -73.333 -34.333 -120.333 -43 -141h-90l11 37
c1.33301 4.66699 2 8.66699 2 12c0 12.667 -11.333 19 -34 19h-281l47 182h310c59.333 0 89 -16.667 89 -50c0 -14 -3.66699 -33.667 -11 -59zM472 228.001c0 -72 -19.333 -129.332 -58 -171.999c-34 -37.333 -73 -56 -117 -56h-341v201h363c41.333 0 62 5 62 15
c0 39.333 -52 75.666 -156 108.999l58 182c126 -45.333 189 -138.333 189 -279z" />
    <glyph glyph-name="uFE9C" unicode="&#x62b;" horiz-adv-x="502" arabic-form="medial" 
d="M414 993c-10.667 -38.667 -22.667 -77.333 -36 -116h-90l9 31c1.33301 4.66699 2 8.66699 2 12c0 12.667 -11.333 19 -34 19h-61l44 163h89c58.667 0 88 -16.667 88 -50c0 -14 -3.66699 -33.667 -11 -59zM485 710.001c-20 -73.333 -34.333 -120.333 -43 -141h-90l12 37
c1.33301 4.66699 2 8.66699 2 12c0 12.667 -11.667 19 -35 19h-281l48 182h310c58.667 0 88 -16.667 88 -50c0 -14 -3.66699 -33.667 -11 -59zM566 0.000976562h-213c-24 0 -44.167 7 -60.5 21s-24.5 29.333 -24.5 46c0 8.66699 -1 13 -3 13
c3.33301 0 -7.66699 -13.333 -33 -40s-55.333 -40 -90 -40h-189v201h215c46 0 69 30.333 69 91c0 38 12.667 57 38 57c26 0 39 -20 39 -60c0 -58.667 24 -88 72 -88h180v-201z" />
    <glyph glyph-name="uFE9E" unicode="&#x62c;" horiz-adv-x="1058" arabic-form="final" 
d="M1097 0l-235.999 -0.000976562c-91.333 0 -137 54.667 -137 164c0 26.667 2.33301 52.334 7 77.001c-6.66699 2.66699 -16.334 4 -29.001 4c-77.333 0 -156.666 -28.333 -237.999 -85c-105.333 -74 -158 -170.667 -158 -290c0 -174.667 121.333 -262 364 -262
c24.667 0 74.167 4.83301 148.5 14.5s136.166 14.5 185.499 14.5c18 0 36 -0.666992 54 -2l-49 -192c-34 6 -69.333 9 -106 9c-46 0 -100.333 -5.66699 -163 -17s-100.667 -17 -114 -17c-130 0 -226.667 20.333 -290 61c-90.667 58.667 -136 166.334 -136 323.001
c0 69.333 16.333 144 49 224c54 130.667 139.667 227 257 289c13.333 6.66699 20 11.334 20 14.001s-6 7.33398 -18 14.001c-36 20 -72.333 30 -109 30c-44.667 0 -87.5 -15 -128.5 -45s-60.5 -45 -58.5 -45c-2.66699 0 -4 2.66699 -4 8
c0 7.33301 3.83301 27.166 11.5 59.499s11.5 55.166 11.5 68.499c0 20.667 20 47.667 60 81c46 37.333 91 56 135 56c48.667 0 105.334 -11 170.001 -33c85.333 -29.333 128.666 -44 129.999 -44c58 -12.667 146.333 -23.334 265 -32.001l-51 -198c-64 0 -110.333 1 -139 3
c-2.66699 -4.66699 -4 -9.66699 -4 -15c0 -24 27 -36 81 -36h219v-201zM699.001 -105.001c-20 -72.667 -36 -126.001 -48 -160.001h-90l11 38c1.33301 4 2 7.66699 2 11c0 12.667 -11.333 19 -34 19h-99l51 202h127c60 0 90 -17.333 90 -52
c0 -13.333 -3.33301 -32.666 -10 -57.999z" />
    <glyph glyph-name="uFE9F" unicode="&#x62c;" horiz-adv-x="929" arabic-form="initial" 
d="M925 444l-39.0029 -188.004c-137.333 0.666992 -237.666 -36.666 -300.999 -111.999c-80.667 -96 -170.667 -144 -270 -144h-359v201h371c44 0 97.667 14.333 161 43c57.333 25.333 86 42.333 86 51c0 6 -24 18.333 -72 37c-54 20.667 -99.333 31 -136 31
c-44 0 -86.5 -15.167 -127.5 -45.5s-60.5 -45.5 -58.5 -45.5c-2 1.33301 -3 4 -3 8c0 6.66699 3.83301 26.334 11.5 59.001s11.5 56.334 11.5 71.001c0 20.667 20 47.334 60 80.001c45.333 37.333 90 56 134 56c48.667 0 105.334 -11 170.001 -33
c86 -30 129.667 -45 131 -45c62.667 -13.333 139.334 -21.333 230.001 -24zM344.997 -234.004c-20 -73.333 -36 -126.667 -48 -160h-90l12 37c1.33301 4 2 7.66699 2 11c0 13.333 -11.667 20 -35 20h-99l51 201h128c60 0 90 -17.333 90 -52
c0 -13.333 -3.66699 -32.333 -11 -57z" />
    <glyph glyph-name="uFEA0" unicode="&#x62c;" horiz-adv-x="937" arabic-form="medial" 
d="M976 0l-274.002 0.00390625c-98.667 0 -148 49.667 -148 149c0 11.333 0.666992 24 2 38s2 21.667 2 23c0 3.33301 -0.666992 4.66602 -2 3.99902l-54 -64c-44 -50.667 -82.667 -86.334 -116 -107.001c-46 -28.667 -99 -43 -159 -43h-271v201h268
c72.667 0 138.334 15 197.001 45c46 23.333 69 41 69 53c0 6 -24 18 -72 36c-54 20.667 -99 31 -135 31c-44 0 -86.667 -14.833 -128 -44.5s-60.666 -44.5 -57.999 -44.5c-2.66699 0 -4 2.66699 -4 8c0 6.66699 3.83301 26.167 11.5 58.5s11.5 55.5 11.5 69.5
c0 21.333 20 48.333 60 81c45.333 37.333 90.333 56 135 56c48.667 0 105 -11.333 169 -34c84 -28.667 127.333 -43.334 130 -44.001c58 -12 135 -19.667 231 -23l-43 -193c-54.667 5.33301 -104 0.666016 -148 -14.001c-16.667 -6 -25 -13.667 -25 -23c0 -12 21 -18 63 -18
h288v-201zM264.998 -233.996c-20 -73.333 -36 -126.667 -48 -160h-90l11 37c1.33301 4 2 7.66699 2 11c0 13.333 -11.333 20 -34 20h-99l51 201h127c60 0 90 -17.333 90 -52c0 -13.333 -3.33301 -32.333 -10 -57z" />
    <glyph glyph-name="uFEA2" unicode="&#x62d;" horiz-adv-x="1058" arabic-form="final" 
d="M1098 0l-236.999 -0.000976562c-91.333 0 -137 54.667 -137 164c0 26.667 2.33301 52.334 7 77.001c-6.66699 2.66699 -16.334 4 -29.001 4c-77.333 0 -156.666 -28.333 -237.999 -85c-105.333 -74 -158 -170.667 -158 -290c0 -174.667 121.333 -262 364 -262
c24.667 0 74.167 4.83301 148.5 14.5s136.166 14.5 185.499 14.5c18 0 36 -0.666992 54 -2l-49 -192c-34 6 -69.333 9 -106 9c-46 0 -100.333 -5.66699 -163 -17s-100.667 -17 -114 -17c-130 0 -226.667 20.333 -290 61c-90.667 58.667 -136 166.334 -136 323.001
c0 69.333 16.333 144 49 224c54 130.667 139.667 227 257 289c13.333 6.66699 20 11.334 20 14.001s-6 7.33398 -18 14.001c-36 20 -72.333 30 -109 30c-44.667 0 -87.5 -15 -128.5 -45s-60.5 -45 -58.5 -45c-2.66699 0 -4 2.66699 -4 8
c0 7.33301 3.83301 27.166 11.5 59.499s11.5 55.166 11.5 68.499c0 20.667 20 47.667 60 81c46 37.333 91 56 135 56c48.667 0 105.334 -11 170.001 -33c85.333 -29.333 128.666 -44 129.999 -44c58 -12.667 146.333 -23.334 265 -32.001l-51 -198c-64 0 -110.333 1 -139 3
c-2.66699 -4.66699 -4 -9.66699 -4 -15c0 -24 27 -36 81 -36h220v-201z" />
    <glyph glyph-name="uFEA3" unicode="&#x62d;" horiz-adv-x="929" arabic-form="initial" 
d="M925 444l-39.0029 -188.004c-137.333 0.666992 -237.666 -36.666 -300.999 -111.999c-80.667 -96 -170.667 -144 -270 -144h-359v201h371c44 0 97.667 14.333 161 43c57.333 25.333 86 42.333 86 51c0 6 -24 18.333 -72 37c-54 20.667 -99.333 31 -136 31
c-44 0 -86.5 -15.167 -127.5 -45.5s-60.5 -45.5 -58.5 -45.5c-2 1.33301 -3 4 -3 8c0 6.66699 3.83301 26.334 11.5 59.001s11.5 56.334 11.5 71.001c0 20.667 20 47.334 60 80.001c45.333 37.333 90 56 134 56c48.667 0 105.334 -11 170.001 -33
c86 -30 129.667 -45 131 -45c62.667 -13.333 139.334 -21.333 230.001 -24z" />
    <glyph glyph-name="uFEA4" unicode="&#x62d;" horiz-adv-x="985" arabic-form="medial" 
d="M1024 0l-322.002 0.00390625c-98.667 0 -148 49.667 -148 149c0 11.333 0.666992 24 2 38s2 21.667 2 23c0 3.33301 -0.666992 4.66602 -2 3.99902l-54 -64c-44 -50.667 -82.667 -86.334 -116 -107.001c-46 -28.667 -99 -43 -159 -43h-271v201h268
c72.667 0 138.334 15 197.001 45c46 23.333 69 41 69 53c0 6 -24 18 -72 36c-54 20.667 -99 31 -135 31c-44 0 -86.667 -14.833 -128 -44.5s-60.666 -44.5 -57.999 -44.5c-2.66699 0 -4 2.66699 -4 8c0 6.66699 3.83301 26.167 11.5 58.5s11.5 55.5 11.5 69.5
c0 21.333 20 48.333 60 81c45.333 37.333 90.333 56 135 56c48.667 0 105 -11.333 169 -34c84 -28.667 127.333 -43.334 130 -44.001c58 -12 135 -19.667 231 -23l-43 -193c-54.667 5.33301 -104 0.666016 -148 -14.001c-16.667 -6 -25 -13.667 -25 -23c0 -12 21 -18 63 -18
h336v-201z" />
    <glyph glyph-name="uFEA6" unicode="&#x62e;" horiz-adv-x="1058" arabic-form="final" 
d="M704 812c-20.667 -73.333 -36.667 -127 -48 -161h-90l11 38c1.33301 4 2 7.66699 2 11c0 12.667 -11.667 19 -35 19h-98l50 202h128c60 0 90 -17.333 90 -52c0 -13.333 -3.33301 -32.333 -10 -57zM1098 0l-236.999 -0.000976562c-91.333 0 -137 54.667 -137 164
c0 26.667 2.33301 52.334 7 77.001c-6.66699 2.66699 -16.334 4 -29.001 4c-77.333 0 -156.666 -28.333 -237.999 -85c-105.333 -74 -158 -170.667 -158 -290c0 -174.667 121.333 -262 364 -262c24.667 0 74.167 4.83301 148.5 14.5s136.166 14.5 185.499 14.5
c18 0 36 -0.666992 54 -2l-49 -192c-34 6 -69.333 9 -106 9c-46 0 -100.333 -5.66699 -163 -17s-100.667 -17 -114 -17c-130 0 -226.667 20.333 -290 61c-90.667 58.667 -136 166.334 -136 323.001c0 69.333 16.333 144 49 224c54 130.667 139.667 227 257 289
c13.333 6.66699 20 11.334 20 14.001s-6 7.33398 -18 14.001c-36 20 -72.333 30 -109 30c-44.667 0 -87.5 -15 -128.5 -45s-60.5 -45 -58.5 -45c-2.66699 0 -4 2.66699 -4 8c0 7.33301 3.83301 27.166 11.5 59.499s11.5 55.166 11.5 68.499c0 20.667 20 47.667 60 81
c46 37.333 91 56 135 56c48.667 0 105.334 -11 170.001 -33c85.333 -29.333 128.666 -44 129.999 -44c58 -12.667 146.333 -23.334 265 -32.001l-51 -198c-64 0 -110.333 1 -139 3c-2.66699 -4.66699 -4 -9.66699 -4 -15c0 -24 27 -36 81 -36h220v-201z" />
    <glyph glyph-name="uFEA7" unicode="&#x62e;" horiz-adv-x="925" arabic-form="initial" 
d="M554 812c-20.667 -73.333 -36.667 -127 -48 -161h-91l12 38c1.33301 4 2 7.66699 2 11c0 12.667 -11.667 19 -35 19h-98l50 202h128c60 0 90 -17.333 90 -52c0 -13.333 -3.33301 -32.333 -10 -57zM925 444l-39.0029 -188.004
c-137.333 0.666992 -237.666 -36.666 -300.999 -111.999c-80.667 -96 -170.667 -144 -270 -144h-359v201h371c44 0 97.667 14.333 161 43c57.333 25.333 86 42.333 86 51c0 6 -24 18.333 -72 37c-54 20.667 -99.333 31 -136 31c-44 0 -86.5 -15.167 -127.5 -45.5
s-60.5 -45.5 -58.5 -45.5c-2 1.33301 -3 4 -3 8c0 6.66699 3.83301 26.334 11.5 59.001s11.5 56.334 11.5 71.001c0 20.667 20 47.334 60 80.001c45.333 37.333 90 56 134 56c48.667 0 105.334 -11 170.001 -33c86 -30 129.667 -45 131 -45
c62.667 -13.333 139.334 -21.333 230.001 -24z" />
    <glyph glyph-name="uFEA8" unicode="&#x62e;" horiz-adv-x="985" arabic-form="medial" 
d="M504 812c-20.667 -73.333 -36.667 -127 -48 -161h-91l12 38c1.33301 4 2 7.66699 2 11c0 12.667 -11.667 19 -35 19h-98l50 202h128c60 0 90 -17.333 90 -52c0 -13.333 -3.33301 -32.333 -10 -57zM1024 0l-322.002 0.00390625c-98.667 0 -148 49.667 -148 149
c0 11.333 0.666992 24 2 38s2 21.667 2 23c0 3.33301 -0.666992 4.66602 -2 3.99902l-54 -64c-44 -50.667 -82.667 -86.334 -116 -107.001c-46 -28.667 -99 -43 -159 -43h-271v201h268c72.667 0 138.334 15 197.001 45c46 23.333 69 41 69 53c0 6 -24 18 -72 36
c-54 20.667 -99 31 -135 31c-44 0 -86.667 -14.833 -128 -44.5s-60.666 -44.5 -57.999 -44.5c-2.66699 0 -4 2.66699 -4 8c0 6.66699 3.83301 26.167 11.5 58.5s11.5 55.5 11.5 69.5c0 21.333 20 48.333 60 81c45.333 37.333 90.333 56 135 56c48.667 0 105 -11.333 169 -34
c84 -28.667 127.333 -43.334 130 -44.001c58 -12 135 -19.667 231 -23l-43 -193c-54.667 5.33301 -104 0.666016 -148 -14.001c-16.667 -6 -25 -13.667 -25 -23c0 -12 21 -18 63 -18h336v-201z" />
    <glyph glyph-name="uFEAA" unicode="&#x62f;" horiz-adv-x="926" arabic-form="final" 
d="M970 0h-108c-46.667 -0 -84.667 29.333 -114 88c-44 -58.667 -103.333 -88 -178 -88h-370l54 201h382c58 0 87 14.333 87 43c0 51.333 -41.167 104.666 -123.5 159.999s-159.833 83 -232.5 83l53 201c102.667 0 194.667 -40.333 276 -121c77.333 -76 116 -156 116 -240
c0 -33.333 5.83301 -62.666 17.5 -87.999s26.167 -38 43.5 -38h97v-201z" />
    <glyph glyph-name="uFEAC" unicode="&#x630;" horiz-adv-x="926" arabic-form="final" 
d="M699 946c-20 -73.333 -36 -126.667 -48 -160h-90l11 37c1.33301 4 2 7.66699 2 11c0 13.333 -11.333 20 -34 20h-99l51 201h127c60 0 90 -17.333 90 -52c0 -13.333 -3.33301 -32.333 -10 -57zM970 -0.000976562l-108 0.000976562c-46.667 -0 -84.667 29.333 -114 88
c-40.667 -58.667 -100 -88 -178 -88h-370l54 201h382c58 0 87 14.333 87 43c0 51.333 -41.167 104.666 -123.5 159.999s-159.833 83 -232.5 83l53 201c102.667 0 194.667 -40.333 276 -121c77.333 -76 116 -156 116 -240s20.333 -126 61 -126h97v-201z" />
    <glyph glyph-name="uFEAE" unicode="&#x631;" horiz-adv-x="674" arabic-form="final" 
d="M713 0l-134.998 0.00195312c0 -161.333 -86 -299 -258 -413c-106.667 -70.667 -213.334 -117.667 -320.001 -141l54 214c65.333 13.333 146.666 49.666 243.999 108.999c121.333 74 182 144.667 182 212c0 71.333 -57.667 138.666 -173 201.999l59 209
c19.333 -8 72.333 -54 159 -138c31.333 -35.333 61.333 -53 90 -53h98v-201z" />
    <glyph glyph-name="uFEB0" unicode="&#x632;" horiz-adv-x="674" arabic-form="final" 
d="M505 708c-20.667 -73.333 -36.667 -126.667 -48 -160h-91l12 37c1.33301 4 2 7.66699 2 11c0 13.333 -11.667 20 -35 20h-98l50 201h128c60 0 90 -17.333 90 -52c0 -13.333 -3.33301 -32.333 -10 -57zM713 -0.000976562l-134.998 0.00195312
c0 -161.333 -86 -299 -258 -413c-106.667 -70.667 -213.334 -117.667 -320.001 -141l54 214c65.333 13.333 146.666 49.666 243.999 108.999c121.333 74 182 144.667 182 212c0 71.333 -57.667 138.666 -173 201.999l59 209c19.333 -8 72.333 -54 159 -138
c31.333 -35.333 61.333 -53 90 -53h98v-201z" />
    <glyph glyph-name="uFEB2" unicode="&#x633;" horiz-adv-x="1760" arabic-form="final" 
d="M1804 0l-125 0.000976562c-50 0 -90.667 34.333 -122 103c-38.667 -70 -80 -105 -124 -105c-30.667 0 -57.167 9.83301 -79.5 29.5s-36.166 44.834 -41.499 75.501c-26 -68.667 -80.667 -103 -164 -103h-40c-20.667 -146.667 -87.334 -255.334 -200.001 -326.001
c-87.333 -55.333 -191.333 -83 -312 -83c-264 0 -396 118.667 -396 356c0 81.333 29 158 87 230c78 96 189.667 144 335 144c30 0 61 -2 93 -6l-52 -183c-19.333 2 -39.333 3 -60 3c-80 0 -149.333 -12.333 -208 -37c-63.333 -26.667 -95 -61.334 -95 -104.001
c0 -62 27.667 -111.667 83 -149c60 -40.667 144 -61 252 -61c100.667 0 191 20.667 271 62c85.333 42.667 128 94.667 128 156c0 62 -54 132 -162 210l56 197c54 -39.333 99.667 -87 137 -143c30 -44 47 -66 51 -66h53c77.333 0 116 43 116 129c0 44 11.667 66 35 66
c22.667 0 34 -21 34 -63c0 -87.333 32 -131 96 -131c68.667 0 103 46.667 103 140c0 40.667 11 61 33 61c24 0 36 -21.333 36 -64c0 -91.333 27.333 -137 82 -137h100v-201z" />
    <glyph glyph-name="uFEB3" unicode="&#x633;" horiz-adv-x="852" arabic-form="initial" 
d="M852 205c0 -52 -15.6699 -98 -47.0029 -138c-34 -44.667 -78 -67 -132 -67h-41c-61.333 0 -105.666 24.667 -132.999 74c-12 22 -18 36.333 -18 43c0 -24.667 -10 -48.667 -30 -72c-26 -30 -60 -45 -102 -45c-76 -0 -120.667 34.333 -134 103
c-26 -68.667 -61.667 -103 -107 -103h-154v201h156c22.667 0 43.334 9.33301 62.001 28c25.333 25.333 38 63.333 38 114c0 27.333 11.333 41 34 41c23.333 0 35 -14.333 35 -43c0 -48 4.66699 -81 14 -99c12.667 -27.333 38 -41 76 -41c38.667 0 64 14.333 76 43
c6 14.667 9 43.167 9 85.5s14.333 63.5 43 63.5c30 0 45 -21.333 45 -64c0 -57.333 11.667 -95 35 -113c12 -10 34.333 -15 67 -15h74c33.333 0 50 9.66699 50 29c0 17.333 -12.667 35.5 -38 54.5s-51.666 33.167 -78.999 42.5l58 177
c69.333 -45.333 113.333 -99.333 132 -162c7.33301 -25.333 11 -71 11 -137z" />
    <glyph glyph-name="uFEB4" unicode="&#x633;" horiz-adv-x="945" arabic-form="medial" 
d="M983 0h-160c-52.667 -0 -91 27.333 -115 82c-27.333 -54.667 -67 -82 -119 -82c-65.333 -0 -108 27.333 -128 82c-28.667 -54.667 -74 -82 -136 -82c-78.667 -0 -122 29.333 -130 88c-26 -58.667 -59.333 -88 -100 -88h-141v201h141c57.333 0 86 47.333 86 142
c0 27.333 11.333 41 34 41c23.333 0 35 -14.333 35 -43c0 -46 3.66699 -78.667 11 -98c12.667 -32.667 38.667 -49 78 -49c68.667 0 103 49 103 147c0 27.333 11.667 41 35 41c22.667 0 34 -14 34 -42c0 -97.333 33.667 -146 101 -146s101 47 101 141c0 30.667 12 46 36 46
s36 -16.333 36 -49c0 -43.333 2.66699 -73.333 8 -90c8.66699 -27.333 26.667 -41 54 -41h136v-201z" />
    <glyph glyph-name="uFEB6" unicode="&#x634;" horiz-adv-x="1760" arabic-form="final" 
d="M1463 924c-10.667 -38.667 -22.667 -77.333 -36 -116h-90l9 31c1.33301 4.66699 2 8.66699 2 12c0 12.667 -11.333 19 -34 19h-61l44 163h89c58.667 0 88 -16.667 88 -50c0 -14 -3.66699 -33.667 -11 -59zM1534 641.001c-20 -73.333 -34.333 -120.334 -43 -141.001h-90
l12 37c1.33301 4.66699 2 8.33398 2 11.001c0 13.333 -11.667 20 -35 20h-281l48 182h310c58.667 0 88 -16.667 88 -50c0 -14 -3.66699 -33.667 -11 -59zM1804 0l-124.998 0.000976562c-50 0 -90.667 34.333 -122 103c-38.667 -68.667 -80 -103 -124 -103
c-68.667 0 -109 34.333 -121 103c-26 -68.667 -80.667 -103 -164 -103h-40c-20.667 -146.667 -87.334 -256 -200.001 -328c-88 -56.667 -192 -85 -312 -85c-264 0 -396 120 -396 360c0 81.333 29 158 87 230c78 96 189.667 144 335 144c30 0 61 -2 93 -6l-52 -183
c-19.333 2 -39.333 3 -60 3c-80 0 -149.333 -12.333 -208 -37c-63.333 -26.667 -95 -61.334 -95 -104.001c0 -62 27.667 -111.667 83 -149c60 -40.667 144 -61 252 -61c100 0 188 20.667 264 62c79.333 42.667 119 94.667 119 156c0 62 -48.667 132 -146 210l56 197
c46 -34 83.333 -81.333 112 -142c21.333 -44 46.666 -66 75.999 -66h53c77.333 0 116 42.667 116 128c0 44 11.667 66 35 66c22.667 0 34 -21 34 -63c0 -87.333 32 -131 96 -131c68.667 0 103 46.667 103 140c0 40.667 11 61 33 61c24 0 36 -21.333 36 -64
c0 -91.333 27.333 -137 82 -137h100v-201z" />
    <glyph glyph-name="uFEB7" unicode="&#x634;" horiz-adv-x="852" arabic-form="initial" 
d="M852 205c0 -52 -15.6699 -98 -47.0029 -138c-34 -44.667 -78 -67 -132 -67h-41c-61.333 0 -105.666 24.667 -132.999 74c-12 22 -18 36.333 -18 43c0 -24.667 -10 -48.667 -30 -72c-26 -30 -60 -45 -102 -45c-76 -0 -120.667 34.333 -134 103
c-26 -68.667 -61.667 -103 -107 -103h-154v201h156c22.667 0 43.334 9.33301 62.001 28c25.333 25.333 38 63.333 38 114c0 27.333 11.333 41 34 41c23.333 0 35 -14.333 35 -43c0 -48 4.66699 -81 14 -99c12.667 -27.333 38 -41 76 -41c38.667 0 64 14.333 76 43
c6 14.667 9 43.167 9 85.5s14.333 63.5 43 63.5c30 0 45 -21.333 45 -64c0 -57.333 11.667 -95 35 -113c12 -10 34.333 -15 67 -15h74c33.333 0 50 9.66699 50 29c0 17.333 -12.667 35.5 -38 54.5s-51.666 33.167 -78.999 42.5l58 177
c69.333 -45.333 113.333 -99.333 132 -162c7.33301 -25.333 11 -71 11 -137zM603.997 924c-10.667 -38.667 -22.667 -77.333 -36 -116h-90l9 31c1.33301 4.66699 2 8.66699 2 12c0 12.667 -11.333 19 -34 19h-61l43 163h90c58.667 0 88 -16.667 88 -50
c0 -14 -3.66699 -33.667 -11 -59zM674.997 641.001c-20 -73.333 -34.333 -120.334 -43 -141.001h-90l12 37c0.666992 4.66699 1 8.33398 1 11.001c0 13.333 -11.333 20 -34 20h-281l48 182h310c58.667 0 88 -16.667 88 -50c0 -14 -3.66699 -33.667 -11 -59z" />
    <glyph glyph-name="uFEB8" unicode="&#x634;" horiz-adv-x="945" arabic-form="medial" 
d="M604 924c-10.667 -38.667 -22.667 -77.333 -36 -116h-90l9 31c1.33301 4.66699 2 8.66699 2 12c0 12.667 -11.333 19 -34 19h-61l43 163h90c58.667 0 88 -16.667 88 -50c0 -14 -3.66699 -33.667 -11 -59zM675 641.001c-20 -73.333 -34.333 -120.334 -43 -141.001h-90
l12 37c0.666992 4.66699 1 8.33398 1 11.001c0 13.333 -11.333 20 -34 20h-281l48 182h310c58.667 0 88 -16.667 88 -50c0 -14 -3.66699 -33.667 -11 -59zM983 0h-160c-52.667 -0 -91 27.333 -115 82c-27.333 -54.667 -67 -82 -119 -82c-65.333 -0 -108 27.333 -128 82
c-28.667 -54.667 -74 -82 -136 -82c-78.667 -0 -122 29.333 -130 88c-26 -58.667 -59.333 -88 -100 -88h-141v201h141c57.333 0 86 47.333 86 142c0 27.333 11.333 41 34 41c23.333 0 35 -14.333 35 -43c0 -46 3.66699 -78.667 11 -98c12.667 -32.667 38.667 -49 78 -49
c68.667 0 103 49 103 147c0 27.333 11.667 41 35 41c22.667 0 34 -14 34 -42c0 -97.333 33.667 -146 101 -146s101 47 101 141c0 30.667 12 46 36 46s36 -16.333 36 -49c0 -43.333 2.66699 -73.333 8 -90c8.66699 -27.333 26.667 -41 54 -41h136v-201z" />
    <glyph glyph-name="uFEBA" unicode="&#x635;" horiz-adv-x="1853" arabic-form="final" 
d="M1899 0h-143c-36 0 -71.333 14 -106 42c-51.333 -28 -107.333 -42 -168 -42h-363c-7.33301 -112.667 -57.333 -208.667 -150 -288c-100 -86.667 -227.333 -130 -382 -130c-258 0 -387 118.333 -387 355c0 106 38.333 196 115 270c82.667 80 191.667 120 327 120
c21.333 0 43 -1.33301 65 -4l-51 -190c-24.667 2.66699 -51.667 4 -81 4c-185.333 0 -278 -48.667 -278 -146c0 -55.333 23.667 -102.333 71 -141c57.333 -46.667 140 -70 248 -70c97.333 0 188.333 19.333 273 58c94.667 43.333 142 96.333 142 159
c0 67.333 -51.667 137.333 -155 210l48 183c48 -5.33301 109 -68.333 183 -189h71c44.667 98.667 103 179 175 241c76 65.333 154.333 98 235 98c60 0 109.333 -15 148 -45c44 -34 66 -82.333 66 -145c0 -49.333 -10.667 -99 -32 -149h129v-201zM1594 201
c58 0 87 18.668 87 56.001c0 23.333 -12.667 44.666 -38 63.999c-28 20.667 -63 31 -105 31c-68 0 -132.333 -20.333 -193 -61c-44 -30 -74.667 -60 -92 -90h341z" />
    <glyph glyph-name="uFEBB" unicode="&#x635;" horiz-adv-x="1013" arabic-form="initial" 
d="M1013 338c0 -83.333 -26.334 -157.667 -79.001 -223c-61.333 -76.667 -141.666 -115 -240.999 -115h-300c-94 -0 -153.667 38.333 -179 115c-24 -76.667 -68 -115 -132 -115h-129v201h153c42.667 0 70.667 14.333 84 43c7.33301 16.667 11 49.667 11 99
c0 43.333 14.667 65 44 65c26.667 0 40 -21.667 40 -65c0 -94.667 34.333 -142 103 -142c44.667 98.667 103 179 175 241c76 65.333 154.333 98 235 98c143.333 0 215 -67.333 215 -202zM804.999 200.999c58 0 87 18.667 87 56c0 23.333 -13 44.333 -39 63
c-28 21.333 -63 32 -105 32c-68 0 -132.333 -20.333 -193 -61c-44 -30 -74.667 -60 -92 -90h342z" />
    <glyph glyph-name="uFEBC" unicode="&#x635;" horiz-adv-x="1118" arabic-form="medial" 
d="M1156 0h-210.998c-36.667 0 -72.334 14 -107.001 42c-51.333 -28 -107 -42 -167 -42h-299c-94 -0 -153.667 38.333 -179 115c-24.667 -76.667 -69 -115 -133 -115h-107v201h130c44 0 72.333 14.333 85 43c7.33301 16.667 11 49.667 11 99c0 43.333 15 65 45 65
c26.667 0 40 -21.667 40 -65c0 -94.667 34 -142 102 -142c45.333 98.667 103.666 179 174.999 241c76 65.333 154.667 98 236 98c60 0 109.333 -15 148 -45c44 -34 66 -82.333 66 -145c0 -49.333 -10.667 -99 -32 -149h197v-201zM783.002 201
c58 0 87.001 18.668 87.001 56.001c0 23.333 -12.667 44.666 -38 63.999c-28.667 20.667 -63.667 31 -105 31c-68.667 0 -133.334 -20.333 -194.001 -61c-44.667 -30 -75 -60 -91 -90h341z" />
    <glyph glyph-name="uFEBE" unicode="&#x636;" horiz-adv-x="1899" arabic-form="final" 
d="M1701 785c-20 -73.333 -36 -126.667 -48 -160h-90l12 37c1.33301 4 2 7.66699 2 11c0 13.333 -11.667 20 -35 20h-99l51 201h128c60 0 90 -17.333 90 -52c0 -13.333 -3.66699 -32.333 -11 -57zM1943 -0.000976562h-187.001c-36 0 -71.333 14 -106 42
c-51.333 -28 -107.333 -42 -168 -42h-363c-7.33301 -108.667 -61.333 -204 -162 -286c-104.667 -84.667 -228 -127 -370 -127c-127.333 0 -224.666 32.333 -291.999 97c-63.333 60.667 -95 145 -95 253c0 106 38.333 196 115 270c82.667 80 191.667 120 327 120
c21.333 0 43 -1.33301 65 -4l-51 -190c-24.667 2.66699 -51.667 4 -81 4c-185.333 0 -278 -48.667 -278 -146c0 -55.333 23.667 -102.333 71 -141c57.333 -46.667 140 -70 248 -70c97.333 0 188.333 19.333 273 58c94.667 43.333 142 96.333 142 159
c0 67.333 -51.667 137.333 -155 210l48 183c48 -5.33301 109 -68.333 183 -189h71c44.667 98.667 103 179 175 241c76 65.333 154.333 98 235 98c60 0 109.333 -15 148 -45c44 -34 66 -82.333 66 -145c0 -49.333 -10.667 -99 -32 -149h173v-201zM1594 200.999
c58 0 87 18.668 87 56.001c0 23.333 -12.667 44.666 -38 63.999c-28 20.667 -63 31 -105 31c-68 0 -132.333 -20.333 -193 -61c-44 -30 -74.667 -60 -92 -90h341z" />
    <glyph glyph-name="uFEBF" unicode="&#x636;" horiz-adv-x="969" arabic-form="initial" 
d="M873 785c-20 -73.333 -36 -126.667 -48 -160h-90l11 37c1.33301 4 2 7.66699 2 11c0 13.333 -11.333 20 -34 20h-99l51 201h127c60 0 90 -17.333 90 -52c0 -13.333 -3.33301 -32.333 -10 -57zM969 337.999c0 -83.333 -26.334 -157.667 -79.001 -223
c-61.333 -76.667 -141.666 -115 -240.999 -115h-300c-94 0 -153.667 38.333 -179 115c-24 -76.667 -68 -115 -132 -115h-85v201h108c44 0 72.333 14.333 85 43c7.33301 16.667 11 49.667 11 99c0 43.333 14.667 65 44 65c26.667 0 40 -21.667 40 -65
c0 -94.667 34 -142 102 -142c45.333 98.667 104 179 176 241c76 65.333 154.667 98 236 98c142.667 0 214 -67.333 214 -202zM760.999 200.998c58 0 87.001 18.667 87.001 56c0 23.333 -13 44.333 -39 63c-28 21.333 -63 32 -105 32c-68 0 -132.333 -20.333 -193 -61
c-44.667 -30 -75.334 -60 -92.001 -90h342z" />
    </font>
</defs>
</svg>
