<?xml version="1.0" standalone="no"?>
<!DOCTYPE svg PUBLIC "-//W3C//DTD SVG 1.1//EN" "http://www.w3.org/Graphics/SVG/1.1/DTD/svg11.dtd" >
<svg>
<metadata>
Created by FontForge 20090914 at Wed Oct 19 02:03:36 2011
 By www-data
(c) by Abolfazl Seilsepour - +98 912 591 3420  -  seilsepor@yahoo.com
</metadata>
<defs>
<font id="Far.Zar" horiz-adv-x="0" >
  <font-face 
    font-family="Far.Zar"
    font-weight="400"
    font-stretch="normal"
    units-per-em="2048"
    panose-1="0 0 4 0 0 0 0 0 0 0"
    ascent="1638"
    descent="-410"
    bbox="-183 -1360 2161 1988"
    underline-thickness="60"
    underline-position="-970"
    unicode-range="U+0020-U+FEFC"
  />
<missing-glyph horiz-adv-x="1024" 
d="M128 0v1215h768v-1215h-768zM256 128h512v959h-512v-959z" />
    <glyph glyph-name="uE818" unicode="&#x651;&#x64b;" 
d="M449 1403c0 -28.667 -9.33398 -57.999 -28.001 -87.999c-22.667 -36.667 -50.667 -55 -84 -55c-14 0 -28.333 3.33301 -43 10c-37.333 -67.333 -82.333 -101 -135 -101c-21.333 0 -38 10.667 -50 32c-10.667 18 -16 38.333 -16 61c0 36.667 12.667 78 38 124
c4 7.33301 9 11.666 15 12.999c2.66699 -4 5.33398 -7.66699 8.00098 -11c-2 -19.333 -3 -36.333 -3 -51c0 -46.667 11 -70 33 -70c30 0 55.667 33.333 77 100s33 100 35 100c6 0 11.5 -17.667 16.5 -53s17.167 -53 36.5 -53c22 0 38.333 27.667 49 83s18 83 22 83
c19.333 0 29 -41.333 29 -124zM488.999 1731l-38 -97l-371 -181l37 89zM488.999 1901l-38 -97l-371 -181l37 89z" />
    <glyph glyph-name="uFC5E" unicode="&#x651;&#x64c;" arabic-form="isolated" 
d="M437 1403c0 -28 -9 -56.6641 -27 -85.9971c-22.667 -36 -50.334 -54 -83.001 -54c-13.333 0 -27.333 3 -42 9c-36.667 -66 -80.667 -99 -132 -99c-43.333 0 -65 30.667 -65 92c0 35.333 12.333 75.666 37 120.999c4 7.33301 9 11.666 15 12.999
c2.66699 -4 5.33398 -7.66699 8.00098 -11c-2 -18.667 -3 -35.334 -3 -50.001c0 -45.333 10.667 -68 32 -68c29.333 0 54.5 32.667 75.5 98s32.5 98 34.5 98c6 0 11.5 -17.333 16.5 -52s16.833 -52 35.5 -52c22 0 38.167 27 48.5 81s17.5 81 21.5 81
c18.667 0 28 -40.333 28 -121zM475 1854c0 -63.333 -21.332 -115.999 -63.999 -157.999l52 -23l-9 -87c-36.667 6 -71.334 24.333 -104.001 55c-88.667 -68 -171.667 -108 -249 -120l-52 35c48 27.333 73 62.333 75 105c1.33301 23.333 -1 37.333 -7 42
c-14.667 10.667 -41.334 5.66699 -80.001 -15l-1 30c36.667 38.667 68.334 58 95.001 58c39.333 0 59 -20.333 59 -61c0 -35.333 -12.333 -74 -37 -116c77.333 32 123.333 59.667 138 83c-27.333 27.333 -41 59.666 -41 96.999c0 29.333 18.833 63.5 56.5 102.5
s71.5 58.5 101.5 58.5c44.667 0 67 -28.667 67 -86zM390.001 1860c-12.667 0 -27.666 -6.33301 -44.999 -19c-19.333 -13.333 -29 -26 -29 -38c0 -11.333 5.5 -25.5 16.5 -42.5s21.833 -25.5 32.5 -25.5c13.333 0 24.666 13 33.999 39c7.33301 20 11 38.667 11 56
c0 20 -6.66699 30 -20 30z" />
    <glyph glyph-name="uFC5F" unicode="&#x651;&#x64d;" arabic-form="isolated" 
d="M449 1864c0 -28.667 -9.33398 -57.999 -28.001 -87.999c-22.667 -36.667 -50.667 -55 -84 -55c-14 0 -28.333 3.33301 -43 10c-37.333 -67.333 -82.333 -101 -135 -101c-21.333 0 -38 10.667 -50 32c-10.667 18 -16 38.333 -16 61c0 36.667 12.667 78 38 124
c4 7.33301 9 11.666 15 12.999c2.66699 -4 5.33398 -7.66699 8.00098 -11c-2 -19.333 -3 -36.333 -3 -51c0 -46.667 11 -70 33 -70c30 0 55.667 33.333 77 100s33 100 35 100c6 0 11.5 -17.667 16.5 -53s17.167 -53 36.5 -53c22 0 38.333 27.667 49 83s18 83 22 83
c19.333 0 29 -41.333 29 -124zM468.999 1672l-38 -97l-371 -181l37 89zM468.999 1512l-38 -97l-371 -181l37 89z" />
    <glyph glyph-name="uFC60" unicode="&#x651;&#x64e;" arabic-form="isolated" 
d="M430 1397c0 -28 -9 -56.6641 -27 -85.9971c-22.667 -36 -50.334 -54 -83.001 -54c-13.333 0 -27.333 3 -42 9c-36.667 -66 -80.667 -99 -132 -99c-43.333 0 -65 30.667 -65 92c0 35.333 12.333 75.666 37 120.999c4 7.33301 9 11.666 15 12.999
c2.66699 -4 5.33398 -7.66699 8.00098 -11c-2 -18.667 -3 -35.334 -3 -50.001c0 -45.333 10.667 -68 32 -68c29.333 0 54.5 32.667 75.5 98s32.5 98 34.5 98c6 0 11.5 -17.333 16.5 -52s16.833 -52 35.5 -52c22 0 38.167 27 48.5 81s17.5 81 21.5 81
c18.667 0 28 -40.333 28 -121zM476 1738l-38 -97l-371 -181l37 89z" />
    <glyph glyph-name="uFC61" unicode="&#x651;&#x64f;" arabic-form="isolated" 
d="M457 1427c0 -28.667 -9.33398 -57.999 -28.001 -87.999c-22.667 -36.667 -50.667 -55 -84 -55c-14 0 -28.333 3.33301 -43 10c-37.333 -67.333 -82.333 -101 -135 -101c-21.333 0 -38 10.667 -50 32c-10.667 18 -16 38.333 -16 61c0 36.667 12.667 78 38 124
c4 7.33301 9 11.666 15 12.999c2.66699 -4 5.33398 -7.66699 8.00098 -11c-2 -19.333 -3 -36.333 -3 -51c0 -46.667 11 -70 33 -70c30 0 55.667 33.333 77 100s33 100 35 100c6 0 11.5 -17.667 16.5 -53s17.167 -53 36.5 -53c22 0 38.333 27.667 49 83s18 83 22 83
c19.333 0 29 -41.333 29 -124zM491.999 1872c0 -61.333 -21.333 -113.668 -64 -157.001c11.333 -8.66699 28.333 -18 51 -28l-7 -85c-47.333 14.667 -85.333 35 -114 61c-87.333 -73.333 -174.666 -116.333 -261.999 -129c-30 4 -45.667 17 -47 39
c121.333 40 207.666 82.333 258.999 127c-30.667 29.333 -46 61 -46 95c0 30.667 19.167 65.834 57.5 105.501s72.5 59.5 102.5 59.5c46.667 0 70 -29.333 70 -88zM401.999 1878c-12 0 -27.167 -6.66797 -45.5 -20.001s-27.5 -25.666 -27.5 -36.999
c0 -12 5.5 -26.667 16.5 -44s22.167 -26 33.5 -26c12.667 0 23.667 13.333 33 40c7.33301 22 11 40.667 11 56c0 20.667 -7 31 -21 31z" />
    <glyph glyph-name="uFC62" unicode="&#x651;&#x650;" arabic-form="isolated" 
d="M441 1672c0 -28.667 -9.33398 -57.999 -28.001 -87.999c-22.667 -36.667 -50.667 -55 -84 -55c-14 0 -28.333 3.33301 -43 10c-37.333 -67.333 -82.333 -101 -135 -101c-21.333 0 -38 10.667 -50 32c-10.667 18 -16 38.333 -16 61c0 36.667 12.667 78 38 124
c4 7.33301 9 11.666 15 12.999c2.66699 -4 5.33398 -7.66699 8.00098 -11c-2 -19.333 -3 -36.333 -3 -51c0 -46.667 11 -70 33 -70c30 0 55.667 33.333 77 100s33 100 35 100c6 0 11.5 -17.667 16.5 -53s17.167 -53 36.5 -53c22 0 38.333 27.667 49 83s18 83 22 83
c19.333 0 29 -41.333 29 -124zM460.999 1480l-38 -97l-371 -181l37 89z" />
    <glyph glyph-name="uFDF2" unicode="&#xfedf;&#xfee0;&#xfeea;" horiz-adv-x="1181" arabic-form="isolated" 
d="M842 1226c0 -67.333 -8.99902 -101 -26.999 -101c-4 0 -8.33301 20.667 -13 62c-2.66699 25.333 -10 50.333 -22 75c13.333 14 30.666 26.667 51.999 38c6.66699 -25.333 10 -50 10 -74zM935.001 1068c3.33301 -99.333 -23 -149 -79 -149
c-21.333 0 -39.666 12 -54.999 36c-24.667 -52 -56.334 -78 -95.001 -78c-34 0 -51 18.667 -51 56c0 14 6 35.667 18 65c13.333 32.667 25.333 49 36 49c2.66699 -1.33301 4 -5 4 -11c0 -4.66699 -0.833008 -11.5 -2.5 -20.5s-2.5 -15.833 -2.5 -20.5
c0 -18 9.33301 -27 28 -27c16.667 0 32.667 16.333 48 49s25.333 49 30 49c2.66699 0 6.5 -12.333 11.5 -37s15.833 -37 32.5 -37c24 0 41 23 51 69c3.33301 14 9 21 17 21c6 0 9 -4.66699 9 -14zM1256 262c0 -62.667 -9.66992 -118.664 -29.0029 -167.997
c-25.333 -65.333 -63.666 -98 -114.999 -98c-75.333 0 -134.666 58 -177.999 174c-44.667 -118.667 -122 -178 -232 -178c-84 0 -148 49.333 -192 148c-35.333 -52.667 -66.333 -79 -93 -79c-50.667 0 -99 5.33301 -145 16c-55.333 12.667 -83 29 -83 49
c0 14 7.66699 42.167 23 84.5s27.333 68.166 36 77.499c60.667 64 139.334 110 236.001 138c-0.666992 34 -1 62.667 -1 86c0 24 0.333008 43.333 1 58l59 58c13.333 13.333 20 9.33301 20 -12c0 -66.667 7 -150 21 -250c18.667 -133.333 61.334 -200 128.001 -200
c37.333 0 72.333 9 105 27c39.333 21.333 59 49 59 83c0 19.333 -27.667 167.666 -83 444.999l53 89c9.33301 16 16 24 20 24c4.66699 0 8.66699 -9.33301 12 -28c14 -80 32 -174 54 -282c45.333 -220 110.666 -330 195.999 -330c33.333 0 50 16 50 48
c0 37.333 -38 196.666 -114 477.999l40 96c8 19.333 14 29 18 29s9.33301 -10.333 16 -31c22.667 -70.667 47 -163 73 -277c30 -132 45 -223.667 45 -275zM497.998 246.003c-3.33301 34 -6.00098 65.667 -8.00098 95c-36.667 0 -76 -15.333 -118 -46
c-37.333 -27.333 -56 -46.333 -56 -57c0 -9.33301 22 -13 66 -11c42.667 2 81.334 8.33301 116.001 19z" />
    <glyph glyph-name="uFEF5" unicode="&#xfedf;&#xfe82;" horiz-adv-x="1062" arabic-form="isolated" 
d="M1066 1122c-36.667 -28.667 -55.001 -71.666 -55.001 -128.999c0 -156.667 -10.333 -285.334 -31 -386.001c-17.333 -84 -49 -178.333 -95 -283c38 -91.333 57 -162 57 -212c0 -59.333 -32.667 -106.666 -98 -141.999c-20.667 -11.333 -74 -18.333 -160 -21
c-81.333 -2.66699 -136 -1 -164 5c-34.667 7.33301 -52 26.666 -52 57.999v118h95c26 0 66.667 26 122 78c52.667 50 79 84 79 102c0 17.333 -47.667 92 -143 224c-98.667 136.667 -179.667 237.667 -243 303c-25.333 -27.333 -44.666 -41 -57.999 -41
c-143.333 137.333 -215 215.666 -215 234.999c0 22 13 58.667 39 110c27.333 55.333 50 83 68 83c22.667 0 76 -46.667 160 -140c75.333 -83.333 145.333 -170 210 -260c118 -164 201 -295.667 249 -395c26 45.333 47 121 63 227c12.667 86 19 166 19 240
c0 77.333 -7 136.333 -21 177c-12 34.667 -9 64.334 9 89.001l58 81c10.667 15.333 21 15 31 -1zM843.999 132.001c0 36.667 -10 66 -30 88c-22.667 -30 -54.667 -61.333 -96 -94c68 0 110 2 126 6zM691.999 1511c-42 -56.667 -105.33 -98.668 -189.997 -126.001
c-66 -21.333 -135.667 -32 -209 -32c-18.667 0 -46 3.5 -82 10.5s-63.333 10.5 -82 10.5c-20.667 0 -33.334 -14.333 -38.001 -43c-2.66699 -18 -10.334 -27 -23.001 -27c-24 0 -44 11.667 -60 35c-14.667 20.667 -22 43.667 -22 69c0 58 31.333 86.667 94 86
c26 0 64.833 -4.5 116.5 -13.5s90.834 -13.5 117.501 -13.5c103.333 0 181.666 6.33301 234.999 19c23.333 5.33301 51.666 15 84.999 29c28.667 12 45.334 18 50.001 18c6 0 9.33301 -3 10 -9c1.33301 -5.33301 0.666016 -9.66602 -2.00098 -12.999z" />
    <glyph glyph-name="uFEF6" unicode="&#xfee0;&#xfe82;" horiz-adv-x="1242" arabic-form="final" 
d="M1272 1l-73 -0.000976562c-102.667 0 -168.334 76.667 -197.001 230c-8 42 -28 178.333 -60 409c-54 -368 -163 -600.333 -327 -697c-20.667 -12 -80.667 -25.333 -180 -40c-92.667 -13.333 -156.667 -19.333 -192 -18c-31.333 1.33301 -47 6 -47 14
c0 7.33301 12.667 15 38 23c124.667 40 245.667 103 363 189c106 77.333 159 134.333 159 171c0 48 -47.167 127 -141.5 237s-164.166 165 -209.499 165c-4 0 -17 -9 -39 -27l-33 -27c-20 0 -62.333 19 -127 57c-71.333 42 -107 76.667 -107 104c0 138.667 19 208 57 208
c59.333 0 147.666 -44 264.999 -132c220 -165.333 351 -328.333 393 -489c54 188.667 79.667 408 77 658c20.667 25.333 44.334 56 71.001 92c6.66699 8.66699 11.667 13.334 15 14.001c4 0 6.66699 -7.33301 8 -22l34 -432c20 -189.333 47 -331.333 81 -426
c24 -66.667 61.667 -100 113 -100h59v-161zM682 1311c-42 -56.667 -105.33 -98.668 -189.997 -126.001c-66 -21.333 -135.667 -32 -209 -32c-18.667 0 -46 3.5 -82 10.5s-63.333 10.5 -82 10.5c-20.667 0 -33.334 -14.333 -38.001 -43c-2.66699 -18 -10.334 -27 -23.001 -27
c-24 0 -44 11.667 -60 35c-14.667 20.667 -22 43.667 -22 69c0 58 31.333 86.667 94 86c26 0 64.833 -4.5 116.5 -13.5s90.834 -13.5 117.501 -13.5c103.333 0 181.666 6.33301 234.999 19c23.333 5.33301 51.666 15 84.999 29c28.667 12 45.334 18 50.001 18
c6 0 9.33301 -3 10 -9c1.33301 -5.33301 0.666016 -9.66602 -2.00098 -12.999z" />
    <glyph glyph-name="uFEF7" unicode="&#xfedf;&#xfe84;" horiz-adv-x="1062" arabic-form="isolated" 
d="M1066 1122c-36.667 -28.667 -55.001 -71.666 -55.001 -128.999c0 -156.667 -10.333 -285.334 -31 -386.001c-17.333 -84 -49 -178.333 -95 -283c38 -91.333 57 -162 57 -212c0 -59.333 -32.667 -106.666 -98 -141.999c-20.667 -11.333 -74 -18.333 -160 -21
c-81.333 -2.66699 -136 -1 -164 5c-34.667 7.33301 -52 26.666 -52 57.999v118h95c26 0 66.667 26 122 78c52.667 50 79 84 79 102c0 17.333 -47.667 92 -143 224c-98.667 136.667 -179.667 237.667 -243 303c-25.333 -27.333 -44.666 -41 -57.999 -41
c-143.333 137.333 -215 215.666 -215 234.999c0 22 13 58.667 39 110c27.333 55.333 50 83 68 83c22.667 0 76 -46.667 160 -140c75.333 -83.333 145.333 -170 210 -260c118 -164 201 -295.667 249 -395c26 45.333 47 121 63 227c12.667 86 19 166 19 240
c0 77.333 -7 136.333 -21 177c-12 34.667 -9 64.334 9 89.001l58 81c10.667 15.333 21 15 31 -1zM843.999 132.001c0 36.667 -10 66 -30 88c-22.667 -30 -54.667 -61.333 -96 -94c68 0 110 2 126 6zM440.999 1474c-11.333 -27.333 -24.332 -56.999 -38.999 -88.999
c-118.667 -17.333 -216 -41.333 -292 -72c2.66699 9.33301 6.66699 20 12 32c26.667 33.333 56.667 56 90 68c-50.667 32 -76 59.333 -76 82c0 34 17.667 71 53 111s69.666 60 102.999 60c40 0 60 -16.667 60 -50c0 -34 -7 -59.667 -21 -77
c-5.33301 -6.66699 -10.333 -5.33398 -15 3.99902c-13.333 29.333 -37 44 -71 44c-25.333 0 -38 -12.333 -38 -37c0 -22 14.667 -43.333 44 -64c27.333 -20 52.333 -30 75 -30c16.667 0 55 6 115 18z" />
    <glyph glyph-name="uFEF8" unicode="&#xfee0;&#xfe84;" horiz-adv-x="1242" arabic-form="final" 
d="M1272 1l-73 -0.000976562c-102.667 0 -168.334 76.667 -197.001 230c-8 42 -28 178.333 -60 409c-54 -368 -163 -600.333 -327 -697c-20.667 -12 -80.667 -25.333 -180 -40c-92.667 -13.333 -156.667 -19.333 -192 -18c-31.333 1.33301 -47 6 -47 14
c0 7.33301 12.667 15 38 23c124.667 40 245.667 103 363 189c106 77.333 159 134.333 159 171c0 48 -47.167 127 -141.5 237s-164.166 165 -209.499 165c-4 0 -17 -9 -39 -27l-33 -27c-20 0 -62.333 19 -127 57c-71.333 42 -107 76.667 -107 104c0 138.667 19 208 57 208
c59.333 0 147.666 -44 264.999 -132c220 -165.333 351 -328.333 393 -489c54 188.667 79.667 408 77 658c20.667 25.333 44.334 56 71.001 92c6.66699 8.66699 11.667 13.334 15 14.001c4 0 6.66699 -7.33301 8 -22l34 -432c20 -189.333 47 -331.333 81 -426
c24 -66.667 61.667 -100 113 -100h59v-161zM372 1263c-11.333 -27.333 -24.332 -56.999 -38.999 -88.999c-118.667 -17.333 -216 -41.333 -292 -72c2.66699 9.33301 6.66699 20 12 32c26.667 33.333 56.667 56 90 68c-50.667 32 -76 59.333 -76 82c0 34 17.667 71 53 111
s69.666 60 102.999 60c40 0 60 -16.667 60 -50c0 -34 -7 -59.667 -21 -77c-5.33301 -6.66699 -10.333 -5.33398 -15 3.99902c-13.333 29.333 -37 44 -71 44c-25.333 0 -38 -12.333 -38 -37c0 -22 14.667 -43.333 44 -64c27.333 -20 52.333 -30 75 -30c16.667 0 55 6 115 18z
" />
    <glyph glyph-name="uFEF9" unicode="&#xfedf;&#xfe88;" horiz-adv-x="1062" arabic-form="isolated" 
d="M1066 1122c-36.667 -28.667 -55.001 -71.666 -55.001 -128.999c0 -156.667 -10.333 -285.334 -31 -386.001c-17.333 -84 -49 -178.333 -95 -283c38 -91.333 57 -162 57 -212c0 -59.333 -32.667 -106.666 -98 -141.999c-20.667 -11.333 -74 -18.333 -160 -21
c-81.333 -2.66699 -136 -1 -164 5c-34.667 7.33301 -52 26.666 -52 57.999v118h95c26 0 66.667 26 122 78c52.667 50 79 84 79 102c0 17.333 -47.667 92 -143 224c-98.667 136.667 -179.667 237.667 -243 303c-25.333 -27.333 -44.666 -41 -57.999 -41
c-143.333 137.333 -215 215.666 -215 234.999c0 22 13 58.667 39 110c27.333 55.333 50 83 68 83c22.667 0 76 -46.667 160 -140c75.333 -83.333 145.333 -170 210 -260c118 -164 201 -295.667 249 -395c26 45.333 47 121 63 227c12.667 86 19 166 19 240
c0 77.333 -7 136.333 -21 177c-12 34.667 -9 64.334 9 89.001l58 81c10.667 15.333 21 15 31 -1zM843.999 132.001c0 36.667 -10 66 -30 88c-22.667 -30 -54.667 -61.333 -96 -94c68 0 110 2 126 6zM522.999 -255.999c-11.333 -27.333 -24.332 -56.999 -38.999 -88.999
c-118.667 -17.333 -216 -41.333 -292 -72c2.66699 9.33301 6.66699 20 12 32c26.667 33.333 56.667 56 90 68c-50.667 32 -76 59.333 -76 82c0 34 17.667 71 53 111s69.666 60 102.999 60c40 0 60 -16.667 60 -50c0 -34 -7 -59.667 -21 -77
c-5.33301 -6.66699 -10.333 -5.33398 -15 3.99902c-13.333 29.333 -37 44 -71 44c-25.333 0 -38 -12.333 -38 -37c0 -22 14.667 -43.333 44 -64c27.333 -20 52.333 -30 75 -30c16.667 0 55 6 115 18z" />
    <glyph glyph-name="uFEFA" unicode="&#xfee0;&#xfe88;" horiz-adv-x="1242" arabic-form="final" 
d="M1272 1l-73 -0.000976562c-102.667 0 -168.334 76.667 -197.001 230c-8 42 -28 178.333 -60 409c-54 -368 -163 -600.333 -327 -697c-20.667 -12 -80.667 -25.333 -180 -40c-92.667 -13.333 -156.667 -19.333 -192 -18c-31.333 1.33301 -47 6 -47 14
c0 7.33301 12.667 15 38 23c124.667 40 245.667 103 363 189c106 77.333 159 134.333 159 171c0 48 -47.167 127 -141.5 237s-164.166 165 -209.499 165c-4 0 -17 -9 -39 -27l-33 -27c-20 0 -62.333 19 -127 57c-71.333 42 -107 76.667 -107 104c0 138.667 19 208 57 208
c59.333 0 147.666 -44 264.999 -132c220 -165.333 351 -328.333 393 -489c54 188.667 79.667 408 77 658c20.667 25.333 44.334 56 71.001 92c6.66699 8.66699 11.667 13.334 15 14.001c4 0 6.66699 -7.33301 8 -22l34 -432c20 -189.333 47 -331.333 81 -426
c24 -66.667 61.667 -100 113 -100h59v-161zM397 -389.001c-11.333 -27.333 -24.332 -56.999 -38.999 -88.999c-118.667 -17.333 -216 -41.333 -292 -72c2.66699 9.33301 6.66699 20 12 32c26.667 33.333 56.667 56 90 68c-50.667 32 -76 59.333 -76 82
c0 34 17.667 71 53 111s69.666 60 102.999 60c40 0 60 -16.667 60 -50c0 -34 -7 -59.667 -21 -77c-5.33301 -6.66699 -10.333 -5.33398 -15 3.99902c-13.333 29.333 -37 44 -71 44c-25.333 0 -38 -12.333 -38 -37c0 -22 14.667 -43.333 44 -64c27.333 -20 52.333 -30 75 -30
c16.667 0 55 6 115 18z" />
    <glyph glyph-name="uFEFB" unicode="&#xfedf;&#xfe8e;" horiz-adv-x="1062" arabic-form="isolated" 
d="M1066 1122c-36.667 -28.667 -55.001 -71.666 -55.001 -128.999c0 -156.667 -10.333 -285.334 -31 -386.001c-17.333 -84 -49 -178.333 -95 -283c38 -91.333 57 -162 57 -212c0 -59.333 -32.667 -106.666 -98 -141.999c-20.667 -11.333 -74 -18.333 -160 -21
c-81.333 -2.66699 -136 -1 -164 5c-34.667 7.33301 -52 26.666 -52 57.999v118h95c26 0 66.667 26 122 78c52.667 50 79 84 79 102c0 17.333 -47.667 92 -143 224c-98.667 136.667 -179.667 237.667 -243 303c-25.333 -27.333 -44.666 -41 -57.999 -41
c-143.333 137.333 -215 215.666 -215 234.999c0 22 13 58.667 39 110c27.333 55.333 50 83 68 83c22.667 0 76 -46.667 160 -140c75.333 -83.333 145.333 -170 210 -260c118 -164 201 -295.667 249 -395c26 45.333 47 121 63 227c12.667 86 19 166 19 240
c0 77.333 -7 136.333 -21 177c-12 34.667 -9 64.334 9 89.001l58 81c10.667 15.333 21 15 31 -1zM843.999 132.001c0 36.667 -10 66 -30 88c-22.667 -30 -54.667 -61.333 -96 -94c68 0 110 2 126 6z" />
    <glyph glyph-name="uFEFC" unicode="&#xfee0;&#xfe8e;" horiz-adv-x="1242" arabic-form="final" 
d="M1272 1l-73 -0.000976562c-102.667 0 -168.334 76.667 -197.001 230c-8 42 -28 178.333 -60 409c-54 -368 -163 -600.333 -327 -697c-20.667 -12 -80.667 -25.333 -180 -40c-92.667 -13.333 -156.667 -19.333 -192 -18c-31.333 1.33301 -47 6 -47 14
c0 7.33301 12.667 15 38 23c124.667 40 245.667 103 363 189c106 77.333 159 134.333 159 171c0 48 -47.167 127 -141.5 237s-164.166 165 -209.499 165c-4 0 -17 -9 -39 -27l-33 -27c-20 0 -62.333 19 -127 57c-71.333 42 -107 76.667 -107 104c0 138.667 19 208 57 208
c59.333 0 147.666 -44 264.999 -132c220 -165.333 351 -328.333 393 -489c54 188.667 79.667 408 77 658c20.667 25.333 44.334 56 71.001 92c6.66699 8.66699 11.667 13.334 15 14.001c4 0 6.66699 -7.33301 8 -22l34 -432c20 -189.333 47 -331.333 81 -426
c24 -66.667 61.667 -100 113 -100h59v-161z" />
    <glyph glyph-name="u0652_u064E.liga" unicode="&#x652;&#x64e;" horiz-adv-x="1" 
d="M233 969c0.666992 -2 1 -5 1 -9c0 -30 -9.66699 -56 -29 -78c-2 -2 -5 -3 -9 -3s-5.66699 1.66699 -5 5c3.33301 25.333 0.333008 65.333 -9 120c-3.33301 16 -8.66602 44.333 -15.999 85c-4.66699 26 -7.33398 50.667 -8.00098 74c0 4 5.66699 12 17 24
c17.333 18.667 29.333 28 36 28c4 0 5.33301 -4.33301 4 -13c-1.33301 -9.33301 -2 -20.333 -2 -33c0 -32 6.66699 -98.667 20 -200z" />
    <glyph glyph-name="u0652_u064B.liga" unicode="&#x652;&#x64b;" horiz-adv-x="1" 
d="M547 803l-79 -121l-123 81l-65 -101l-129 89l82 129l120 -81l61 95z" />
    <glyph glyph-name="u0652_u064D.liga" unicode="&#x652;&#x64d;" horiz-adv-x="1" 
d="M809 -702l-79 -121l-123 81l-65 -101l-129 89l82 129l120 -81l61 95z" />
    <glyph glyph-name="u0622" unicode="&#x622;" horiz-adv-x="753" arabic-form="isolated" 
d="M542 298c0.666992 -8.66699 1 -18.6689 1 -30.002c0 -102 -19.333 -190 -58 -264c-4 -7.33301 -10 -10.666 -18 -9.99902s-11.667 6.33398 -11 17.001c7.33301 84 1.33301 218.667 -18 404l-32 288c-9.33301 87.333 -14.333 170.666 -15 249.999
c0 12.667 11.333 39.334 34 80.001c35.333 62.667 59 94 71 94c8.66699 0 11.667 -15 9 -45s-4 -66.333 -4 -109c0 -108 13.667 -333 41 -675zM830 1351c-42 -56.667 -105.33 -98.668 -189.997 -126.001c-66 -21.333 -135.667 -32 -209 -32c-18.667 0 -46 3.5 -82 10.5
s-63.333 10.5 -82 10.5c-20.667 0 -33.334 -14.333 -38.001 -43c-2.66699 -18 -10.334 -27 -23.001 -27c-24 0 -44 11.667 -60 35c-14.667 20.667 -22 43.667 -22 69c0 58 31.333 86.667 94 86c26 0 64.833 -4.5 116.5 -13.5s90.834 -13.5 117.501 -13.5
c103.333 0 181.666 6.33301 234.999 19c23.333 5.33301 51.666 15 84.999 29c28.667 12 45.334 18 50.001 18c6 0 9.33301 -3 10 -9c1.33301 -5.33301 0.666016 -9.66602 -2.00098 -12.999z" />
    <glyph glyph-name="u0623" unicode="&#x623;" horiz-adv-x="470" arabic-form="isolated" 
d="M392 298c0.666992 -8.66699 1 -18.6689 1 -30.002c0 -102 -19.333 -190 -58 -264c-4 -7.33301 -10 -10.666 -18 -9.99902s-11.667 6.33398 -11 17.001c7.33301 84 1.33301 218.667 -18 404l-32 288c-9.33301 87.333 -14.333 170.666 -15 249.999
c0 12.667 11.333 39.334 34 80.001c35.333 62.667 59 94 71 94c8.66699 0 11.667 -15 9 -45s-4 -66.333 -4 -109c0 -108 13.667 -333 41 -675zM489 1345c-11.333 -27.333 -24.332 -56.999 -38.999 -88.999c-118.667 -17.333 -216 -41.333 -292 -72
c2.66699 9.33301 6.66699 20 12 32c26.667 33.333 56.667 56 90 68c-50.667 32 -76 59.333 -76 82c0 34 17.667 71 53 111s69.666 60 102.999 60c40 0 60 -16.667 60 -50c0 -34 -7 -59.667 -21 -77c-5.33301 -6.66699 -10.333 -5.33398 -15 3.99902
c-13.333 29.333 -37 44 -71 44c-25.333 0 -38 -12.333 -38 -37c0 -22 14.667 -43.333 44 -64c27.333 -20 52.333 -30 75 -30c16.667 0 55 6 115 18z" />
    <glyph glyph-name="u0624" unicode="&#x624;" horiz-adv-x="790" arabic-form="isolated" 
d="M788 204c0 -130.667 -44.334 -259.336 -133.001 -386.003c-96.667 -138 -208 -207 -334 -207c-58.667 0 -127.667 27 -207 81c-16.667 11.333 -25 21.333 -25 30c0 10.667 9.66699 14.334 29 11.001c72.667 -11.333 139.334 -11.666 200.001 -0.999023
c76.667 14 160.667 63 252 147c94.667 87.333 144.667 168.333 150 243c-54 -34 -97.667 -51 -131 -51c-42 0 -76.333 15.667 -103 47c-24.667 29.333 -37 65.666 -37 108.999c0 50.667 18 112.334 54 185.001c41.333 83.333 84 125 128 125c54 0 95.667 -44.667 125 -134
c21.333 -65.333 32 -131.666 32 -198.999zM685.999 261.998c-4 24 -13.667 46.667 -29 68c-18 25.333 -38 38 -60 38c-15.333 0 -29 -7.33301 -41 -22s-18 -29.667 -18 -45c0 -41.333 23.667 -62 71 -62c26 0 51.667 7.66699 77 23zM783.999 834.998
c-11.333 -27.333 -24.332 -56.999 -38.999 -88.999c-118.667 -17.333 -216 -41.333 -292 -72c2.66699 9.33301 6.66699 20 12 32c26.667 33.333 56.667 56 90 68c-50.667 32 -76 59.333 -76 82c0 34 17.667 71 53 111s69.666 60 102.999 60c40 0 60 -16.667 60 -50
c0 -34 -7 -59.667 -21 -77c-5.33301 -6.66699 -10.333 -5.33398 -15 3.99902c-13.333 29.333 -37 44 -71 44c-25.333 0 -38 -12.333 -38 -37c0 -22 14.667 -43.333 44 -64c27.333 -20 52.333 -30 75 -30c16.667 0 55 6 115 18z" />
    <glyph glyph-name="u0625" unicode="&#x625;" horiz-adv-x="490" arabic-form="isolated" 
d="M412 298c0.666992 -8.66699 1 -18.6689 1 -30.002c0 -102 -19.333 -190 -58 -264c-4 -7.33301 -10 -10.666 -18 -9.99902s-11.667 6.33398 -11 17.001c7.33301 84 1.33301 218.667 -18 404l-32 288c-9.33301 87.333 -14.333 170.666 -15 249.999
c0 12.667 11.333 39.334 34 80.001c35.333 62.667 59 94 71 94c8.66699 0 11.667 -15 9 -45s-4 -66.333 -4 -109c0 -108 13.667 -333 41 -675zM520 -329.002c-11.333 -27.333 -24.332 -56.999 -38.999 -88.999c-118.667 -17.333 -216 -41.333 -292 -72
c2.66699 9.33301 6.66699 20 12 32c26.667 33.333 56.667 56 90 68c-50.667 32 -76 59.333 -76 82c0 34 17.667 71 53 111s69.666 60 102.999 60c40 0 60 -16.667 60 -50c0 -34 -7 -59.667 -21 -77c-5.33301 -6.66699 -10.333 -5.33398 -15 3.99902
c-13.333 29.333 -37 44 -71 44c-25.333 0 -38 -12.333 -38 -37c0 -22 14.667 -43.333 44 -64c27.333 -20 52.333 -30 75 -30c16.667 0 55 6 115 18z" />
    <glyph glyph-name="u0626" unicode="&#x626;" horiz-adv-x="1306" arabic-form="isolated" 
d="M1305 615c0 -15.333 -4.6709 -40.6641 -14.0039 -75.9971s-15.666 -53 -18.999 -53c-2 0 -18 5.66699 -48 17s-53.333 17 -70 17c-68 0 -139 -28.667 -213 -86c-70 -54.667 -105 -102.667 -105 -144c0 -49.333 36.667 -81 110 -95l206 -33
c73.333 -12 110 -36.333 110 -73c0 -100 -27.333 -177.667 -82 -233c-38.667 -38.667 -113 -81.334 -223 -128.001c-145.333 -61.333 -281 -92 -407 -92c-103.333 0 -187 22.667 -251 68c-72 52 -108 128 -108 228c0 151.333 48.333 295 145 431
c9.33301 13.333 17.333 20 24 20c4.66699 0 7 -3.33301 7 -10c0 -5.33301 -1.33301 -10.666 -4 -15.999c-64 -131.333 -96 -232.333 -96 -303c0 -80.667 34.333 -144.334 103 -191.001c58.667 -40 127.667 -60 207 -60c158.667 0 307.334 30.667 446.001 92
c102 45.333 153 77.666 153 96.999c0 8 -73 21.333 -219 40c-71.333 9.33301 -121.333 25.666 -150 48.999c-34 28 -51 76 -51 144c0 84 51.333 182 154 294s195.334 168 278.001 168c20.667 0 43.334 -5.33301 68.001 -16c32.667 -14 49 -32.667 49 -56zM581.996 633.002
c-11.333 -27.333 -24.332 -56.999 -38.999 -88.999c-118.667 -17.333 -216 -41.333 -292 -72c2.66699 9.33301 6.66699 20 12 32c26.667 33.333 56.667 56 90 68c-50.667 32 -76 59.333 -76 82c0 34 17.667 71 53 111s69.666 60 102.999 60c40 0 60 -16.667 60 -50
c0 -34 -7 -59.667 -21 -77c-5.33301 -6.66699 -10.333 -5.33398 -15 3.99902c-13.333 29.333 -37 44 -71 44c-25.333 0 -38 -12.333 -38 -37c0 -22 14.667 -43.333 44 -64c27.333 -20 52.333 -30 75 -30c16.667 0 55 6 115 18z" />
    <glyph glyph-name="u0627" unicode="&#x627;" horiz-adv-x="343" arabic-form="isolated" 
d="M342 298c0.666992 -8.66699 1 -18.6689 1 -30.002c0 -102 -19.333 -190 -58 -264c-4 -7.33301 -10 -10.666 -18 -9.99902s-11.667 6.33398 -11 17.001c7.33301 84 1.33301 218.667 -18 404l-32 288c-9.33301 87.333 -14.333 170.666 -15 249.999
c0 12.667 11.333 39.334 34 80.001c35.333 62.667 59 94 71 94c8.66699 0 11.667 -15 9 -45s-4 -66.333 -4 -109c0 -108 13.667 -333 41 -675z" />
    <glyph glyph-name="u0628" unicode="&#x628;" horiz-adv-x="1577" arabic-form="isolated" 
d="M1576 362c0 -36 -10.667 -80 -32 -132c-18 -44 -32.667 -71.333 -44 -82c-41.333 -39.333 -140.333 -79 -297 -119c-178 -45.333 -354 -68 -528 -68c-125.333 0 -229.666 18.333 -312.999 55c-114 50 -171 130 -171 240c0 80.667 28.333 153.667 85 219
c7.33301 8.66699 14 13 20 13s9 -4 9 -12c0 -5.33301 -1.66699 -11.333 -5 -18c-21.333 -40.667 -32 -81.334 -32 -122.001c0 -81.333 66 -140.333 198 -177c86 -24 183 -36 291 -36c174.667 0 347 22.333 517 67c154.667 40.667 232 75.334 232 104.001
c0 29.333 -29.333 78.666 -88 147.999l66 134c9.33301 18.667 18.666 19.334 27.999 2.00098c42.667 -77.333 64 -149.333 64 -216zM1064 -420l-92 -137l-134 91l95 138z" />
    <glyph glyph-name="u0629" unicode="&#x629;" horiz-adv-x="604" arabic-form="isolated" 
d="M602 310c3.33301 -27.333 2.66699 -64.999 -2 -112.999c-5.33301 -53.333 -14 -89 -26 -107c-40.667 -60 -116.667 -90 -228 -90c-34.667 0 -66.667 11.667 -96 35c-39.333 31.333 -59 75.666 -59 132.999c0 70.667 26 151.667 78 243c47.333 83.333 82.333 125 105 125
c56.667 0 107.667 -23.667 153 -71c42.667 -45.333 67.667 -97 75 -155zM530.001 230.001c0 21.333 -15.333 44.667 -46 70c-38 32 -86.667 48 -146 48c-12.667 0 -26.667 -17.333 -42 -52c-13.333 -30.667 -20 -54 -20 -70c0 -40 30.667 -60 92 -60c34 0 67.667 5 101 15
c40.667 12 61 28.333 61 49zM544.001 895.002c-11.333 -27.333 -24.332 -56.999 -38.999 -88.999c-118.667 -17.333 -216 -41.333 -292 -72c2.66699 9.33301 6.66699 20 12 32c26.667 33.333 56.667 56 90 68c-50.667 32 -76 59.333 -76 82c0 34 17.667 71 53 111
s69.666 60 102.999 60c40 0 60 -16.667 60 -50c0 -34 -7 -59.667 -21 -77c-5.33301 -6.66699 -10.333 -5.33398 -15 3.99902c-13.333 29.333 -37 44 -71 44c-25.333 0 -38 -12.333 -38 -37c0 -22 14.667 -43.333 44 -64c27.333 -20 52.333 -30 75 -30c16.667 0 55 6 115 18z
" />
    <glyph glyph-name="u062A" unicode="&#x62a;" horiz-adv-x="1577" arabic-form="isolated" 
d="M1576 362c0 -36 -10.667 -80 -32 -132c-18 -44 -32.667 -71.333 -44 -82c-41.333 -39.333 -140.333 -79 -297 -119c-178 -45.333 -354 -68 -528 -68c-125.333 0 -229.666 18.333 -312.999 55c-114 50 -171 130 -171 240c0 80.667 28.333 153.667 85 219
c7.33301 8.66699 14 13 20 13s9 -4 9 -12c0 -5.33301 -1.66699 -11.333 -5 -18c-21.333 -40.667 -32 -81.334 -32 -122.001c0 -81.333 66 -140.333 198 -177c86 -24 183 -36 291 -36c174.667 0 347 22.333 517 67c154.667 40.667 232 75.334 232 104.001
c0 29.333 -29.333 78.666 -88 147.999l66 134c9.33301 18.667 18.666 19.334 27.999 2.00098c42.667 -77.333 64 -149.333 64 -216zM1037 798l-79 -121l-123 81l-65 -101l-129 89l82 129l120 -81l61 95z" />
    <glyph glyph-name="u062B" unicode="&#x62b;" horiz-adv-x="1577" arabic-form="isolated" 
d="M1576 362c0 -36 -10.667 -80 -32 -132c-18 -44 -32.667 -71.333 -44 -82c-41.333 -39.333 -140.333 -79 -297 -119c-178 -45.333 -354 -68 -528 -68c-125.333 0 -229.666 18.333 -312.999 55c-114 50 -171 130 -171 240c0 80.667 28.333 153.667 85 219
c7.33301 8.66699 14 13 20 13s9 -4 9 -12c0 -5.33301 -1.66699 -11.333 -5 -18c-21.333 -40.667 -32 -81.334 -32 -122.001c0 -81.333 66 -140.333 198 -177c86 -24 183 -36 291 -36c174.667 0 347 22.333 517 67c154.667 40.667 232 75.334 232 104.001
c0 29.333 -29.333 78.666 -88 147.999l66 134c9.33301 18.667 18.666 19.334 27.999 2.00098c42.667 -77.333 64 -149.333 64 -216zM897 994l-81 -112l-118 78l79 122zM1031 799l-78 -119l-118 74l-65 -92l-121 78l84 126l116 -74l57 87z" />
    <glyph glyph-name="u062C" unicode="&#x62c;" horiz-adv-x="1210" arabic-form="isolated" 
d="M1384 -714c-96.667 -44 -207.668 -90.999 -333.001 -140.999c-60 -14 -138.333 -21 -235 -21c-188 0 -335.667 39.333 -443 118c-123.333 90 -185 225.667 -185 407c0 161.333 55 304.333 165 429c82 92.667 177 160.667 285 204c-101.333 18 -176.666 27 -225.999 27
c-62 0 -106.667 -6.66699 -134 -20c-10 -4.66699 -17 -5.33398 -21 -2.00098c-4.66699 4 -5.66699 12.333 -3 25c22.667 114 95 171 217 171c58 0 144.333 -8 259 -24s201 -24 259 -24h171c9.33301 0 13.333 -2.66699 12 -8l-2 -4l-67 -136c-77.333 0 -158 -9 -242 -27
c-145.333 -31.333 -271 -84.666 -377 -159.999c-146.667 -104.667 -220 -233.334 -220 -386.001c0 -155.333 81.333 -270.666 244 -345.999c123.333 -57.333 272 -86 446 -86c156 0 297.333 11.333 424 34c18 3.33301 27 0 27 -10c0 -6.66699 -7 -13.334 -21 -20.001z
M843.999 -249.999l-92 -137l-134 91l95 138z" />
    <glyph glyph-name="u062D" unicode="&#x62d;" horiz-adv-x="1210" arabic-form="isolated" 
d="M1384 -714c-96.667 -44 -207.668 -90.999 -333.001 -140.999c-60 -14 -138.333 -21 -235 -21c-188 0 -335.667 39.333 -443 118c-123.333 90 -185 225.667 -185 407c0 161.333 55 304.333 165 429c82 92.667 177 160.667 285 204c-101.333 18 -176.666 27 -225.999 27
c-62 0 -106.667 -6.66699 -134 -20c-10 -4.66699 -17 -5.33398 -21 -2.00098c-4.66699 4 -5.66699 12.333 -3 25c22.667 114 95 171 217 171c58 0 144.333 -8 259 -24s201 -24 259 -24h171c9.33301 0 13.333 -2.66699 12 -8l-2 -4l-67 -136c-77.333 0 -158 -9 -242 -27
c-145.333 -31.333 -271 -84.666 -377 -159.999c-146.667 -104.667 -220 -233.334 -220 -386.001c0 -155.333 81.333 -270.666 244 -345.999c123.333 -57.333 272 -86 446 -86c156 0 297.333 11.333 424 34c18 3.33301 27 0 27 -10c0 -6.66699 -7 -13.334 -21 -20.001z" />
    <glyph glyph-name="u062E" unicode="&#x62e;" horiz-adv-x="1210" arabic-form="isolated" 
d="M1384 -714c-96.667 -44 -207.668 -90.999 -333.001 -140.999c-60 -14 -138.333 -21 -235 -21c-188 0 -335.667 39.333 -443 118c-123.333 90 -185 225.667 -185 407c0 161.333 55 304.333 165 429c82 92.667 177 160.667 285 204c-101.333 18 -176.666 27 -225.999 27
c-62 0 -106.667 -6.66699 -134 -20c-10 -4.66699 -17 -5.33398 -21 -2.00098c-4.66699 4 -5.66699 12.333 -3 25c22.667 114 95 171 217 171c58 0 144.333 -8 259 -24s201 -24 259 -24h171c9.33301 0 13.333 -2.66699 12 -8l-2 -4l-67 -136c-77.333 0 -158 -9 -242 -27
c-145.333 -31.333 -271 -84.666 -377 -159.999c-146.667 -104.667 -220 -233.334 -220 -386.001c0 -155.333 81.333 -270.666 244 -345.999c123.333 -57.333 272 -86 446 -86c156 0 297.333 11.333 424 34c18 3.33301 27 0 27 -10c0 -6.66699 -7 -13.334 -21 -20.001z
M758.999 845.001l-92 -137l-134 91l95 138z" />
    <glyph glyph-name="u062F" unicode="&#x62f;" horiz-adv-x="757" arabic-form="isolated" 
d="M756 275c0 -83.333 -14.501 -142.002 -43.501 -176.002s-85.167 -59.667 -168.5 -77c-66.667 -14 -132.667 -21 -198 -21c-44.667 0 -91 5.33301 -139 16c-12.667 2.66699 -17.667 10.334 -15 23.001l28 128c0.666992 8 8 10.333 22 7c35.333 -8.66699 68 -13 98 -13
c62.667 0 131.334 8 206.001 24c94 20 141 46 141 78c0 36.667 -38.333 84 -115 142c-70 52.667 -134.667 89.334 -194 110.001c-12 4 -15 14.333 -9 31c34.667 94 57 141 67 141c42 0 101 -35.667 177 -107c95.333 -90 143 -192 143 -306z" />
    <glyph glyph-name="u0630" unicode="&#x630;" horiz-adv-x="757" arabic-form="isolated" 
d="M756 275c0 -83.333 -14.501 -142.002 -43.501 -176.002s-85.167 -59.667 -168.5 -77c-66.667 -14 -132.667 -21 -198 -21c-44.667 0 -91 5.33301 -139 16c-12.667 2.66699 -17.667 10.334 -15 23.001l28 128c0.666992 8 8 10.333 22 7c35.333 -8.66699 68 -13 98 -13
c62.667 0 131.334 8 206.001 24c94 20 141 46 141 78c0 36.667 -38.333 84 -115 142c-70 52.667 -134.667 89.334 -194 110.001c-12 4 -15 14.333 -9 31c34.667 94 57 141 67 141c42 0 101 -35.667 177 -107c95.333 -90 143 -192 143 -306zM538.999 1075l-92 -137l-134 91
l95 138z" />
    <glyph glyph-name="u0631" unicode="&#x631;" horiz-adv-x="762" arabic-form="isolated" 
d="M760 152c0 -141.333 -48.001 -267.666 -144.001 -378.999c-91.333 -106 -178.666 -159 -261.999 -159c-40 0 -85 9.83301 -135 29.5s-89.667 43.167 -119 70.5c-6 5.33301 -9 11.333 -9 18c0 10.667 5.33301 16 16 16c2.66699 0 5.66699 -0.666992 9 -2
c41.333 -16.667 84.333 -25 129 -25c78.667 0 172.334 47 281.001 141c104.667 90.667 157 163.667 157 219c0 61.333 -47.667 141.666 -143 240.999l62 142c7.33301 16.667 16.666 20 27.999 10c86.667 -78 130 -185.333 130 -322z" />
    <glyph glyph-name="u0632" unicode="&#x632;" horiz-adv-x="762" arabic-form="isolated" 
d="M760 152c0 -141.333 -48.001 -267.666 -144.001 -378.999c-91.333 -106 -178.666 -159 -261.999 -159c-40 0 -85 9.83301 -135 29.5s-89.667 43.167 -119 70.5c-6 5.33301 -9 11.333 -9 18c0 10.667 5.33301 16 16 16c2.66699 0 5.66699 -0.666992 9 -2
c41.333 -16.667 84.333 -25 129 -25c78.667 0 172.334 47 281.001 141c104.667 90.667 157 163.667 157 219c0 61.333 -47.667 141.666 -143 240.999l62 142c7.33301 16.667 16.666 20 27.999 10c86.667 -78 130 -185.333 130 -322zM703.999 875l-92 -137l-134 91l95 138z
" />
    <glyph glyph-name="u0633" unicode="&#x633;" horiz-adv-x="1722" arabic-form="isolated" 
d="M1719 310c0 -58 -12.334 -110.329 -37.001 -156.996c-30 -56.667 -70.667 -85 -122 -85c-62 0 -118 28 -168 84c-47.333 -75.333 -88.666 -120.666 -123.999 -135.999c-23.333 -10 -82.666 -15 -177.999 -15c-13.333 -186.667 -63.333 -325.334 -150 -416.001
c-92 -96 -230 -144 -414 -144c-96.667 0 -175.667 26.333 -237 79c-65.333 55.333 -98 130.666 -98 225.999c0 102 45.667 205 137 309c5.33301 6 10.666 9.33301 15.999 10c5.33301 0 8 -2.33301 8 -7s-2.33301 -10 -7 -16c-54 -70 -81 -144.667 -81 -224
c0 -71.333 37.667 -127 113 -167c61.333 -32.667 131 -49 209 -49c71.333 0 142.333 10.333 213 31c86.667 25.333 146.334 61.666 179.001 108.999c19.333 28 29 97.333 29 208c0 39.333 -6.66699 69.666 -20 90.999c-8 13.333 -24 36.333 -48 69
c-5.33301 7.33301 -5.33301 16 0 26l59 115c10 19.333 20.333 19.333 31 0c34 -60.667 74 -91 120 -91c119.333 0 199 40.667 239 122c4 8.66699 14.667 33.667 32 75c6.66699 16.667 14 25 22 25c9.33301 0 15.333 -8.66699 18 -26c3.33301 -26.667 7 -44 11 -52
c15.333 -34.667 45.666 -59.334 90.999 -74.001c22 -7.33301 41.333 -9 58 -5c14.667 3.33301 22 8.33301 22 15c0 14.667 -13.667 34 -41 58c12 40 27.333 85.667 46 137c6.66699 18 17.667 19.333 33 4c26 -26 39 -69 39 -129z" />
    <glyph glyph-name="u0634" unicode="&#x634;" horiz-adv-x="1728" arabic-form="isolated" 
d="M1719 310c0 -58 -12.334 -110.329 -37.001 -156.996c-30 -56.667 -70.667 -85 -122 -85c-62 0 -118 28 -168 84c-47.333 -75.333 -88.666 -120.666 -123.999 -135.999c-23.333 -10 -82.666 -15 -177.999 -15c-13.333 -186.667 -63.333 -325.334 -150 -416.001
c-92 -96 -230 -144 -414 -144c-96.667 0 -175.667 26.333 -237 79c-65.333 55.333 -98 130.666 -98 225.999c0 102 45.667 205 137 309c5.33301 6 10.666 9.33301 15.999 10c5.33301 0 8 -2.33301 8 -7s-2.33301 -10 -7 -16c-54 -70 -81 -144.667 -81 -224
c0 -71.333 37.667 -127 113 -167c61.333 -32.667 131 -49 209 -49c71.333 0 142.333 10.333 213 31c86.667 25.333 146.334 61.666 179.001 108.999c19.333 28 29 97.333 29 208c0 39.333 -6.66699 69.666 -20 90.999c-8 13.333 -24 36.333 -48 69
c-5.33301 7.33301 -5.33301 16 0 26l59 115c10 19.333 20.333 19.333 31 0c34 -60.667 74 -91 120 -91c119.333 0 199 40.667 239 122c4 8.66699 14.667 33.667 32 75c6.66699 16.667 14 25 22 25c9.33301 0 15.333 -8.66699 18 -26c3.33301 -26.667 7 -44 11 -52
c15.333 -34.667 45.666 -59.334 90.999 -74.001c22 -7.33301 41.333 -9 58 -5c14.667 3.33301 22 8.33301 22 15c0 14.667 -13.667 34 -41 58c12 40 27.333 85.667 46 137c6.66699 18 17.667 19.333 33 4c26 -26 39 -69 39 -129zM1473 970.004l-81 -112l-118 78l79 122z
M1607 775.004l-78 -119l-118 74l-65 -92l-121 78l84 126l116 -74l57 87z" />
    <glyph glyph-name="u0635" unicode="&#x635;" horiz-adv-x="2044" arabic-form="isolated" 
d="M2041 397c0 -140 -99.667 -244.996 -299 -314.996c-128.667 -45.333 -274 -71 -436 -77c-3.33301 -6.66699 -16.333 -39 -39 -97c-12 -30.667 -23 -46 -33 -46c-12.667 0 -19 13 -19 39c0 24.667 5.66699 58 17 100h-142
c-13.333 -190.667 -62.666 -330.334 -147.999 -419.001c-90 -94 -228.667 -141 -416 -141c-96.667 0 -175.667 26.333 -237 79c-65.333 55.333 -98 130.666 -98 225.999c0 102 45.667 205 137 309c5.33301 6 10.666 9.33301 15.999 10c5.33301 0 8 -2.33301 8 -7
s-2.33301 -10 -7 -16c-54 -70 -81 -144.667 -81 -224c0 -71.333 37.667 -127 113 -167c61.333 -32.667 131 -49 209 -49c71.333 0 142.333 10.333 213 31c86.667 25.333 146.334 61.666 179.001 108.999c19.333 28 29 97.333 29 208c0 39.333 -6.66699 69.666 -20 90.999
c-8 13.333 -24 36.333 -48 69c-5.33301 7.33301 -5.33301 16 0 26l59 115c9.33301 18.667 19.666 18.667 30.999 0c35.333 -59.333 75.333 -89 120 -89h42c56 0 98.333 14 127 42l207 201c120 110 235.333 165 346 165c113.333 0 170 -57.667 170 -173zM1920 322.004
c0 22.667 -20.333 42.666 -61 59.999c-34 14 -64.333 21 -91 21c-66 0 -139 -29.667 -219 -89c-61.333 -45.333 -113.333 -96.333 -156 -153c114.667 2.66699 233.667 24.334 357 65.001c113.333 37.333 170 69.333 170 96z" />
    <glyph glyph-name="u0636" unicode="&#x636;" horiz-adv-x="2044" arabic-form="isolated" 
d="M2041 397c0 -140 -99.667 -244.996 -299 -314.996c-128.667 -45.333 -274 -71 -436 -77c-3.33301 -6.66699 -16.333 -39 -39 -97c-12 -30.667 -23 -46 -33 -46c-12.667 0 -19 13 -19 39c0 24.667 5.66699 58 17 100h-142
c-13.333 -190.667 -62.666 -330.334 -147.999 -419.001c-90 -94 -228.667 -141 -416 -141c-96.667 0 -175.667 26.333 -237 79c-65.333 55.333 -98 130.666 -98 225.999c0 102 45.667 205 137 309c5.33301 6 10.666 9.33301 15.999 10c5.33301 0 8 -2.33301 8 -7
s-2.33301 -10 -7 -16c-54 -70 -81 -144.667 -81 -224c0 -71.333 37.667 -127 113 -167c61.333 -32.667 131 -49 209 -49c71.333 0 142.333 10.333 213 31c86.667 25.333 146.334 61.666 179.001 108.999c19.333 28 29 97.333 29 208c0 39.333 -6.66699 69.666 -20 90.999
c-8 13.333 -24 36.333 -48 69c-5.33301 7.33301 -5.33301 16 0 26l59 115c9.33301 18.667 19.666 18.667 30.999 0c35.333 -59.333 75.333 -89 120 -89h42c56 0 98.333 14 127 42l207 201c120 110 235.333 165 346 165c113.333 0 170 -57.667 170 -173zM1920 322.004
c0 22.667 -20.333 42.666 -61 59.999c-34 14 -64.333 21 -91 21c-66 0 -139 -29.667 -219 -89c-61.333 -45.333 -113.333 -96.333 -156 -153c114.667 2.66699 233.667 24.334 357 65.001c113.333 37.333 170 69.333 170 96zM1824 940.003l-92 -137l-134 91l95 138z" />
    <glyph glyph-name="u0637" unicode="&#x637;" horiz-adv-x="1326" arabic-form="isolated" 
d="M1323 405c0 -76.667 -31.999 -143.665 -95.999 -200.998c-150.667 -135.333 -366 -203 -646 -203h-157c-22.667 0 -61.667 17.333 -117 52c-52.667 32.667 -87.667 59.667 -105 81c-6.66699 8 -10 15.667 -10 23c0 13.333 9.66699 20 29 20c4.66699 0 9 -0.333008 13 -1
c70.667 -11.333 137.334 -17 200.001 -17c110.667 0 176 27.333 196 82c12 33.333 18 92 18 176c0 134.667 -8.66699 260.334 -26 377.001c-8 38 -19.333 95 -34 171c-17.333 90 -21 144.667 -11 164l42 85c7.33301 15.333 15.333 16.666 24 3.99902l87 -129
c-26.667 -34 -40 -75 -40 -123c0 19.333 0.333008 29.333 1 30c3.33301 -14.667 7.66602 -66.334 12.999 -155.001c9.33301 -150 14 -249.333 14 -298c0 -88.667 -4.66699 -172.334 -14 -251.001c62 69.333 134 131 216 185c93.333 61.333 169.666 92 228.999 92
c50 0 91.5 -15 124.5 -45s49.5 -69.667 49.5 -119zM1212 321.002c0 22.667 -22.667 42.667 -68 60c-36.667 14 -69 21 -97 21c-104.667 0 -233.667 -80.333 -387 -241c130.667 0 260 23.333 388 70c109.333 40 164 70 164 90z" />
    <glyph glyph-name="u0638" unicode="&#x638;" horiz-adv-x="1326" arabic-form="isolated" 
d="M1323 405c0 -76.667 -31.999 -143.665 -95.999 -200.998c-150.667 -135.333 -366 -203 -646 -203h-157c-22.667 0 -61.667 17.333 -117 52c-52.667 32.667 -87.667 59.667 -105 81c-6.66699 8 -10 15.667 -10 23c0 13.333 9.66699 20 29 20c4.66699 0 9 -0.333008 13 -1
c70.667 -11.333 137.334 -17 200.001 -17c110.667 0 176 27.333 196 82c12 33.333 18 92 18 176c0 134.667 -8.66699 260.334 -26 377.001c-8 38 -19.333 95 -34 171c-17.333 90 -21 144.667 -11 164l42 85c7.33301 15.333 15.333 16.666 24 3.99902l87 -129
c-26.667 -34 -40 -75 -40 -123c0 19.333 0.333008 29.333 1 30c3.33301 -14.667 7.66602 -66.334 12.999 -155.001c9.33301 -150 14 -249.333 14 -298c0 -88.667 -4.66699 -172.334 -14 -251.001c62 69.333 134 131 216 185c93.333 61.333 169.666 92 228.999 92
c50 0 91.5 -15 124.5 -45s49.5 -69.667 49.5 -119zM1212 321.002c0 22.667 -22.667 42.667 -68 60c-36.667 14 -69 21 -97 21c-104.667 0 -233.667 -80.333 -387 -241c130.667 0 260 23.333 388 70c109.333 40 164 70 164 90zM1130 956.002l-92 -137l-134 91l95 138z" />
    <glyph glyph-name="u0639" unicode="&#x639;" horiz-adv-x="978" arabic-form="isolated" 
d="M1326 -710c16.667 1.33301 24.999 -3.33789 24.999 -14.0049c0 -7.33301 -8.66699 -14.333 -26 -21c-8.66699 -3.33301 -87.334 -35.666 -236.001 -96.999c-94 -38.667 -179 -58 -255 -58c-187.333 0 -337.333 39.333 -450 118c-130.667 90.667 -196 225.667 -196 405
c0 106.667 29 223.334 87 350.001c49.333 108 102.333 190.333 159 247c-40.667 14 -79 33 -115 57c-48.667 32.667 -73 64.334 -73 95.001c0 70.667 28.333 148 85 232c64 94.667 133.667 142 209 142c34 0 80 -24 138 -72c10.667 -8.66699 16 -17.667 16 -27
c0 -12.667 -12 -19 -36 -19c-155.333 0 -266.666 -54 -333.999 -162c41.333 -77.333 117.333 -116 228 -116c30.667 0 81.667 20 153 60c100 56.667 163.667 90.334 191 101.001c6.66699 2.66699 12.334 4 17.001 4c14 0 15 -9.66699 3 -29l-76 -128
c-149.333 -79.333 -263 -152.666 -341 -219.999c-157.333 -136.667 -236 -285.667 -236 -447c0 -144 76 -254.333 228 -331c120.667 -61.333 260 -92 418 -92c80 0 219 7.33301 417 22z" />
    <glyph glyph-name="u063A" unicode="&#x63a;" horiz-adv-x="978" arabic-form="isolated" 
d="M1326 -710c16.667 1.33301 24.999 -3.33789 24.999 -14.0049c0 -7.33301 -8.66699 -14.333 -26 -21c-8.66699 -3.33301 -87.334 -35.666 -236.001 -96.999c-94 -38.667 -179 -58 -255 -58c-187.333 0 -337.333 39.333 -450 118c-130.667 90.667 -196 225.667 -196 405
c0 106.667 29 223.334 87 350.001c49.333 108 102.333 190.333 159 247c-40.667 14 -79 33 -115 57c-48.667 32.667 -73 64.334 -73 95.001c0 70.667 28.333 148 85 232c64 94.667 133.667 142 209 142c34 0 80 -24 138 -72c10.667 -8.66699 16 -17.667 16 -27
c0 -12.667 -12 -19 -36 -19c-155.333 0 -266.666 -54 -333.999 -162c41.333 -77.333 117.333 -116 228 -116c30.667 0 81.667 20 153 60c100 56.667 163.667 90.334 191 101.001c6.66699 2.66699 12.334 4 17.001 4c14 0 15 -9.66699 3 -29l-76 -128
c-149.333 -79.333 -263 -152.666 -341 -219.999c-157.333 -136.667 -236 -285.667 -236 -447c0 -144 76 -254.333 228 -331c120.667 -61.333 260 -92 418 -92c80 0 219 7.33301 417 22zM599.999 1084l-92 -137l-134 91l95 138z" />
    <glyph glyph-name="u0641" unicode="&#x641;" horiz-adv-x="1698" arabic-form="isolated" 
d="M1696 377c0 -132 -13 -211.001 -39 -237.001c-70 -69.333 -194.667 -132 -374 -188c-147.333 -46 -286.333 -75 -417 -87c-90.667 -8.66699 -183 -10.667 -277 -6c-126.667 6 -221.334 32 -284.001 78c-75.333 54.667 -113 142.334 -113 263.001c0 95.333 30 172 90 230
c8.66699 8.66699 16 13 22 13c5.33301 0 8 -3.66699 8 -11c0 -8 -3.66699 -17.667 -11 -29c-28.667 -43.333 -43 -93.333 -43 -150c0 -80.667 47 -141.334 141 -182.001c70.667 -30.667 152 -46 244 -46h122c174.667 0 357.334 30 548.001 90
c176 55.333 279 108.333 309 159c3.33301 14.667 5 28.334 5 41.001c0 29.333 -9 52 -27 68c-10 -32 -31.667 -57.667 -65 -77c-30 -18 -62.667 -27 -98 -27c-87.333 0 -131 41.667 -131 125c0 60 18.333 123.667 55 191c40 74 85 111 135 111c44 0 86.667 -28.333 128 -85
c48 -66 72 -147.333 72 -244zM1533 466.999c0 20 -8.83301 40.167 -26.5 60.5s-36.5 30.5 -56.5 30.5c-19.333 0 -35 -11 -47 -33c-9.33301 -18.667 -14 -38.667 -14 -60c0 -26 18 -39 54 -39c15.333 0 33 3.33301 53 10c24.667 8 37 18.333 37 31zM1316 1028l-92 -137
l-134 91l95 138z" />
    <glyph glyph-name="u0642" unicode="&#x642;" horiz-adv-x="1175" arabic-form="isolated" 
d="M1175 262c0 -172.667 -61.668 -308.333 -185.001 -407c-113.333 -90.667 -258.333 -136 -435 -136c-112 0 -199.667 27 -263 81c-67.333 58 -101 142 -101 252c0 60 11.667 124 35 192c24.667 72 56 128.667 94 170c10.667 11.333 19 17 25 17c4.66699 0 7 -3 7 -9
c0 -7.33301 -2.66699 -15.333 -8 -24c-52 -88 -78 -172.667 -78 -254c0 -87.333 29.333 -154 88 -200c52.667 -42 123.667 -63 213 -63c116.667 0 231.334 26.667 344.001 80c138.667 65.333 208 150 208 254c0 11.333 -2.33301 27 -7 47c-6 24.667 -12.333 37 -19 37
c9.33301 0 14.333 -1.33301 15 -4c0 -5.33301 -20 -16.333 -60 -33c-60 -25.333 -102 -38 -126 -38c-105.333 0 -158 52 -158 156c0 36 19 91 57 165c46 90 95.667 135 149 135c36 0 76 -32.667 120 -98c56.667 -84 85 -190.667 85 -320zM1028 442.001
c-7.33301 19.333 -20.668 37.334 -40.001 54.001c-21.333 17.333 -41.666 26 -60.999 26c-16 0 -31.5 -7 -46.5 -21s-22.5 -29 -22.5 -45c0 -16.667 8 -30.334 24 -41.001s32.667 -16 50 -16c40.667 0 72.667 14.333 96 43zM1123 1070l-79 -121l-123 81l-65 -101l-129 89
l82 129l120 -81l61 95z" />
    <glyph glyph-name="u0643" unicode="&#x643;" horiz-adv-x="2003" arabic-form="isolated" 
d="M2079 1316c-6.66699 -18.667 -21.667 -50.334 -45 -95.001c-26 -50 -42.667 -78.333 -50 -85c-422 -140.667 -683.667 -245 -785 -313c-12 -8 -18 -15 -18 -21c0 -5.33301 6.66699 -12 20 -20c115.333 -70 198.333 -129.333 249 -178c91.333 -88 137 -182.333 137 -283
c0 -82.667 -18 -144.667 -54 -186c-32.667 -37.333 -135.334 -75.333 -308.001 -114c-187.333 -42 -369.666 -63 -546.999 -63c-324.667 0 -487 99.333 -487 298c0 89.333 32.333 174.333 97 255c9.33301 11.333 17 17 23 17c4.66699 0 7 -3.33301 7 -10s-3 -15 -9 -25
c-30.667 -51.333 -46 -106.666 -46 -165.999c0 -136 162.333 -204 487 -204c156.667 0 292.667 10.667 408 32c244.667 45.333 367 100.333 367 165c0 40 -56.667 100 -170 180c-84 59.333 -159.667 105.666 -227 138.999c-16 16.667 -24 64.334 -24 143.001
c0 66 6.66699 107.333 20 124c106.667 94 425 230.667 955 410zM878 601c0 -42.667 -17.667 -84.6699 -53 -126.003s-73.666 -62 -114.999 -62c-63.333 0 -118.333 21.667 -165 65c-4.66699 4.66699 -7.66699 8.66699 -9 12c2 0.666992 4 1.66699 6 3
c33.333 -6 64.666 -9 93.999 -9c81.333 0 129.333 16.667 144 50c2.66699 6.66699 -22.333 19.334 -75 38.001c-56 20 -84 43 -84 69c0 34.667 14 74.334 42 119.001c38 60 91.333 103.333 160 130c18 4.66699 27 -10.666 27 -45.999c0 -40.667 -9.33301 -64.667 -28 -72
c-69.333 -18.667 -104 -37.667 -104 -57c0 -0.666992 26.667 -12.5 80 -35.5s80 -49.167 80 -78.5z" />
    <glyph glyph-name="u0644" unicode="&#x644;" horiz-adv-x="999" arabic-form="isolated" 
d="M998 1055c-37.333 -38.667 -56.002 -84.333 -56.002 -137c0 -8.66699 0.333008 -15.667 1 -21c6 -49.333 21.333 -210.333 46 -483c6.66699 -75.333 9.33398 -158.333 8.00098 -249c-2 -113.333 -51.667 -203.666 -149 -270.999c-87.333 -60 -191.666 -90 -312.999 -90
c-102 0 -183.333 23.333 -244 70c-66.667 51.333 -100 126.666 -100 225.999c0 120 39.667 231.333 119 334c5.33301 7.33301 11 11.333 17 12s9 -2.33301 9 -9c0 -4.66699 -2.33301 -11 -7 -19c-44.667 -80 -67 -162.667 -67 -248c0 -68.667 29.667 -121 89 -157
c48.667 -30 109.667 -45 183 -45c67.333 0 142.333 13.667 225 41c108 36 160.333 80.667 157 134c-29.333 444 -65.333 735 -108 873c-8.66699 28.667 -7 54 5 76l71 93c11.333 14.667 22 14 32 -2z" />
    <glyph glyph-name="u0645" unicode="&#x645;" horiz-adv-x="751" arabic-form="isolated" 
d="M750 284c0 -91.333 -12.002 -142.001 -36.002 -152.001c-8.66699 -4 -37 -4.33301 -85 -1c-56 3.33301 -101.667 2 -137 -4c-47.333 -8 -94 -23.333 -140 -46c-62 -30 -93 -63 -93 -99c0 -4 0.333008 -7.66699 1 -11c59.333 -275.333 109 -530 149 -764
c4 -23.333 6 -49.333 6 -78c0 -31.333 -3.66699 -47 -11 -47c-8.66699 0 -24.667 47 -48 141l-91 343c-48.667 184 -73 310.667 -73 380c0 90 22.667 172.667 68 248c8.66699 93.333 36.334 172.333 83.001 237c42 58 84.333 87 127 87
c60.667 0 118.334 -24.667 173.001 -74c49.333 -45.333 85 -98.666 107 -159.999zM557.998 299.999c-25.333 42.667 -69.334 64 -132.001 64c-23.333 0 -43.666 -14.333 -60.999 -43c-14.667 -24.667 -23 -50 -25 -76c50 24 122.667 42.333 218 55z" />
    <glyph glyph-name="u0646" unicode="&#x646;" horiz-adv-x="982" arabic-form="isolated" 
d="M980 269c0 -135.333 -40.334 -243.334 -121.001 -324.001s-188.667 -121 -324 -121c-229.333 0 -344 98.333 -344 295c0 112 33.667 212 101 300c12 16 21.667 24 29 24c4 0 6 -2.66699 6 -8c0 -7.33301 -3.66699 -17.666 -11 -30.999
c-38 -67.333 -57 -132.666 -57 -195.999c0 -72.667 27.333 -128.667 82 -168c48 -35.333 109.667 -53 185 -53c120.667 0 222 25.667 304 77c60 37.333 90 67.333 90 90c0 61.333 -19.333 138 -58 230c-31.333 75.333 -66.666 142.666 -105.999 201.999l52 110
c7.33301 15.333 13.333 23 18 23c3.33301 0 9 -5.33301 17 -16c91.333 -121.333 137 -266 137 -434zM613.999 887.999l-92 -137l-134 91l95 138z" />
    <glyph glyph-name="u0647" unicode="&#x647;" horiz-adv-x="604" arabic-form="isolated" 
d="M602 310c3.33301 -27.333 2.66699 -64.999 -2 -112.999c-5.33301 -53.333 -14 -89 -26 -107c-40.667 -60 -116.667 -90 -228 -90c-34.667 0 -66.667 11.667 -96 35c-39.333 31.333 -59 75.666 -59 132.999c0 70.667 26 151.667 78 243c47.333 83.333 82.333 125 105 125
c56.667 0 107.667 -23.667 153 -71c42.667 -45.333 67.667 -97 75 -155zM530.001 230.001c0 21.333 -15.333 44.667 -46 70c-38 32 -86.667 48 -146 48c-12.667 0 -26.667 -17.333 -42 -52c-13.333 -30.667 -20 -54 -20 -70c0 -40 30.667 -60 92 -60c34 0 67.667 5 101 15
c40.667 12 61 28.333 61 49z" />
    <glyph glyph-name="u0648" unicode="&#x648;" horiz-adv-x="790" arabic-form="isolated" 
d="M788 204c0 -130.667 -44.334 -259.336 -133.001 -386.003c-96.667 -138 -208 -207 -334 -207c-58.667 0 -127.667 27 -207 81c-16.667 11.333 -25 21.333 -25 30c0 10.667 9.66699 14.334 29 11.001c72.667 -11.333 139.334 -11.666 200.001 -0.999023
c76.667 14 160.667 63 252 147c94.667 87.333 144.667 168.333 150 243c-54 -34 -97.667 -51 -131 -51c-42 0 -76.333 15.667 -103 47c-24.667 29.333 -37 65.666 -37 108.999c0 50.667 18 112.334 54 185.001c41.333 83.333 84 125 128 125c54 0 95.667 -44.667 125 -134
c21.333 -65.333 32 -131.666 32 -198.999zM685.999 261.998c-4 24 -13.667 46.667 -29 68c-18 25.333 -38 38 -60 38c-15.333 0 -29 -7.33301 -41 -22s-18 -29.667 -18 -45c0 -41.333 23.667 -62 71 -62c26 0 51.667 7.66699 77 23z" />
    <glyph glyph-name="u0649" unicode="&#x649;" horiz-adv-x="1306" arabic-form="isolated" 
d="M1305 615c0 -15.333 -4.6709 -40.6641 -14.0039 -75.9971s-15.666 -53 -18.999 -53c-2 0 -18 5.66699 -48 17s-53.333 17 -70 17c-68 0 -139 -28.667 -213 -86c-70 -54.667 -105 -102.667 -105 -144c0 -49.333 36.667 -81 110 -95l206 -33
c73.333 -12 110 -36.333 110 -73c0 -100 -27.333 -177.667 -82 -233c-38.667 -38.667 -113 -81.334 -223 -128.001c-145.333 -61.333 -281 -92 -407 -92c-103.333 0 -187 22.667 -251 68c-72 52 -108 128 -108 228c0 151.333 48.333 295 145 431
c9.33301 13.333 17.333 20 24 20c4.66699 0 7 -3.33301 7 -10c0 -5.33301 -1.33301 -10.666 -4 -15.999c-64 -131.333 -96 -232.333 -96 -303c0 -80.667 34.333 -144.334 103 -191.001c58.667 -40 127.667 -60 207 -60c158.667 0 307.334 30.667 446.001 92
c102 45.333 153 77.666 153 96.999c0 8 -73 21.333 -219 40c-71.333 9.33301 -121.333 25.666 -150 48.999c-34 28 -51 76 -51 144c0 84 51.333 182 154 294s195.334 168 278.001 168c20.667 0 43.334 -5.33301 68.001 -16c32.667 -14 49 -32.667 49 -56z" />
    <glyph glyph-name="u064A" unicode="&#x64a;" horiz-adv-x="1306" arabic-form="isolated" 
d="M1305 615c0 -15.333 -4.6709 -40.6641 -14.0039 -75.9971s-15.666 -53 -18.999 -53c-2 0 -18 5.66699 -48 17s-53.333 17 -70 17c-68 0 -139 -28.667 -213 -86c-70 -54.667 -105 -102.667 -105 -144c0 -49.333 36.667 -81 110 -95l206 -33
c73.333 -12 110 -36.333 110 -73c0 -100 -27.333 -177.667 -82 -233c-38.667 -38.667 -113 -81.334 -223 -128.001c-145.333 -61.333 -281 -92 -407 -92c-103.333 0 -187 22.667 -251 68c-72 52 -108 128 -108 228c0 151.333 48.333 295 145 431
c9.33301 13.333 17.333 20 24 20c4.66699 0 7 -3.33301 7 -10c0 -5.33301 -1.33301 -10.666 -4 -15.999c-64 -131.333 -96 -232.333 -96 -303c0 -80.667 34.333 -144.334 103 -191.001c58.667 -40 127.667 -60 207 -60c158.667 0 307.334 30.667 446.001 92
c102 45.333 153 77.666 153 96.999c0 8 -73 21.333 -219 40c-71.333 9.33301 -121.333 25.666 -150 48.999c-34 28 -51 76 -51 144c0 84 51.333 182 154 294s195.334 168 278.001 168c20.667 0 43.334 -5.33301 68.001 -16c32.667 -14 49 -32.667 49 -56z" />
    <glyph glyph-name="u067E" unicode="&#x67e;" horiz-adv-x="1577" arabic-form="isolated" 
d="M1576 362c0 -36 -10.667 -80 -32 -132c-18 -44 -32.667 -71.333 -44 -82c-41.333 -39.333 -140.333 -79 -297 -119c-178 -45.333 -354 -68 -528 -68c-125.333 0 -229.666 18.333 -312.999 55c-114 50 -171 130 -171 240c0 80.667 28.333 153.667 85 219
c7.33301 8.66699 14 13 20 13s9 -4 9 -12c0 -5.33301 -1.66699 -11.333 -5 -18c-21.333 -40.667 -32 -81.334 -32 -122.001c0 -81.333 66 -140.333 198 -177c86 -24 183 -36 291 -36c174.667 0 347 22.333 517 67c154.667 40.667 232 75.334 232 104.001
c0 29.333 -29.333 78.666 -88 147.999l66 134c9.33301 18.667 18.666 19.334 27.999 2.00098c42.667 -77.333 64 -149.333 64 -216zM927 -498l81 112l118 -78l-79 -122zM793 -303l78 119l118 -74l65 92l121 -78l-84 -126l-116 74l-57 -87z" />
    <glyph glyph-name="u0686" unicode="&#x686;" horiz-adv-x="1210" arabic-form="isolated" 
d="M1384 -714c-96.667 -44 -207.668 -90.999 -333.001 -140.999c-60 -14 -138.333 -21 -235 -21c-188 0 -335.667 39.333 -443 118c-123.333 90 -185 225.667 -185 407c0 161.333 55 304.333 165 429c82 92.667 177 160.667 285 204c-101.333 18 -176.666 27 -225.999 27
c-62 0 -106.667 -6.66699 -134 -20c-10 -4.66699 -17 -5.33398 -21 -2.00098c-4.66699 4 -5.66699 12.333 -3 25c22.667 114 95 171 217 171c58 0 144.333 -8 259 -24s201 -24 259 -24h171c9.33301 0 13.333 -2.66699 12 -8l-2 -4l-67 -136c-77.333 0 -158 -9 -242 -27
c-145.333 -31.333 -271 -84.666 -377 -159.999c-146.667 -104.667 -220 -233.334 -220 -386.001c0 -155.333 81.333 -270.666 244 -345.999c123.333 -57.333 272 -86 446 -86c156 0 297.333 11.333 424 34c18 3.33301 27 0 27 -10c0 -6.66699 -7 -13.334 -21 -20.001z
M738.999 -452.999l81 112l118 -78l-79 -122zM604.999 -257.999l78 119l118 -74l65 92l121 -78l-84 -126l-116 74l-57 -87z" />
    <glyph glyph-name="u0698" unicode="&#x698;" horiz-adv-x="762" arabic-form="isolated" 
d="M760 152c0 -141.333 -48.001 -267.666 -144.001 -378.999c-91.333 -106 -178.666 -159 -261.999 -159c-40 0 -85 9.83301 -135 29.5s-89.667 43.167 -119 70.5c-6 5.33301 -9 11.333 -9 18c0 10.667 5.33301 16 16 16c2.66699 0 5.66699 -0.666992 9 -2
c41.333 -16.667 84.333 -25 129 -25c78.667 0 172.334 47 281.001 141c104.667 90.667 157 163.667 157 219c0 61.333 -47.667 141.666 -143 240.999l62 142c7.33301 16.667 16.666 20 27.999 10c86.667 -78 130 -185.333 130 -322zM648.999 1060l-81 -112l-118 78l79 122z
M782.999 865l-78 -119l-118 74l-65 -92l-121 78l84 126l116 -74l57 87z" />
    <glyph glyph-name="u06AF" unicode="&#x6af;" horiz-adv-x="2008" arabic-form="isolated" 
d="M2121 1577c-9.33301 -35.333 -35.334 -80.332 -78.001 -134.999c-131.333 -36 -274.333 -84 -429 -144c-220 -85.333 -381 -166 -483 -242l-4 38c2 29.333 4.33301 45.333 7 48c76.667 83.333 222.334 168.666 437.001 255.999c170.667 69.333 354 129 550 179z
M2080 1301c-42 -111.333 -73.668 -176.331 -95.001 -194.998c-429.333 -138.667 -691 -239.667 -785 -303c-12.667 -8.66699 -19 -15.334 -19 -20.001c0 -5.33301 7 -12.333 21 -21c130.667 -80 213.334 -135.667 248.001 -167c92 -82.667 138 -174 138 -274
c0 -82 -18.333 -144 -55 -186c-32.667 -37.333 -135.334 -75.333 -308.001 -114c-187.333 -42 -369.666 -63 -546.999 -63c-324.667 0 -487 99.333 -487 298c0 88 32.333 173 97 255c7.33301 9.33301 14.333 14.666 21 15.999c7.33301 1.33301 11 -1.33398 11 -8.00098
c0 -4.66699 -2.33301 -11 -7 -19c-34 -60 -51 -117.667 -51 -173c0 -136 162.667 -204 488 -204c260 0 476 31 648 93c85.333 30.667 128 65.334 128 104.001c0 37.333 -57.333 93.666 -172 168.999c-79.333 52 -154.333 95.333 -225 130c-16 16.667 -24 65.334 -24 146.001
c0 67.333 6.66699 109.333 20 126c106.667 94 425 230.667 955 410zM877.998 601.003c0 -42.667 -17.667 -84.6699 -53 -126.003s-73.666 -62 -114.999 -62c-63.333 0 -118.333 21.667 -165 65c-4.66699 4.66699 -7.66699 8.66699 -9 12c2 0.666992 4 1.66699 6 3
c33.333 -6 64.666 -9 93.999 -9c81.333 0 129.333 16.667 144 50c2.66699 6.66699 -22.333 19.334 -75 38.001c-56 20 -84 43 -84 69c0 34.667 14 74.334 42 119.001c38 60 91.333 103.333 160 130c18 4.66699 27 -10.666 27 -45.999c0 -40.667 -9.33301 -64.667 -28 -72
c-69.333 -18.667 -104 -37.667 -104 -57c0 -0.666992 26.667 -12.5 80 -35.5s80 -49.167 80 -78.5z" />
    <glyph glyph-name="uFB57" unicode="&#x67e;" horiz-adv-x="1650" arabic-form="final" 
d="M1680 1l-57.0029 0.000976562c-35.333 0 -68.166 10.333 -98.499 31s-50.833 47.334 -61.5 80.001c-40 -64.667 -151.333 -112.334 -334 -143.001c-123.333 -20.667 -250 -31 -380 -31c-147.333 0 -267.666 19.667 -360.999 59
c-131.333 55.333 -197 146.666 -197 273.999c0 99.333 27.667 176.333 83 231c6 6 11.667 9 17 9c10.667 0 12.334 -7.33301 5.00098 -22c-20 -39.333 -30 -82.333 -30 -129c0 -66.667 41.667 -123.334 125 -170.001c106.667 -60 265 -90 475 -90
c281.333 0 461.333 28.333 540 85c28.667 20.667 47.667 47.334 57 80.001c3.33301 12 9.33301 18 18 18s13.667 -5.33301 15 -16c4 -38.667 11.333 -64 22 -76c17.333 -19.333 52.333 -29 105 -29h57v-161zM926.997 -497.999l81 112l118 -78l-79 -122zM792.997 -302.999
l78 119l118 -74l65 92l121 -78l-84 -126l-116 74l-57 -87z" />
    <glyph glyph-name="uFB58" unicode="&#x67e;" horiz-adv-x="408" arabic-form="initial" 
d="M298 264c0 -27.333 -7.66699 -62.667 -23 -106c-16 -46 -32.667 -77.333 -50 -94c-44 -42 -107 -63 -189 -63h-65v161h67c28 0 63.333 3.66699 106 11c57.333 10 86 22.333 86 37c0 27.333 -29.333 76 -88 146l68 118c12 21.333 23.333 23.333 34 6
c36 -59.333 54 -131.333 54 -216zM174 -478.001l81 112l118 -78l-79 -122zM40 -283.001l78 119l118 -74l65 92l121 -78l-84 -126l-116 74l-57 -87z" />
    <glyph glyph-name="uFB59" unicode="&#x67e;" horiz-adv-x="426" arabic-form="medial" 
d="M456 1h-59c-92 0 -154.333 33.667 -187 101c-44 -67.333 -108 -101 -192 -101h-47v161h77c50.667 0 91 11.667 121 35c18 14 35.333 35.667 52 65c13.333 23.333 23 35 29 35c10 0 19 -17 27 -51c13.333 -56 58.333 -84 135 -84h44v-161zM164 -478l81 112l118 -78
l-79 -122zM30 -283l78 119l118 -74l65 92l121 -78l-84 -126l-116 74l-57 -87z" />
    <glyph glyph-name="uFB7B" unicode="&#x686;" horiz-adv-x="1269" arabic-form="final" 
d="M1384 -714c-96.667 -44 -207.668 -90.999 -333.001 -140.999c-60 -14 -138.333 -21 -235 -21c-188 0 -335.667 39.333 -443 118c-123.333 90 -185 225.667 -185 407c0 161.333 55 304.333 165 429c82 92.667 177 160.667 285 204c-101.333 18 -176.666 27 -225.999 27
c-62 0 -106.667 -6.66699 -134 -20c-10 -4.66699 -17 -5.33398 -21 -2.00098c-4.66699 4 -5.66699 12.333 -3 25c22.667 114 95 171 217 171c58 0 144.333 -8 259 -24s201 -24 259 -24h171c9.33301 0 13.333 -2.66699 12 -8l-2 -4l-67 -136
c-22.667 0 -82.667 -5.33301 -180 -16c0 -33.333 9 -57.333 27 -72c30 -24.667 89.667 -37 179 -37h171v-161h-260c-135.333 0 -203 48.333 -203 145c0 32 8 70.333 24 115c-154 -36 -283 -92 -387 -168c-140 -102.667 -210 -229 -210 -379
c0 -155.333 81.333 -270.666 244 -345.999c123.333 -57.333 272 -86 446 -86c156 0 297.333 11.333 424 34c18 3.33301 27 0 27 -10c0 -6.66699 -7 -13.334 -21 -20.001zM708.999 -452.999l81 112l118 -78l-79 -122zM574.999 -257.999l78 119l118 -74l65 92l121 -78
l-84 -126l-116 74l-57 -87z" />
    <glyph glyph-name="uFB7C" unicode="&#x686;" horiz-adv-x="1050" arabic-form="initial" 
d="M1041 362l-41.999 -133.002h-116c-150 0 -266.333 -15.333 -349 -46c-40.667 -15.333 -128.334 -56.333 -263.001 -123c-79.333 -39.333 -152.333 -59 -219 -59h-81v161h88c49.333 0 119 14.333 209 43c121.333 38.667 192 60.334 212 65.001
c11.333 2.66699 17 5.66699 17 9s-5.66699 7 -17 11l-153 53c-50.667 17.333 -93 26 -127 26c-58.667 0 -106.667 -7.66699 -144 -23c-12.667 -5.33301 -21.667 -5.66602 -27 -0.999023s-5 15 1 31c40 109.333 113.333 164 220 164c35.333 0 87.666 -14.333 156.999 -43
c104.667 -43.333 174.334 -70.333 209.001 -81c94 -28.667 190.333 -43 289 -43h128c6 0 9 -2 9 -6c0 -1.33301 -0.333008 -3 -1 -5zM439.001 -423.002l81 112l118 -78l-79 -122zM305.001 -228.002l78 119l118 -74l65 92l121 -78l-84 -126l-116 74l-57 -87z" />
    <glyph glyph-name="uFB7D" unicode="&#x686;" horiz-adv-x="1146" arabic-form="medial" 
d="M1165 1l-228 -0.00195312c-132.667 0 -199 41.333 -199 124c0 26.667 7.33301 60.334 22 101.001c-117.333 -12.667 -226 -38.667 -326 -78c-13.333 -5.33301 -84 -38.333 -212 -99c-67.333 -32 -124 -48 -170 -48h-81v161h88c50 0 119.667 14.667 209 44
c122 40 192.667 62 212 66c13.333 2.66699 20 5.66699 20 9s-6.66699 7 -20 11l-158 51c-54 17.333 -98 26 -132 26c-52 0 -96.667 -7.66699 -134 -23c-12.667 -5.33301 -21.667 -5.66602 -27 -0.999023s-5 15 1 31c40 109.333 113.333 164 220 164
c35.333 0 87.666 -14.333 156.999 -43c104.667 -43.333 174.334 -70.333 209.001 -81c94 -28.667 190.333 -43 289 -43h128c6 0 9 -2 9 -6c0 -1.33301 -0.333008 -3 -1 -5l-42 -133h-169c0 -32 19.667 -52.333 59 -61c18 -4 55.667 -6 113 -6h163v-161zM549 -423.002l81 112
l118 -78l-79 -122zM415 -228.002l78 119l118 -74l65 92l121 -78l-84 -126l-116 74l-57 -87z" />
    <glyph glyph-name="uFB8B" unicode="&#x698;" horiz-adv-x="807" arabic-form="final" 
d="M838 1l-54.999 -0.000976562c-34.667 0 -55 -19 -61 -57c-15.333 -96.667 -58 -192 -128 -286c-83.333 -112 -174.666 -168 -273.999 -168c-52 0 -119.667 25 -203 75c-18.667 11.333 -28 21.333 -28 30s8.33301 13 25 13c4 0 10 -0.666992 18 -2
c38.667 -6.66699 73.667 -10 105 -10c57.333 0 107.333 13 150 39c35.333 21.333 80.666 62 135.999 122c25.333 27.333 50.333 60.333 75 99c32 50 48 87.333 48 112c0 22.667 -30.667 67.334 -92 134.001l63 143c5.33301 12.667 12.666 13 21.999 1
c44 -56 84.667 -84 122 -84h77v-161zM633.001 817.999l-81 -112l-118 78l79 122zM767.001 622.999l-78 -119l-118 74l-65 -92l-121 78l84 126l116 -74l57 87z" />
    <glyph glyph-name="uFEDA" unicode="&#x6a9;" horiz-adv-x="2116" arabic-form="final" 
d="M2146 1l-70.001 0.000976562c-53.333 0 -130.333 47 -231 141c-158 148 -247.667 229.667 -269 245c10.667 -28.667 16 -57.667 16 -87c0 -92 -45.333 -163.333 -136 -214c-55.333 -30.667 -141.666 -57.667 -258.999 -81c-158.667 -31.333 -331.667 -47 -519 -47
c-139.333 0 -245.666 14.667 -318.999 44c-112 44.667 -168 126 -168 244c0 88 32.333 173 97 255c6.66699 8.66699 13 13 19 13c11.333 0 13.333 -10.333 6 -31c-27.333 -78 -41 -130 -41 -156c0 -81.333 64 -139 192 -173c78.667 -20.667 174 -31 286 -31
c173.333 0 326.666 12 459.999 36c199.333 36 299 92 299 168c0 43.333 -50.667 96.666 -152 159.999c-134.667 84 -210.334 134.333 -227.001 151c-33.333 33.333 -50 91.666 -50 174.999c0 40 8.33301 68.667 25 86c104 106.667 262 219 474 337
c189.333 105.333 353 179 491 221c-26 -78 -53 -137.667 -81 -179c-338.667 -130.667 -606.667 -277.667 -804 -441c-18.667 -15.333 -28 -28 -28 -38c0 -13.333 13.333 -26.666 40 -39.999l167 -85c96.667 -50 173.334 -94.667 230.001 -134
c82.667 -57.333 192 -147.333 328 -270c80 -72 139.333 -108 178 -108h46v-161zM872.999 596.001c0 -42.667 -17.667 -84.6699 -53 -126.003s-73.666 -62 -114.999 -62c-63.333 0 -118.333 21.667 -165 65c-4.66699 4.66699 -7.66699 8.66699 -9 12
c2 0.666992 4 1.66699 6 3c33.333 -6 64.666 -9 93.999 -9c81.333 0 129.333 16.667 144 50c2.66699 6.66699 -22.333 19.334 -75 38.001c-56 20 -84 43 -84 69c0 34.667 14 74.334 42 119.001c38 60 91.333 103.333 160 130c18 4.66699 27 -10.666 27 -45.999
c0 -40.667 -9.33301 -64.667 -28 -72c-69.333 -18.667 -104 -37.667 -104 -57c0 -0.666992 26.667 -12.5 80 -35.5s80 -49.167 80 -78.5z" />
    <glyph glyph-name="uFEDB" unicode="&#x6a9;" horiz-adv-x="952" arabic-form="initial" 
d="M1019 1286c-6.66699 -18.667 -21.667 -50.333 -45 -95c-26 -50 -42.667 -78.333 -50 -85c-422 -140.667 -683.667 -245 -785 -313c-12 -8 -18 -15 -18 -21c0 -5.33301 6.66699 -12 20 -20c115.333 -70 198.333 -129.333 249 -178c91.333 -88 137 -182.333 137 -283
c0 -78 -19.667 -138 -59 -180c-36 -38 -93.333 -66.667 -172 -86c-65.333 -16 -132 -24 -200 -24h-125v161h69c283.333 0 425 42.667 425 128c0 40 -56.667 100 -170 180c-84 59.333 -159.667 105.666 -227 138.999c-16 16.667 -24 64.334 -24 143.001
c0 66 6.66699 107.333 20 124c106.667 94 425 230.667 955 410z" />
    <glyph glyph-name="uFEDC" unicode="&#x6a9;" horiz-adv-x="1087" arabic-form="medial" 
d="M1116 1l-70.001 0.000976562c-53.333 0 -130.333 47 -231 141c-158 148 -247.667 229.667 -269 245c9.33301 -32.667 14 -65 14 -97c0 -156 -95.667 -249.333 -287 -280c-37.333 -6 -106 -9 -206 -9h-108v161h155c85.333 0 160 8 224 24c104 26 156 70 156 132
c0 40 -53.333 94 -160 162c-139.333 88.667 -217.333 141.334 -234 158.001c-33.333 33.333 -50 91.666 -50 174.999c0 40 8.33301 68.667 25 86c104 106.667 262 219 474 337c189.333 105.333 353 179 491 221c-26 -78 -53 -137.667 -81 -179
c-340 -131.333 -608 -278.333 -804 -441c-18 -14.667 -27 -27.334 -27 -38.001c0 -14 31 -37.333 93 -70l113 -55c96.667 -50 173.334 -94.667 230.001 -134c82.667 -57.333 192 -147.333 328 -270c80 -72 139.333 -108 178 -108h46v-161z" />
    <glyph glyph-name="uFB93" unicode="&#x6af;" horiz-adv-x="2116" arabic-form="final" 
d="M2090 1593c-9.33301 -35.333 -35.334 -80.332 -78.001 -134.999c-131.333 -36 -274.333 -84 -429 -144c-220 -85.333 -381 -166 -483 -242l-4 38c2 29.333 4.33301 45.333 7 48c76.667 83.333 222.334 168.666 437.001 255.999c170.667 69.333 354 129 550 179z
M2146 1.00098l-70 0.00195312c-53.333 0 -130.333 47 -231 141c-158 148 -247.667 229.667 -269 245c10.667 -28.667 16 -57.667 16 -87c0 -92 -45.333 -163.333 -136 -214c-55.333 -30.667 -141.666 -57.667 -258.999 -81c-158.667 -31.333 -331.667 -47 -519 -47
c-324.667 0 -487 99.333 -487 298c0 89.333 32.333 174.333 97 255c6.66699 8.66699 13.667 13.667 21 15c6.66699 1.33301 10 -1.33398 10 -8.00098c0 -5.33301 -2.66699 -12.333 -8 -21c-32.667 -54 -49 -110.667 -49 -170c0 -136 162.667 -204 488 -204
c173.333 0 326.666 12 459.999 36c199.333 36 299 92 299 168c0 43.333 -50.667 96.666 -152 159.999c-134.667 84 -210.334 134.333 -227.001 151c-31.333 31.333 -47 88 -47 170c0 43.333 9 74 27 92c57.333 58 197 131 419 219c161.333 64 330 122.667 506 176
c-26 -78 -53 -137.667 -81 -179c-388 -128 -643.667 -223 -767 -285c-22.667 -11.333 -34 -21.666 -34 -30.999c0 -12.667 14.667 -26.334 44 -41.001l167 -85c96.667 -50 173.334 -94.667 230.001 -134c86 -60 195.333 -150 328 -270c80 -72 139.333 -108 178 -108h46v-161
zM871.999 601.003c0 -42.667 -17.667 -84.6699 -53 -126.003s-73.666 -62 -114.999 -62c-63.333 0 -118.333 21.667 -165 65c-4.66699 4.66699 -7.66699 8.66699 -9 12c2 0.666992 4 1.66699 6 3c33.333 -6 64.666 -9 93.999 -9c81.333 0 129.333 16.667 144 50
c2.66699 6.66699 -22.333 19.334 -75 38.001c-56 20 -84 43 -84 69c0 34.667 14 74.334 42 119.001c38 60 91.333 103.333 160 130c18 4.66699 27 -10.666 27 -45.999c0 -40.667 -9.33301 -64.667 -28 -72c-69.333 -18.667 -104 -37.667 -104 -57
c0 -0.666992 26.667 -12.5 80 -35.5s80 -49.167 80 -78.5z" />
    <glyph glyph-name="uFB94" unicode="&#x6af;" horiz-adv-x="982" arabic-form="initial" 
d="M1060 1548c-9.33301 -35.333 -35.334 -80.332 -78.001 -134.999c-131.333 -36 -274.333 -84 -429 -144c-220 -85.333 -381 -166 -483 -242l-4 38c2 29.333 4.33301 45.333 7 48c76.667 83.333 222.334 168.666 437.001 255.999c170.667 69.333 354 129 550 179z
M1019 1266c-6.66699 -19.333 -21.668 -53 -45.001 -101c-26 -54 -42.667 -83.667 -50 -89c-184.667 -61.333 -319 -107.333 -403 -138c-195.333 -70.667 -322.666 -125.667 -381.999 -165c-13.333 -8.66699 -20 -15.334 -20 -20.001c0 -5.33301 7.33301 -12.333 22 -21
c128.667 -77.333 211.667 -133 249 -167c91.333 -82.667 137 -174 137 -274c0 -78 -19.667 -138 -59 -180c-36 -38 -93.333 -66.667 -172 -86c-65.333 -16 -132 -24 -200 -24h-125v161h69c283.333 0 425 42.667 425 128c0 36.667 -57.333 92.667 -172 168
c-78 52 -153 95.667 -225 131c-16 16.667 -24 64.334 -24 143.001c0 66 6.66699 107.333 20 124c106.667 94 425 230.667 955 410z" />
    <glyph glyph-name="uFB95" unicode="&#x6af;" horiz-adv-x="1086" arabic-form="medial" 
d="M1060 1593c-9.33301 -35.333 -35.334 -80.332 -78.001 -134.999c-131.333 -36 -274.333 -84 -429 -144c-220 -85.333 -381 -166 -483 -242l-4 38c2 29.333 4.33301 45.333 7 48c76.667 83.333 222.334 168.666 437.001 255.999c170.667 69.333 354 129 550 179z
M1116 1.00098l-70 0.00292969c-53.333 0 -130.333 47 -231 141c-158 148 -247.667 229.667 -269 245c9.33301 -24 14 -50.333 14 -79c0 -76.667 -20.667 -139.334 -62 -188.001c-68 -80 -227 -120 -477 -120h-51v162h48c138.667 0 236 5.66699 292 17
c112.667 22.667 169 72 169 148c0 43.333 -50.667 96.666 -152 159.999c-134.667 84 -210.334 134.333 -227.001 151c-31.333 31.333 -47 88 -47 170c0 43.333 9 74 27 92c57.333 58 197 131 419 219c161.333 64 330 122.667 506 176c-26 -78 -53 -137.667 -81 -179
c-365.333 -120.667 -617.666 -215.667 -756.999 -285c-22 -10.667 -33 -21 -33 -31c0 -12.667 14.333 -26.334 43 -41.001c97.333 -50 226.333 -123 387 -219c56.667 -34 166 -124 328 -270c80 -72 139.333 -108 178 -108h46v-161z" />
    <glyph glyph-name="uFE94" unicode="&#x6c0;" horiz-adv-x="748" arabic-form="final" 
d="M777 1h-69.001c-58.667 0 -101 22 -127 66c-18.667 31.333 -34.667 90.333 -48 177c-51.333 -61.333 -87 -92 -107 -92c-156.667 0 -235 22 -235 66c0 24 9.33301 57.667 28 101s36.334 73.666 53.001 90.999c39.333 40.667 112.666 91.334 219.999 152.001l-2 82l48 66
c7.33301 10 12.333 15.333 15 16c3.33301 0 6 -8.66699 8 -26c8.66699 -79.333 20.334 -176 35.001 -290c10.667 -82.667 23 -142 37 -178c18 -46.667 47 -70 87 -70h57v-161zM518.999 332l-15 136c-32 -8 -67.667 -24.333 -107 -49c-48 -30 -72 -56.333 -72 -79
c0 -20.667 24.667 -31 74 -31c35.333 0 75.333 7.66699 120 23zM623.999 1035c-11.333 -27.333 -24.332 -56.999 -38.999 -88.999c-118.667 -17.333 -216 -41.333 -292 -72c2.66699 9.33301 6.66699 20 12 32c26.667 33.333 56.667 56 90 68c-50.667 32 -76 59.333 -76 82
c0 34 17.667 71 53 111s69.666 60 102.999 60c40 0 60 -16.667 60 -50c0 -34 -7 -59.667 -21 -77c-5.33301 -6.66699 -10.333 -5.33398 -15 3.99902c-13.333 29.333 -37 44 -71 44c-25.333 0 -38 -12.333 -38 -37c0 -22 14.667 -43.333 44 -64c27.333 -20 52.333 -30 75 -30
c16.667 0 55 6 115 18z" />
    <glyph glyph-name="uFEF2" unicode="&#x6cc;" horiz-adv-x="1257" arabic-form="final" 
d="M1288 1l-182.001 0.000976562c-44.667 0 -88.667 -9.66699 -132 -29c-38.667 -17.333 -58 -31.666 -58 -42.999c0 -10 24.667 -19.667 74 -29c105.333 -19.333 163.333 -31 174 -35c50 -17.333 75 -47.333 75 -90c0 -56.667 -12 -101.334 -36 -134.001
c-57.333 -77.333 -151.333 -136.666 -282 -177.999c-108.667 -34 -221 -51 -337 -51c-111.333 0 -202 24.333 -272 73c-80.667 56 -121 137.333 -121 244c0 140 37.667 260.333 113 361c11.333 15.333 20 23 26 23c4 0 6 -3.33301 6 -10
c0 -9.33301 -3.66699 -21.333 -11 -36c-38.667 -78.667 -58 -152.334 -58 -221.001c0 -95.333 42.333 -166.333 127 -213c68.667 -38 154.334 -57 257.001 -57c120.667 0 238 17.667 352 53c102.667 32 154 60.333 154 85c0 12 -20.667 21.667 -62 29l-131 21
c-106 17.333 -159 53.666 -159 108.999c0 60.667 35.667 122.667 107 186c78 68.667 165.333 103 262 103h114v-161z" />
    <glyph glyph-name="uFEF3" unicode="&#x6cc;" horiz-adv-x="432" arabic-form="initial" 
d="M298 264c0 -27.333 -7.66699 -62.667 -23 -106c-16 -46 -32.667 -77.333 -50 -94c-44 -42 -107 -63 -189 -63h-65v161h67c28 0 63.333 3.66699 106 11c57.333 10 86 22.333 86 37c0 27.333 -29.333 76 -88 146l68 118c12 21.333 23.333 23.333 34 6
c36 -59.333 54 -131.333 54 -216zM429 -322.001l-79 -121l-123 81l-65 -101l-129 89l82 129l120 -81l61 95z" />
    <glyph glyph-name="uFEF4" unicode="&#x6cc;" horiz-adv-x="426" arabic-form="medial" 
d="M456 1h-59c-92 0 -154.333 33.667 -187 101c-44 -67.333 -108 -101 -192 -101h-47v161h77c50.667 0 91 11.667 121 35c18 14 35.333 35.667 52 65c13.333 23.333 23 35 29 35c10 0 19 -17 27 -51c13.333 -56 58.333 -84 135 -84h44v-161zM409 -322l-79 -121l-123 81
l-65 -101l-129 89l82 129l120 -81l61 95z" />
    <glyph glyph-name="Hcircumflex" unicode="&#x622;" horiz-adv-x="714" arabic-form="final" 
d="M743 1h-84.999c-81.333 0 -134.666 50.333 -159.999 151c-6.66699 26.667 -18.334 136 -35.001 328c-21.333 249.333 -39 419 -53 509c-1.33301 8 25 49.333 79 124c7.33301 10 13.333 15 18 15c5.33301 0 8.66602 -8.33301 9.99902 -25l50 -733
c5.33301 -78 12.333 -127 21 -147c18 -40.667 55.667 -61 113 -61h42v-161zM830.001 1351c-42 -56.667 -105.33 -98.668 -189.997 -126.001c-66 -21.333 -135.667 -32 -209 -32c-18.667 0 -46 3.5 -82 10.5s-63.333 10.5 -82 10.5c-20.667 0 -33.334 -14.333 -38.001 -43
c-2.66699 -18 -10.334 -27 -23.001 -27c-24 0 -44 11.667 -60 35c-14.667 20.667 -22 43.667 -22 69c0 58 31.333 86.667 94 86c26 0 64.833 -4.5 116.5 -13.5s90.834 -13.5 117.501 -13.5c103.333 0 181.666 6.33301 234.999 19c23.333 5.33301 51.666 15 84.999 29
c28.667 12 45.334 18 50.001 18c6 0 9.33301 -3 10 -9c1.33301 -5.33301 0.666016 -9.66602 -2.00098 -12.999z" />
    <glyph glyph-name="uFE84" unicode="&#x623;" horiz-adv-x="553" arabic-form="final" 
d="M583 1h-84.999c-81.333 0 -134.666 50.333 -159.999 151c-6.66699 26.667 -18.334 136 -35.001 328c-21.333 249.333 -39 419 -53 509c-1.33301 8 25 49.333 79 124c7.33301 10 13.333 15 18 15c5.33301 0 8.66602 -8.33301 9.99902 -25l50 -733
c5.33301 -78 12.333 -127 21 -147c18 -40.667 55.667 -61 113 -61h42v-161zM489.001 1345c-11.333 -27.333 -24.332 -56.999 -38.999 -88.999c-118.667 -17.333 -216 -41.333 -292 -72c2.66699 9.33301 6.66699 20 12 32c26.667 33.333 56.667 56 90 68
c-50.667 32 -76 59.333 -76 82c0 34 17.667 71 53 111s69.666 60 102.999 60c40 0 60 -16.667 60 -50c0 -34 -7 -59.667 -21 -77c-5.33301 -6.66699 -10.333 -5.33398 -15 3.99902c-13.333 29.333 -37 44 -71 44c-25.333 0 -38 -12.333 -38 -37c0 -22 14.667 -43.333 44 -64
c27.333 -20 52.333 -30 75 -30c16.667 0 55 6 115 18z" />
    <glyph glyph-name="uFE86" unicode="&#x624;" horiz-adv-x="875" arabic-form="final" 
d="M905 1h-109.002c-7.33301 -94.667 -53.666 -196 -138.999 -304c-99.333 -126 -207.666 -189 -324.999 -189c-45.333 0 -106 30 -182 90c-39.333 30.667 -59 51.667 -59 63c0 6 5.66699 9 17 9c18 0 47.667 -5.66699 89 -17s72.666 -17 93.999 -17
c80.667 0 172.334 39.333 275.001 118c108 82.667 162 162.667 162 240c-74 0 -128.667 6.33301 -164 19c-50.667 18 -76 51.667 -76 101c0 60 20.333 125.667 61 197c43.333 76.667 88.333 115 135 115c42 0 75 -35.333 99 -106c18 -53.333 27 -106 27 -158h95v-161z
M729.998 164c-5.33301 27.333 -16.666 51 -33.999 71c-20 23.333 -42.667 35 -68 35c-28 0 -42 -17.333 -42 -52c0 -40.667 33.667 -61 101 -61c15.333 0 29.666 2.33301 42.999 7zM833.998 730c-11.333 -27.333 -24.332 -56.999 -38.999 -88.999
c-118.667 -17.333 -216 -41.333 -292 -72c2.66699 9.33301 6.66699 20 12 32c26.667 33.333 56.667 56 90 68c-50.667 32 -76 59.333 -76 82c0 34 17.667 71 53 111s69.666 60 102.999 60c40 0 60 -16.667 60 -50c0 -34 -7 -59.667 -21 -77
c-5.33301 -6.66699 -10.333 -5.33398 -15 3.99902c-13.333 29.333 -37 44 -71 44c-25.333 0 -38 -12.333 -38 -37c0 -22 14.667 -43.333 44 -64c27.333 -20 52.333 -30 75 -30c16.667 0 55 6 115 18z" />
    <glyph glyph-name="uFE88" unicode="&#x625;" horiz-adv-x="573" arabic-form="final" 
d="M603 1h-84.999c-81.333 0 -134.666 50.333 -159.999 151c-6.66699 26.667 -18.334 136 -35.001 328c-21.333 249.333 -39 419 -53 509c-1.33301 8 25 49.333 79 124c7.33301 10 13.333 15 18 15c5.33301 0 8.66602 -8.33301 9.99902 -25l50 -733
c5.33301 -78 12.333 -127 21 -147c18 -40.667 55.667 -61 113 -61h42v-161zM601.001 -356c-11.333 -27.333 -24.332 -56.999 -38.999 -88.999c-118.667 -17.333 -216 -41.333 -292 -72c2.66699 9.33301 6.66699 20 12 32c26.667 33.333 56.667 56 90 68
c-50.667 32 -76 59.333 -76 82c0 34 17.667 71 53 111s69.666 60 102.999 60c40 0 60 -16.667 60 -50c0 -34 -7 -59.667 -21 -77c-5.33301 -6.66699 -10.333 -5.33398 -15 3.99902c-13.333 29.333 -37 44 -71 44c-25.333 0 -38 -12.333 -38 -37c0 -22 14.667 -43.333 44 -64
c27.333 -20 52.333 -30 75 -30c16.667 0 55 6 115 18z" />
    <glyph glyph-name="uFE8A" unicode="&#x626;" horiz-adv-x="1257" arabic-form="final" 
d="M1288 1l-182.001 0.000976562c-44.667 0 -88.667 -9.66699 -132 -29c-38.667 -17.333 -58 -31.666 -58 -42.999c0 -10 24.667 -19.667 74 -29c105.333 -19.333 163.333 -31 174 -35c50 -17.333 75 -47.333 75 -90c0 -56.667 -12 -101.334 -36 -134.001
c-57.333 -77.333 -151.333 -136.666 -282 -177.999c-108.667 -34 -221 -51 -337 -51c-111.333 0 -202 24.333 -272 73c-80.667 56 -121 137.333 -121 244c0 140 37.667 260.333 113 361c11.333 15.333 20 23 26 23c4 0 6 -3.33301 6 -10
c0 -9.33301 -3.66699 -21.333 -11 -36c-38.667 -78.667 -58 -152.334 -58 -221.001c0 -95.333 42.333 -166.333 127 -213c68.667 -38 154.334 -57 257.001 -57c120.667 0 238 17.667 352 53c102.667 32 154 60.333 154 85c0 12 -20.667 21.667 -62 29l-131 21
c-106 17.333 -159 53.666 -159 108.999c0 60.667 35.667 122.667 107 186c78 68.667 165.333 103 262 103h114v-161zM553.999 332.001c-11.333 -27.333 -24.332 -56.999 -38.999 -88.999c-118.667 -17.333 -216 -41.333 -292 -72c2.66699 9.33301 6.66699 20 12 32
c26.667 33.333 56.667 56 90 68c-50.667 32 -76 59.333 -76 82c0 34 17.667 71 53 111s69.666 60 102.999 60c40 0 60 -16.667 60 -50c0 -34 -7 -59.667 -21 -77c-5.33301 -6.66699 -10.333 -5.33398 -15 3.99902c-13.333 29.333 -37 44 -71 44
c-25.333 0 -38 -12.333 -38 -37c0 -22 14.667 -43.333 44 -64c27.333 -20 52.333 -30 75 -30c16.667 0 55 6 115 18z" />
    <glyph glyph-name="uFE8B" unicode="&#x626;" horiz-adv-x="355" arabic-form="initial" 
d="M298 264c0 -27.333 -7.66699 -62.667 -23 -106c-16 -46 -32.667 -77.333 -50 -94c-44 -42 -107 -63 -189 -63h-65v161h67c28 0 63.333 3.66699 106 11c57.333 10 86 22.333 86 37c0 27.333 -29.333 76 -88 146l68 118c12 21.333 23.333 23.333 34 6
c36 -59.333 54 -131.333 54 -216zM359 779.999c-11.333 -27.333 -24.332 -56.999 -38.999 -88.999c-118.667 -17.333 -216 -41.333 -292 -72c2.66699 9.33301 6.66699 20 12 32c26.667 33.333 56.667 56 90 68c-50.667 32 -76 59.333 -76 82c0 34 17.667 71 53 111
s69.666 60 102.999 60c40 0 60 -16.667 60 -50c0 -34 -7 -59.667 -21 -77c-5.33301 -6.66699 -10.333 -5.33398 -15 3.99902c-13.333 29.333 -37 44 -71 44c-25.333 0 -38 -12.333 -38 -37c0 -22 14.667 -43.333 44 -64c27.333 -20 52.333 -30 75 -30c16.667 0 55 6 115 18z
" />
    <glyph glyph-name="uFE8C" unicode="&#x626;" horiz-adv-x="426" arabic-form="medial" 
d="M456 1h-59c-92 0 -154.333 33.667 -187 101c-44 -67.333 -108 -101 -192 -101h-47v161h77c50.667 0 91 11.667 121 35c18 14 35.333 35.667 52 65c13.333 23.333 23 35 29 35c10 0 19 -17 27 -51c13.333 -56 58.333 -84 135 -84h44v-161zM364 690
c-11.333 -27.333 -24.332 -56.999 -38.999 -88.999c-118.667 -17.333 -216 -41.333 -292 -72c2.66699 9.33301 6.66699 20 12 32c26.667 33.333 56.667 56 90 68c-50.667 32 -76 59.333 -76 82c0 34 17.667 71 53 111s69.666 60 102.999 60c40 0 60 -16.667 60 -50
c0 -34 -7 -59.667 -21 -77c-5.33301 -6.66699 -10.333 -5.33398 -15 3.99902c-13.333 29.333 -37 44 -71 44c-25.333 0 -38 -12.333 -38 -37c0 -22 14.667 -43.333 44 -64c27.333 -20 52.333 -30 75 -30c16.667 0 55 6 115 18z" />
    <glyph glyph-name="uFE8E" unicode="&#x627;" horiz-adv-x="493" arabic-form="final" 
d="M523 1h-84.999c-81.333 0 -134.666 50.333 -159.999 151c-6.66699 26.667 -18.334 136 -35.001 328c-21.333 249.333 -39 419 -53 509c-1.33301 8 25 49.333 79 124c7.33301 10 13.333 15 18 15c5.33301 0 8.66602 -8.33301 9.99902 -25l50 -733
c5.33301 -78 12.333 -127 21 -147c18 -40.667 55.667 -61 113 -61h42v-161z" />
    <glyph glyph-name="uFE90" unicode="&#x628;" horiz-adv-x="1650" arabic-form="final" 
d="M1680 1l-57.0029 0.000976562c-35.333 0 -68.166 10.333 -98.499 31s-50.833 47.334 -61.5 80.001c-40 -64.667 -151.333 -112.334 -334 -143.001c-123.333 -20.667 -250 -31 -380 -31c-147.333 0 -267.666 19.667 -360.999 59
c-131.333 55.333 -197 146.666 -197 273.999c0 99.333 27.667 176.333 83 231c6 6 11.667 9 17 9c10.667 0 12.334 -7.33301 5.00098 -22c-20 -39.333 -30 -82.333 -30 -129c0 -66.667 41.667 -123.334 125 -170.001c106.667 -60 265 -90 475 -90
c281.333 0 461.333 28.333 540 85c28.667 20.667 47.667 47.334 57 80.001c3.33301 12 9.33301 18 18 18s13.667 -5.33301 15 -16c4 -38.667 11.333 -64 22 -76c17.333 -19.333 52.333 -29 105 -29h57v-161zM1034 -419.999l-92 -137l-134 91l95 138z" />
    <glyph glyph-name="uFE91" unicode="&#x628;" horiz-adv-x="299" arabic-form="initial" 
d="M298 264c0 -27.333 -7.66699 -62.667 -23 -106c-16 -46 -32.667 -77.333 -50 -94c-44 -42 -107 -63 -189 -63h-65v161h67c28 0 63.333 3.66699 106 11c57.333 10 86 22.333 86 37c0 27.333 -29.333 76 -88 146l68 118c12 21.333 23.333 23.333 34 6
c36 -59.333 54 -131.333 54 -216zM314 -330.001l-92 -137l-134 91l95 138z" />
    <glyph glyph-name="uFE92" unicode="&#x628;" horiz-adv-x="426" arabic-form="medial" 
d="M456 1h-59c-92 0 -154.333 33.667 -187 101c-44 -67.333 -108 -101 -192 -101h-47v161h77c50.667 0 91 11.667 121 35c18 14 35.333 35.667 52 65c13.333 23.333 23 35 29 35c10 0 19 -17 27 -51c13.333 -56 58.333 -84 135 -84h44v-161zM314 -330l-92 -137l-134 91
l95 138z" />
    <glyph glyph-name="uFE96" unicode="&#x62a;" horiz-adv-x="1650" arabic-form="final" 
d="M1680 1l-57.0029 0.000976562c-35.333 0 -68.166 10.333 -98.499 31s-50.833 47.334 -61.5 80.001c-40 -64.667 -151.333 -112.334 -334 -143.001c-123.333 -20.667 -250 -31 -380 -31c-147.333 0 -267.666 19.667 -360.999 59
c-131.333 55.333 -197 146.666 -197 273.999c0 99.333 27.667 176.333 83 231c6 6 11.667 9 17 9c10.667 0 12.334 -7.33301 5.00098 -22c-20 -39.333 -30 -82.333 -30 -129c0 -66.667 41.667 -123.334 125 -170.001c106.667 -60 265 -90 475 -90
c281.333 0 461.333 28.333 540 85c28.667 20.667 47.667 47.334 57 80.001c3.33301 12 9.33301 18 18 18s13.667 -5.33301 15 -16c4 -38.667 11.333 -64 22 -76c17.333 -19.333 52.333 -29 105 -29h57v-161zM1037 798.001l-79 -121l-123 81l-65 -101l-129 89l82 129l120 -81
l61 95z" />
    <glyph glyph-name="uFE97" unicode="&#x62a;" horiz-adv-x="424" arabic-form="initial" 
d="M298 264c0 -27.333 -7.66699 -62.667 -23 -106c-16 -46 -32.667 -77.333 -50 -94c-44 -42 -107 -63 -189 -63h-65v161h67c28 0 63.333 3.66699 106 11c57.333 10 86 22.333 86 37c0 27.333 -29.333 76 -88 146l68 118c12 21.333 23.333 23.333 34 6
c36 -59.333 54 -131.333 54 -216zM421 829.999l-79 -121l-123 81l-65 -101l-129 89l82 129l120 -81l61 95z" />
    <glyph glyph-name="uFE98" unicode="&#x62a;" horiz-adv-x="426" arabic-form="medial" 
d="M456 1h-59c-92 0 -154.333 33.667 -187 101c-44 -67.333 -108 -101 -192 -101h-47v161h77c50.667 0 91 11.667 121 35c18 14 35.333 35.667 52 65c13.333 23.333 23 35 29 35c10 0 19 -17 27 -51c13.333 -56 58.333 -84 135 -84h44v-161zM397 662l-79 -121l-123 81
l-65 -101l-129 89l82 129l120 -81l61 95z" />
    <glyph glyph-name="uFE9A" unicode="&#x62b;" horiz-adv-x="1650" arabic-form="final" 
d="M1680 1l-57.0029 0.000976562c-35.333 0 -68.166 10.333 -98.499 31s-50.833 47.334 -61.5 80.001c-40 -64.667 -151.333 -112.334 -334 -143.001c-123.333 -20.667 -250 -31 -380 -31c-147.333 0 -267.666 19.667 -360.999 59
c-131.333 55.333 -197 146.666 -197 273.999c0 99.333 27.667 176.333 83 231c6 6 11.667 9 17 9c10.667 0 12.334 -7.33301 5.00098 -22c-20 -39.333 -30 -82.333 -30 -129c0 -66.667 41.667 -123.334 125 -170.001c106.667 -60 265 -90 475 -90
c281.333 0 461.333 28.333 540 85c28.667 20.667 47.667 47.334 57 80.001c3.33301 12 9.33301 18 18 18s13.667 -5.33301 15 -16c4 -38.667 11.333 -64 22 -76c17.333 -19.333 52.333 -29 105 -29h57v-161zM896.997 994.001l-81 -112l-118 78l79 122zM1031 799.001
l-78 -119l-118 74l-65 -92l-121 78l84 126l116 -74l57 87z" />
    <glyph glyph-name="uFE9B" unicode="&#x62b;" horiz-adv-x="400" arabic-form="initial" 
d="M298 264c0 -27.333 -7.66699 -62.667 -23 -106c-16 -46 -32.667 -77.333 -50 -94c-44 -42 -107 -63 -189 -63h-65v161h67c28 0 63.333 3.66699 106 11c57.333 10 86 22.333 86 37c0 27.333 -29.333 76 -88 146l68 118c12 21.333 23.333 23.333 34 6
c36 -59.333 54 -131.333 54 -216zM259 1026l-81 -112l-118 78l79 122zM393 830.999l-78 -119l-118 74l-65 -92l-121 78l84 126l116 -74l57 87z" />
    <glyph glyph-name="uFE9C" unicode="&#x62b;" horiz-adv-x="426" arabic-form="medial" 
d="M456 1h-59c-92 0 -154.333 33.667 -187 101c-44 -67.333 -108 -101 -192 -101h-47v161h77c50.667 0 91 11.667 121 35c18 14 35.333 35.667 52 65c13.333 23.333 23 35 29 35c10 0 19 -17 27 -51c13.333 -56 58.333 -84 135 -84h44v-161zM259 866l-81 -112l-118 78
l79 122zM393 671l-78 -119l-118 74l-65 -92l-121 78l84 126l116 -74l57 87z" />
    <glyph glyph-name="uFE9E" unicode="&#x62c;" horiz-adv-x="1269" arabic-form="final" 
d="M1384 -714c-96.667 -44 -207.668 -90.999 -333.001 -140.999c-60 -14 -138.333 -21 -235 -21c-188 0 -335.667 39.333 -443 118c-123.333 90 -185 225.667 -185 407c0 161.333 55 304.333 165 429c82 92.667 177 160.667 285 204c-101.333 18 -176.666 27 -225.999 27
c-62 0 -106.667 -6.66699 -134 -20c-10 -4.66699 -17 -5.33398 -21 -2.00098c-4.66699 4 -5.66699 12.333 -3 25c22.667 114 95 171 217 171c58 0 144.333 -8 259 -24s201 -24 259 -24h171c9.33301 0 13.333 -2.66699 12 -8l-2 -4l-67 -136
c-22.667 0 -82.667 -5.33301 -180 -16c0 -33.333 9 -57.333 27 -72c30 -24.667 89.667 -37 179 -37h171v-161h-260c-135.333 0 -203 48.333 -203 145c0 32 8 70.333 24 115c-154 -36 -283 -92 -387 -168c-140 -102.667 -210 -229 -210 -379
c0 -155.333 81.333 -270.666 244 -345.999c123.333 -57.333 272 -86 446 -86c156 0 297.333 11.333 424 34c18 3.33301 27 0 27 -10c0 -6.66699 -7 -13.334 -21 -20.001zM843.999 -249.999l-92 -137l-134 91l95 138z" />
    <glyph glyph-name="uFE9F" unicode="&#x62c;" horiz-adv-x="1050" arabic-form="initial" 
d="M1041 362l-41.999 -133.002h-116c-150 0 -266.333 -15.333 -349 -46c-40.667 -15.333 -128.334 -56.333 -263.001 -123c-79.333 -39.333 -152.333 -59 -219 -59h-81v161h88c49.333 0 119 14.333 209 43c121.333 38.667 192 60.334 212 65.001
c11.333 2.66699 17 5.66699 17 9s-5.66699 7 -17 11l-153 53c-50.667 17.333 -93 26 -127 26c-58.667 0 -106.667 -7.66699 -144 -23c-12.667 -5.33301 -21.667 -5.66602 -27 -0.999023s-5 15 1 31c40 109.333 113.333 164 220 164c35.333 0 87.666 -14.333 156.999 -43
c104.667 -43.333 174.334 -70.333 209.001 -81c94 -28.667 190.333 -43 289 -43h128c6 0 9 -2 9 -6c0 -1.33301 -0.333008 -3 -1 -5zM604.001 -210.002l-92 -137l-134 91l95 138z" />
    <glyph glyph-name="uFEA0" unicode="&#x62c;" horiz-adv-x="1146" arabic-form="medial" 
d="M1165 1l-228 -0.00195312c-132.667 0 -199 41.333 -199 124c0 26.667 7.33301 60.334 22 101.001c-117.333 -12.667 -226 -38.667 -326 -78c-13.333 -5.33301 -84 -38.333 -212 -99c-67.333 -32 -124 -48 -170 -48h-81v161h88c50 0 119.667 14.667 209 44
c122 40 192.667 62 212 66c13.333 2.66699 20 5.66699 20 9s-6.66699 7 -20 11l-158 51c-54 17.333 -98 26 -132 26c-52 0 -96.667 -7.66699 -134 -23c-12.667 -5.33301 -21.667 -5.66602 -27 -0.999023s-5 15 1 31c40 109.333 113.333 164 220 164
c35.333 0 87.666 -14.333 156.999 -43c104.667 -43.333 174.334 -70.333 209.001 -81c94 -28.667 190.333 -43 289 -43h128c6 0 9 -2 9 -6c0 -1.33301 -0.333008 -3 -1 -5l-42 -133h-169c0 -32 19.667 -52.333 59 -61c18 -4 55.667 -6 113 -6h163v-161zM564 -210.002
l-92 -137l-134 91l95 138z" />
    <glyph glyph-name="uFEA2" unicode="&#x62d;" horiz-adv-x="1269" arabic-form="final" 
d="M1384 -714c-96.667 -44 -207.668 -90.999 -333.001 -140.999c-60 -14 -138.333 -21 -235 -21c-188 0 -335.667 39.333 -443 118c-123.333 90 -185 225.667 -185 407c0 161.333 55 304.333 165 429c82 92.667 177 160.667 285 204c-101.333 18 -176.666 27 -225.999 27
c-62 0 -106.667 -6.66699 -134 -20c-10 -4.66699 -17 -5.33398 -21 -2.00098c-4.66699 4 -5.66699 12.333 -3 25c22.667 114 95 171 217 171c58 0 144.333 -8 259 -24s201 -24 259 -24h171c9.33301 0 13.333 -2.66699 12 -8l-2 -4l-67 -136
c-22.667 0 -82.667 -5.33301 -180 -16c0 -33.333 9 -57.333 27 -72c30 -24.667 89.667 -37 179 -37h171v-161h-260c-135.333 0 -203 48.333 -203 145c0 32 8 70.333 24 115c-154 -36 -283 -92 -387 -168c-140 -102.667 -210 -229 -210 -379
c0 -155.333 81.333 -270.666 244 -345.999c123.333 -57.333 272 -86 446 -86c156 0 297.333 11.333 424 34c18 3.33301 27 0 27 -10c0 -6.66699 -7 -13.334 -21 -20.001z" />
    <glyph glyph-name="uFEA3" unicode="&#x62d;" horiz-adv-x="1050" arabic-form="initial" 
d="M1041 362l-41.999 -133.002h-116c-150 0 -266.333 -15.333 -349 -46c-40.667 -15.333 -128.334 -56.333 -263.001 -123c-79.333 -39.333 -152.333 -59 -219 -59h-81v161h88c49.333 0 119 14.333 209 43c121.333 38.667 192 60.334 212 65.001
c11.333 2.66699 17 5.66699 17 9s-5.66699 7 -17 11l-153 53c-50.667 17.333 -93 26 -127 26c-58.667 0 -106.667 -7.66699 -144 -23c-12.667 -5.33301 -21.667 -5.66602 -27 -0.999023s-5 15 1 31c40 109.333 113.333 164 220 164c35.333 0 87.666 -14.333 156.999 -43
c104.667 -43.333 174.334 -70.333 209.001 -81c94 -28.667 190.333 -43 289 -43h128c6 0 9 -2 9 -6c0 -1.33301 -0.333008 -3 -1 -5z" />
    <glyph glyph-name="uFEA4" unicode="&#x62d;" horiz-adv-x="1146" arabic-form="medial" 
d="M1165 1l-228 -0.00195312c-132.667 0 -199 41.333 -199 124c0 26.667 7.33301 60.334 22 101.001c-117.333 -12.667 -226 -38.667 -326 -78c-13.333 -5.33301 -84 -38.333 -212 -99c-67.333 -32 -124 -48 -170 -48h-81v161h88c50 0 119.667 14.667 209 44
c122 40 192.667 62 212 66c13.333 2.66699 20 5.66699 20 9s-6.66699 7 -20 11l-158 51c-54 17.333 -98 26 -132 26c-52 0 -96.667 -7.66699 -134 -23c-12.667 -5.33301 -21.667 -5.66602 -27 -0.999023s-5 15 1 31c40 109.333 113.333 164 220 164
c35.333 0 87.666 -14.333 156.999 -43c104.667 -43.333 174.334 -70.333 209.001 -81c94 -28.667 190.333 -43 289 -43h128c6 0 9 -2 9 -6c0 -1.33301 -0.333008 -3 -1 -5l-42 -133h-169c0 -32 19.667 -52.333 59 -61c18 -4 55.667 -6 113 -6h163v-161z" />
    <glyph glyph-name="uFEA6" unicode="&#x62e;" horiz-adv-x="1269" arabic-form="final" 
d="M1384 -714c-96.667 -44 -207.668 -90.999 -333.001 -140.999c-60 -14 -138.333 -21 -235 -21c-188 0 -335.667 39.333 -443 118c-123.333 90 -185 225.667 -185 407c0 161.333 55 304.333 165 429c82 92.667 177 160.667 285 204c-101.333 18 -176.666 27 -225.999 27
c-62 0 -106.667 -6.66699 -134 -20c-10 -4.66699 -17 -5.33398 -21 -2.00098c-4.66699 4 -5.66699 12.333 -3 25c22.667 114 95 171 217 171c58 0 144.333 -8 259 -24s201 -24 259 -24h171c9.33301 0 13.333 -2.66699 12 -8l-2 -4l-67 -136
c-22.667 0 -82.667 -5.33301 -180 -16c0 -33.333 9 -57.333 27 -72c30 -24.667 89.667 -37 179 -37h171v-161h-260c-135.333 0 -203 48.333 -203 145c0 32 8 70.333 24 115c-154 -36 -283 -92 -387 -168c-140 -102.667 -210 -229 -210 -379
c0 -155.333 81.333 -270.666 244 -345.999c123.333 -57.333 272 -86 446 -86c156 0 297.333 11.333 424 34c18 3.33301 27 0 27 -10c0 -6.66699 -7 -13.334 -21 -20.001zM758.999 845.001l-92 -137l-134 91l95 138z" />
    <glyph glyph-name="uFEA7" unicode="&#x62e;" horiz-adv-x="1050" arabic-form="initial" 
d="M1041 362l-41.999 -133.002h-116c-150 0 -266.333 -15.333 -349 -46c-40.667 -15.333 -128.334 -56.333 -263.001 -123c-79.333 -39.333 -152.333 -59 -219 -59h-81v161h88c49.333 0 119 14.333 209 43c121.333 38.667 192 60.334 212 65.001
c11.333 2.66699 17 5.66699 17 9s-5.66699 7 -17 11l-153 53c-50.667 17.333 -93 26 -127 26c-58.667 0 -106.667 -7.66699 -144 -23c-12.667 -5.33301 -21.667 -5.66602 -27 -0.999023s-5 15 1 31c40 109.333 113.333 164 220 164c35.333 0 87.666 -14.333 156.999 -43
c104.667 -43.333 174.334 -70.333 209.001 -81c94 -28.667 190.333 -43 289 -43h128c6 0 9 -2 9 -6c0 -1.33301 -0.333008 -3 -1 -5zM714.001 844.998l-92 -137l-134 91l95 138z" />
    <glyph glyph-name="uFEA8" unicode="&#x62e;" horiz-adv-x="1146" arabic-form="medial" 
d="M1165 1l-228 -0.00195312c-132.667 0 -199 41.333 -199 124c0 26.667 7.33301 60.334 22 101.001c-117.333 -12.667 -226 -38.667 -326 -78c-13.333 -5.33301 -84 -38.333 -212 -99c-67.333 -32 -124 -48 -170 -48h-81v161h88c50 0 119.667 14.667 209 44
c122 40 192.667 62 212 66c13.333 2.66699 20 5.66699 20 9s-6.66699 7 -20 11l-158 51c-54 17.333 -98 26 -132 26c-52 0 -96.667 -7.66699 -134 -23c-12.667 -5.33301 -21.667 -5.66602 -27 -0.999023s-5 15 1 31c40 109.333 113.333 164 220 164
c35.333 0 87.666 -14.333 156.999 -43c104.667 -43.333 174.334 -70.333 209.001 -81c94 -28.667 190.333 -43 289 -43h128c6 0 9 -2 9 -6c0 -1.33301 -0.333008 -3 -1 -5l-42 -133h-169c0 -32 19.667 -52.333 59 -61c18 -4 55.667 -6 113 -6h163v-161zM454 914.998
l-92 -137l-134 91l95 138z" />
    <glyph glyph-name="uFEAA" unicode="&#x62f;" horiz-adv-x="996" arabic-form="final" 
d="M1026 1l-81.001 0.000976562c-108.667 0 -177 82.333 -205 247c-54.667 -138.667 -164 -208 -328 -208c-48 0 -91.333 5 -130 15c-60.667 16 -91 41 -91 75c0 17.333 14.333 72.666 43 165.999c4.66699 16 11.334 24 20.001 24c10.667 0 16.667 -9.33301 18 -28
c5.33301 -62.667 64 -94 176 -94c181.333 0 272 51.333 272 154c0 44.667 -9 111 -27 199s-27 154.333 -27 199c0 18 20.667 60 62 126c7.33301 11.333 13 17 17 17c6 0 10 -8.33301 12 -25l71 -514c18 -128 62.333 -192 133 -192h65v-161z" />
    <glyph glyph-name="uFEAC" unicode="&#x630;" horiz-adv-x="996" arabic-form="final" 
d="M1026 1l-81.001 0.000976562c-108.667 0 -177 82.333 -205 247c-54.667 -138.667 -164 -208 -328 -208c-48 0 -91.333 5 -130 15c-60.667 16 -91 41 -91 75c0 17.333 14.333 72.666 43 165.999c4.66699 16 11.334 24 20.001 24c10.667 0 16.667 -9.33301 18 -28
c5.33301 -62.667 64 -94 176 -94c181.333 0 272 51.333 272 154c0 44.667 -9 111 -27 199s-27 154.333 -27 199c0 18 20.667 60 62 126c7.33301 11.333 13 17 17 17c6 0 10 -8.33301 12 -25l71 -514c18 -128 62.333 -192 133 -192h65v-161zM783.999 1125l-92 -137l-134 91
l95 138z" />
    <glyph glyph-name="uFEAE" unicode="&#x631;" horiz-adv-x="807" arabic-form="final" 
d="M838 1l-54.999 -0.000976562c-34.667 0 -55 -19 -61 -57c-15.333 -96.667 -58 -192 -128 -286c-83.333 -112 -174.666 -168 -273.999 -168c-52 0 -119.667 25 -203 75c-18.667 11.333 -28 21.333 -28 30s8.33301 13 25 13c4 0 10 -0.666992 18 -2
c38.667 -6.66699 73.667 -10 105 -10c57.333 0 107.333 13 150 39c35.333 21.333 80.666 62 135.999 122c25.333 27.333 50.333 60.333 75 99c32 50 48 87.333 48 112c0 22.667 -30.667 67.334 -92 134.001l63 143c5.33301 12.667 12.666 13 21.999 1
c44 -56 84.667 -84 122 -84h77v-161z" />
    <glyph glyph-name="uFEB0" unicode="&#x632;" horiz-adv-x="807" arabic-form="final" 
d="M838 1l-54.999 -0.000976562c-34.667 0 -55 -19 -61 -57c-15.333 -96.667 -58 -192 -128 -286c-83.333 -112 -174.666 -168 -273.999 -168c-52 0 -119.667 25 -203 75c-18.667 11.333 -28 21.333 -28 30s8.33301 13 25 13c4 0 10 -0.666992 18 -2
c38.667 -6.66699 73.667 -10 105 -10c57.333 0 107.333 13 150 39c35.333 21.333 80.666 62 135.999 122c25.333 27.333 50.333 60.333 75 99c32 50 48 87.333 48 112c0 22.667 -30.667 67.334 -92 134.001l63 143c5.33301 12.667 12.666 13 21.999 1
c44 -56 84.667 -84 122 -84h77v-161zM709.001 669.999l-92 -137l-134 91l95 138z" />
    <glyph glyph-name="uFEB2" unicode="&#x633;" horiz-adv-x="1924" arabic-form="final" 
d="M1953 1l-63.001 0.00390625c-72 0 -130.667 51.667 -176 155c-50 -100 -110 -150 -180 -150c-69.333 0 -116.666 40 -141.999 120c-27.333 -46 -56.333 -76.667 -87 -92c-43.333 -22 -115 -33 -215 -33c-14 -187.333 -64 -326 -150 -416
c-91.333 -96 -229.333 -144 -414 -144c-96.667 0 -175.667 26.333 -237 79c-65.333 55.333 -98 130.666 -98 225.999c0 102 45.667 205 137 309c5.33301 6 10.666 9.33301 15.999 10c5.33301 0 8 -2.33301 8 -7s-2.33301 -10 -7 -16c-54 -70 -81 -144.667 -81 -224
c0 -71.333 37.667 -127 113 -167c61.333 -32.667 131 -49 209 -49c71.333 0 142.333 10.333 213 31c86.667 25.333 146.334 61.666 179.001 108.999c19.333 28 29 97.333 29 208c0 39.333 -6.66699 69.666 -20 90.999c-8 13.333 -24 36.333 -48 69
c-5.33301 7.33301 -5.33301 16 0 26l59 115c10 19.333 20.333 19.333 31 0c20.667 -36.667 37 -60 49 -70c16 -13.333 39.667 -20 71 -20c60 0 102 2.66699 126 8c41.333 9.33301 78.333 29.666 111 60.999c12 12 25.667 31.333 41 58c10.667 19.333 21.667 29 33 29
c8 0 12.333 -11 13 -33c1.33301 -28.667 6.66602 -49.667 15.999 -63c16 -22 46.333 -33 91 -33c32.667 0 60.334 12 83.001 36c7.33301 8 20.333 28.333 39 61c12 20.667 20.333 31 25 31c9.33301 0 16.666 -12.667 21.999 -38c26.667 -77.333 74.334 -116 143.001 -116h61
v-161z" />
    <glyph glyph-name="uFEB3" unicode="&#x633;" horiz-adv-x="930" arabic-form="initial" 
d="M928 329c0 -56.667 -11.332 -107.667 -33.999 -153c-28 -56 -66 -84 -114 -84c-60.667 0 -115.334 27.333 -164.001 82c-78 -102 -149.333 -153 -214 -153c-48.667 0 -85.334 8.33301 -110.001 25c-18 12 -36.333 34.667 -55 68c-50 -75.333 -118.667 -113 -206 -113h-61
v161h79c66 0 118 14.667 156 44c22.667 18 43 45.667 61 83c14 29.333 26.667 44 38 44c8 0 12 -6.33301 12 -19c0 -6 -0.5 -14.833 -1.5 -26.5s-1.5 -20.5 -1.5 -26.5c0 -51.333 32.333 -77 97 -77c56 0 102.333 19.333 139 58c22.667 24 44.334 60 65.001 108
c16.667 38.667 28 58 34 58c11.333 0 18.666 -14.667 21.999 -44c4 -35.333 14 -60 30 -74c26 -22.667 52.667 -36.667 80 -42c44 -8 66 -2 66 18c0 18 -11.667 36.667 -35 56c8.66699 40.667 21.334 87 38.001 139c6 18.667 17 20 33 4c30.667 -30.667 46 -76 46 -136z" />
    <glyph glyph-name="uFEB4" unicode="&#x633;" horiz-adv-x="1000" arabic-form="medial" 
d="M1030 1l-73.999 -0.00195312c-28 0 -54.333 13.333 -79 40c-21.333 22.667 -36.333 49 -45 79c-33.333 -75.333 -77 -113 -131 -113c-60.667 0 -108.334 42.333 -143.001 127c-58.667 -84.667 -120.667 -127 -186 -127c-66 0 -111.333 36.333 -136 109
c-56.667 -76.667 -121.667 -115 -195 -115h-69v161h92c92.667 0 158.667 40.333 198 121c14 28.667 25 43 33 43c12 0 18 -10 18 -30c0 2.66699 0 2.33398 0 -0.999023c-0.666992 -4 -1 -9.33301 -1 -16v-17c0 -55.333 29.333 -83 88 -83c50 0 90.333 12.667 121 38
c18 14.667 35.333 38.334 52 71.001c13.333 25.333 24.333 38 33 38c10 0 15.333 -13 16 -39c1.33301 -34 5.66602 -58 12.999 -72c14 -26 41.667 -39 83 -39c34 0 60.667 13 80 39c10.667 14 22.334 38 35.001 72c10 26 19.333 39 28 39c10.667 0 17.667 -14.333 21 -43
c4 -37.333 10.333 -63.333 19 -78c16.667 -28.667 45.667 -43 87 -43h42v-161z" />
    <glyph glyph-name="uFEB6" unicode="&#x634;" horiz-adv-x="1924" arabic-form="final" 
d="M1953 1l-63.001 0.00390625c-72 0 -130.667 51.667 -176 155c-50 -100 -110 -150 -180 -150c-69.333 0 -116.666 40 -141.999 120c-27.333 -46 -56.333 -76.667 -87 -92c-43.333 -22 -115 -33 -215 -33c-14 -187.333 -64 -326 -150 -416
c-91.333 -96 -229.333 -144 -414 -144c-96.667 0 -175.667 26.333 -237 79c-65.333 55.333 -98 130.666 -98 225.999c0 102 45.667 205 137 309c5.33301 6 10.666 9.33301 15.999 10c5.33301 0 8 -2.33301 8 -7s-2.33301 -10 -7 -16c-54 -70 -81 -144.667 -81 -224
c0 -71.333 37.667 -127 113 -167c61.333 -32.667 131 -49 209 -49c71.333 0 142.333 10.333 213 31c86.667 25.333 146.334 61.666 179.001 108.999c19.333 28 29 97.333 29 208c0 39.333 -6.66699 69.666 -20 90.999c-8 13.333 -24 36.333 -48 69
c-5.33301 7.33301 -5.33301 16 0 26l59 115c10 19.333 20.333 19.333 31 0c20.667 -36.667 37 -60 49 -70c16 -13.333 39.667 -20 71 -20c60 0 102 2.66699 126 8c41.333 9.33301 78.333 29.666 111 60.999c12 12 25.667 31.333 41 58c10.667 19.333 21.667 29 33 29
c8 0 12.333 -11 13 -33c1.33301 -28.667 6.66602 -49.667 15.999 -63c16 -22 46.333 -33 91 -33c32.667 0 60.334 12 83.001 36c7.33301 8 20.333 28.333 39 61c12 20.667 20.333 31 25 31c9.33301 0 16.666 -12.667 21.999 -38c26.667 -77.333 74.334 -116 143.001 -116h61
v-161zM1559 890.004l-81 -112l-118 78l79 122zM1693 695.004l-78 -119l-118 74l-65 -92l-121 78l84 126l116 -74l57 87z" />
    <glyph glyph-name="uFEB7" unicode="&#x634;" horiz-adv-x="935" arabic-form="initial" 
d="M928 329c0 -56.667 -11.332 -107.667 -33.999 -153c-28 -56 -66 -84 -114 -84c-60.667 0 -115.334 27.333 -164.001 82c-78 -102 -149.333 -153 -214 -153c-48.667 0 -85.334 8.33301 -110.001 25c-18 12 -36.333 34.667 -55 68c-50 -75.333 -118.667 -113 -206 -113h-61
v161h79c66 0 118 14.667 156 44c22.667 18 43 45.667 61 83c14 29.333 26.667 44 38 44c8 0 12 -6.33301 12 -19c0 -6 -0.5 -14.833 -1.5 -26.5s-1.5 -20.5 -1.5 -26.5c0 -51.333 32.333 -77 97 -77c56 0 102.333 19.333 139 58c22.667 24 44.334 60 65.001 108
c16.667 38.667 28 58 34 58c11.333 0 18.666 -14.667 21.999 -44c4 -35.333 14 -60 30 -74c26 -22.667 52.667 -36.667 80 -42c44 -8 66 -2 66 18c0 18 -11.667 36.667 -35 56c8.66699 40.667 21.334 87 38.001 139c6 18.667 17 20 33 4c30.667 -30.667 46 -76 46 -136z
M633.001 946l-81 -112l-118 78l79 122zM767.001 751l-78 -119l-118 74l-65 -92l-121 78l84 126l116 -74l57 87z" />
    <glyph glyph-name="uFEB8" unicode="&#x634;" horiz-adv-x="1000" arabic-form="medial" 
d="M1030 1l-73.999 -0.00195312c-28 0 -54.333 13.333 -79 40c-21.333 22.667 -36.333 49 -45 79c-33.333 -75.333 -77 -113 -131 -113c-60.667 0 -108.334 42.333 -143.001 127c-58.667 -84.667 -120.667 -127 -186 -127c-66 0 -111.333 36.333 -136 109
c-56.667 -76.667 -121.667 -115 -195 -115h-69v161h92c92.667 0 158.667 40.333 198 121c14 28.667 25 43 33 43c12 0 18 -10 18 -30c0 2.66699 0 2.33398 0 -0.999023c-0.666992 -4 -1 -9.33301 -1 -16v-17c0 -55.333 29.333 -83 88 -83c50 0 90.333 12.667 121 38
c18 14.667 35.333 38.334 52 71.001c13.333 25.333 24.333 38 33 38c10 0 15.333 -13 16 -39c1.33301 -34 5.66602 -58 12.999 -72c14 -26 41.667 -39 83 -39c34 0 60.667 13 80 39c10.667 14 22.334 38 35.001 72c10 26 19.333 39 28 39c10.667 0 17.667 -14.333 21 -43
c4 -37.333 10.333 -63.333 19 -78c16.667 -28.667 45.667 -43 87 -43h42v-161zM601.001 901.998l-81 -112l-118 78l79 122zM735.001 706.998l-78 -119l-118 74l-65 -92l-121 78l84 126l116 -74l57 87z" />
    </font>
</defs>
</svg>
