<?xml version="1.0" standalone="no"?>
<!DOCTYPE svg PUBLIC "-//W3C//DTD SVG 1.1//EN" "http://www.w3.org/Graphics/SVG/1.1/DTD/svg11.dtd" >
<svg>
<metadata>
Created by FontForge 20090914 at Wed Oct 19 01:32:35 2011
 By www-data
(c) by Abolfazl Seilsepour - +98 912 591 3420  -  seilsepor@yahoo.com
</metadata>
<defs>
<font id="Far.Khodkar" horiz-adv-x="0" >
  <font-face 
    font-family="Far.Khodkar"
    font-weight="400"
    font-stretch="normal"
    units-per-em="2048"
    panose-1="0 0 7 0 0 0 0 0 0 0"
    ascent="1638"
    descent="-410"
    bbox="-1362 -1378.02 2324 2531"
    underline-thickness="100"
    underline-position="-580"
    unicode-range="U+0020-U+FEFC"
  />
<missing-glyph horiz-adv-x="1700" 
d="M106 0v1700h1488v-1700h-1488zM1488 106v1488h-1276v-1488h1276z" />
    <glyph glyph-name="uE818" unicode="&#x651;&#x64b;" 
d="M293 2135l-250 -106c-8 -1.33301 -12 7 -12 25c0 16 4.66699 26 14 30l251 106c6.66699 0 10 -7.33301 10 -22c0 -18 -4.33301 -29 -13 -33zM293 1975l-249 -106c-8.66699 0 -13 8.66699 -13 26c0 16 4.66699 26 14 30l251 106c7.33301 0 11 -7.66699 11 -23
c0 -18 -4.66699 -29 -14 -33zM186 1717c-28 -57.333 -57.668 -86 -89.001 -86c-46.667 0 -70 31 -70 93c0 56.667 11 85 33 85c6 0 9 -4.66699 9 -14l-1 -17l-2 -20c0 -20 9.33301 -30 28 -30c32 0 54.333 33.333 67 100c4 22 8 33 12 33c10 0 16 -9.66699 18 -29
c0 -29.333 13.333 -44 40 -44c20.667 0 34.334 26.667 41.001 80c3.33301 32 9.33301 48 18 48c19.333 0 29 -36.333 29 -109c0 -32.667 -9.16699 -61.5 -27.5 -86.5s-38.5 -37.5 -60.5 -37.5c-17.333 0 -32.333 11.333 -45 34z" />
    <glyph glyph-name="uFC5E" unicode="&#x651;&#x64c;" arabic-form="isolated" 
d="M351 2058c21.333 -9.33301 34.333 -16.499 39 -21.499s7 -13.5 7 -25.5l-4 -49c-24.667 0 -58 10.667 -100 32c-32 -48 -69 -86 -111 -114c-20 -13.333 -38 -23.333 -54 -30s-30.333 -10 -43 -10s-23 2.66699 -31 8v12l31 19c16.667 30 25 62.667 25 98
c0 24.667 -7.66699 37 -23 37c-6 0 -17.667 -7.66699 -35 -23c-8 -7.33301 -14.667 -12 -20 -14c-6 0 -9 2.33301 -9 7c0 12 12 30 36 54s46 36 66 36c29.333 0 44 -17 44 -51c0 -30.667 -14 -72 -42 -124c52 25.333 97 62.333 135 111c-40 23.333 -60 54.333 -60 92.999
c0 33.333 15.833 69 47.5 107s59.167 57 82.5 57c16 0 29.333 -9.33301 40 -28l12 -30l4 -34c0 -36.667 -12.333 -75.667 -37 -117zM317 2074c12.667 23.333 19 44.667 19 64c0 38.667 -14.333 58 -43 58c-24 0 -36 -15.667 -36 -47c0 -34 20 -59 60 -75zM251 1701
c-29.333 -57.333 -59.001 -86 -89.001 -86c-46.667 0 -70 31 -70 93c0 56.667 11 85 33 85c6 0 9 -4.66699 9 -14l-1 -17l-2 -20c0 -20 9.33301 -30 28 -30c30 0 52.333 33.333 67 100c4 22 7.66699 33 11 33c10 0 16.333 -9.66699 19 -29c0 -29.333 13 -44 39 -44
c22 0 36 26.667 42 80c3.33301 32 9.33301 48 18 48c18.667 0 28 -36.333 28 -109c0 -32.667 -9.16699 -61.5 -27.5 -86.5s-38.166 -37.5 -59.499 -37.5c-17.333 0 -32.333 11.333 -45 34z" />
    <glyph glyph-name="uFC5F" unicode="&#x651;&#x64d;" arabic-form="isolated" 
d="M451 2531c0 -199.333 -45.334 -299 -136.001 -299c-29.333 0 -53 10.333 -71 31c-29.333 -68 -70.666 -102 -123.999 -102c-70 0 -105 47.333 -105 142c0 35.333 5 74.666 15 118l97 15c-14.667 -44 -22 -79.333 -22 -106c0 -27.333 8.33301 -41 25 -41
c32 0 53.667 58 65 174l100 31c-2 -24 -3 -45 -3 -63c0 -46.667 7.66699 -70 23 -70c22 0 35.667 13.333 41 40c0.666992 4 2.66699 38.333 6 103zM445.999 2202l-2 -110l-399 -201v110zM443.999 1911l-400 -200v110l400 201v-111z" />
    <glyph glyph-name="uFC60" unicode="&#x651;&#x64e;" arabic-form="isolated" 
d="M284 1920l-250 -106c-8 -1.33301 -12 7 -12 25c0 16 4.66699 26 14 30l251 106c6.66699 0 10 -7.33301 10 -22c0 -18 -4.33301 -29 -13 -33zM177 1661c-28 -57.333 -57.666 -86 -88.999 -86c-46.667 0 -70 31 -70 93c0 56.667 11 85 33 85c6 0 9 -4.66699 9 -14l-1 -17
l-2 -20c0 -20 9.33301 -30 28 -30c30 0 52.333 33.333 67 100c4 22 8 33 12 33c10 0 16 -9.66699 18 -29c0 -29.333 13 -44 39 -44c22 0 36 26.667 42 80c3.33301 32 9.33301 48 18 48c18.667 0 28 -36.333 28 -109c0 -32.667 -8.83301 -61.5 -26.5 -86.5
s-37.834 -37.5 -60.501 -37.5c-17.333 0 -32.333 11.333 -45 34z" />
    <glyph glyph-name="uFC61" unicode="&#x651;&#x64f;" arabic-form="isolated" 
d="M299 2062c24.667 -10 39.168 -17.5 43.501 -22.5s6.5 -14.5 6.5 -28.5v-50c-15.333 0 -39 7.33301 -71 22l-34 15c-76.667 -98.667 -142.667 -148 -198 -148c-12 0 -22.333 2.33301 -31 7v13c94 40 159.667 87.667 197 143c-42 25.333 -63 55 -63 89
c0 27.333 15.167 62.5 45.5 105.5s58.166 64.5 83.499 64.5c12.667 0 25.5 -10 38.5 -30s19.5 -41.667 19.5 -65c0 -30 -12.333 -68.333 -37 -115zM268.001 2077c12 20 18 41 18 63c0 40.667 -13.667 61 -41 61c-26 0 -39 -16.667 -39 -50c0 -37.333 20.667 -62 62 -74z
M206.001 1704c-29.333 -57.333 -59.332 -86 -89.999 -86c-46 0 -69 31 -69 93c0 56.667 10.667 85 32 85c6 0 9.33301 -4.66699 10 -14l-1 -17l-2 -20c0 -20 9.33301 -30 28 -30c31.333 0 53.333 33.333 66 100c4 22 8 33 12 33c10 0 16.333 -12.333 19 -37
c0 -24 13 -36 39 -36c22 0 36 26.667 42 80c3.33301 32 9 48 17 48c19.333 0 29 -36.333 29 -109c0 -32.667 -8.83301 -61.5 -26.5 -86.5s-37.834 -37.5 -60.501 -37.5c-18 0 -33 11.333 -45 34z" />
    <glyph glyph-name="uFC62" unicode="&#x651;&#x650;" arabic-form="isolated" 
d="M458 2407c0 -199.333 -45.334 -299 -136.001 -299c-29.333 0 -53 10.333 -71 31c-29.333 -68 -70.666 -102 -123.999 -102c-70 0 -105 47.333 -105 142c0 35.333 5 74.666 15 118l97 15c-14.667 -44 -22 -79.333 -22 -106c0 -27.333 8.33301 -41 25 -41
c32 0 53.667 58 65 174l100 31c-2 -24 -3 -45 -3 -63c0 -46.667 7.66699 -70 23 -70c22 0 35.667 13.333 41 40c0.666992 4 2.66699 38.333 6 103zM452.999 2078l-2 -110l-399 -201v110z" />
    <glyph glyph-name="uFDF2" unicode="&#xfedf;&#xfee0;&#xfeea;" horiz-adv-x="656" arabic-form="isolated" 
d="M156 828c-2.66699 12 -4.00195 23.999 -4.00195 35.999c0 44.667 16 67 48 67c23.333 0 42.166 -9 56.499 -27s23.833 -43.667 28.5 -77l6 -24l6 -25l9 -39c6 -28.667 10.5 -58.167 13.5 -88.5s5.16699 -61.5 6.5 -93.5
c2.66699 -43.333 0.333984 -92.666 -6.99902 -147.999c-4 -25.333 -9 -49.666 -15 -72.999s-12.667 -40 -20 -50c-11.333 -18 -22.333 -31.833 -33 -41.5s-20.334 -14.5 -29.001 -14.5c-7.33301 0 -13.166 2.83301 -17.499 8.5s-6.16602 14.167 -5.49902 25.5
c7.33301 41.333 11 84.666 11 129.999c0 44.667 -4.66699 103 -14 175s-22.666 158.333 -39.999 259zM86.998 244.999c7.33301 17.333 17.332 26.002 29.999 26.002c4.66699 0 19 -9.66699 43 -29c4 -4 8.33301 -7.33301 13 -10s10 -4.66699 16 -6c24 -10 46 -15 66 -15
c64 0 120 40 168 120c38.667 62.667 60.334 124 65.001 184l4 50.5c1.33301 17.667 2 36.834 2 57.501v28c0 10 -0.333008 20.667 -1 32l-2 68.5c-0.666992 22.333 -1.66699 44.166 -3 65.499c-1.33301 62.667 23.334 94 74.001 94c23.333 0 42.666 -9.66699 57.999 -29
c20 -28.667 30 -62 30 -100v-17c0 -6 -0.666992 -11.333 -2 -16c-2 -67.333 -3.83301 -119.833 -5.5 -157.5s-2.83398 -59.5 -3.50098 -65.5c-6 -44 -16 -89.333 -30 -136s-33 -92.334 -57 -137.001c-14 -24 -32.167 -47.5 -54.5 -70.5s-47.833 -46.167 -76.5 -69.5
c-34 -26.667 -66.667 -46.5 -98 -59.5s-60.666 -19.5 -87.999 -19.5c-68 0 -116 40.333 -144 121c-6.66699 15.333 -10 32 -10 50c0 15.333 2 28.666 6 39.999zM-391.003 72.001c-45.333 40.667 -68 88.332 -68 142.999c0 48 11 94.167 33 138.5s56.333 88.833 103 133.5
c-12 12.667 -21.833 25.834 -29.5 39.501s-11.5 27.167 -11.5 40.5c0 12 2.83301 23.5 8.5 34.5s13.834 22.5 24.501 34.5c14.667 14 30.667 21 48 21c12.667 0 22 -5 28 -15s9 -22.333 9 -37c5.33301 -11.333 37.333 -33.666 96 -66.999
c38.667 -26 72.167 -49.833 100.5 -71.5s51.833 -41.834 70.5 -60.501c62 -61.333 94.333 -125 97 -191c1.33301 -48 -33.334 -94.333 -104.001 -139c-70 -42.667 -145.667 -64 -227 -64c-70 0 -129.333 20 -178 60z" />
    <glyph glyph-name="uFEF5" unicode="&#xfedf;&#xfe82;" horiz-adv-x="656" arabic-form="isolated" 
d="M156 828c-2.66699 12 -4.00195 23.999 -4.00195 35.999c0 44.667 16 67 48 67c23.333 0 42.166 -9 56.499 -27s23.833 -43.667 28.5 -77l6 -24l6 -25l9 -39c6 -28.667 10.5 -58.167 13.5 -88.5s5.16699 -61.5 6.5 -93.5
c2.66699 -43.333 0.333984 -92.666 -6.99902 -147.999c-4 -25.333 -9 -49.666 -15 -72.999s-12.667 -40 -20 -50c-11.333 -18 -22.333 -31.833 -33 -41.5s-20.334 -14.5 -29.001 -14.5c-7.33301 0 -13.166 2.83301 -17.499 8.5s-6.16602 14.167 -5.49902 25.5
c7.33301 41.333 11 84.666 11 129.999c0 44.667 -4.66699 103 -14 175s-22.666 158.333 -39.999 259zM86.998 244.999c7.33301 17.333 17.332 26.002 29.999 26.002c4.66699 0 19 -9.66699 43 -29c4 -4 8.33301 -7.33301 13 -10s10 -4.66699 16 -6c24 -10 46 -15 66 -15
c64 0 120 40 168 120c38.667 62.667 60.334 124 65.001 184l4 50.5c1.33301 17.667 2 36.834 2 57.501v28c0 10 -0.333008 20.667 -1 32l-2 68.5c-0.666992 22.333 -1.66699 44.166 -3 65.499c-1.33301 62.667 23.334 94 74.001 94c23.333 0 42.666 -9.66699 57.999 -29
c20 -28.667 30 -62 30 -100v-17c0 -6 -0.666992 -11.333 -2 -16c-2 -67.333 -3.83301 -119.833 -5.5 -157.5s-2.83398 -59.5 -3.50098 -65.5c-6 -44 -16 -89.333 -30 -136s-33 -92.334 -57 -137.001c-14 -24 -32.167 -47.5 -54.5 -70.5s-47.833 -46.167 -76.5 -69.5
c-34 -26.667 -66.667 -46.5 -98 -59.5s-60.666 -19.5 -87.999 -19.5c-68 0 -116 40.333 -144 121c-6.66699 15.333 -10 32 -10 50c0 15.333 2 28.666 6 39.999z" />
    <glyph glyph-name="uFEF6" unicode="&#xfee0;&#xfe82;" horiz-adv-x="803" arabic-form="final" 
d="M121 258c8 0 29.998 -12.3389 65.998 -37.0059c17.333 -10.667 37 -19 59 -25s45 -8 69 -6c-3.33301 74 -10.166 142 -20.499 204s-24.166 117 -41.499 165c-16 40 -31 79.667 -45 119l-43 120c-4 12.667 -6.83301 24.5 -8.5 35.5s-2.5 21.167 -2.5 30.5
c0 48 17 72 51 72c14.667 0 28.167 -5.33301 40.5 -16s23.5 -25.667 33.5 -45c40.667 -82.667 72.334 -167.5 95.001 -254.5s34 -171.833 34 -254.5c0 -25.333 -0.833008 -51 -2.5 -77s-4.5 -51 -8.5 -75c0 -3.33301 -0.333008 -5.33301 -1 -6c16 0 37.333 26 64 78h-1
c32 68.667 48 148 48 238c0 26 -1.5 53.333 -4.5 82s-6.83301 58 -11.5 88c-12.667 61.333 -19 112 -19 152c0 17.333 1 32 3 44c10 34 29.333 51 58 51c16.667 0 31.5 -4.66699 44.5 -14s22.833 -20.666 29.5 -33.999c13.333 -35.333 24.333 -75.333 33 -120
s13 -91 13 -139c0 -9.33301 -0.166992 -19.666 -0.5 -30.999s-0.833008 -22.333 -1.5 -33c-2 -33.333 -3.5 -63.666 -4.5 -90.999s-1.5 -52.666 -1.5 -75.999c0 -59.333 3 -103.666 9 -132.999c12 -52 65.667 -80.333 161 -85v-185h-37c-46 0 -86.333 12.667 -121 38
c-35.333 27.333 -59 60.333 -71 99l-15 50c-1.33301 -1.33301 -10.333 -19 -27 -53c-8.66699 -20.667 -20.5 -39.167 -35.5 -55.5s-32.167 -31.166 -51.5 -44.499c-20 -12 -43.333 -22 -70 -30s-56.667 -13 -90 -15c-66.667 -2 -120.334 22 -161.001 72
c-16 19.333 -28.5 40.833 -37.5 64.5s-13.5 47.167 -13.5 70.5c0 41.333 12 62 36 62z" />
    <glyph glyph-name="uFEF7" unicode="&#xfedf;&#xfe84;" horiz-adv-x="656" arabic-form="isolated" 
d="M156 828c-2.66699 12 -4.00195 23.999 -4.00195 35.999c0 44.667 16 67 48 67c23.333 0 42.166 -9 56.499 -27s23.833 -43.667 28.5 -77l6 -24l6 -25l9 -39c6 -28.667 10.5 -58.167 13.5 -88.5s5.16699 -61.5 6.5 -93.5
c2.66699 -43.333 0.333984 -92.666 -6.99902 -147.999c-4 -25.333 -9 -49.666 -15 -72.999s-12.667 -40 -20 -50c-11.333 -18 -22.333 -31.833 -33 -41.5s-20.334 -14.5 -29.001 -14.5c-7.33301 0 -13.166 2.83301 -17.499 8.5s-6.16602 14.167 -5.49902 25.5
c7.33301 41.333 11 84.666 11 129.999c0 44.667 -4.66699 103 -14 175s-22.666 158.333 -39.999 259zM86.998 244.999c7.33301 17.333 17.332 26.002 29.999 26.002c4.66699 0 19 -9.66699 43 -29c4 -4 8.33301 -7.33301 13 -10s10 -4.66699 16 -6c24 -10 46 -15 66 -15
c64 0 120 40 168 120c38.667 62.667 60.334 124 65.001 184l4 50.5c1.33301 17.667 2 36.834 2 57.501v28c0 10 -0.333008 20.667 -1 32l-2 68.5c-0.666992 22.333 -1.66699 44.166 -3 65.499c-1.33301 62.667 23.334 94 74.001 94c23.333 0 42.666 -9.66699 57.999 -29
c20 -28.667 30 -62 30 -100v-17c0 -6 -0.666992 -11.333 -2 -16c-2 -67.333 -3.83301 -119.833 -5.5 -157.5s-2.83398 -59.5 -3.50098 -65.5c-6 -44 -16 -89.333 -30 -136s-33 -92.334 -57 -137.001c-14 -24 -32.167 -47.5 -54.5 -70.5s-47.833 -46.167 -76.5 -69.5
c-34 -26.667 -66.667 -46.5 -98 -59.5s-60.666 -19.5 -87.999 -19.5c-68 0 -116 40.333 -144 121c-6.66699 15.333 -10 32 -10 50c0 15.333 2 28.666 6 39.999z" />
    <glyph glyph-name="uFEF8" unicode="&#xfee0;&#xfe84;" horiz-adv-x="803" arabic-form="final" 
d="M121 258c8 0 29.998 -12.3389 65.998 -37.0059c17.333 -10.667 37 -19 59 -25s45 -8 69 -6c-3.33301 74 -10.166 142 -20.499 204s-24.166 117 -41.499 165c-16 40 -31 79.667 -45 119l-43 120c-4 12.667 -6.83301 24.5 -8.5 35.5s-2.5 21.167 -2.5 30.5
c0 48 17 72 51 72c14.667 0 28.167 -5.33301 40.5 -16s23.5 -25.667 33.5 -45c40.667 -82.667 72.334 -167.5 95.001 -254.5s34 -171.833 34 -254.5c0 -25.333 -0.833008 -51 -2.5 -77s-4.5 -51 -8.5 -75c0 -3.33301 -0.333008 -5.33301 -1 -6c16 0 37.333 26 64 78h-1
c32 68.667 48 148 48 238c0 26 -1.5 53.333 -4.5 82s-6.83301 58 -11.5 88c-12.667 61.333 -19 112 -19 152c0 17.333 1 32 3 44c10 34 29.333 51 58 51c16.667 0 31.5 -4.66699 44.5 -14s22.833 -20.666 29.5 -33.999c13.333 -35.333 24.333 -75.333 33 -120
s13 -91 13 -139c0 -9.33301 -0.166992 -19.666 -0.5 -30.999s-0.833008 -22.333 -1.5 -33c-2 -33.333 -3.5 -63.666 -4.5 -90.999s-1.5 -52.666 -1.5 -75.999c0 -59.333 3 -103.666 9 -132.999c12 -52 65.667 -80.333 161 -85v-185h-37c-46 0 -86.333 12.667 -121 38
c-35.333 27.333 -59 60.333 -71 99l-15 50c-1.33301 -1.33301 -10.333 -19 -27 -53c-8.66699 -20.667 -20.5 -39.167 -35.5 -55.5s-32.167 -31.166 -51.5 -44.499c-20 -12 -43.333 -22 -70 -30s-56.667 -13 -90 -15c-66.667 -2 -120.334 22 -161.001 72
c-16 19.333 -28.5 40.833 -37.5 64.5s-13.5 47.167 -13.5 70.5c0 41.333 12 62 36 62z" />
    <glyph glyph-name="uFEF9" unicode="&#xfedf;&#xfe88;" horiz-adv-x="656" arabic-form="isolated" 
d="M156 828c-2.66699 12 -4.00195 23.999 -4.00195 35.999c0 44.667 16 67 48 67c23.333 0 42.166 -9 56.499 -27s23.833 -43.667 28.5 -77l6 -24l6 -25l9 -39c6 -28.667 10.5 -58.167 13.5 -88.5s5.16699 -61.5 6.5 -93.5
c2.66699 -43.333 0.333984 -92.666 -6.99902 -147.999c-4 -25.333 -9 -49.666 -15 -72.999s-12.667 -40 -20 -50c-11.333 -18 -22.333 -31.833 -33 -41.5s-20.334 -14.5 -29.001 -14.5c-7.33301 0 -13.166 2.83301 -17.499 8.5s-6.16602 14.167 -5.49902 25.5
c7.33301 41.333 11 84.666 11 129.999c0 44.667 -4.66699 103 -14 175s-22.666 158.333 -39.999 259zM86.998 244.999c7.33301 17.333 17.332 26.002 29.999 26.002c4.66699 0 19 -9.66699 43 -29c4 -4 8.33301 -7.33301 13 -10s10 -4.66699 16 -6c24 -10 46 -15 66 -15
c64 0 120 40 168 120c38.667 62.667 60.334 124 65.001 184l4 50.5c1.33301 17.667 2 36.834 2 57.501v28c0 10 -0.333008 20.667 -1 32l-2 68.5c-0.666992 22.333 -1.66699 44.166 -3 65.499c-1.33301 62.667 23.334 94 74.001 94c23.333 0 42.666 -9.66699 57.999 -29
c20 -28.667 30 -62 30 -100v-17c0 -6 -0.666992 -11.333 -2 -16c-2 -67.333 -3.83301 -119.833 -5.5 -157.5s-2.83398 -59.5 -3.50098 -65.5c-6 -44 -16 -89.333 -30 -136s-33 -92.334 -57 -137.001c-14 -24 -32.167 -47.5 -54.5 -70.5s-47.833 -46.167 -76.5 -69.5
c-34 -26.667 -66.667 -46.5 -98 -59.5s-60.666 -19.5 -87.999 -19.5c-68 0 -116 40.333 -144 121c-6.66699 15.333 -10 32 -10 50c0 15.333 2 28.666 6 39.999z" />
    <glyph glyph-name="uFEFA" unicode="&#xfee0;&#xfe88;" horiz-adv-x="803" arabic-form="final" 
d="M121 258c8 0 29.998 -12.3389 65.998 -37.0059c17.333 -10.667 37 -19 59 -25s45 -8 69 -6c-3.33301 74 -10.166 142 -20.499 204s-24.166 117 -41.499 165c-16 40 -31 79.667 -45 119l-43 120c-4 12.667 -6.83301 24.5 -8.5 35.5s-2.5 21.167 -2.5 30.5
c0 48 17 72 51 72c14.667 0 28.167 -5.33301 40.5 -16s23.5 -25.667 33.5 -45c40.667 -82.667 72.334 -167.5 95.001 -254.5s34 -171.833 34 -254.5c0 -25.333 -0.833008 -51 -2.5 -77s-4.5 -51 -8.5 -75c0 -3.33301 -0.333008 -5.33301 -1 -6c16 0 37.333 26 64 78h-1
c32 68.667 48 148 48 238c0 26 -1.5 53.333 -4.5 82s-6.83301 58 -11.5 88c-12.667 61.333 -19 112 -19 152c0 17.333 1 32 3 44c10 34 29.333 51 58 51c16.667 0 31.5 -4.66699 44.5 -14s22.833 -20.666 29.5 -33.999c13.333 -35.333 24.333 -75.333 33 -120
s13 -91 13 -139c0 -9.33301 -0.166992 -19.666 -0.5 -30.999s-0.833008 -22.333 -1.5 -33c-2 -33.333 -3.5 -63.666 -4.5 -90.999s-1.5 -52.666 -1.5 -75.999c0 -59.333 3 -103.666 9 -132.999c12 -52 65.667 -80.333 161 -85v-185h-37c-46 0 -86.333 12.667 -121 38
c-35.333 27.333 -59 60.333 -71 99l-15 50c-1.33301 -1.33301 -10.333 -19 -27 -53c-8.66699 -20.667 -20.5 -39.167 -35.5 -55.5s-32.167 -31.166 -51.5 -44.499c-20 -12 -43.333 -22 -70 -30s-56.667 -13 -90 -15c-66.667 -2 -120.334 22 -161.001 72
c-16 19.333 -28.5 40.833 -37.5 64.5s-13.5 47.167 -13.5 70.5c0 41.333 12 62 36 62z" />
    <glyph glyph-name="uFEFB" unicode="&#xfedf;&#xfe8e;" horiz-adv-x="656" arabic-form="isolated" 
d="M156 828c-2.66699 12 -4.00195 23.999 -4.00195 35.999c0 44.667 16 67 48 67c23.333 0 42.166 -9 56.499 -27s23.833 -43.667 28.5 -77l6 -24l6 -25l9 -39c6 -28.667 10.5 -58.167 13.5 -88.5s5.16699 -61.5 6.5 -93.5
c2.66699 -43.333 0.333984 -92.666 -6.99902 -147.999c-4 -25.333 -9 -49.666 -15 -72.999s-12.667 -40 -20 -50c-11.333 -18 -22.333 -31.833 -33 -41.5s-20.334 -14.5 -29.001 -14.5c-7.33301 0 -13.166 2.83301 -17.499 8.5s-6.16602 14.167 -5.49902 25.5
c7.33301 41.333 11 84.666 11 129.999c0 44.667 -4.66699 103 -14 175s-22.666 158.333 -39.999 259zM86.998 244.999c7.33301 17.333 17.332 26.002 29.999 26.002c4.66699 0 19 -9.66699 43 -29c4 -4 8.33301 -7.33301 13 -10s10 -4.66699 16 -6c24 -10 46 -15 66 -15
c64 0 120 40 168 120c38.667 62.667 60.334 124 65.001 184l4 50.5c1.33301 17.667 2 36.834 2 57.501v28c0 10 -0.333008 20.667 -1 32l-2 68.5c-0.666992 22.333 -1.66699 44.166 -3 65.499c-1.33301 62.667 23.334 94 74.001 94c23.333 0 42.666 -9.66699 57.999 -29
c20 -28.667 30 -62 30 -100v-17c0 -6 -0.666992 -11.333 -2 -16c-2 -67.333 -3.83301 -119.833 -5.5 -157.5s-2.83398 -59.5 -3.50098 -65.5c-6 -44 -16 -89.333 -30 -136s-33 -92.334 -57 -137.001c-14 -24 -32.167 -47.5 -54.5 -70.5s-47.833 -46.167 -76.5 -69.5
c-34 -26.667 -66.667 -46.5 -98 -59.5s-60.666 -19.5 -87.999 -19.5c-68 0 -116 40.333 -144 121c-6.66699 15.333 -10 32 -10 50c0 15.333 2 28.666 6 39.999z" />
    <glyph glyph-name="uFEFC" unicode="&#xfee0;&#xfe8e;" horiz-adv-x="803" arabic-form="final" 
d="M121 258c8 0 29.998 -12.3389 65.998 -37.0059c17.333 -10.667 37 -19 59 -25s45 -8 69 -6c-3.33301 74 -10.166 142 -20.499 204s-24.166 117 -41.499 165c-16 40 -31 79.667 -45 119l-43 120c-4 12.667 -6.83301 24.5 -8.5 35.5s-2.5 21.167 -2.5 30.5
c0 48 17 72 51 72c14.667 0 28.167 -5.33301 40.5 -16s23.5 -25.667 33.5 -45c40.667 -82.667 72.334 -167.5 95.001 -254.5s34 -171.833 34 -254.5c0 -25.333 -0.833008 -51 -2.5 -77s-4.5 -51 -8.5 -75c0 -3.33301 -0.333008 -5.33301 -1 -6c16 0 37.333 26 64 78h-1
c32 68.667 48 148 48 238c0 26 -1.5 53.333 -4.5 82s-6.83301 58 -11.5 88c-12.667 61.333 -19 112 -19 152c0 17.333 1 32 3 44c10 34 29.333 51 58 51c16.667 0 31.5 -4.66699 44.5 -14s22.833 -20.666 29.5 -33.999c13.333 -35.333 24.333 -75.333 33 -120
s13 -91 13 -139c0 -9.33301 -0.166992 -19.666 -0.5 -30.999s-0.833008 -22.333 -1.5 -33c-2 -33.333 -3.5 -63.666 -4.5 -90.999s-1.5 -52.666 -1.5 -75.999c0 -59.333 3 -103.666 9 -132.999c12 -52 65.667 -80.333 161 -85v-185h-37c-46 0 -86.333 12.667 -121 38
c-35.333 27.333 -59 60.333 -71 99l-15 50c-1.33301 -1.33301 -10.333 -19 -27 -53c-8.66699 -20.667 -20.5 -39.167 -35.5 -55.5s-32.167 -31.166 -51.5 -44.499c-20 -12 -43.333 -22 -70 -30s-56.667 -13 -90 -15c-66.667 -2 -120.334 22 -161.001 72
c-16 19.333 -28.5 40.833 -37.5 64.5s-13.5 47.167 -13.5 70.5c0 41.333 12 62 36 62z" />
    <glyph glyph-name="u0622" unicode="&#x622;" horiz-adv-x="1106" arabic-form="isolated" 
d="M63 805c66.667 100 124.163 180.501 172.496 241.501s87.833 102.833 118.5 125.5c56.667 42 143.334 62 260.001 60c16 -0.666992 36 -2.5 60 -5.5s51.333 -7.83301 82 -14.5c28 -5.33301 57 -9.5 87 -12.5s60.333 -3.5 91 -1.5c64 1.33301 125.333 21.333 184 60
c16 9.33301 31.333 19.833 46 31.5s29.334 24.5 44.001 38.5c16.667 14.667 37.334 22 62.001 22c41.333 0 62 -15.667 62 -47c0 -8.66699 -2.33301 -18.834 -7 -30.501s-11.667 -24.5 -21 -38.5c-38.667 -46 -88.334 -83 -149.001 -111s-132.667 -48.333 -216 -61
c-7.33301 -0.666992 -14.333 -1 -21 -1h-22c-14.667 0 -32.167 1.33301 -52.5 4l-72.5 10c-35.333 7.33301 -67.166 13 -95.499 17s-53.166 7.33301 -74.499 10h-29c-30.667 0 -60.167 -5.5 -88.5 -16.5s-55.166 -26.167 -80.499 -45.5c-20 -16 -40.833 -36.333 -62.5 -61
s-42.834 -52.667 -63.501 -84l-53 -82.5l-53 -81.5c-16 -22.667 -40.667 -34 -74 -34c-38 0 -57 15.333 -57 46c0 19.333 7.66699 40 23 62zM162.996 181.001c0 8.66699 8.00195 26.6709 24.002 54.0039s37.667 61.333 65 102c25.333 40.667 52.166 86.667 80.499 138
s54.166 104.666 77.499 159.999c38.667 99.333 72 176.666 100 231.999s49.333 86.333 64 93v-1c21.333 13.333 42 20 62 20c36.667 0 65.667 -24.667 87 -74c18 -46 28 -106.333 30 -181v-36c0 -122 -10.667 -215.333 -32 -280v1
c-20.667 -76.667 -69.667 -155.667 -147 -237c-38 -41.333 -73 -74 -105 -98s-61.333 -39 -88 -45l1 1c-14 -8.66699 -28.167 -14.834 -42.5 -18.501s-28.5 -5.5 -42.5 -5.5c-47.333 0 -71 26.333 -71 79v24c8 64.667 51 97 129 97c11.333 0 20.5 -0.333008 27.5 -1
s13.833 -2.33398 20.5 -5.00098c0 -0.666992 12.333 8.66602 37 27.999c13.333 11.333 27.833 24.833 43.5 40.5s31.5 32.834 47.5 51.501c58.667 76 88 188 88 336v25c0 8.66699 -0.333008 17.334 -1 26.001c-1.33301 55.333 -10.666 83 -27.999 83h-6.5
c-3 0 -5.5 -0.666992 -7.5 -2c-18 11.333 -75 -97 -171 -325c-35.333 -80 -68 -144.333 -98 -193s-56.333 -81.334 -79 -98.001c-14.667 -16 -28.334 -24 -41.001 -24c-16 0 -24 11 -24 33z" />
    <glyph glyph-name="u0623" unicode="&#x623;" horiz-adv-x="475" arabic-form="isolated" 
d="M179 150c25.333 12 57.3379 43.3359 96.0049 94.0029c18 24 35.5 54.5 52.5 91.5s32.167 79.833 45.5 128.5c8 32 14.167 63 18.5 93s6.5 56.667 6.5 80c0 6.66699 -0.166992 13.5 -0.5 20.5s-0.833008 14.5 -1.5 22.5c-4 32 -8.66699 56.833 -14 74.5
s-10 28.167 -14 31.5c-6 -3.33301 -20.667 -40 -44 -110c-18.667 -49.333 -32.834 -90.333 -42.501 -123s-15.834 -57 -18.501 -73c-2 -9.33301 -3.16699 -19.833 -3.5 -31.5s-0.5 -22.5 -0.5 -32.5c0 -44.667 6 -91.334 18 -140.001
c-6.66699 -29.333 -16.334 -42.666 -29.001 -39.999c-23.333 -2 -48.333 5 -75 21c-30 23.333 -44 50.333 -42 81c0 19.333 4.16699 47.5 12.5 84.5s21.5 82.5 39.5 136.5v-1l50 165.5c12 41 20.333 68.5 25 82.5c0.666992 2 1 3.83301 1 5.5s0.333008 2.83398 1 3.50098h-1
c3.33301 7.33301 5 18.333 5 33c0 7.33301 -0.5 15.166 -1.5 23.499l-3.5 29.5c-2.66699 38.667 0 64.667 8 78c9.33301 14 18.666 25.333 27.999 34s19.666 13.667 30.999 15c50.667 10.667 100 -64 148 -224v1c4 -8.66699 7.16699 -17.334 9.5 -26.001
s4.16602 -17.667 5.49902 -27c9.33301 -32.667 15.5 -64.334 18.5 -95.001s4.5 -62 4.5 -94c0 -112.667 -24.333 -222.334 -73 -329.001c-20.667 -40.667 -42.667 -76.667 -66 -108s-46.666 -57.333 -69.999 -78c-17.333 -13.333 -33.333 -22 -48 -26
c-62 -5.33301 -98 12 -108 52c-8.66699 38 2 63.667 32 77v-1z" />
    <glyph glyph-name="u0624" unicode="&#x624;" horiz-adv-x="654" arabic-form="isolated" 
d="M-32 -372c10 10.667 42.667 26.0029 98 46.0029c34.667 12 71 27.333 109 46s73.5 39.667 106.5 63s61.5 48.166 85.5 74.499s38.333 53.166 43 80.499c-9.33301 0 -19.833 2 -31.5 6s-22.167 9 -31.5 15c-30.667 24 -46 56.333 -46 97c0 16 2.33301 32 7 48
c16 68 39.5 121.667 70.5 161s66.833 62.666 107.5 69.999c52 8 91.167 -3.83301 117.5 -35.5s39.5 -81.5 39.5 -149.5c0 -31.333 -3 -62 -9 -92s-15.667 -59 -29 -87c-87.333 -183.333 -235 -309.333 -443 -378c-28 -8 -53 -14.167 -75 -18.5s-41.667 -6.5 -59 -6.5
c-46.667 0 -70 12.667 -70 38c0 10 3.66699 17.333 11 22h-1z" />
    <glyph glyph-name="u0625" unicode="&#x625;" horiz-adv-x="475" arabic-form="isolated" 
d="M179 150c25.333 12 57.3379 43.3359 96.0049 94.0029c18 24 35.5 54.5 52.5 91.5s32.167 79.833 45.5 128.5c8 32 14.167 63 18.5 93s6.5 56.667 6.5 80c0 6.66699 -0.166992 13.5 -0.5 20.5s-0.833008 14.5 -1.5 22.5c-4 32 -8.66699 56.833 -14 74.5
s-10 28.167 -14 31.5c-6 -3.33301 -20.667 -40 -44 -110c-18.667 -49.333 -32.834 -90.333 -42.501 -123s-15.834 -57 -18.501 -73c-2 -9.33301 -3.16699 -19.833 -3.5 -31.5s-0.5 -22.5 -0.5 -32.5c0 -44.667 6 -91.334 18 -140.001
c-6.66699 -29.333 -16.334 -42.666 -29.001 -39.999c-23.333 -2 -48.333 5 -75 21c-30 23.333 -44 50.333 -42 81c0 19.333 4.16699 47.5 12.5 84.5s21.5 82.5 39.5 136.5v-1l50 165.5c12 41 20.333 68.5 25 82.5c0.666992 2 1 3.83301 1 5.5s0.333008 2.83398 1 3.50098h-1
c3.33301 7.33301 5 18.333 5 33c0 7.33301 -0.5 15.166 -1.5 23.499l-3.5 29.5c-2.66699 38.667 0 64.667 8 78c9.33301 14 18.666 25.333 27.999 34s19.666 13.667 30.999 15c50.667 10.667 100 -64 148 -224v1c4 -8.66699 7.16699 -17.334 9.5 -26.001
s4.16602 -17.667 5.49902 -27c9.33301 -32.667 15.5 -64.334 18.5 -95.001s4.5 -62 4.5 -94c0 -112.667 -24.333 -222.334 -73 -329.001c-20.667 -40.667 -42.667 -76.667 -66 -108s-46.666 -57.333 -69.999 -78c-17.333 -13.333 -33.333 -22 -48 -26
c-62 -5.33301 -98 12 -108 52c-8.66699 38 2 63.667 32 77v-1z" />
    <glyph glyph-name="u0626" unicode="&#x626;" horiz-adv-x="1115" arabic-form="isolated" 
d="M-516 -193c-12.667 13.333 -20.333 31.998 -23 55.998c-2 22.667 13.333 34 46 34c14.667 0 28.667 -1.66699 42 -5c25.333 -4.66699 52.666 -7 81.999 -7c18 0 36.833 1 56.5 3s39.5 5 59.5 9c57.333 13.333 115 30.166 173 50.499s115 43.333 171 69
s109.833 54.334 161.5 86.001s99.5 65.834 143.5 102.501c94.667 78 172.5 145 233.5 201s106.833 102 137.5 138c31.333 34.667 57 65 77 91l32 37c10 11.333 18.333 21.333 25 30c62.667 53.333 113.334 80 152.001 80c44 0 66 -21.333 66 -64
c0 -7.33301 -1.33301 -14.666 -4 -21.999c-6.66699 -35.333 -18.334 -57 -35.001 -65c-23.333 -12 -44.666 -25.167 -63.999 -39.5s-35.666 -28.166 -48.999 -41.499l-361 -351c-68.667 -64.667 -138.834 -124.334 -210.501 -179.001s-145.167 -104 -220.5 -148
c-74 -43.333 -146.667 -76.833 -218 -100.5s-140 -37.5 -206 -41.5c-6 -0.666992 -12.5 -1 -19.5 -1h-19.5c-112 0 -188 26 -228 78z" />
    <glyph glyph-name="u0627" unicode="&#x627;" horiz-adv-x="475" arabic-form="isolated" 
d="M179 150c25.333 12 57.3379 43.3359 96.0049 94.0029c18 24 35.5 54.5 52.5 91.5s32.167 79.833 45.5 128.5c8 32 14.167 63 18.5 93s6.5 56.667 6.5 80c0 6.66699 -0.166992 13.5 -0.5 20.5s-0.833008 14.5 -1.5 22.5c-4 32 -8.66699 56.833 -14 74.5
s-10 28.167 -14 31.5c-6 -3.33301 -20.667 -40 -44 -110c-18.667 -49.333 -32.834 -90.333 -42.501 -123s-15.834 -57 -18.501 -73c-2 -9.33301 -3.16699 -19.833 -3.5 -31.5s-0.5 -22.5 -0.5 -32.5c0 -44.667 6 -91.334 18 -140.001
c-6.66699 -29.333 -16.334 -42.666 -29.001 -39.999c-23.333 -2 -48.333 5 -75 21c-30 23.333 -44 50.333 -42 81c0 19.333 4.16699 47.5 12.5 84.5s21.5 82.5 39.5 136.5v-1l50 165.5c12 41 20.333 68.5 25 82.5c0.666992 2 1 3.83301 1 5.5s0.333008 2.83398 1 3.50098h-1
c3.33301 7.33301 5 18.333 5 33c0 7.33301 -0.5 15.166 -1.5 23.499l-3.5 29.5c-2.66699 38.667 0 64.667 8 78c9.33301 14 18.666 25.333 27.999 34s19.666 13.667 30.999 15c50.667 10.667 100 -64 148 -224v1c4 -8.66699 7.16699 -17.334 9.5 -26.001
s4.16602 -17.667 5.49902 -27c9.33301 -32.667 15.5 -64.334 18.5 -95.001s4.5 -62 4.5 -94c0 -112.667 -24.333 -222.334 -73 -329.001c-20.667 -40.667 -42.667 -76.667 -66 -108s-46.666 -57.333 -69.999 -78c-17.333 -13.333 -33.333 -22 -48 -26
c-62 -5.33301 -98 12 -108 52c-8.66699 38 2 63.667 32 77v-1z" />
    <glyph glyph-name="u0628" unicode="&#x628;" horiz-adv-x="2315" arabic-form="isolated" 
d="M935 -413c21.333 24 41.667 36.001 61 36.001c18.667 0 35 -10.667 49 -32c11.333 -20.667 16 -40 14 -58c-6.66699 -33.333 -18 -60.5 -34 -81.5s-36 -31.5 -60 -31.5c-46.667 0 -70 25.333 -70 76c0 29.333 13.333 59.666 40 90.999zM66.001 157.001
c-5.33301 40.667 10.665 60.9971 47.998 60.9971c16.667 0 32.667 -4.66699 48 -14c108 -74.667 282.333 -131 523 -169c34.667 -6 69.334 -10.333 104.001 -13s70 -4 106 -4c76 0 153.667 6.83301 233 20.5s159.333 33.167 240 58.5
c94.667 31.333 204.334 83.333 329.001 156s262.667 165.667 414 279c23.333 18 42.833 31.833 58.5 41.5s27.5 16.167 35.5 19.5c6 1.33301 12 2.5 18 3.5s11.333 1.5 16 1.5c49.333 0 74 -24.667 74 -74c0 -28.667 -21.667 -59 -65 -91l-332.5 -223l-160.5 -110
c-262.667 -153.333 -515.667 -240.666 -759 -261.999l-63 -4c-21.333 -1.33301 -42.333 -2 -63 -2c-172 0 -336.333 27.333 -493 82c-62.667 22.667 -116.5 46.834 -161.5 72.501s-80.5 52.5 -106.5 80.5c-12 14 -21.667 28.333 -29 43s-12 30.334 -14 47.001z" />
    <glyph glyph-name="u0629" unicode="&#x629;" horiz-adv-x="746" arabic-form="isolated" 
d="M320 226c0 -46.667 32.666 -69.999 97.999 -69.999c36 0 66 6.66699 90 20c26.667 13.333 40 31.333 40 54c0 44 -52 92 -156 144c-17.333 -14 -33.666 -35.333 -48.999 -64c-8.66699 -16 -14.667 -30.833 -18 -44.5s-5 -26.834 -5 -39.501zM233.999 56.001
c-42 37.333 -63 80.6689 -63 130.002c0 43.333 10.167 85.166 30.5 125.499s52.166 80.833 95.499 121.5c-11.333 11.333 -20.5 23.166 -27.5 35.499s-10.5 24.5 -10.5 36.5c0 11.333 2.5 22 7.5 32s12.5 20.333 22.5 31c14 12.667 29 19 45 19
c11.333 0 19.833 -4.5 25.5 -13.5s8.5 -20.167 8.5 -33.5c4.66699 -10.667 34.334 -31 89.001 -61c36 -23.333 67.167 -44.833 93.5 -64.5s48.166 -38.167 65.499 -55.5c57.333 -55.333 87.333 -113 90 -173c1.33301 -43.333 -30.667 -85.333 -96 -126
c-65.333 -38.667 -135.666 -58 -210.999 -58c-65.333 0 -120.333 18 -165 54z" />
    <glyph glyph-name="u062A" unicode="&#x62a;" horiz-adv-x="2303" arabic-form="isolated" 
d="M771 725c50 19.333 99.001 36.5 147.001 51.5l137 41.5c161.333 46 293.833 79.833 397.5 101.5s179.5 32.5 227.5 32.5c60 0 90 -15.333 90 -46c0 -19.333 -26.667 -36.666 -80 -51.999c-20.667 -6 -41.5 -11.167 -62.5 -15.5s-40.5 -7.83301 -58.5 -10.5l-347.5 -107
c-101.667 -32.667 -184.834 -61.667 -249.501 -87l-156 -65c-48 -20 -92.333 -39.333 -133 -58l-36 -15c-6.66699 -2 -12.5 -3.33301 -17.5 -4s-11.167 -1 -18.5 -1c-36 0 -60 18 -72 54c-2.66699 9.33301 -4 19.666 -4 30.999c0 32.667 18 60 54 82zM60.001 157
c-3.33301 40.667 12.668 60.999 48.001 60.999c18.667 0 35.667 -4.66699 51 -14c53.333 -37.333 123.666 -70 210.999 -98s191 -51.667 311 -71c34.667 -6 69.5 -10.333 104.5 -13s70.167 -4 105.5 -4c74.667 0 151.834 6.83301 231.501 20.5s159.5 33.167 239.5 58.5
c96 31.333 206.5 83.333 331.5 156s262.833 165.667 413.5 279c23.333 18 42.666 31.833 57.999 41.5s27.333 16.167 36 19.5l18 3.5c5.33301 1 11 1.5 17 1.5c48.667 0 73 -24.667 73 -74c0 -28.667 -21.667 -59 -65 -91l-333 -223l-161 -110
c-132 -78 -260.833 -138.333 -386.5 -181s-249.167 -69.667 -370.5 -81l-64.5 -4c-21 -1.33301 -42.167 -2 -63.5 -2c-170.667 0 -334.667 27.333 -492 82c-126 46 -216 97 -270 153c-10.667 14 -20 28.333 -28 43s-13 30.334 -15 47.001z" />
    <glyph glyph-name="u062B" unicode="&#x62b;" horiz-adv-x="2282" arabic-form="isolated" 
d="M852 911c4 26 12.1689 50.002 24.502 72.002s28.166 41.667 47.499 59c18.667 14.667 39.834 26.667 63.501 36s47.834 14 72.501 14c46 1.33301 85.833 -4.66699 119.5 -18s60.834 -35 81.501 -65c42 -53.333 62.333 -109 61 -167c0 -72.667 -29.333 -137.667 -88 -195
c-28.667 -27.333 -58.5 -50.666 -89.5 -69.999s-63.833 -34 -98.5 -44c-68 -19.333 -115.667 -27 -143 -23c-20.667 7.33301 -31 18 -31 32c0 13.333 14 28.666 42 45.999c101.333 39.333 172.666 80 213.999 122c40.667 43.333 61 83.333 61 120
c0 37.333 -13.333 69 -40 95c-11.333 11.333 -24.333 20.166 -39 26.499s-28.334 9.83301 -41.001 10.5c-36 -4 -63.5 -14.167 -82.5 -30.5s-28.5 -38.833 -28.5 -67.5c0 -32 11 -58.667 33 -80c20.667 -23.333 31 -46 31 -68c0 -42 -23.333 -63 -70 -63
c-8.66699 0 -16.834 1.83301 -24.501 5.5s-14.834 8.16699 -21.501 13.5c-40 33.333 -60 93.666 -60 180.999c0 10.667 0.5 20.5 1.5 29.5s2.5 18.5 4.5 28.5zM28.002 157.002c-5.33301 40.667 10.668 60.999 48.001 60.999c16 0 33 -4.66699 51 -14
c52.667 -36 123.667 -68.333 213 -97s192 -52.667 308 -72c33.333 -6 67.833 -10.333 103.5 -13s71.167 -4 106.5 -4c74.667 0 151.667 6.83301 231 20.5s159.666 33.167 240.999 58.5c94.667 31.333 204.334 83.166 329.001 155.499s262.667 165.5 414 279.5
c23.333 17.333 43 31 59 41s27.667 16.667 35 20c6 1.33301 12 2.5 18 3.5s12 1.5 18 1.5c48 0 72 -24.667 72 -74c0 -28.667 -21.667 -59 -65 -91c-276.667 -184.667 -441 -295.667 -493 -333c-262.667 -153.333 -515.667 -240.666 -759 -261.999l-62 -4
c-20.667 -1.33301 -41.334 -2 -62.001 -2c-173.333 0 -338 27.333 -494 82c-62 22.667 -115.667 46.834 -161 72.501s-81 52.5 -107 80.5s-40.667 58 -44 90z" />
    <glyph glyph-name="u062C" unicode="&#x62c;" horiz-adv-x="872" arabic-form="isolated" 
d="M537 -528c-20.667 13.333 -30.999 29.666 -30.999 48.999c0 18.667 10 42.334 30 71.001c0.666992 2.66699 2 6 4 10s4 6.66699 6 8l9 13c3.33301 4.66699 6.66602 9 9.99902 13c2 16 14.333 24 37 24c48 0 72 -18.333 72 -55c0 -8 -2.33301 -16.667 -7 -26
c-30.667 -76 -63 -114 -97 -114c-11.333 0 -22.333 2 -33 6v1zM693.001 562c4.66699 12.667 7.00098 27.002 7.00098 43.002c0 53.333 -26 80 -78 80c-8 0 -16 -1.33301 -24 -4s-16.333 -7.66699 -25 -15c-10 -6.66699 -17.833 -12.334 -23.5 -17.001
s-9.83398 -8.33398 -12.501 -11.001c-33.333 -32.667 -50 -77 -50 -133c0 -55.333 18.333 -122 55 -200c41.333 48 74.833 93.167 100.5 135.5s42.5 82.833 50.5 121.5zM171.002 -156.998l71.0029 102.497c25.333 35 51.666 68.833 78.999 101.5l77.5 91.5l64.5 76.5
c-68.667 96 -103 202.333 -103 319c0 88 20 164.667 60 230c40 66.667 96.667 110.334 170 131.001c28 7.33301 55.333 11 82 11c68.667 0 119 -22.667 151 -68c32.667 -45.333 49 -97.333 49 -156c0 -48 -8 -92.667 -24 -134c-19.333 -40 -39.333 -77.5 -60 -112.5
s-42.334 -68.833 -65.001 -101.5l-52.5 -71l-52.5 -72l57 -63.5l36 -37.5c11.333 -20 17 -38.667 17 -56c0 -29.333 -14.667 -44 -44 -44c-11.333 0 -21.333 3.33301 -30 10c-31.333 28 -56.5 51.333 -75.5 70s-31.833 33 -38.5 43
c-49.333 -54.667 -95.333 -110.834 -138 -168.501s-83.334 -116.5 -122.001 -176.5c-76.667 -124.667 -115 -233 -115 -325c0 -93.333 27 -171.333 81 -234c30 -33.333 68 -58.666 114 -75.999s100.333 -26 163 -26c126 0 242.333 31 349 93h-1c58 36.667 102 55 132 55
c16 0 27 -5.66699 33 -17c18.667 -32.667 3.33398 -70.334 -45.999 -113.001c-75.333 -51.333 -150.833 -91.666 -226.5 -120.999s-153.167 -47.333 -232.5 -54c-11.333 -0.666992 -22 -1.16699 -32 -1.5s-20 -0.5 -30 -0.5c-130 0 -237.667 32.333 -323 97
c-48 38 -84.833 83.833 -110.5 137.5s-38.5 115.5 -38.5 185.5c0 70.667 14.667 145.334 44 224.001s72.666 162.334 129.999 251.001z" />
    <glyph glyph-name="u062D" unicode="&#x62d;" horiz-adv-x="872" arabic-form="isolated" 
d="M693 562c4.66699 12.667 7.00098 27.002 7.00098 43.002c0 53.333 -26 80 -78 80c-8 0 -16 -1.33301 -24 -4s-16.333 -7.66699 -25 -15c-10 -6.66699 -17.833 -12.334 -23.5 -17.001s-9.83398 -8.33398 -12.501 -11.001c-33.333 -32.667 -50 -77 -50 -133
c0 -55.333 18.333 -122 55 -200c41.333 48 74.833 93.167 100.5 135.5s42.5 82.833 50.5 121.5zM171.001 -156.998l71.0029 102.497c25.333 35 51.666 68.833 78.999 101.5l77.5 91.5l64.5 76.5c-68.667 96 -103 202.333 -103 319c0 88 20 164.667 60 230
c40 66.667 96.667 110.334 170 131.001c28 7.33301 55.333 11 82 11c68.667 0 119 -22.667 151 -68c32.667 -45.333 49 -97.333 49 -156c0 -48 -8 -92.667 -24 -134c-19.333 -40 -39.333 -77.5 -60 -112.5s-42.334 -68.833 -65.001 -101.5l-52.5 -71l-52.5 -72l57 -63.5
l36 -37.5c11.333 -20 17 -38.667 17 -56c0 -29.333 -14.667 -44 -44 -44c-11.333 0 -21.333 3.33301 -30 10c-31.333 28 -56.5 51.333 -75.5 70s-31.833 33 -38.5 43c-49.333 -54.667 -95.333 -110.834 -138 -168.501s-83.334 -116.5 -122.001 -176.5
c-76.667 -124.667 -115 -233 -115 -325c0 -93.333 27 -171.333 81 -234c30 -33.333 68 -58.666 114 -75.999s100.333 -26 163 -26c126 0 242.333 31 349 93h-1c58 36.667 102 55 132 55c16 0 27 -5.66699 33 -17c18.667 -32.667 3.33398 -70.334 -45.999 -113.001
c-75.333 -51.333 -150.833 -91.666 -226.5 -120.999s-153.167 -47.333 -232.5 -54c-11.333 -0.666992 -22 -1.16699 -32 -1.5s-20 -0.5 -30 -0.5c-130 0 -237.667 32.333 -323 97c-48 38 -84.833 83.833 -110.5 137.5s-38.5 115.5 -38.5 185.5
c0 70.667 14.667 145.334 44 224.001s72.666 162.334 129.999 251.001z" />
    <glyph glyph-name="u062E" unicode="&#x62e;" horiz-adv-x="888" arabic-form="isolated" 
d="M689 1265c23.333 24 44.998 36.001 64.998 36.001c18 0 34 -11 48 -33c5.33301 -8.66699 9.33301 -18.334 12 -29.001s3.33398 -21 2.00098 -31c-11.333 -76 -43.666 -114 -96.999 -114c-48.667 0 -73 26 -73 78c0 28 14.333 59 43 93zM708.998 562.001
c4.66699 12.667 7.00098 27.002 7.00098 43.002c0 53.333 -26 80 -78 80c-8 0 -16 -1.33301 -24 -4s-16.333 -7.66699 -25 -15c-10 -6.66699 -17.833 -12.334 -23.5 -17.001s-9.83398 -8.33398 -12.501 -11.001c-33.333 -32.667 -50 -77 -50 -133
c0 -55.333 18.333 -122 55 -200c41.333 48 74.833 93.167 100.5 135.5s42.5 82.833 50.5 121.5zM186.999 -156.997l71.0029 102.497c25.333 35 51.666 68.833 78.999 101.5l77.5 91.5l64.5 76.5c-68.667 96 -103 202.333 -103 319c0 88 20 164.667 60 230
c40 66.667 96.667 110.334 170 131.001c28 7.33301 55.333 11 82 11c68.667 0 119 -22.667 151 -68c32.667 -45.333 49 -97.333 49 -156c0 -48 -8 -92.667 -24 -134c-19.333 -40 -39.333 -77.5 -60 -112.5s-42.334 -68.833 -65.001 -101.5l-52.5 -71l-52.5 -72l57 -63.5
l36 -37.5c11.333 -20 17 -38.667 17 -56c0 -29.333 -14.667 -44 -44 -44c-11.333 0 -21.333 3.33301 -30 10c-31.333 28 -56.5 51.333 -75.5 70s-31.833 33 -38.5 43c-49.333 -54.667 -95.333 -110.834 -138 -168.501s-83.334 -116.5 -122.001 -176.5
c-76.667 -124.667 -115 -233 -115 -325c0 -93.333 27 -171.333 81 -234c30 -33.333 68 -58.666 114 -75.999s100.333 -26 163 -26c126 0 242.333 31 349 93h-1c58 36.667 102 55 132 55c16 0 27 -5.66699 33 -17c18.667 -32.667 3.33398 -70.334 -45.999 -113.001
c-75.333 -51.333 -150.833 -91.666 -226.5 -120.999s-153.167 -47.333 -232.5 -54c-11.333 -0.666992 -22 -1.16699 -32 -1.5s-20 -0.5 -30 -0.5c-130 0 -237.667 32.333 -323 97c-48 38 -84.833 83.833 -110.5 137.5s-38.5 115.5 -38.5 185.5
c0 70.667 14.667 145.334 44 224.001s72.666 162.334 129.999 251.001z" />
    <glyph glyph-name="u062F" unicode="&#x62f;" horiz-adv-x="626" arabic-form="isolated" 
d="M12 -176c0 25.333 10.6689 47.6631 32.002 66.9961c11.333 9.33301 22.833 16.833 34.5 22.5s23.834 8.83398 36.501 9.50098c15.333 0 29.333 0.166992 42 0.5s22.667 1.16602 30 2.49902c13.333 2.66699 30.666 12.334 51.999 29.001s44.666 37.334 69.999 62.001
c31.333 34 55.666 68.333 72.999 103s26 68 26 100c0 40 -13.667 76.667 -41 110c-32 45.333 -48 84 -48 116c0 45.333 22.333 68 67 68c28.667 0 53.334 -11.667 74.001 -35c60 -72.667 90 -152 90 -238c0 -44 -7.5 -87.167 -22.5 -129.5s-38.833 -84.166 -71.5 -125.499
c-22.667 -28 -47.334 -54.667 -74.001 -80s-57 -49.666 -91 -72.999c-38 -24.667 -72.667 -43.667 -104 -57s-60.333 -20.333 -87 -21c-58.667 0 -88 23 -88 69z" />
    <glyph glyph-name="u0630" unicode="&#x630;" horiz-adv-x="616" arabic-form="isolated" 
d="M250 832c20.667 24 40.668 36 60.001 36c23.333 0 40.666 -11.667 51.999 -35c5.33301 -10.667 8.83301 -21 10.5 -31s1.5 -19.333 -0.5 -28c-6 -33.333 -16.667 -60.5 -32 -81.5s-35 -31.5 -59 -31.5c-48 0 -72 26.333 -72 79c0 15.333 3.16699 30.5 9.5 45.5
s16.833 30.5 31.5 46.5zM-1.99902 -181c0 12.667 2.83008 24.8359 8.49707 36.5029s13.334 22 23.001 31s20.834 16.167 33.501 21.5s25.667 8.66602 39 9.99902c14 0 27 0.333008 39 1s22.333 1.33398 31 2.00098c13.333 2 30.833 10.833 52.5 26.5s45.5 37.167 71.5 64.5
c30 33.333 53.667 67.666 71 102.999s26 68.666 26 99.999c0 20 -3.5 39.333 -10.5 58s-15.833 36.334 -26.5 53.001c-16 21.333 -28.667 42.166 -38 62.499s-14 38.833 -14 55.5c0 43.333 22.333 65 67 65c28.667 0 53.667 -11.667 75 -35
c28 -36 50.167 -74.167 66.5 -114.5s24.5 -81.5 24.5 -123.5c0 -42.667 -8.16699 -85.834 -24.5 -129.501s-39.833 -85.5 -70.5 -125.5c-21.333 -27.333 -46 -54 -74 -80s-58.667 -50.333 -92 -73c-37.333 -25.333 -71.166 -44.333 -101.499 -57s-58.833 -19.667 -85.5 -21
c-60.667 0 -91 23 -91 69z" />
    <glyph glyph-name="u0631" unicode="&#x631;" horiz-adv-x="716" arabic-form="isolated" 
d="M-63 -336c27.333 12 59.335 31.166 96.002 57.499s77.667 59 123 98s94 83.667 146 134l166 165.5c38 41.333 70.667 73 98 95s49 33 65 33c46 0.666992 74 -21 84 -65c4.66699 -20.667 1.83398 -40.5 -8.49902 -59.5s-25.833 -35.5 -46.5 -49.5
c-46.667 -32 -92.834 -67 -138.501 -105s-89.5 -78 -131.5 -120c-155.333 -150 -274.333 -238 -357 -264c-24.667 -7.33301 -46.834 -12.666 -66.501 -15.999s-37.834 -5 -54.501 -5c-36 0 -54 9.33301 -54 28c0 22 26.333 46.333 79 73z" />
    <glyph glyph-name="u0632" unicode="&#x632;" horiz-adv-x="780" arabic-form="isolated" 
d="M545 636c21.333 24.667 41.666 36.999 60.999 36.999c22.667 0 40 -11.667 52 -35h-2c6.66699 -9.33301 11.334 -19.166 14.001 -29.499s3.33398 -19.833 2.00098 -28.5c-6.66699 -36 -17.334 -63.5 -32.001 -82.5s-34.667 -28.5 -60 -28.5c-50 0 -75 26 -75 78
c0 28 13.333 57.667 40 89zM0 -336.001c27.333 12 59.332 31.165 95.999 57.498s77.667 59 123 98s94 83.667 146 134l165 165.5c38.667 41.333 71.334 73 98.001 95s48 33 64 33c46.667 0.666992 74.667 -21 84 -65c5.33301 -20.667 2.5 -40.5 -8.5 -59.5
s-26.5 -35.5 -46.5 -49.5c-46 -32 -91.833 -67.167 -137.5 -105.5s-89.5 -78.166 -131.5 -119.499c-158.667 -151.333 -277 -239.333 -355 -264c-24.667 -7.33301 -47.167 -12.666 -67.5 -15.999s-38.833 -5 -55.5 -5c-35.333 0 -53 9.33301 -53 28
c0 22 26.333 46.333 79 73z" />
    <glyph glyph-name="u0633" unicode="&#x633;" horiz-adv-x="1030" arabic-form="isolated" 
d="M-1213 -558c-19.333 17.333 -27.999 37.3311 -25.999 59.998c0 22.667 12.333 34 37 34c11.333 -1.33301 21.833 -2.33301 31.5 -3s17.834 -1.66699 24.501 -3c13.333 -2.66699 26.166 -4.33398 38.499 -5.00098s25.166 -1 38.499 -1c43.333 0 90.166 4.5 140.499 13.5
s105.5 22.833 165.5 41.5c78 24.667 169 68.834 273 132.501s222 148.5 354 254.5c262.667 208 402.667 330.667 420 368c6.66699 0 11.334 -2 14.001 -6c24 -11.333 48.333 -20 73 -26s48.334 -9 71.001 -9c26.667 0 59.334 3.66699 98.001 11
c34 8.66699 68.5 21.334 103.5 38.001s67.833 36.334 98.5 59.001c38.667 33.333 79 76.333 121 129c18 22 33.167 38.333 45.5 49s20.833 17 25.5 19c20.667 5.33301 41 2 61 -10c10 -7.33301 16.667 -15 20 -23s4.66602 -17.667 3.99902 -29l-23 -55.5
c-6.66699 -15.667 -14 -27.834 -22 -36.501c-26.667 -40 -57.834 -77.333 -93.501 -112s-75.167 -66 -118.5 -94c-98.667 -62.667 -201.334 -94 -308.001 -94c-24.667 0 -48 1.33301 -70 4s-44.333 7.33398 -67 14.001c-54 -52 -115.667 -106.833 -185 -164.5l-218 -176.5
l-198 -151l-132 -94c-102.667 -69.333 -198.167 -122.333 -286.5 -159s-165.166 -55 -230.499 -55c-68 0 -125.167 7 -171.5 21s-82.5 34 -108.5 60v-1z" />
    <glyph glyph-name="u0634" unicode="&#x634;" horiz-adv-x="1030" arabic-form="isolated" 
d="M-1213 -558c-19.333 17.333 -27.999 37.3311 -25.999 59.998c0 22.667 12.333 34 37 34c11.333 -1.33301 21.833 -2.33301 31.5 -3s17.834 -1.66699 24.501 -3c13.333 -2.66699 26.166 -4.33398 38.499 -5.00098s25.166 -1 38.499 -1c43.333 0 90.166 4.5 140.499 13.5
s105.5 22.833 165.5 41.5c78 24.667 169 68.834 273 132.501s222 148.5 354 254.5c262.667 208 402.667 330.667 420 368c6.66699 0 11.334 -2 14.001 -6c24 -11.333 48.333 -20 73 -26s48.334 -9 71.001 -9c26.667 0 59.334 3.66699 98.001 11
c34 8.66699 68.5 21.334 103.5 38.001s67.833 36.334 98.5 59.001c38.667 33.333 79 76.333 121 129c18 22 33.167 38.333 45.5 49s20.833 17 25.5 19c20.667 5.33301 41 2 61 -10c10 -7.33301 16.667 -15 20 -23s4.66602 -17.667 3.99902 -29l-23 -55.5
c-6.66699 -15.667 -14 -27.834 -22 -36.501c-26.667 -40 -57.834 -77.333 -93.501 -112s-75.167 -66 -118.5 -94c-98.667 -62.667 -201.334 -94 -308.001 -94c-24.667 0 -48 1.33301 -70 4s-44.333 7.33398 -67 14.001c-54 -52 -115.667 -106.833 -185 -164.5l-218 -176.5
l-198 -151l-132 -94c-102.667 -69.333 -198.167 -122.333 -286.5 -159s-165.166 -55 -230.499 -55c-68 0 -125.167 7 -171.5 21s-82.5 34 -108.5 60v-1zM375.001 1169c4 28 12.167 52.834 24.5 74.501s28.166 40.5 47.499 56.5c40 33.333 86 50 138 50
c92 4 158.667 -23.333 200 -82c42.667 -53.333 63 -108.666 61 -165.999c0 -74 -29 -139 -87 -195c-58 -55.333 -121.333 -93.666 -190 -114.999c-70 -18.667 -117 -25.334 -141 -20.001c-22 4.66699 -33 14.667 -33 30c0 12 14 26.667 42 44
c102.667 41.333 174.334 82.666 215.001 123.999c41.333 41.333 62 81.666 62 120.999c0 35.333 -13.333 66.333 -40 93c-11.333 12 -24.5 21.333 -39.5 28s-29.167 10.334 -42.5 11.001c-36 -4.66699 -63.333 -15.334 -82 -32.001s-28 -40 -28 -70
c0 -28.667 10.667 -54.667 32 -78c21.333 -24 32 -46.333 32 -67c0 -42 -23 -63 -69 -63c-16 0 -32 6 -48 18c-39.333 32 -59 92.333 -59 181c0 22 1.66699 41 5 57z" />
    <glyph glyph-name="u0635" unicode="&#x635;" horiz-adv-x="1138" arabic-form="isolated" 
d="M274 52c-8.66699 -11.333 -31.501 -33.835 -68.501 -67.502l-153.5 -139.5c-65.333 -59.333 -132.833 -115.5 -202.5 -168.5s-142.834 -103.833 -219.501 -152.5c-75.333 -48 -154 -85.333 -236 -112s-164.333 -42.667 -247 -48c-6 -0.666992 -12.667 -1 -20 -1h-21
c-72.667 0 -136 10.333 -190 31s-98.667 50 -134 88c-28 33.333 -49.667 64.333 -65 93s-23 54.667 -23 78c0 16 3.5 31 10.5 45s19.5 21 37.5 21c12.667 0 28.167 -5.16699 46.5 -15.5s39.5 -27.166 63.5 -50.499c52.667 -50 132.334 -75 239.001 -75
c24 0 49.5 1.16699 76.5 3.5s55.833 6.16602 86.5 11.499c93.333 16 190.333 49.5 291 100.5s201 116.5 301 196.5l130.5 109.5l119.5 104.5l102 93l78 75c39.333 41.333 74.166 73.666 104.499 96.999s51.5 34.333 63.5 33c38 -0.666992 69 -27 93 -79h-1l17.5 -36.5
c5 -10.333 8.16699 -19.166 9.5 -26.499l27.5 50.5l46 81l63 107l77.5 127.5l88.5 142c27 43.333 51.333 80.5 73 111.5s40 55.833 55 74.5s25.833 29 32.5 31h-1c19.333 10.667 38.333 4.33398 57 -18.999c6 -8.66699 11.167 -17 15.5 -25s7.5 -17.333 9.5 -28
c12 -37.333 16.667 -81.666 14 -132.999c-0.666992 -28 -4.66699 -59.167 -12 -93.5s-17.666 -71.833 -30.999 -112.5v1c-14.667 -52.667 -41 -112.334 -79 -179.001s-87.333 -141 -148 -223c-61.333 -82 -116.666 -143.333 -165.999 -184s-91.666 -61 -126.999 -61
c-6 0 -13.167 1.33301 -21.5 4s-17.166 7.33398 -26.499 14.001c-32 -64 -60 -112.667 -84 -146s-42.667 -50 -56 -50s-20 11 -20 33c0 9.33301 0.666992 19.5 2 30.5s4 21.833 8 32.5c3.33301 6.66699 9.66602 18.167 18.999 34.5l38 66.5v-1
c20.667 37.333 29.667 63 27 77c2 42 -0.666992 75 -8 99c-4.66699 22.667 -17 31.667 -37 27c-22.667 -4.66699 -64.334 -37 -125.001 -97zM743.999 359.998l-56.001 -112.5l-22 -45.5c6.66699 2 19.667 13 39 33l72 78c30 34.667 58.833 76.334 86.5 125.001
s51.834 100.667 72.501 156c5.33301 16 9.5 31.167 12.5 45.5s4.5 27.166 4.5 38.499v7c-9.33301 0 -28.333 -24.333 -57 -73l-103 -170z" />
    <glyph glyph-name="u0636" unicode="&#x636;" horiz-adv-x="1138" arabic-form="isolated" 
d="M274 52c-8.66699 -11.333 -31.502 -33.834 -68.502 -67.501l-153.5 -139.5c-65.333 -59.333 -132.833 -115.5 -202.5 -168.5s-142.834 -103.833 -219.501 -152.5c-75.333 -48 -154 -85.333 -236 -112s-164.333 -42.667 -247 -48c-6 -0.666992 -12.667 -1 -20 -1h-21
c-72.667 0 -136 10.333 -190 31s-98.667 50 -134 88c-28 33.333 -49.667 64.333 -65 93s-23 54.667 -23 78c0 12.667 2 24 6 34c8.66699 21.333 22.667 32 42 32c12.667 0 28.167 -5.16699 46.5 -15.5s39.5 -27.166 63.5 -50.499c52.667 -50 132.334 -75 239.001 -75
c24 0 49.5 1.16699 76.5 3.5s55.833 6.16602 86.5 11.499c93.333 16 190.333 49.5 291 100.5s201 116.5 301 196.5l130.5 109.5l119.5 104.5l102 93l78 75c39.333 41.333 74.166 73.666 104.499 96.999s51.5 34.333 63.5 33c38 -0.666992 69 -27 93 -79h-1l17.5 -36.5
c5 -10.333 8.16699 -19.166 9.5 -26.499l27.5 50.5l46 81l63 107l77.5 127.5l88.5 142c27 43.333 51.333 80.5 73 111.5s40 55.833 55 74.5s25.833 29 32.5 31h-1c19.333 10.667 38.333 4.33398 57 -18.999c6 -8.66699 11.167 -17 15.5 -25s7.5 -17.333 9.5 -28
c12 -37.333 16.667 -81.666 14 -132.999c-0.666992 -28 -4.66699 -59.167 -12 -93.5s-17.666 -71.833 -30.999 -112.5v1c-14.667 -52.667 -41 -112.334 -79 -179.001s-87.333 -141 -148 -223c-61.333 -82 -116.666 -143.333 -165.999 -184s-91.666 -61 -126.999 -61
c-12.667 0 -25.667 4 -39 12c-3.33301 1.33301 -5.16602 2.33301 -5.49902 3s-0.833008 1.33398 -1.5 2.00098v1c0 -0.666992 0.666992 2 2 8c-1.33301 -4.66699 -2.66602 -7.33398 -3.99902 -8.00098l2 -1c0 0.666992 -0.666992 1 -2 1
c-66 -130.667 -112.667 -196 -140 -196c-13.333 0 -20 11 -20 33c0 9.33301 0.666992 19.5 2 30.5s4 21.833 8 32.5c3.33301 6.66699 9.66602 18.167 18.999 34.5l38 66.5v-1c20.667 37.333 29.667 63 27 77c2 42 -0.666992 75 -8 99c-4.66699 22.667 -17 31.667 -37 27
c-22.667 -4.66699 -64.334 -37 -125.001 -97zM776.998 1249c24 26.667 45 40 63 40c19.333 0 36.333 -12 51 -36c10 -20.667 14 -40 12 -58c-6 -37.333 -16.667 -65.833 -32 -85.5s-36 -29.5 -62 -29.5c-48 0 -72 26.333 -72 79c0 14.667 3.16699 29.5 9.5 44.5
s16.5 30.167 30.5 45.5zM743.998 359.999l-56.001 -112.5l-22 -45.5c6.66699 2 19.667 13 39 33l72 78c30 34.667 58.833 76.334 86.5 125.001s51.834 100.667 72.501 156c5.33301 16 9.5 31.167 12.5 45.5s4.5 27.166 4.5 38.499v7c-9.33301 0 -28.333 -24.333 -57 -73
l-103 -170z" />
    <glyph glyph-name="u0637" unicode="&#x637;" horiz-adv-x="937" arabic-form="isolated" 
d="M389 265c54.667 0 116.998 28 186.998 84c35.333 28.667 63.5 57.667 84.5 87s36.833 59.333 47.5 90v-2c4 14 7 26.167 9 36.5s3 18.833 3 25.5c0 16 -5 24 -15 24c-13.333 0 -32.166 -9.5 -56.499 -28.5s-53.5 -45.5 -87.5 -79.5
c-8.66699 -10 -20.834 -24.833 -36.501 -44.5l-57.5 -73.5c-27.333 -32 -48.166 -57.833 -62.499 -77.5s-23.166 -33.167 -26.499 -40.5c3.33301 -0.666992 7 -1 11 -1zM13.998 226c-8 24 -12 46.3311 -12 66.998c0 16 3 28 9 36s13.333 11 22 9
c6.66699 -0.666992 13.834 -3.16699 21.501 -7.5s16.5 -10.166 26.5 -17.499c17.333 -15.333 46 -29.666 86 -42.999c18 -8 34.5 -13.167 49.5 -15.5s29.167 -3.16602 42.5 -2.49902c30.667 64 74 134.333 130 211c-14 -8.66699 -31.667 -13 -53 -13
c-36.667 0 -55 14 -55 42c0 17.333 9 37.666 27 60.999c30.667 43.333 55.5 85.166 74.5 125.499s33.5 78.166 43.5 113.499c11.333 44.667 17 106 17 184c0 42.667 1.5 82.334 4.5 119.001s8.5 71 16.5 103c3.33301 18 10.166 31.5 20.499 40.5s23.166 13.5 38.499 13.5
c17.333 0 32.666 -8.66699 45.999 -26c17.333 -24.667 26 -59 26 -103c2.66699 -112.667 -8.83301 -218.334 -34.5 -317.001s-63.834 -189.667 -114.501 -273c54.667 67.333 118.334 138 191.001 212c61.333 62 113.333 93 156 93c45.333 0 76 -37 92 -111
c3.33301 -14 5.83301 -27.667 7.5 -41s2.5 -26.666 2.5 -39.999c0 -4 -0.166992 -9.66699 -0.5 -17s-0.833008 -13 -1.5 -17c-9.33301 -88.667 -28.666 -168 -57.999 -238s-69 -128.333 -119 -175c-34 -32 -72.833 -58.833 -116.5 -80.5s-91.834 -37.167 -144.501 -46.5
c-37.333 -6.66699 -66.166 -11.167 -86.499 -13.5s-34.833 -3.16602 -43.5 -2.49902c0 -12.667 -0.833008 -28.834 -2.5 -48.501s-4.16699 -43.5 -7.5 -71.5c-10 -6 -19.5 -10.833 -28.5 -14.5s-16.5 -5.5 -22.5 -5.5c-26 0 -40 26 -42 78
c-2 23.333 -3.16699 41.5 -3.5 54.5s-1.16602 20.833 -2.49902 23.5c-22 2.66699 -43.5 8.66699 -64.5 18s-41.5 22 -61.5 38s-36.5 31.833 -49.5 47.5s-21.833 31.834 -26.5 48.501v2z" />
    <glyph glyph-name="u0638" unicode="&#x638;" horiz-adv-x="937" arabic-form="isolated" 
d="M770 1169c22 24 43.333 35.999 64 35.999c17.333 0 33 -11.333 47 -34c6 -11.333 10.167 -22 12.5 -32s2.83301 -19.333 1.5 -28c-6.66699 -33.333 -17.5 -59.666 -32.5 -78.999s-34.167 -29 -57.5 -29c-49.333 0 -74 25 -74 75c0 30 13 60.333 39 91zM389 264.999
c54.667 0 116.998 28 186.998 84c35.333 28.667 63.5 57.667 84.5 87s36.833 59.333 47.5 90v-2c4 14 7 26.167 9 36.5s3 18.833 3 25.5c0 16 -5 24 -15 24c-13.333 0 -32.166 -9.5 -56.499 -28.5s-53.5 -45.5 -87.5 -79.5c-8.66699 -10 -20.834 -24.833 -36.501 -44.5
l-57.5 -73.5c-27.333 -32 -48.166 -57.833 -62.499 -77.5s-23.166 -33.167 -26.499 -40.5c3.33301 -0.666992 7 -1 11 -1zM13.998 225.999c-8 24 -11.999 46.3311 -11.999 66.998c0 16 3 28 9 36s13.333 11 22 9c6.66699 -0.666992 13.834 -3.16699 21.501 -7.5
s16.5 -10.166 26.5 -17.499c17.333 -15.333 46 -29.666 86 -42.999c18 -8 34.5 -13.167 49.5 -15.5s29.167 -3.16602 42.5 -2.49902c30.667 64 74 134.333 130 211c-14 -8.66699 -31.667 -13 -53 -13c-36.667 0 -55 14 -55 42c0 17.333 9 37.666 27 60.999
c30.667 43.333 55.5 85.166 74.5 125.499s33.5 78.166 43.5 113.499c11.333 44.667 17 106 17 184c0 42.667 1.5 82.334 4.5 119.001s8.5 71 16.5 103c3.33301 18 10.166 31.5 20.499 40.5s23.166 13.5 38.499 13.5c17.333 0 32.666 -8.66699 45.999 -26
c17.333 -24.667 26 -59 26 -103c2.66699 -112.667 -8.83301 -218.334 -34.5 -317.001s-63.834 -189.667 -114.501 -273c54.667 67.333 118.334 138 191.001 212c61.333 62 113.333 93 156 93c45.333 0 76 -37 92 -111c3.33301 -14 5.83301 -27.667 7.5 -41
s2.5 -26.666 2.5 -39.999c0 -4 -0.166992 -9.66699 -0.5 -17s-0.833008 -13 -1.5 -17c-9.33301 -88.667 -28.666 -168 -57.999 -238s-69 -128.333 -119 -175c-34 -32 -72.833 -58.833 -116.5 -80.5s-91.834 -37.167 -144.501 -46.5
c-37.333 -6.66699 -66.166 -11.167 -86.499 -13.5s-34.833 -3.16602 -43.5 -2.49902c0 -12.667 -0.833008 -28.834 -2.5 -48.501s-4.16699 -43.5 -7.5 -71.5c-10 -6 -19.5 -10.833 -28.5 -14.5s-16.5 -5.5 -22.5 -5.5c-26 0 -40 26 -42 78c-2 23.333 -3 41.5 -3 54.5
s-0.666992 20.833 -2 23.5c-22.667 2.66699 -44.5 8.66699 -65.5 18s-41.5 22 -61.5 38s-36.5 31.833 -49.5 47.5s-21.833 31.834 -26.5 48.501v2z" />
    <glyph glyph-name="u0639" unicode="&#x639;" horiz-adv-x="830" arabic-form="isolated" 
d="M148 -256c58.667 92 128.001 181.002 208.001 267.002l22 22.5l28 30.5c9.33301 10.667 18.166 21.334 26.499 32.001s14.5 19 18.5 25c8 16.667 8.33301 33.667 1 51c-7.33301 16.667 -35 36 -83 58c-45.333 19.333 -80.5 45.666 -105.5 78.999s-37.5 74 -37.5 122
c0 27.333 5.33301 54 16 80s25.334 50.333 44.001 73c44 55.333 105.333 93 184 113c60 20 114.667 30 164 30c109.333 0 158.333 -44 147 -132c-0.666992 -7.33301 -3.33398 -16.5 -8.00098 -27.5s-10.167 -22 -16.5 -33s-13.5 -20.167 -21.5 -27.5s-16.333 -11 -25 -11
c-17.333 0 -31 16.667 -41 50c-2 18.667 -22.333 28 -61 28c-50.667 0 -109.334 -18.667 -176.001 -56c-41.333 -26 -62 -53 -62 -81c0 -54 54 -98.333 162 -133c55.333 -22.667 85.333 -58.667 90 -108c2 -23.333 -2.83301 -48 -14.5 -74s-30.167 -52.667 -55.5 -80
c-26.667 -26.667 -54.334 -57.167 -83.001 -91.5l-91 -112.5c-62 -83.333 -111 -163.333 -147 -240c-16 -38.667 -28.5 -76.167 -37.5 -112.5s-14.5 -70.5 -16.5 -102.5c-1.33301 -52.667 6.16699 -99.334 22.5 -140.001s42.5 -76.667 78.5 -108
c72 -56 177.667 -83.667 317 -83s270 33 392 97c39.333 24.667 70.333 33 93 25c10 -4 17.167 -10 21.5 -18s6.5 -16.333 6.5 -25c0 -11.333 -3.66699 -23.333 -11 -36s-18.333 -24.667 -33 -36c-71.333 -52.667 -162.666 -95.334 -273.999 -128.001
c-81.333 -22 -165.666 -33 -252.999 -33c-18 0 -35.333 0.666992 -52 2l-52 4c-284 60 -421.333 213.333 -412 460c2 62.667 13.5 125.167 34.5 187.5s51.833 126.5 92.5 192.5z" />
    <glyph glyph-name="u063A" unicode="&#x63a;" horiz-adv-x="840" arabic-form="isolated" 
d="M443 1111c20 28.667 39.998 45.668 59.998 51.001c2 0.666992 7 1 15 1c41.333 0 62 -21 62 -63c0 -18 -5 -39.333 -15 -64c-21.333 -49.333 -49.666 -74 -84.999 -74c-19.333 0 -36 6.66699 -50 20s-19.333 28.333 -16 45c1.33301 14 4.33301 28.167 9 42.5
s11.334 28.166 20.001 41.499zM157.998 -255.999c58.667 92 128.001 181.002 208.001 267.002l22 22.5l28 30.5c9.33301 10.667 18.166 21.334 26.499 32.001s14.5 19 18.5 25c8 16.667 8.33301 33.667 1 51c-7.33301 16.667 -35 36 -83 58
c-45.333 19.333 -80.5 45.666 -105.5 78.999s-37.5 74 -37.5 122c0 27.333 5.33301 54 16 80s25.334 50.333 44.001 73c44 55.333 105.333 93 184 113c60 20 114.667 30 164 30c109.333 0 158.333 -44 147 -132c-0.666992 -7.33301 -3.33398 -16.5 -8.00098 -27.5
s-10.167 -22 -16.5 -33s-13.5 -20.167 -21.5 -27.5s-16.333 -11 -25 -11c-17.333 0 -31 16.667 -41 50c-2 18.667 -22.333 28 -61 28c-50.667 0 -109.334 -18.667 -176.001 -56c-41.333 -26 -62 -53 -62 -81c0 -54 54 -98.333 162 -133
c55.333 -22.667 85.333 -58.667 90 -108c2 -23.333 -2.83301 -48 -14.5 -74s-30.167 -52.667 -55.5 -80c-26.667 -26.667 -54.334 -57.167 -83.001 -91.5l-91 -112.5c-62 -83.333 -111 -163.333 -147 -240c-16 -38.667 -28.5 -76.167 -37.5 -112.5s-14.5 -70.5 -16.5 -102.5
c-1.33301 -52.667 6.16699 -99.334 22.5 -140.001s42.5 -76.667 78.5 -108c72 -56 177.667 -83.667 317 -83s270 33 392 97c39.333 24.667 70.333 33 93 25c10 -4 17.167 -10 21.5 -18s6.5 -16.333 6.5 -25c0 -11.333 -3.66699 -23.333 -11 -36s-18.333 -24.667 -33 -36
c-71.333 -52.667 -162.666 -95.334 -273.999 -128.001c-81.333 -22 -165.666 -33 -252.999 -33c-18 0 -35.333 0.666992 -52 2l-52 4c-284 60 -421.333 213.333 -412 460c2 62.667 13.5 125.167 34.5 187.5s51.833 126.5 92.5 192.5z" />
    <glyph glyph-name="u0641" unicode="&#x641;" horiz-adv-x="1942" arabic-form="isolated" 
d="M1660 905c28.667 26 54.333 39 77 39c38 0 57 -26 57 -78c0 -40 -14 -69.333 -42 -88c-18 -26 -38 -39 -60 -39c-48 0 -72 27.333 -72 82c0 29.333 13.333 57.333 40 84zM242.999 232c5.33301 56.667 23.999 92.6641 55.999 107.997c34 17.333 52 -12 54 -88
c-4 -79.333 12 -153.333 48 -222c35.333 -68.667 87.666 -114 156.999 -136c70.667 -21.333 151.334 -31.666 242.001 -30.999c180.667 0.666992 349 30.334 505 89.001s298.667 143 428 253c12.667 20 11.667 30 -3 30c-2 0 -5.33301 -0.833008 -10 -2.5
s-10.334 -3.16699 -17.001 -4.5l-24.5 -8c-8.33301 -2.66699 -16.5 -4 -24.5 -4c-24 0 -45 10 -63 30s-27 45.667 -27 77c0 24.667 6 50.167 18 76.5s29.333 51.5 52 75.5s46 42.667 70 56s47.667 20 71 20c38 0 70 -15.667 96 -47c24 -30.667 39.167 -60.667 45.5 -90
s9.5 -54.666 9.5 -75.999c3.33301 -84 -15 -150.333 -55 -199c-39.333 -48.667 -73.666 -83 -102.999 -103c-35.333 -25.333 -74 -50.833 -116 -76.5s-85.5 -50 -130.5 -73s-90.5 -44.167 -136.5 -63.5s-91 -36.333 -135 -51c-44 -13.333 -88 -25.5 -132 -36.5
s-86.333 -20.333 -127 -28s-79 -13.5 -115 -17.5s-68.667 -6 -98 -6c-191.333 -2 -338.666 54.667 -441.999 170c-69.333 85.333 -102 189.333 -98 312c0 10.667 0.333008 21.5 1 32.5s2 22.167 4 33.5z" />
    <glyph glyph-name="u0642" unicode="&#x642;" horiz-adv-x="1582" arabic-form="isolated" 
d="M1314 172c0 -16 24.667 -23.999 74 -23.999c4 0 4 20.667 0 62c-4.66699 41.333 -14.667 63.666 -30 66.999c-8 4 -17 -7 -27 -33c-11.333 -30 -17 -54 -17 -72zM809 514.001c-46 -3.33301 -70.9971 9.99902 -74.9971 39.999c-1.33301 31.333 13.667 58 45 80
c66 36 143 66.167 231 90.5s184.333 42.833 289 55.5c21.333 3.33301 40.166 5.33301 56.499 6s29.166 0.333984 38.499 -0.999023c56.667 -4.66699 85.667 -19.667 87 -45c1.33301 -24 -36.667 -41.333 -114 -52c-38.667 -4 -82.334 -12.333 -131.001 -25
s-103 -28 -163 -46c-122.667 -38.667 -210 -72.667 -262 -102zM228.003 -32c67.333 84.667 138.004 158.997 212.004 222.997s149 115 225 153c41.333 23.333 74 35 98 35s36 -8.66699 36 -26c0 -6.66699 -2.33301 -13.834 -7 -21.501s-11 -15.834 -19 -24.501l-39 -35
l-92.5 -77l-93.5 -77l-67.5 -62l-58.5 -57.5c-18 -18.333 -33.5 -35.666 -46.5 -51.999s-23.167 -30.833 -30.5 -43.5c-34 -66.667 -51 -126.667 -51 -180c0 -78.667 38 -138.667 114 -180h-1c66 -38.667 148.667 -58 248 -58c75.333 0 144.666 12 207.999 36
c94.667 32.667 181 83 259 151c100.667 85.333 175 188 223 308c-62.667 4 -108.334 19.5 -137.001 46.5s-43 66.5 -43 118.5c0 26.667 4.66699 56.834 14 90.501s22 68.834 38 105.501c18 38 38 67.333 60 88s46 31 72 31c36.667 0 70 -14 100 -42
c32 -30 52 -69.333 60 -118c9.33301 -51.333 14 -91.666 14 -120.999c0 -142.667 -40 -279 -120 -409c-16 -28 -36.833 -56.667 -62.5 -86s-55.834 -60.333 -90.501 -93c-39.333 -36.667 -79.333 -69.667 -120 -99s-79.667 -52 -117 -68
c-70 -31.333 -139.833 -56 -209.5 -74s-137.167 -28.667 -202.5 -32c-154.667 6.66699 -272 50 -352 130c-74 76.667 -109 169.334 -105 278.001c4 50.667 13.167 96 27.5 136s33.166 75.333 56.499 106z" />
    <glyph glyph-name="u0643" unicode="&#x643;" horiz-adv-x="1578" arabic-form="isolated" 
d="M109 338c16.667 54 42.332 82.0029 76.999 84.0029c8.66699 -1.33301 16.834 -5.33301 24.501 -12s13.167 -13.667 16.5 -21c4 -10.667 5.83301 -21.5 5.5 -32.5s-1.5 -20.5 -3.5 -28.5c-1.33301 -8 -2 -14.667 -2 -20c0 -18 4.33301 -37.5 13 -58.5
s20.334 -41.833 35.001 -62.5c25.333 -28 64.833 -49.5 118.5 -64.5s120.5 -21.833 200.5 -20.5c80.667 1.33301 157.167 10.833 229.5 28.5s138.166 42.167 197.499 73.5c55.333 31.333 105 65.5 149 102.5s77.333 74.833 100 113.5v-1c44 76.667 68 150.667 72 222
c1.33301 13.333 2.83301 29.5 4.5 48.5s3.16699 39.833 4.5 62.5c4.66699 46.667 30.667 70 78 70c46 0 70.333 -34.667 73 -104c2.66699 -98.667 -19.333 -207.334 -66 -326.001c-45.333 -116.667 -137.666 -217.334 -276.999 -302.001
c-69.333 -42.667 -146.833 -76 -232.5 -100s-180.834 -38.333 -285.501 -43c-14 -0.666992 -27.5 -1 -40.5 -1h-37.5c-166.667 0 -282 28.333 -346 85c-38 34 -66.667 71.167 -86 111.5s-29 84.166 -29 131.499c0.666992 32 3 54 7 66v-2zM934.998 683.003
c-19.333 0 -33.833 5.16797 -43.5 15.501s-13.5 25.833 -11.5 46.5c1.33301 20.667 11.333 39.667 30 57s45 32.666 79 45.999l155 76l161 84l156.5 87l141.5 83l121 74.5l98.5 59c28.333 17 51.833 30.5 70.5 40.5s31.667 16 39 18c18.667 6.66699 36 11.667 52 15
s30.667 5 44 5c42.667 -6.66699 62.667 -22 60 -46c0 -9.33301 -3.66699 -17 -11 -23l-348 -216.5l-320 -185.5c-104.667 -58 -196 -106.667 -274 -146s-144 -69.333 -198 -90h-2z" />
    <glyph glyph-name="u0644" unicode="&#x644;" horiz-adv-x="1594" arabic-form="isolated" 
d="M204 -500c-113.333 89.333 -170 194.004 -170 314.004c0 95.333 37.333 195.333 112 300c62.667 87.333 142 163 238 227c52 34 93 51 123 51c26 0 39 -12.333 39 -37c0 -6 -0.5 -11.5 -1.5 -16.5s-2.5 -10.167 -4.5 -15.5l-47 -54.5
c-14 -15.667 -26.667 -29.167 -38 -40.5l-100 -89c-26.667 -24.667 -45 -42.334 -55 -53.001c-38 -44 -67.667 -87.333 -89 -130s-32 -82 -32 -118c0 -20.667 3 -39.834 9 -57.501s14.667 -34.834 26 -51.501c75.333 -120.667 188 -181 338 -181
c53.333 0 106.333 8.33301 159 25s105.334 41 158.001 73c55.333 36 109.166 81.333 161.499 136s99.833 113.334 142.5 176.001c32.667 52 61 104.167 85 156.5s42.667 102.5 56 150.5c21.333 79.333 39.166 181.833 53.499 307.5s25.5 273.5 33.5 443.5
c6 87.333 36.333 131 91 131c46.667 0 69.334 -57 68.001 -171c-0.666992 -54.667 -2.5 -109.334 -5.5 -164.001s-6.83301 -107.834 -11.5 -159.501s-10 -101.334 -16 -149.001s-12.333 -91.5 -19 -131.5c-18.667 -98.667 -51 -200 -97 -304s-102.333 -202.667 -169 -296
c-40.667 -54.667 -88 -107 -142 -157s-109.333 -91.667 -166 -125c-63.333 -37.333 -126 -64.666 -188 -81.999s-125 -26 -189 -26c-134 0 -251.667 39.333 -353 118z" />
    <glyph glyph-name="u0645" unicode="&#x645;" horiz-adv-x="1015" arabic-form="isolated" 
d="M237 -914c-16.667 -51.333 -33.665 -77.001 -50.998 -77.001c-14 0 -24.333 12.667 -31 38c-18.667 46 -28 163.333 -28 352c0 24.667 0.166992 50 0.5 76s0.833008 53 1.5 81c3.33301 142.667 12.166 265.334 26.499 368.001s36.166 186.667 65.499 252
c53.333 130.667 139.666 230.667 258.999 300c115.333 66 175 108.667 179 128c9.33301 38 25.333 68.167 48 90.5s52.667 33.5 90 33.5c10 0 23.5 -4.66699 40.5 -14s36.167 -22 57.5 -38c44 -37.333 66 -72.333 66 -105c-8 -84 -37.667 -136.333 -89 -157
c-48.667 -19.333 -127.667 -48 -237 -86c-50.667 -18 -94.167 -36.833 -130.5 -56.5s-67.666 -42.667 -93.999 -69s-48.833 -56.833 -67.5 -91.5s-35 -76 -49 -124c-24 -76.667 -36 -180 -36 -310c0 -20.667 0.333008 -42.167 1 -64.5s1 -44.5 1 -66.5
c0 -69.333 -2 -142 -6 -218s-9.66699 -156.333 -17 -241v-1z" />
    <glyph glyph-name="u0646" unicode="&#x646;" horiz-adv-x="749" arabic-form="isolated" 
d="M49 92c28 40 68.001 87.001 120.001 141.001s117 116.667 195 188c152.667 138.667 265.667 233 339 283c38 25.333 69.667 38 95 38c18.667 0 33.667 -9.66699 45 -29c18.667 -38 -7 -87.333 -77 -148c-68.667 -53.333 -138.667 -111.666 -210 -174.999l-223 -206
c-76 -74 -141.667 -148 -197 -222s-100.333 -149.667 -135 -227c-29.333 -62 -51 -121.167 -65 -177.5s-21 -110.833 -21 -163.5c0 -24.667 1.33301 -49.334 4 -74.001c18 -124 62 -213.667 132 -269c72.667 -56.667 156 -93.667 250 -111
c26 -5.33301 53.167 -8.83301 81.5 -10.5s57.166 -2.5 86.499 -2.5c24 0 48.833 0.5 74.5 1.5s52.5 2.83301 80.5 5.5c60 8 117 19 171 33s105.333 32.667 154 56c20 8 38.5 13.833 55.5 17.5s32.167 5.5 45.5 5.5c11.333 0 20.833 -1.33301 28.5 -4s14.5 -6 20.5 -10
c26 -25.333 11.667 -59.333 -43 -102c-102 -58 -207.333 -102.5 -316 -133.5s-217 -49.833 -325 -56.5c-6 -0.666992 -13.167 -1 -21.5 -1h-22.5c-99.333 0 -188.833 16 -268.5 48s-147.5 77 -203.5 135c-46.667 55.333 -84.5 120.666 -113.5 195.999s-43.5 156 -43.5 242
c0 26 1.33301 53.333 4 82c17.333 215.333 118.333 432 303 650zM396.001 1044c0 3.33301 -0.166992 7.16699 -0.5 11.5s-0.5 9.83301 -0.5 16.5c0 60.667 25.333 102.667 76 126c18 6.66699 34.333 10 49 10c36 0 54 -24 54 -72c0 -34.667 -7.33301 -63 -22 -85l1 1
c-2.66699 -8.66699 -7 -16.167 -13 -22.5s-14 -12.833 -24 -19.5c-20 -12 -39.667 -18 -59 -18c-34.667 0 -55 17.333 -61 52z" />
    <glyph glyph-name="u0647" unicode="&#x647;" horiz-adv-x="746" arabic-form="isolated" 
d="M320 226c0 -46.667 32.666 -69.999 97.999 -69.999c36 0 66 6.66699 90 20c26.667 13.333 40 31.333 40 54c0 44 -52 92 -156 144c-17.333 -14 -33.666 -35.333 -48.999 -64c-8.66699 -16 -14.667 -30.833 -18 -44.5s-5 -26.834 -5 -39.501zM233.999 56.001
c-42 37.333 -63 80.6689 -63 130.002c0 43.333 10.167 85.166 30.5 125.499s52.166 80.833 95.499 121.5c-11.333 11.333 -20.5 23.166 -27.5 35.499s-10.5 24.5 -10.5 36.5c0 11.333 2.5 22 7.5 32s12.5 20.333 22.5 31c14 12.667 29 19 45 19
c11.333 0 19.833 -4.5 25.5 -13.5s8.5 -20.167 8.5 -33.5c4.66699 -10.667 34.334 -31 89.001 -61c36 -23.333 67.167 -44.833 93.5 -64.5s48.166 -38.167 65.499 -55.5c57.333 -55.333 87.333 -113 90 -173c1.33301 -43.333 -30.667 -85.333 -96 -126
c-65.333 -38.667 -135.666 -58 -210.999 -58c-65.333 0 -120.333 18 -165 54z" />
    <glyph glyph-name="u0648" unicode="&#x648;" horiz-adv-x="654" arabic-form="isolated" 
d="M-32 -372c10 10.667 42.667 26.0029 98 46.0029c34.667 12 71 27.333 109 46s73.5 39.667 106.5 63s61.5 48.166 85.5 74.499s38.333 53.166 43 80.499c-9.33301 0 -19.833 2 -31.5 6s-22.167 9 -31.5 15c-30.667 24 -46 56.333 -46 97c0 16 2.33301 32 7 48
c16 68 39.5 121.667 70.5 161s66.833 62.666 107.5 69.999c52 8 91.167 -3.83301 117.5 -35.5s39.5 -81.5 39.5 -149.5c0 -31.333 -3 -62 -9 -92s-15.667 -59 -29 -87c-87.333 -183.333 -235 -309.333 -443 -378c-28 -8 -53 -14.167 -75 -18.5s-41.667 -6.5 -59 -6.5
c-46.667 0 -70 12.667 -70 38c0 10 3.66699 17.333 11 22h-1z" />
    <glyph glyph-name="u0649" unicode="&#x649;" horiz-adv-x="1115" arabic-form="isolated" 
d="M-516 -193c-12.667 13.333 -20.333 31.998 -23 55.998c-2 22.667 13.333 34 46 34c14.667 0 28.667 -1.66699 42 -5c25.333 -4.66699 52.666 -7 81.999 -7c18 0 36.833 1 56.5 3s39.5 5 59.5 9c57.333 13.333 115 30.166 173 50.499s115 43.333 171 69
s109.833 54.334 161.5 86.001s99.5 65.834 143.5 102.501c94.667 78 172.5 145 233.5 201s106.833 102 137.5 138c31.333 34.667 57 65 77 91l32 37c10 11.333 18.333 21.333 25 30c62.667 53.333 113.334 80 152.001 80c44 0 66 -21.333 66 -64
c0 -7.33301 -1.33301 -14.666 -4 -21.999c-6.66699 -35.333 -18.334 -57 -35.001 -65c-23.333 -12 -44.666 -25.167 -63.999 -39.5s-35.666 -28.166 -48.999 -41.499l-361 -351c-68.667 -64.667 -138.834 -124.334 -210.501 -179.001s-145.167 -104 -220.5 -148
c-74 -43.333 -146.667 -76.833 -218 -100.5s-140 -37.5 -206 -41.5c-6 -0.666992 -12.5 -1 -19.5 -1h-19.5c-112 0 -188 26 -228 78z" />
    <glyph glyph-name="u064A" unicode="&#x64a;" horiz-adv-x="1115" arabic-form="isolated" 
d="M-516 -193c-12.667 13.333 -20.333 31.998 -23 55.998c-2 22.667 13.333 34 46 34c14.667 0 28.667 -1.66699 42 -5c25.333 -4.66699 52.666 -7 81.999 -7c18 0 36.833 1 56.5 3s39.5 5 59.5 9c57.333 13.333 115 30.166 173 50.499s115 43.333 171 69
s109.833 54.334 161.5 86.001s99.5 65.834 143.5 102.501c94.667 78 172.5 145 233.5 201s106.833 102 137.5 138c31.333 34.667 57 65 77 91l32 37c10 11.333 18.333 21.333 25 30c62.667 53.333 113.334 80 152.001 80c44 0 66 -21.333 66 -64
c0 -7.33301 -1.33301 -14.666 -4 -21.999c-6.66699 -35.333 -18.334 -57 -35.001 -65c-23.333 -12 -44.666 -25.167 -63.999 -39.5s-35.666 -28.166 -48.999 -41.499l-361 -351c-68.667 -64.667 -138.834 -124.334 -210.501 -179.001s-145.167 -104 -220.5 -148
c-74 -43.333 -146.667 -76.833 -218 -100.5s-140 -37.5 -206 -41.5c-6 -0.666992 -12.5 -1 -19.5 -1h-19.5c-112 0 -188 26 -228 78z" />
    <glyph glyph-name="u067E" unicode="&#x67e;" horiz-adv-x="2326" arabic-form="isolated" 
d="M886 -529c4 28 11.998 52.833 23.998 74.5s28 40.834 48 57.501c37.333 32.667 83 49 137 49c92 4 158.667 -22.667 200 -80c42.667 -55.333 63 -111.333 61 -168c0 -74 -29 -139 -87 -195c-58 -55.333 -120.333 -93.333 -187 -114
c-34 -8.66699 -63.167 -15.167 -87.5 -19.5s-43.166 -4.83301 -56.499 -1.5c-21.333 5.33301 -32 15.333 -32 30c0 12.667 13.667 27.667 41 45c51.333 20.667 95 41.334 131 62.001s64 41.334 84 62.001c40.667 43.333 61 83 61 119c0 34.667 -13 66.667 -39 96
c-11.333 12 -24.666 20.667 -39.999 26s-29 8.66602 -41 9.99902c-36 -4 -63.333 -14.333 -82 -31s-28 -39.334 -28 -68.001c0 -33.333 10 -60.333 30 -81c11.333 -12 20 -23.5 26 -34.5s9 -22.167 9 -33.5c0 -40.667 -23.667 -61 -71 -61c-16 0 -31.667 5.66699 -47 17
c-40 33.333 -60 93.666 -60 180.999c0 18.667 2 38 6 58zM76.998 157c-5.33301 40.667 10.665 60.9971 47.998 60.9971c16.667 0 32.667 -4.66699 48 -14c108 -74.667 282.333 -131 523 -169c34.667 -6 69.334 -10.333 104.001 -13s70 -4 106 -4
c76 0 153.667 6.83301 233 20.5s159.333 33.167 240 58.5c94.667 31.333 204.334 83.333 329.001 156s262.667 165.667 414 279c23.333 18 42.833 31.833 58.5 41.5s27.5 16.167 35.5 19.5c6 1.33301 12 2.5 18 3.5s11.333 1.5 16 1.5c49.333 0 74 -24.667 74 -74
c0 -28.667 -21.667 -59 -65 -91l-332.5 -223l-160.5 -110c-262.667 -153.333 -515.667 -240.666 -759 -261.999l-63 -4c-21.333 -1.33301 -42.333 -2 -63 -2c-172 0 -336.333 27.333 -493 82c-62.667 22.667 -116.5 46.834 -161.5 72.501s-80.5 52.5 -106.5 80.5
c-12 14 -21.667 28.333 -29 43s-12 30.334 -14 47.001z" />
    <glyph glyph-name="u0686" unicode="&#x686;" horiz-adv-x="839" arabic-form="isolated" 
d="M660 562c4.66699 12.667 7.00098 27.002 7.00098 43.002c0 53.333 -26 80 -78 80c-8 0 -16 -1.33301 -24 -4s-16.333 -7.66699 -25 -15c-10 -6.66699 -17.833 -12.334 -23.5 -17.001s-9.83398 -8.33398 -12.501 -11.001c-33.333 -32.667 -50 -77 -50 -133
c0 -55.333 18.333 -122 55 -200c41.333 48 74.833 93.167 100.5 135.5s42.5 82.833 50.5 121.5zM323.001 -394.998c5.33301 54 29.333 97.6709 72 131.004c20 16.667 41.333 29 64 37s47 12 73 12c90 4.66699 156.667 -21.666 200 -78.999c22 -28.667 38 -57.167 48 -85.5
s14.333 -56.5 13 -84.5c0 -72 -28.667 -137 -86 -195h1c-58 -56 -121.667 -93.667 -191 -113c-68 -18.667 -115.333 -26 -142 -22c-21.333 5.33301 -32 15.666 -32 30.999c0 14 14 29 42 45c50.667 21.333 94 42.166 130 62.499s64 40.833 84 61.5
c40.667 41.333 61 81 61 119c0 17.333 -3.33301 34.166 -10 50.499s-16 31.5 -28 45.5c-11.333 11.333 -24.333 20.166 -39 26.499s-29 9.83301 -43 10.5c-36 -4.66699 -63.333 -15.5 -82 -32.5s-28 -39.833 -28 -68.5c0 -31.333 10.333 -58 31 -80
c21.333 -24 32 -47 32 -69c0 -40.667 -23 -61 -69 -61c-8 0 -15.667 1.66699 -23 5s-15.333 7.66602 -24 12.999c-40 32.667 -60 94 -60 184c0 17.333 2 36 6 56zM138.001 -156.994l71.0029 102.497c25.333 35 51.666 68.833 78.999 101.5l77.5 91.5l64.5 76.5
c-68.667 96 -103 202.333 -103 319c0 88 20 164.667 60 230c40 66.667 96.667 110.334 170 131.001c28 7.33301 55.333 11 82 11c68.667 0 119 -22.667 151 -68c32.667 -45.333 49 -97.333 49 -156c0 -48 -8 -92.667 -24 -134c-19.333 -40 -39.333 -77.5 -60 -112.5
s-42.334 -68.833 -65.001 -101.5l-52.5 -71l-52.5 -72l57 -63.5l36 -37.5c11.333 -20 17 -38.667 17 -56c0 -29.333 -14.667 -44 -44 -44c-11.333 0 -21.333 3.33301 -30 10c-31.333 28 -56.5 51.333 -75.5 70s-31.833 33 -38.5 43
c-49.333 -54.667 -95.333 -110.834 -138 -168.501s-83.334 -116.5 -122.001 -176.5c-76.667 -124.667 -115 -233 -115 -325c0 -93.333 27 -171.333 81 -234c30 -33.333 68 -58.666 114 -75.999s100.333 -26 163 -26c126 0 242.333 31 349 93h-1c58 36.667 102 55 132 55
c16 0 27 -5.66699 33 -17c18.667 -32.667 3.33398 -70.334 -45.999 -113.001c-75.333 -51.333 -150.833 -91.666 -226.5 -120.999s-153.167 -47.333 -232.5 -54c-11.333 -0.666992 -22 -1.16699 -32 -1.5s-20 -0.5 -30 -0.5c-130 0 -237.667 32.333 -323 97
c-48 38 -84.833 83.833 -110.5 137.5s-38.5 115.5 -38.5 185.5c0 70.667 14.667 145.334 44 224.001s72.666 162.334 129.999 251.001z" />
    <glyph glyph-name="u0698" unicode="&#x698;" horiz-adv-x="740" arabic-form="isolated" 
d="M300 497c12.667 6 24 10.999 34 14.999s19.333 7 28 9c60 29.333 109.167 63.5 147.5 102.5s63.166 79.833 74.499 122.5c0.666992 5.33301 1.16699 10.5 1.5 15.5s0.5 9.5 0.5 13.5c0 22 -9 33 -27 33c-7.33301 0 -15.166 -1.66699 -23.499 -5s-17.5 -7.33301 -27.5 -12
c-62.667 -35.333 -94 -71 -94 -107c0 -1.33301 0.666992 -5.33301 2 -12c0.666992 -1.33301 3 -3.5 7 -6.5s8 -5.16699 12 -6.5c14.667 -10.667 22 -21.667 22 -33c0 -34 -15.667 -51 -47 -51c-16.667 0 -37 8.33301 -61 25c-31.333 24.667 -47 56.334 -47 95.001
c0 57.333 31.333 114 94 170c66.667 56 139 82.333 217 79c73.333 -4 110 -40.667 110 -110c0 -44.667 -16 -100 -48 -166c-32 -58 -62 -100.333 -90 -127c-36 -33.333 -73.333 -59.833 -112 -79.5s-78 -32.834 -118 -39.501c-6 0 -12.667 1 -20 3s-14.5 5 -21.5 9
s-12.667 8.83301 -17 14.5s-6.5 11.834 -6.5 18.501c0 4.66699 0.666992 9 2 13s3 8.66699 5 14zM-39 -336.001c27.333 12 59.335 31.166 96.002 57.499s77.667 59 123 98s94 83.667 146 134l166 165.5c38 41.333 70.667 73 98 95s49 33 65 33c46 0.666992 74 -21 84 -65
c4.66699 -20.667 1.83398 -40.5 -8.49902 -59.5s-25.833 -35.5 -46.5 -49.5c-46.667 -32 -92.834 -67 -138.501 -105s-89.5 -78 -131.5 -120c-155.333 -150 -274.333 -238 -357 -264c-24.667 -7.33301 -46.834 -12.666 -66.501 -15.999s-37.834 -5 -54.501 -5
c-36 0 -54 9.33301 -54 28c0 22 26.333 46.333 79 73z" />
    <glyph glyph-name="u06AF" unicode="&#x6af;" horiz-adv-x="1578" arabic-form="isolated" 
d="M109 338c16.667 54 42.332 82.0029 76.999 84.0029c8.66699 -1.33301 16.834 -5.33301 24.501 -12s13.167 -13.667 16.5 -21c4 -10.667 5.83301 -21.5 5.5 -32.5s-1.5 -20.5 -3.5 -28.5c-1.33301 -8 -2 -14.667 -2 -20c0 -18 4.33301 -37.5 13 -58.5
s20.334 -41.833 35.001 -62.5c25.333 -28 64.833 -49.5 118.5 -64.5s120.5 -21.833 200.5 -20.5c80.667 1.33301 157.167 10.833 229.5 28.5s138.166 42.167 197.499 73.5c55.333 31.333 105 65.5 149 102.5s77.333 74.833 100 113.5v-1c44 76.667 68 150.667 72 222
c1.33301 13.333 2.83301 29.5 4.5 48.5s3.16699 39.833 4.5 62.5c4.66699 46.667 30.667 70 78 70c46 0 70.333 -34.667 73 -104c2.66699 -98.667 -19.333 -207.334 -66 -326.001c-45.333 -116.667 -137.666 -217.334 -276.999 -302.001
c-69.333 -42.667 -146.833 -76 -232.5 -100s-180.834 -38.333 -285.501 -43c-14 -0.666992 -27.5 -1 -40.5 -1h-37.5c-166.667 0 -282 28.333 -346 85c-38 34 -66.667 71.167 -86 111.5s-29 84.166 -29 131.499c0.666992 32 3 54 7 66v-2zM934.998 683.003
c-19.333 0 -33.833 5.16797 -43.5 15.501s-13.5 25.833 -11.5 46.5c1.33301 20.667 11.333 39.667 30 57s45 32.666 79 45.999l155 76l161 84l156.5 87l141.5 83l121 74.5l98.5 59c28.333 17 51.833 30.5 70.5 40.5s31.667 16 39 18c18.667 6.66699 36 11.667 52 15
s30.667 5 44 5c42.667 -6.66699 62.667 -22 60 -46c0 -9.33301 -3.66699 -17 -11 -23l-348 -216.5l-320 -185.5c-104.667 -58 -196 -106.667 -274 -146s-144 -69.333 -198 -90h-2zM1120 955.004c-11.333 0 -17 7 -17 21c0 4.66699 1.33301 11.167 4 19.5
s7.33398 17.166 14.001 26.499c6 9.33301 11.667 17 17 23s11.333 11 18 15h-2l568 337c37.333 16.667 60.666 14.334 69.999 -6.99902c6 -21.333 3.33301 -40 -8 -56l-662 -378z" />
    <glyph glyph-name="uFB57" unicode="&#x67e;" horiz-adv-x="2056" arabic-form="final" 
d="M176 100c-43.333 32.667 -77.833 69.5039 -103.5 110.504s-42.834 85.167 -51.501 132.5c-3.33301 14 -5.33301 28 -6 42s-1 27.333 -1 40c0 64 16 123 48 177c22 36 46.5 67 73.5 93s55.5 45.667 85.5 59c30.667 6.66699 48 -4.33301 52 -33
c0.666992 -12.667 -1.33301 -25.834 -6 -39.501s-13 -26.834 -25 -39.501c-19.333 -23.333 -35 -45.833 -47 -67.5s-21 -41.834 -27 -60.501c-5.33301 -19.333 -9.16602 -37 -11.499 -53s-3.5 -29.667 -3.5 -41c3.33301 -99.333 70.333 -172 201 -218
c127.333 -41.333 276.333 -61.333 447 -60c86 0.666992 170.833 7.5 254.5 20.5s167.167 32.5 250.5 58.5s157.5 52 222.5 78s122.5 52.333 172.5 79h-1c26 16 50.833 28.333 74.5 37s45.5 14 65.5 16c42.667 2 68 -21.667 76 -71c16.667 -81.333 39 -131.333 67 -150
c13.333 -7.33301 26.833 -13.333 40.5 -18s26.5 -7 38.5 -7v-185c-108 -2.66699 -175.333 43.666 -202 138.999c-25.333 90 -50 133 -74 129c-6.66699 0 -15.5 -2.5 -26.5 -7.5s-24.167 -11.833 -39.5 -20.5l-94.5 -45l-174.5 -82c-71.333 -34 -149 -62 -233 -84
s-170 -38.333 -258 -49c-45.333 -6 -89 -10 -131 -12s-83.333 -3 -124 -3c-120 0 -224.5 11.5 -313.5 34.5s-160.833 56.5 -215.5 100.5zM598 -467.996c8.66699 54.667 32.3311 98.6709 70.998 132.004c38 31.333 83.667 47 137 47c92 4 159 -22 201 -78
c42 -58 62.333 -114.333 61 -169c0 -76 -28.667 -141.333 -86 -196c-28 -27.333 -58.167 -50.166 -90.5 -68.499s-65.833 -32.833 -100.5 -43.5c-33.333 -10 -62 -17 -86 -21s-42.333 -4.33301 -55 -1c-22 4.66699 -33 15 -33 31c0 11.333 14 26 42 44
c52.667 20.667 96.5 41.5 131.5 62.5s62.833 41.833 83.5 62.5c41.333 43.333 62 82.666 62 117.999c0 37.333 -12.667 68.666 -38 93.999c-12 11.333 -25.667 20.166 -41 26.499s-29.666 10.166 -42.999 11.499c-34.667 -4 -61.667 -14.333 -81 -31
s-29 -39.334 -29 -68.001c0 -30 10.667 -56.667 32 -80c21.333 -22 32 -44 32 -66c0 -43.333 -22.667 -65 -68 -65c-19.333 0 -35.666 6.33301 -48.999 19c-39.333 32 -59 92.333 -59 181c0 10.667 0.666992 20.667 2 30z" />
    <glyph glyph-name="uFB58" unicode="&#x67e;" horiz-adv-x="528" arabic-form="initial" 
d="M-8 185c25.333 0.666992 52.834 4.66504 82.501 11.998s58.5 17 86.5 29c26 12.667 50.5 26.834 73.5 42.501s41.5 32.5 55.5 50.5c14.667 18.667 27.167 38.167 37.5 58.5s18.833 40.5 25.5 60.5h15c24 0 43.667 -12.333 59 -37c14 -22.667 21 -46.667 21 -72
c0 -12 -1.66699 -21.667 -5 -29v1c-26 -80.667 -84.333 -151.667 -175 -213c-46.667 -31.333 -92.834 -54.166 -138.501 -68.499s-91.5 -20.833 -137.5 -19.5v185zM88.001 -334.002c4 38 40.668 82.999 110.001 134.999c66.667 46 120.667 73.667 162 83
c8 1.33301 15.167 2.16602 21.5 2.49902s13.166 0.5 20.499 0.5c49.333 0 87 -28 113 -84l-1 1c6.66699 -13.333 10 -29.666 10 -48.999c0 -36.667 -14 -75.334 -42 -116.001c-14.667 -20.667 -31 -38.5 -49 -53.5s-38 -26.5 -60 -34.5c-17.333 -8 -32 -12 -44 -12
c-42.667 0 -64 20 -64 60c0 4.66699 1.66699 9.66699 5 15c12.667 9.33301 24.167 16.666 34.5 21.999s20.5 8.66602 30.5 9.99902c42 25.333 63 48 63 68c0 22.667 -13.333 36.334 -40 41.001c-7.33301 2.66699 -15.833 2.83398 -25.5 0.500977
s-20.5 -6.16602 -32.5 -11.499v2c-32 -17.333 -57.667 -46.666 -77 -87.999c-12 -25.333 -25 -44.5 -39 -57.5s-29.667 -18.5 -47 -16.5c-36.667 0.666992 -53 28.667 -49 84v-2z" />
    <glyph glyph-name="uFB59" unicode="&#x67e;" horiz-adv-x="444" arabic-form="medial" 
d="M-7 -395c3.33301 36.667 40.998 81.6689 112.998 135.002c65.333 46 118.333 73.333 159 82c15.333 3.33301 28.666 5 39.999 5c49.333 0 87.333 -28.333 114 -85c7.33301 -16 11 -32 11 -48c0 -35.333 -14.667 -74 -44 -116c-30.667 -42 -66.667 -71.333 -108 -88l2 1
c-15.333 -10 -30.666 -15 -45.999 -15c-42.667 0 -64 20.667 -64 62c0 3.33301 0.5 6.16602 1.5 8.49902s1.83301 4.16602 2.5 5.49902c25.333 18.667 47 29.667 65 33c42 25.333 63 48.333 63 69c0 22 -12.667 35.667 -38 41c-14.667 3.33301 -34.667 -0.666992 -60 -12v1
c-31.333 -18 -56 -47 -74 -87c-25.333 -52 -54.666 -77 -87.999 -75c-37.333 2.66699 -53.666 30.667 -48.999 84v-1zM-8.00195 185.002c32.667 0 63 5.32812 91 15.9951s53 24.834 75 42.501s41.167 37.834 57.5 60.501s29.833 46.667 40.5 72
c4 8.66699 9.66699 15.167 17 19.5s15.5 6.66602 24.5 6.99902s17.833 -0.666992 26.5 -3s16.667 -6.16602 24 -11.499c7.33301 -6.66699 12.833 -15.667 16.5 -27s5.66699 -23.166 6 -35.499s-0.333984 -24.666 -2.00098 -36.999s-4.16699 -22.166 -7.5 -29.499
c-8 -16 -6.66699 -32.333 4 -49c8.66699 -16.667 38.667 -25 90 -25v-185c-102.667 3.33301 -169 37 -199 101c-26 -35.333 -62.167 -61 -108.5 -77s-98.166 -24 -155.499 -24v185z" />
    <glyph glyph-name="uFB7B" unicode="&#x686;" horiz-adv-x="912" arabic-form="final" 
d="M420 -413c5.33301 54 28.998 98 70.998 132c20.667 16 42.167 28.167 64.5 36.5s46.5 12.5 72.5 12.5c90.667 3.33301 158 -23.334 202 -80.001c42 -56.667 61.667 -112.667 59 -168c0 -38.667 -7.16699 -74 -21.5 -106s-35.5 -62.333 -63.5 -91
c-57.333 -54 -121 -91 -191 -111c-33.333 -10 -62.166 -17 -86.499 -21s-43.5 -4.66699 -57.5 -2c-20 5.33301 -30 16 -30 32c0 12 14.333 26.333 43 43c102 41.333 173.333 83 214 125c40.667 42.667 61 82.334 61 119.001s-12.667 68 -38 94
c-11.333 12 -24.666 21.167 -39.999 27.5s-29.333 9.83301 -42 10.5c-73.333 -8.66699 -110 -42 -110 -100c0 -32.667 10.333 -59 31 -79c21.333 -24 32 -46.333 32 -67c0 -41.333 -23 -62 -69 -62c-14.667 0 -31 5.33301 -49 16c-38.667 34 -58 95 -58 183
c0 10 0.666992 19.5 2 28.5zM181.998 -271c26 45.333 56.499 92.502 91.499 141.502s69.833 93.833 104.5 134.5l88 103l54 61c-33.333 38 -51 94.333 -53 169c-2.66699 36 1.83301 75.667 13.5 119s27.834 85.333 48.501 126c23.333 43.333 52 78.166 86 104.499
s73.333 43.166 118 50.499c58 6.66699 102 -9 132 -47c30.667 -33.333 46 -78 46 -134c0 -50.667 -14.667 -105.5 -44 -164.5s-74 -121.833 -134 -188.5c16 -6.66699 41 -11.5 75 -14.5s72.667 -4.5 116 -4.5v-185c-30.667 0 -60 2 -88 6s-56.333 9.66699 -85 17
c-54 14 -101 34 -141 60c-31.333 -32.667 -63 -68.667 -95 -108s-65 -82.666 -99 -129.999c-68 -94 -117 -179.667 -147 -257s-45 -150.333 -45 -219c0 -50.667 9.83301 -96.5 29.5 -137.5s47.5 -76.167 83.5 -105.5c31.333 -22.667 69.666 -40 114.999 -52
s96.666 -18 153.999 -18h24.5c8.33301 0 16.5 0.333008 24.5 1c138.667 6 268 43.667 388 113c38 24.667 68.667 33.334 92 26.001c23.333 -8 33 -24.667 29 -50c-2.66699 -22.667 -16.667 -43.667 -42 -63c-33.333 -28 -72.666 -54 -117.999 -78
s-94.666 -44.333 -147.999 -61c-46.667 -15.333 -94.667 -26.333 -144 -33s-100.333 -10 -153 -10h-29.5c-9.66699 0 -19.5 0.333008 -29.5 1c-286.667 48 -430 196 -430 444c0 61.333 9.16699 123.666 27.5 186.999s46.5 128.666 84.5 195.999zM762.997 456.002
c2 7.33301 3.33301 13.999 4 19.999s1 11.667 1 17c0 19.333 -3.66699 35 -11 47s-17 20.333 -29 25c-30 -2 -61 -19 -93 -51c-35.333 -33.333 -57 -74.666 -65 -123.999c-4.66699 -23.333 -3 -45.333 5 -66s21 -40 39 -58c30.667 18.667 59 44 85 76s47.333 70 64 114z" />
    <glyph glyph-name="uFB7C" unicode="&#x686;" horiz-adv-x="727" arabic-form="initial" 
d="M205 -433c13.333 4 25.501 6.33496 36.501 7.00195s20.5 0.666992 28.5 0c138 28.667 228.667 83.334 272 164.001c8.66699 18 13 31.667 13 41c0 19.333 -13 29 -39 29c-12 0 -25 -2.33301 -39 -7c-80.667 -22 -119.334 -53 -116.001 -93
c0 -0.666992 1.16699 -1.83398 3.5 -3.50098s4.83301 -3.83398 7.5 -6.50098c4 -5.33301 8 -10.333 12 -15s6.66699 -10.334 8 -17.001c0 -33.333 -16 -50 -48 -50c-20.667 0 -42.667 14 -66 42c-16.667 20 -25 42.667 -25 68c0 53.333 29.667 101.333 89 144
c56.667 44 121.667 66 195 66c29.333 0 56.333 -3.33301 81 -10c57.333 -19.333 86 -52.666 86 -99.999c0 -46.667 -26.333 -102 -79 -166c-22.667 -26.667 -45.167 -50.5 -67.5 -71.5s-43.833 -36.167 -64.5 -45.5c-36.667 -20.667 -72 -36.5 -106 -47.5
s-65 -16.5 -93 -16.5h-25.5c-9 0 -18.5 0.333008 -28.5 1c-18.667 3.33301 -32.5 9 -41.5 17s-13.5 20 -13.5 36c0 11.333 6 22.666 18 33.999h2zM125.001 271.002c-1.33301 44.667 8.49707 88.9971 29.4971 132.997s56.167 87.667 105.5 131l112.5 77l110.5 74
c36 25.333 66 38 90 38c38.667 0 69.334 -24.667 92.001 -74c8 -18 14.167 -38.667 18.5 -62s5.5 -49 3.5 -77c-14 -100.667 -64.333 -188.334 -151 -263.001c-80.667 -69.333 -163.667 -125.666 -249 -168.999c26.667 -38 40 -72.667 40 -104s-12 -47 -36 -47
c-4.66699 0 -10.167 1.16699 -16.5 3.5s-12.166 6.83301 -17.499 13.5c-30 40.667 -51.333 73.334 -64 98.001c-12 -4.66699 -26.333 -9.66699 -43 -15s-34.334 -10.166 -53.001 -14.499s-37.167 -7.66602 -55.5 -9.99902s-35.5 -3.5 -51.5 -3.5v185
c10.667 0 22.834 0.5 36.501 1.5s27.167 2.33301 40.5 4s25.833 4 37.5 7s20.834 5.5 27.501 7.5c-0.666992 10 -2 21 -4 33s-3 23 -3 33zM236.998 306.999c0 -6 -0.333984 -13.001 -1.00098 -21.001s-1 -15.667 -1 -23s0.166992 -13.666 0.5 -18.999s1.5 -8 3.5 -8
c4.66699 0 15.834 5 33.501 15s41.5 24.333 71.5 43c28.667 18.667 55.834 39.5 81.501 62.5s47.834 46.5 66.501 70.5c36.667 50.667 54.667 84 54 100c0 16 -28.333 12.333 -85 -11c-30.667 -12 -59.334 -26.167 -86.001 -42.5s-51.334 -36.833 -74.001 -61.5
c-40 -43.333 -61.333 -77.333 -64 -102v-3z" />
    <glyph glyph-name="uFB7D" unicode="&#x686;" horiz-adv-x="733" arabic-form="medial" 
d="M-16 185c51.333 0.666992 93.833 2.83203 127.5 6.49902s57.5 8.16699 71.5 13.5c-16 14.667 -26.667 31.834 -32 51.501s-6 40.834 -2 63.501c12.667 33.333 32.5 67.666 59.5 102.999s59.5 70 97.5 104s71.833 61 101.5 81s54.834 31 75.501 33
c19.333 7.33301 40.333 11 63 11c23.333 0 46.333 -3.5 69 -10.5s43.167 -16.833 61.5 -29.5s33.5 -27.667 45.5 -45s19 -36.333 21 -57v1c9.33301 -81.333 -67.334 -183.666 -230.001 -306.999c17.333 -5.33301 45.5 -9.83301 84.5 -13.5s87.833 -5.5 146.5 -5.5v-185
c-72.667 0 -143 6.66699 -211 20s-135 37.333 -201 72c-60 -26.667 -119.5 -47.834 -178.5 -63.501s-115.5 -25.167 -169.5 -28.5v185zM116 -430.002c11.333 4 22.165 6.66992 32.498 8.00293s19.833 2.33301 28.5 3c69.333 15.333 127.166 36.666 173.499 63.999
s79.833 61.333 100.5 102h-1c8 15.333 12 29 12 41c0 17.333 -12.333 26 -37 26c-9.33301 0 -22.666 -2 -39.999 -6c-38.667 -11.333 -68 -24.833 -88 -40.5s-28.667 -32.834 -26 -51.501c0 -4 2.66699 -7.33301 8 -10c4 -4.66699 8 -9.83398 12 -15.501
s6 -11.834 6 -18.501v2c2 -18.667 -0.5 -32.167 -7.5 -40.5s-19.5 -12.5 -37.5 -12.5c-20.667 0 -42.667 14 -66 42c-16.667 22 -25 45 -25 69c0 50.667 29.333 98.667 88 144c59.333 46 125 69 197 69c14 0 28 -1 42 -3s27.333 -5 40 -9c56 -19.333 84 -52.666 84 -99.999
c0 -48.667 -26 -105 -78 -169c-23.333 -27.333 -46 -51 -68 -71s-43 -35.667 -63 -47c-75.333 -38.667 -142.666 -58 -201.999 -58h-25.5c-8.33301 0 -17.166 0.333008 -26.499 1c-35.333 2 -53 18.667 -53 50c0 11.333 6.33301 21.333 19 30zM458.999 312.001
c58 36 97.168 69.165 117.501 99.498s26.166 53.5 17.499 69.5v-1c-11.333 20.667 -35.333 31 -72 31c-11.333 0 -23.666 -1.16699 -36.999 -3.5s-27 -6.16602 -41 -11.499c-38.667 -14 -78.334 -49.333 -119.001 -106c-8 -11.333 -14.167 -22.166 -18.5 -32.499
s-6.5 -19.833 -6.5 -28.5c0 -24 18 -44 54 -60v-1c11.333 -1.33301 25.5 1.66699 42.5 9s37.833 19 62.5 35z" />
    <glyph glyph-name="uFB8B" unicode="&#x698;" horiz-adv-x="760" arabic-form="final" 
d="M0 -301c44 14 85.5 32 124.5 54s76.833 47 113.5 75c20.667 16 45.667 37.667 75 65l91 89l85 85.5c24.667 23.667 45 41.167 61 52.5c28 21.333 60.667 37.333 98 48s78.666 16.334 123.999 17.001v-185h-79c-56 -2.66699 -110.333 -31 -163 -85
c-102 -99.333 -196.833 -176.333 -284.5 -231s-165.5 -88.667 -233.5 -102c-4 -0.666992 -8.66699 -1.33398 -14 -2.00098s-10.666 -1 -15.999 -1c-56.667 0 -85 14 -85 42c0 27.333 34.333 53.333 103 78zM224 391c10.667 6.66699 21.001 11.998 31.001 15.998
s19.667 6.66699 29 8l-2 -1c64 32 114.333 66.667 151 104s60.334 77.333 71.001 120c2 6 3.33301 11.333 4 16s1 9 1 13c0 24 -10 36 -30 36c-12.667 0 -30.667 -6.33301 -54 -19c-58 -32 -87 -66.667 -87 -104c0 -2 0.166992 -3.83301 0.5 -5.5s0.5 -3.16699 0.5 -4.5
c0 -4 6.33301 -9.66699 19 -17c13.333 -8 20 -20.333 20 -37c0 -31.333 -15.333 -47 -46 -47c-19.333 0 -40.333 9.33301 -63 28c-31.333 24.667 -47 53.667 -47 87c0 55.333 31.333 107 94 155c64 50.667 135.333 73.667 214 69c73.333 -4 110 -37.667 110 -101
c0 -23.333 -4 -47.166 -12 -71.499s-20.667 -51.833 -38 -82.5v1c-14 -26 -28 -49 -42 -69s-27 -36.333 -39 -49c-75.333 -69.333 -154 -108.666 -236 -117.999c-6.66699 -0.666992 -13.834 0 -21.501 2s-14.834 5 -21.501 9s-12.167 8.83301 -16.5 14.5
s-6.5 11.834 -6.5 18.501c0 7.33301 4.66699 16.666 14 27.999z" />
    <glyph glyph-name="uFEDA" unicode="&#x6a9;" horiz-adv-x="1603" arabic-form="final" 
d="M-13 157c-5.33301 19.333 -8.00098 36.999 -8.00098 52.999c0 44.667 14.667 67 44 67c9.33301 0 20.333 -3.66699 33 -11c4 -2 9.5 -7.66699 16.5 -17s17.167 -22 30.5 -38c12.667 -16 25.167 -29.333 37.5 -40s25.166 -20 38.499 -28c26 -14.667 58.167 -26 96.5 -34
s81.5 -12 129.5 -12c94.667 0 185 8 271 24s169 39.667 249 71c160 64 274.333 134 343 210c70 78.667 111 146 123 202c20 40.667 52.333 61 97 61c51.333 0 77 -29.667 77 -89c0 -18.667 -3.66699 -40.667 -11 -66s-17.666 -54.666 -30.999 -87.999
c-29.333 -62 -44.333 -111 -45 -147c0.666992 -16 5.33398 -29.833 14.001 -41.5s19.334 -21.167 32.001 -28.5s27 -12.666 43 -15.999s32 -4.66602 48 -3.99902v-185c-87.333 -3.33301 -155 12.167 -203 46.5s-72 93.5 -72 177.5v24
c-8.66699 -8.66699 -19.667 -18.334 -33 -29.001s-30.333 -23 -51 -37c-249.333 -157.333 -532.333 -236 -849 -236c-31.333 0 -61.833 1 -91.5 3s-58.834 5 -87.501 9c-132 19.333 -212.333 85.666 -241 198.999zM1034 603.999c-40 0 -58.001 20.001 -54.001 60.001
c4 42 40.333 77.333 109 106l153.5 75.5l159 82.5l155 85l141.5 84l120.5 73.5l99.5 59.5l73.5 40.5c19.667 10.333 32.5 16.833 38.5 19.5h-1c20 6.66699 38 11.667 54 15s31.333 5 46 5c42.667 -5.33301 62 -20.333 58 -45c-1.33301 -10 -5.66602 -18 -12.999 -24
l-346.5 -215l-319.5 -186l-273 -145.5c-78 -39.667 -144 -69.834 -198 -90.501h-3z" />
    <glyph glyph-name="uFEDB" unicode="&#x6a9;" horiz-adv-x="559" arabic-form="initial" 
d="M117 565c-38 0 -55.332 20.335 -51.999 61.002c1.33301 19.333 11.166 38.166 29.499 56.499s44.5 34.5 78.5 48.5c104.667 47.333 208.5 98.666 311.5 153.999s201.5 112.333 295.5 171c98 62.667 174.833 110.167 230.5 142.5s90.5 50.833 104.5 55.5
c40 11.333 72.333 17 97 17c43.333 -4.66699 63.333 -19.667 60 -45c-0.666992 -9.33301 -6 -17.333 -16 -24l-345 -215.5l-318 -186.5c-205.333 -114 -363 -192.333 -473 -235h-3zM-11.999 185.002c104.667 7.33301 156.999 66.333 156.999 177
c0 45.333 -6.66699 93 -20 143c-6 39.333 13.333 59 58 59c40 0 67.667 -10.333 83 -31c22.667 -32 35.667 -91.333 39 -178c2 -88 -22.667 -166 -74 -234c-25.333 -34 -59.166 -62 -101.499 -84s-89.5 -34.667 -141.5 -38v186z" />
    <glyph glyph-name="uFEDC" unicode="&#x6a9;" horiz-adv-x="522" arabic-form="medial" 
d="M-7 185c17.333 0 35.1699 0.337891 53.5029 1.00488s36.5 1 54.5 1c-16.667 18.667 -28.667 40.167 -36 64.5s-10.666 52.166 -9.99902 83.499c2 33.333 11.667 66.833 29 100.5s43 68.5 77 104.5c67.333 69.333 131.333 106.666 192 111.999
c83.333 9.33301 135.333 -35.334 156 -134.001c0.666992 -8.66699 1.16699 -17.334 1.5 -26.001s0.5 -16.667 0.5 -24c0 -28.667 -3 -56.167 -9 -82.5s-14.667 -50.5 -26 -72.5c-12.667 -25.333 -25.834 -47.833 -39.501 -67.5s-27.5 -35.834 -41.5 -48.501
c7.33301 -2.66699 16.666 -4.5 27.999 -5.5s23.666 -2.16699 36.999 -3.5s26.666 -2.16602 39.999 -2.49902s25 -0.5 35 -0.5v-185c-112.667 -0.666992 -203.667 14 -273 44c-46.667 -28.667 -119.667 -43.334 -219 -44.001h-50v185zM139.004 617.005
c-40.667 0 -59 20.334 -55 61.001c4 40 40 75.333 108 106l152 73.5l162 83l157.5 85.5c51 28.667 97.833 56.334 140.5 83.001l224.5 137.5c57 33.667 92.5 52.5 106.5 56.5h-1c37.333 12.667 70 19 98 19c43.333 -4.66699 63 -19.667 59 -45
c0 -10.667 -4.33301 -18.334 -13 -23.001l-346.5 -216l-318.5 -185l-273.5 -145.5c-77.667 -39.667 -143.5 -69.834 -197.5 -90.501h-3zM240.004 240.006c32.667 10.667 59.833 28.5 81.5 53.5s37.834 56.5 48.501 94.5c6 24 9 45 9 63c0 36.667 -14 57.667 -42 63
c-20.667 -2.66699 -48.334 -20.667 -83.001 -54c-37.333 -35.333 -58.666 -72 -63.999 -110c-6.66699 -34.667 -2 -62.667 14 -84c15.333 -20 27.666 -28.667 36.999 -26h-1z" />
    <glyph glyph-name="uFB93" unicode="&#x6af;" horiz-adv-x="1604" arabic-form="final" 
d="M-12 157c-5.33301 19.333 -8.00098 36.999 -8.00098 52.999c0 44.667 14.667 67 44 67c9.33301 0 20.333 -3.66699 33 -11c4 -2 9.5 -7.66699 16.5 -17s17.167 -22 30.5 -38c12.667 -16 25.167 -29.333 37.5 -40s25.166 -20 38.499 -28c26 -14.667 58.167 -26 96.5 -34
s81.5 -12 129.5 -12c94.667 0 185 8 271 24s169 39.667 249 71c160 64 274.333 134 343 210c70 78.667 111 146 123 202c20 40.667 52.333 61 97 61c51.333 0 77 -29.667 77 -89c0 -18.667 -3.66699 -40.667 -11 -66s-17.666 -54.666 -30.999 -87.999
c-29.333 -62 -44.333 -111 -45 -147c0.666992 -16 5.33398 -29.833 14.001 -41.5s19.334 -21.167 32.001 -28.5s27 -12.666 43 -15.999s32 -4.66602 48 -3.99902v-185c-87.333 -3.33301 -155 12.167 -203 46.5s-72 93.5 -72 177.5v24
c-8.66699 -8.66699 -19.667 -18.334 -33 -29.001s-30.333 -23 -51 -37c-249.333 -157.333 -532.333 -236 -849 -236c-31.333 0 -61.833 1 -91.5 3s-58.834 5 -87.501 9c-132 19.333 -212.333 85.666 -241 198.999zM1034 603.999c-38.667 0 -56.668 20.002 -54.001 60.002
c4 41.333 40.333 76.666 109 105.999l153 75.5l159 82.5l155 85c50.667 28.667 98 56.667 142 84l225.5 137c57.667 33.333 92.834 52 105.501 56h-1c20.667 6.66699 39 11.667 55 15s31 5 45 5c42.667 -5.33301 62 -20.333 58 -45c0 -10 -4 -18 -12 -24l-346 -215
l-320 -186l-273 -145.5c-78 -39.667 -144.333 -69.834 -199 -90.501h-2zM1230 868.001c-12 0 -18.001 6.33203 -18.001 18.999c0 11.333 6 27.333 18 48c6 8.66699 11.833 15.834 17.5 21.501s11.834 10.167 18.501 13.5h-2l568 338c36 16 59.333 13.333 70 -8
c8.66699 -19.333 6 -37.333 -8 -54l-662 -378h-2z" />
    <glyph glyph-name="uFB94" unicode="&#x6af;" horiz-adv-x="559" arabic-form="initial" 
d="M117 565c-38 0 -55.332 20.335 -51.999 61.002c1.33301 19.333 11.166 38.166 29.499 56.499s44.5 34.5 78.5 48.5c104.667 47.333 208.5 98.666 311.5 153.999s201.5 112.333 295.5 171c98 62.667 174.833 110.167 230.5 142.5s90.5 50.833 104.5 55.5
c40 11.333 72.333 17 97 17c43.333 -4.66699 63.333 -19.667 60 -45c-0.666992 -9.33301 -6 -17.333 -16 -24l-345 -215.5l-318 -186.5c-205.333 -114 -363 -192.333 -473 -235h-3zM-11.999 185.002c104.667 7.33301 157 66.333 157 177c0 45.333 -6.66699 93 -20 143
c-6 39.333 13.333 59 58 59c40 0 67.667 -10.333 83 -31c22.667 -32 35.667 -91.333 39 -178c2 -88 -22.667 -166 -74 -234c-25.333 -34 -58.333 -61.333 -99 -82s-88.667 -34 -144 -40v186zM331.001 842.002c-12 0 -18 6.99902 -18 20.999
c0 12.667 6.33301 28.334 19 47.001c12 18.667 23.333 31 34 37l566 337c38.667 14.667 62.667 12 72 -8c6.66699 -17.333 3.66699 -35.333 -9 -54l-407.5 -234l-255.5 -144z" />
    <glyph glyph-name="uFB95" unicode="&#x6af;" horiz-adv-x="520" arabic-form="medial" 
d="M-9 185c17.333 0 35.1709 0.336914 53.5039 1.00391s36.5 1 54.5 1c-16.667 18.667 -28.667 40.167 -36 64.5s-10.666 52.166 -9.99902 83.499c2 33.333 11.667 66.833 29 100.5s43 68.5 77 104.5c67.333 69.333 131.333 106.666 192 111.999
c83.333 9.33301 135.333 -35.334 156 -134.001c0.666992 -8.66699 1.16699 -17.334 1.5 -26.001s0.5 -16.667 0.5 -24c0 -28.667 -3 -56.167 -9 -82.5s-14.667 -50.5 -26 -72.5c-12.667 -25.333 -25.834 -47.833 -39.501 -67.5s-27.5 -35.834 -41.5 -48.501
c7.33301 -2.66699 16.666 -4.5 27.999 -5.5s23.666 -2.16699 36.999 -3.5s26.666 -2.16602 39.999 -2.49902s25 -0.5 35 -0.5v-185c-56.667 -0.666992 -108.834 3 -156.501 11s-89.5 20 -125.5 36c-23.333 -14.667 -51.5 -26 -84.5 -34s-74.833 -12.333 -125.5 -13h-50v185z
M137.005 617.004c-40.667 0 -59 20.334 -55 61.001c4 40 40 75.333 108 106l152 73.5l162 83l157.5 85.5c51 28.667 97.833 56.334 140.5 83.001l224.5 137.5c57 33.667 92.5 52.5 106.5 56.5h-1c37.333 12.667 70 19 98 19c43.333 -4.66699 63 -19.667 59 -45
c0 -10.667 -4.33301 -18.334 -13 -23.001l-346.5 -216l-318.5 -185l-273.5 -145.5c-77.667 -39.667 -143.5 -69.834 -197.5 -90.501h-3zM334.005 878.005c-12 0 -18.001 7.00098 -18.001 21.001c0 12 6.33301 27 19 45l17 23.5c4.66699 6.33301 10.334 11.166 17.001 14.499
h-1l567 338c38 16 61.667 12.667 71 -10c2.66699 -8.66699 3.5 -17.5 2.5 -26.5s-4.5 -18.167 -10.5 -27.5l-407 -232.5l-255 -145.5h-2zM238.004 240.006c32.667 10.667 59.833 28.5 81.5 53.5s37.834 56.5 48.501 94.5c6 24 9 45 9 63c0 36.667 -14 57.667 -42 63
c-20.667 -2.66699 -48.334 -20.667 -83.001 -54c-37.333 -35.333 -58.666 -72 -63.999 -110c-6.66699 -34.667 -2 -62.667 14 -84c15.333 -20 27.666 -28.667 36.999 -26h-1z" />
    <glyph glyph-name="uFE94" unicode="&#x6c0;" horiz-adv-x="610" arabic-form="final" 
d="M98 -115c-15.333 33.333 -23 68 -23 104c0 68.667 27 129.667 81 183c55.333 48 111 72 167 72c22 0 49 -7.33301 81 -22c12 -8 27.167 -14.333 45.5 -19s39.166 -9 62.499 -13c14.667 -2 29 -3.33301 43 -4s26.333 -1 37 -1c4 0 8.83301 -0.166992 14.5 -0.5
s13.167 0.166992 22.5 1.5v-186h-35c-86.667 0 -150 13.667 -190 41c-13.333 8.66699 -28.666 13.834 -45.999 15.501s-33.833 -0.333008 -49.5 -6s-28.667 -14.834 -39 -27.501s-14.833 -29 -13.5 -49c0 -6.66699 0.666992 -15 2 -25s3.33301 -21.667 6 -35
c9.33301 -24 10.666 -42 3.99902 -54c-13.333 -42.667 -38.666 -64 -75.999 -64c-36.667 0 -68 29.667 -94 89z" />
    <glyph glyph-name="uFEF2" unicode="&#x6cc;" horiz-adv-x="1087" arabic-form="final" 
d="M831 74c-24.667 -29.333 -55.001 -67.8271 -91.001 -115.494l-126 -170.5c-50 -66.667 -104.333 -124.834 -163 -174.501s-122 -90.834 -190 -123.501v1c-56.667 -28.667 -118.334 -49.834 -185.001 -63.501s-139.334 -20.5 -218.001 -20.5h-51.5
c-17 0 -34.167 1 -51.5 3c-41.333 5.33301 -79.666 13.833 -114.999 25.5s-68.666 26.5 -99.999 44.5c-25.333 18.667 -35.333 38.667 -30 60c7.33301 23.333 39 32.333 95 27c11.333 -0.666992 23.833 -1.5 37.5 -2.5s28.834 -1.5 45.501 -1.5c32.667 0 71 1.16699 115 3.5
s92.667 6.5 146 12.5c82 8.66699 160.333 29.667 235 63s144.334 79 209.001 137c68 59.333 128.667 119.166 182 179.499s103.333 124.166 150 191.499c57.333 85.333 106 128 146 128c23.333 0 43 -12.333 59 -37c26 -23.333 53 -38.5 81 -45.5s56.667 -10.5 86 -10.5
v-185c-47.333 0 -83.333 8.66699 -108 26c-9.33301 5.33301 -19.5 12.666 -30.5 21.999s-22.167 21.333 -33.5 36c-12.667 11.333 -25.334 17 -38.001 17c-17.333 0 -36 -9 -56 -27z" />
    <glyph glyph-name="uFEF3" unicode="&#x6cc;" horiz-adv-x="632" arabic-form="initial" 
d="M-12 185c28 0.666992 55.9961 4.33203 83.9961 10.999s56.667 16.667 86 30c28.667 12 53.834 26 75.501 42s40.334 33.333 56.001 52s28.334 38 38.001 58s16.5 40 20.5 60c16.667 0 31.167 -3 43.5 -9s22.333 -14 30 -24s13.5 -21.667 17.5 -35s6 -27 6 -41
c0 -12 -1.66699 -21.667 -5 -29c-25.333 -80 -84 -150.667 -176 -212c-46 -31.333 -92.167 -54.166 -138.5 -68.499s-92.166 -20.833 -137.499 -19.5v185zM153.996 -194.002c40 25.333 84.6689 44.002 134.002 56.002s103.666 18 162.999 18c52 0 92.333 -5.66699 121 -17
c17.333 -5.33301 31.666 -11.833 42.999 -19.5s17 -15.834 17 -24.501c0 -12 -7.83301 -21.5 -23.5 -28.5s-37.167 -11.167 -64.5 -12.5c-58.667 -4 -117.5 -13 -176.5 -27s-116.167 -32.667 -171.5 -56l2 1c-10 -6.66699 -21.333 -10 -34 -10c-42.667 0 -64 16.667 -64 50
c0 21.333 18 44.666 54 69.999z" />
    <glyph glyph-name="uFEF4" unicode="&#x6cc;" horiz-adv-x="445" arabic-form="medial" 
d="M12 -251c83.333 48.667 186 73.001 308 73.001c58 0 101.333 -3.33301 130 -10c42 -17.333 63 -35 63 -53c0 -12 -8 -21 -24 -27s-38 -10 -66 -12c-64 -4.66699 -127.167 -14.334 -189.5 -29.001s-121.5 -35 -177.5 -61v2c-6 -4 -12.333 -6.83301 -19 -8.5
s-12.667 -2.5 -18 -2.5c-40 0 -60 18.333 -60 55c0 20.667 17.667 45 53 73zM-7 185.001c32.667 0 63 5.32812 91 15.9951s53 24.834 75 42.501s41.167 37.834 57.5 60.501s29.833 46.667 40.5 72c4 8.66699 9.66699 15.167 17 19.5s15.5 6.66602 24.5 6.99902
s17.833 -0.666992 26.5 -3s16.667 -6.16602 24 -11.499c7.33301 -6.66699 12.833 -15.667 16.5 -27s5.66699 -23.166 6 -35.499s-0.333984 -24.666 -2.00098 -36.999s-4.16699 -22.166 -7.5 -29.499c-8 -16 -6.66699 -32.333 4 -49c8.66699 -16.667 38.667 -25 90 -25v-185
c-102.667 3.33301 -169 37 -199 101c-26 -35.333 -62.167 -61 -108.5 -77s-98.166 -24 -155.499 -24v185z" />
    <glyph glyph-name="Hcircumflex" unicode="&#x622;" horiz-adv-x="450" arabic-form="final" 
d="M116 289c0 55.333 13 124.667 39 208c24 82 63.667 161 119 237c54.667 77.333 99 116 133 116c26 0 39 -13.333 39 -40c0 -8 -20.667 -48.333 -62 -121c-21.333 -38.667 -39.666 -76 -54.999 -112s-27 -70.667 -35 -104c-16 -68 -24 -115 -24 -141
c0 -94.667 61.667 -143.667 185 -147v-185c-66.667 0 -124.334 9 -173.001 27s-88 48.667 -118 92c-32 47.333 -48 104 -48 170z" />
    <glyph glyph-name="uFE84" unicode="&#x623;" horiz-adv-x="450" arabic-form="final" 
d="M116 289c0 55.333 13 124.667 39 208c24 82 63.667 161 119 237c54.667 77.333 99 116 133 116c26 0 39 -13.333 39 -40c0 -8 -20.667 -48.333 -62 -121c-21.333 -38.667 -39.666 -76 -54.999 -112s-27 -70.667 -35 -104c-16 -68 -24 -115 -24 -141
c0 -94.667 61.667 -143.667 185 -147v-185c-66.667 0 -124.334 9 -173.001 27s-88 48.667 -118 92c-32 47.333 -48 104 -48 170z" />
    <glyph glyph-name="uFE86" unicode="&#x624;" horiz-adv-x="763" arabic-form="final" 
d="M-21 -293c27.333 2 57.5049 6.99805 90.5049 14.998s66.167 18.333 99.5 31s66 27.834 98 45.501s60.667 37 86 58s45.666 43.5 60.999 67.5s23 49.333 23 76c-25.333 5.33301 -44.333 15 -57 29s-21.834 29.667 -27.501 47s-8.33398 35 -8.00098 53
s1.83301 33.333 4.5 46c4 28 12.667 55.833 26 83.5s30.166 52.5 50.499 74.5s43.666 39.833 69.999 53.5s54.833 20.5 85.5 20.5c77.333 0 116 -57 116 -171v-21.5c0 -9.66699 -0.666992 -18.5 -2 -26.5c6 -1.33301 15 -2.16602 27 -2.49902s29.333 -0.5 52 -0.5v-185h-130
c-141.333 -249.333 -348 -379.333 -620 -390c-78 4 -111.333 24.333 -100 61c2 22.667 20.333 34.667 55 36z" />
    <glyph glyph-name="uFE88" unicode="&#x625;" horiz-adv-x="450" arabic-form="final" 
d="M116 289c0 55.333 13 124.667 39 208c24 82 63.667 161 119 237c54.667 77.333 99 116 133 116c26 0 39 -13.333 39 -40c0 -8 -20.667 -48.333 -62 -121c-21.333 -38.667 -39.666 -76 -54.999 -112s-27 -70.667 -35 -104c-16 -68 -24 -115 -24 -141
c0 -94.667 61.667 -143.667 185 -147v-185c-66.667 0 -124.334 9 -173.001 27s-88 48.667 -118 92c-32 47.333 -48 104 -48 170z" />
    <glyph glyph-name="uFE8A" unicode="&#x626;" horiz-adv-x="1087" arabic-form="final" 
d="M831 74c-24.667 -29.333 -55.001 -67.8271 -91.001 -115.494l-126 -170.5c-50 -66.667 -104.333 -124.834 -163 -174.501s-122 -90.834 -190 -123.501v1c-56.667 -28.667 -118.334 -49.834 -185.001 -63.501s-139.334 -20.5 -218.001 -20.5h-51.5
c-17 0 -34.167 1 -51.5 3c-41.333 5.33301 -79.666 13.833 -114.999 25.5s-68.666 26.5 -99.999 44.5c-25.333 18.667 -35.333 38.667 -30 60c7.33301 23.333 39 32.333 95 27c11.333 -0.666992 23.833 -1.5 37.5 -2.5s28.834 -1.5 45.501 -1.5c32.667 0 71 1.16699 115 3.5
s92.667 6.5 146 12.5c82 8.66699 160.333 29.667 235 63s144.334 79 209.001 137c68 59.333 128.667 119.166 182 179.499s103.333 124.166 150 191.499c57.333 85.333 106 128 146 128c23.333 0 43 -12.333 59 -37c26 -23.333 53 -38.5 81 -45.5s56.667 -10.5 86 -10.5
v-185c-47.333 0 -83.333 8.66699 -108 26c-9.33301 5.33301 -19.5 12.666 -30.5 21.999s-22.167 21.333 -33.5 36c-12.667 11.333 -25.334 17 -38.001 17c-17.333 0 -36 -9 -56 -27z" />
    </font>
</defs>
</svg>
