<?xml version="1.0" standalone="no"?>
<!DOCTYPE svg PUBLIC "-//W3C//DTD SVG 1.1//EN" "http://www.w3.org/Graphics/SVG/1.1/DTD/svg11.dtd" >
<svg>
<metadata>
Created by FontForge 20090914 at Wed Oct 19 01:45:51 2011
 By www-data
(c) by Abolfazl Seilsepour - +98 912 591 3420  -  seilsepor@yahoo.com
</metadata>
<defs>
<font id="FarShafigh" horiz-adv-x="0" >
  <font-face 
    font-family="Far.Shafigh"
    font-weight="400"
    font-stretch="normal"
    units-per-em="2048"
    panose-1="0 0 4 0 0 0 0 0 0 0"
    ascent="1638"
    descent="-410"
    bbox="-259 -1210 3657 2074"
    underline-thickness="100"
    underline-position="-850"
    unicode-range="U+0020-U+FEFC"
  />
<missing-glyph horiz-adv-x="1024" 
d="M128 0v1360h768v-1360h-768zM256 128h512v1104h-512v-1104z" />
    <glyph glyph-name=".notdef" unicode="&#x652;&#x64d;" horiz-adv-x="1024" 
d="M128 0v1360h768v-1360h-768zM256 128h512v1104h-512v-1104z" />
    <glyph glyph-name="copyright" unicode="&#x652;&#x64b;" horiz-adv-x="2482" 
 />
    <glyph glyph-name="uniE818" unicode="&#x651;&#x64b;" 
d="M561 1533c0 -49.333 -12.333 -89 -37 -119c-27.333 -35.333 -64 -53 -110 -53c-34.667 0 -70.667 16.333 -108 49c-26.667 -32.667 -64 -49 -112 -49c-44 0 -79 18.333 -105 55c-20 30 -30 69 -30 117h75c0 -66.667 22 -100 66 -100c43.333 0 66 33.333 68 100h80
c0 -66.667 22.667 -100 68 -100c44 0 66.333 33.333 67 100h78zM501 1924l-340 -185l-38 69l340 188zM500 1807l-339 -181l-39 66l340 187z" />
    <glyph glyph-name="uniFC5E" unicode="&#x651;&#x64c;" arabic-form="isolated" 
d="M592 1526c0 -49.333 -12.333 -89 -37 -119c-27.333 -35.333 -64 -53 -110 -53c-34.667 0 -70.667 16.333 -108 49c-26.667 -32.667 -64 -49 -112 -49c-44 0 -79 18.333 -105 55c-20 30 -30 69 -30 117h75c0 -66.667 22 -100 66 -100c43.333 0 66 33.333 68 100h80
c0 -66.667 22.667 -100 68 -100c44 0 66.333 33.333 67 100h78zM563 1937c0 -64 -18.3301 -105.667 -54.9971 -125l-298 -159l-39 66c37.333 24 59 41.667 65 53c0 14.667 -10 22 -30 22c-16 0 -34.333 -5.66699 -55 -17l-32 57c47.333 16 81.666 24 102.999 24
c47.333 0 75.333 -22.667 84 -68l43 25c-48 27.333 -72 65.333 -72 114c0 64 32 108.333 96 133c21.333 8 35.666 12 42.999 12c41.333 0 76.166 -13.5 104.499 -40.5s42.5 -59.167 42.5 -96.5zM487.003 1938c0 20 -7.5 36.5 -22.5 49.5s-31.167 19.5 -48.5 19.5
c-42.667 0 -64 -25.667 -64 -77c0 -45.333 23.333 -68 70 -68c12 0 25.833 8.5 41.5 25.5s23.5 33.833 23.5 50.5z" />
    <glyph glyph-name="uniFC5F" unicode="&#x651;&#x64d;" arabic-form="isolated" 
d="M581 1956c0 -49.333 -12.333 -89 -37 -119c-27.333 -35.333 -64 -53 -110 -53c-34.667 0 -70.667 16.333 -108 49c-26.667 -32.667 -64 -49 -112 -49c-44 0 -79 18.333 -105 55c-20 30 -30 69 -30 117h75c0 -66.667 22 -100 66 -100c43.333 0 66 33.333 68 100h80
c0 -66.667 22.667 -100 68 -100c44 0 66.333 33.333 67 100h78zM489 1667l-338 -182l-39 67l340 187zM489 1523l-339 -182l-37 68l339 188z" />
    <glyph glyph-name="uniFC60" unicode="&#x651;&#x64e;" arabic-form="isolated" 
d="M581 1492c0 -49.333 -12.333 -89 -37 -119c-27.333 -35.333 -64 -53 -110 -53c-34.667 0 -70.667 16.333 -108 49c-26.667 -32.667 -64 -49 -112 -49c-44 0 -79 18.333 -105 55c-20 30 -30 69 -30 117h75c0 -66.667 22 -100 66 -100c43.333 0 66 33.333 68 100h80
c0 -66.667 22.667 -100 68 -100c44 0 66.333 33.333 67 100h78zM501 1752l-339 -181l-39 66l340 190z" />
    <glyph glyph-name="uniFC61" unicode="&#x651;&#x64f;" arabic-form="isolated" 
d="M602 1503c0 -49.333 -12.333 -89 -37 -119c-27.333 -35.333 -64 -53 -110 -53c-34.667 0 -70.667 16.333 -108 49c-26.667 -32.667 -64 -49 -112 -49c-44 0 -79 18.333 -105 55c-20 30 -30 69 -30 117h75c0 -66.667 22 -100 66 -100c43.333 0 66 33.333 68 100h80
c0 -66.667 22.667 -100 68 -100c44 0 66.333 33.333 67 100h78zM512 1868c0 -62.667 -18.666 -104.001 -55.999 -124.001l-243 -129l-39 66l121 67c-46.667 27.333 -70 65 -70 113c0 64.667 32.667 109.334 98 134.001c19.333 7.33301 32.666 11 39.999 11
c41.333 0 76.5 -13.5 105.5 -40.5s43.5 -59.5 43.5 -97.5zM435.001 1870c0 20 -7.5 36.333 -22.5 49s-31.5 19 -49.5 19c-42 0 -63 -25.333 -63 -76c0 -46 23.667 -69 71 -69c11.333 0 24.833 8.66699 40.5 26s23.5 34.333 23.5 51z" />
    <glyph glyph-name="uniFC62" unicode="&#x651;&#x650;" arabic-form="isolated" 
d="M571 1799c0 -49.333 -12.333 -89 -37 -119c-27.333 -35.333 -64 -53 -110 -53c-34.667 0 -70.667 16.333 -108 49c-26.667 -32.667 -64 -49 -112 -49c-44 0 -79 18.333 -105 55c-20 30 -30 69 -30 117h75c0 -66.667 22 -100 66 -100c43.333 0 66 33.333 68 100h80
c0 -66.667 22.667 -100 68 -100c44 0 66.333 33.333 67 100h78zM495 1531l-337 -182l-41 67l340 189z" />
    <glyph glyph-name="uniFD3E" unicode="&#x652;&#x64e;" horiz-adv-x="1135" 
d="M1075 -612c0 -10 -8 -15 -24 -15c-50.667 0 -127 50.333 -229 151c-134 130.667 -238.667 297 -314 499c-139.333 2 -209 20.333 -209 55c91.333 96 137 170.333 137 223c-41.333 0 -85.833 -24.5 -133.5 -73.5s-74.834 -73.5 -81.501 -73.5
c-25.333 0 -43.666 54.333 -54.999 163c-74 36 -111 67.667 -111 95c0 30.667 35 66.667 105 108c7.33301 104 23.666 156 48.999 156c102 -96 177.667 -144 227 -144c-4.66699 51.333 -30.667 100 -78 146s-71 72 -71 78c0 10.667 20.333 22.334 61 35.001
c46 14 97.333 22 154 24c48 144.667 113 274 195 388c63.333 88.667 131.333 161.667 204 219c58 46 99 69 123 69c13.333 0 20 -7.66699 20 -23c0 -6.66699 -24.333 -37 -73 -91c-60 -67.333 -109 -136.666 -147 -207.999c-59.333 -109.333 -99 -230.666 -119 -363.999
c66.667 -10.667 100 -25.667 100 -45c-94 -94.667 -141 -168.334 -141 -221.001c48 0 119.667 49 215 147c12 0 24.333 -17.667 37 -53s20 -72.333 22 -111c70.667 -36.667 106 -70 106 -100c0 -24.667 -33.333 -56.667 -100 -96
c-5.33301 -106.667 -23.666 -160 -54.999 -160l-68 65c-46 45.333 -97 70.666 -153 75.999c0 -47.333 24.5 -95 73.5 -143s73.5 -76 73.5 -84c0 -15.333 -36 -30.333 -108 -45c21.333 -108.667 64.833 -220.834 130.5 -336.501s138.167 -207.834 217.5 -276.501
c13.333 -11.333 20 -22.666 20 -33.999zM680 418c0 35.333 -12.667 65.666 -38 90.999s-55.666 38 -90.999 38c-36 0 -66.5 -12.667 -91.5 -38s-37.5 -55.666 -37.5 -90.999c0 -34.667 12.5 -64.167 37.5 -88.5s55.5 -36.5 91.5 -36.5c35.333 0 65.666 12.167 90.999 36.5
s38 53.833 38 88.5z" />
    <glyph glyph-name="uniFDF2" unicode="&#xfedf;&#xfee0;&#xfeea;" horiz-adv-x="2253" arabic-form="isolated" 
d="M1487 1412c-15.333 -60.667 -46 -90.998 -92 -90.998c-27.333 0 -46.333 5 -57 15l-30 33c-33.333 -88 -81 -132 -143 -132c-25.333 0 -43.5 13.667 -54.5 41s-16.5 55.333 -16.5 84c0 42 3 73.833 9 95.5s25.333 35.167 58 40.5l-6 -69c0 -43.333 10.667 -65 32 -65
c36 0 60 24.667 72 74l13 97l51 21l11 -75c7.33301 -27.333 21.666 -41 42.999 -41c42 0 63 54.667 63 164l37 19c5.33301 -16.667 9.83301 -38.334 13.5 -65.001s5.5 -47.334 5.5 -62.001c0 -17.333 -0.666992 -31 -2 -41s-3.66602 -24.333 -6.99902 -43zM725 454.002
l0.000976562 14.999l-2 26c0 16 -1 26.667 -3 32v84l-50 -47l-54 -46c-18.667 -15.333 -94.667 -39.666 -228 -72.999c-48 -11.333 -74 -24.333 -78 -39c5.33301 -14.667 31.333 -22 78 -22l71 -8l78 -2h52l19 2c11.333 0 25.666 4.33301 42.999 13
c26 14 50.667 35.667 74 65zM1734 205.001l-0.00292969 1.00098h287l33 6c12.667 4 24 12 34 24l-15 95l-28 172l-17 158l-11 72l-6 51l-7 33l-84 67c-26 21.333 -46.333 55 -61 101l28 113l28 84c4.66699 20 14.334 43.667 29.001 71l19 -8l-15 -24l-6 -20l-1 -47
c0 -48 29.667 -90 89 -126l138 -54l-45 -179l-22 2l-13 7l-10 -13l-7 -19l20 -128l25 -130l13 -114l7 -76c0 -40 -10.5 -96.833 -31.5 -170.5s-45.5 -115.834 -73.5 -126.501s-57.667 -16 -89 -16h-208v-1h-33c-96 0 -178 38.333 -246 115
c-20 22.667 -34.667 44.834 -44 66.501s-17.666 53.5 -24.999 95.5l-15 -48c-3.33301 -16 -13 -39.667 -29 -71l-32 -43c-28.667 -36 -63 -67 -103 -93c-29.333 -14.667 -61.333 -22 -96 -22h-30v-10h-69c-52 0 -99 19.333 -141 58c-58.667 52 -101 137.667 -127 257
l-19 113l-83 -104c-40 -50.667 -73.667 -86.667 -101 -108l-61 -11l-97 -4h-82c-38.667 0 -69.667 3 -93 9c-46 10 -77.667 23 -95 39l9 36l36 52c14.667 23.333 46 63 94 119l45 34l86 42l111 38l222 69v203l56 122l17 -9c-8 -48 -12 -112.667 -12 -194
c0 -192 22.667 -332 68 -420c14.667 -30 41.334 -62.333 80.001 -97c39.333 -32.667 76.333 -49 111 -49h36v10h31l37 2c8.66699 0 21.334 3.33301 38.001 10l42 20l21 8l20 13c60 43.333 101 113.333 123 210l-3 99l-8 221v37c0 15.333 -1.33301 28 -4 38l-5 46l-8 39
l-14 58l-10 32c-1.33301 3.33301 -2.33301 6.66602 -3 9.99902s-3.33398 8 -8.00098 14l76 132l25 -80l13 -63c0 -14 1 -22.667 3 -26l8 -45l9 -99l9 -316v-56l2 -45l2 -28l21 -85l18 -41c14 -24.667 33.333 -44.667 58 -60l69 -35l33 -8l41 -2h26z" />
    <glyph glyph-name="uniFEF5" unicode="&#xfedf;&#xfe82;" horiz-adv-x="1118" arabic-form="isolated" 
d="M1044 1117l-62.9961 -177l-54 23l-13 -15l-7 -12c0 -28 -1.83301 -56.667 -5.5 -86s-10.5 -62.666 -20.5 -99.999l-28 -102c-4 -30 -16 -63.667 -36 -101l47 -119l17 -65c0 -204.667 -29.333 -323.334 -88 -356.001l-35 -7h-166l-97 2c-54.667 0 -98.667 28 -132 84
c-11.333 24.667 -17 55 -17 91v32c0 20.667 1.33301 34.667 4 42c0 14 3 31.333 9 52c2.66699 6.66699 7.66699 21 15 43h15l-2 -26c0 -18.667 1.66699 -32.834 5 -42.501s9.66602 -21.5 18.999 -35.5c15.333 -14.667 37.666 -25.667 66.999 -33
c46 26.667 90.167 61.834 132.5 105.501s82.166 95.167 119.499 154.5l-54 90c-22.667 36 -73.667 99 -153 189c-69.333 76 -132.833 140.333 -190.5 193s-94.167 78 -109.5 76l-14 -49l-6 -54l-6 -5l-5 -4l-43 80l-30 45c-30.667 45.333 -48 81.666 -52 108.999
c0 15.333 7.16699 45.333 21.5 90s25.166 70 32.499 76c85.333 -44.667 160.333 -95.667 225 -153c22.667 -13.333 52.667 -40 90 -80l96 -98c40 -46 89.667 -110 149 -192l34 -45l28 -48l52 -97l24 75l21 74c10.667 40.667 16 92.667 16 156c0 38.667 -3 72.334 -9 101.001
l-72 63c-22.667 18.667 -34 48 -34 88c0 20 10.667 54.667 32 104l37 84l17 37l20 35l17 -5l-17 -34l-11 -44l-4 -38c0 -36 30.333 -74.333 91 -115zM832.004 201c-18.667 70.667 -30.333 108 -35 112l-17 48l-24 50l-26 -44l-28 -37l-24 -30l-32 -36l-74 -72l59 -10l80 -1
l82 3c14.667 0 27.667 5.66699 39 17zM-181.995 1400l2 -48.001c29.333 33.333 66 63.666 110 90.999c10.667 11.333 39 26.333 85 45l43 4c13.333 0 60.333 -10 141 -30l92 -19l43 4c50.667 11.333 95.667 33 135 65l45 47l47 76l-2 45
c-44.667 -31.333 -80 -53.666 -106 -66.999l-121 -43l-41 -4c-31.333 0 -62 4.33301 -92 13c-76.667 24.667 -123.667 37.667 -141 39c-31.333 0 -58 -8.66699 -80 -26l-32 -33l-43 -45c-12 -11.333 -27.333 -30.666 -46 -57.999c-14.667 -16 -27.667 -34.667 -39 -56z" />
    <glyph glyph-name="uniFEF6" unicode="&#xfee0;&#xfe82;" horiz-adv-x="1742" arabic-form="final" 
d="M1752 0l-53.999 -0.00195312c-66 0 -124.333 25.833 -175 77.5s-88.667 127.5 -114 227.5l-31 127l-11 168l-21 284c-70.667 -291.333 -147 -497.333 -229 -618c-94 -135.333 -234.333 -230.666 -421 -285.999c-49.333 -13.333 -141.666 -27 -276.999 -41l-235 -11
l-126 5c-34 0 -61.333 3.33301 -82 10l11 22c58 7.33301 140 24 246 50c65.333 14.667 142.333 37 231 67c121.333 40.667 231.666 89.667 330.999 147l2 73c0 58 -8.16699 118.667 -24.5 182s-39.833 119.666 -70.5 168.999c-50.667 86 -88 129 -112 129l-9 -2l-15 -39
l-9 -52l-10 -9l-15 -4l-83 197l-36 91l11 26l8 30l19 38c18 48 32 77 42 87c41.333 -14.667 99.666 -63.667 174.999 -147c87.333 -95.333 147 -187.666 179 -276.999l11 -27l10 -52c2 -12 3.66699 -24.333 5 -37s2 -32.334 2 -59.001c0 -118 -19.333 -219.333 -58 -304
c42.667 23.333 96 60 160 110c26.667 21.333 62.667 60.333 108 117c35.333 46 83.333 143.333 144 292c56.667 143.333 89 248.333 97 315c0 32.667 8 62.334 24 89.001c6 12.667 19 29 39 49c8.66699 -24.667 15.167 -52 19.5 -82s6.5 -64 6.5 -102l9 -289v-58l4 -63
l4 -43c2 -16 5 -27 9 -33c24.667 -113.333 74.334 -204.666 149.001 -273.999c53.333 -50 101.666 -75 144.999 -75h17v-195zM93.001 1400l2 -48.001c29.333 33.333 66 63.666 110 90.999c10.667 11.333 39 26.333 85 45l43 4c13.333 0 60.333 -10 141 -30l92 -19l43 4
c50.667 11.333 95.667 33 135 65l45 47l47 76l-2 45c-44.667 -31.333 -80 -53.666 -106 -66.999l-121 -43l-41 -4c-31.333 0 -62 4.33301 -92 13c-76.667 24.667 -123.667 37.667 -141 39c-31.333 0 -58 -8.66699 -80 -26l-32 -33l-43 -45
c-12 -11.333 -27.333 -30.666 -46 -57.999c-14.667 -16 -27.667 -34.667 -39 -56z" />
    <glyph glyph-name="uniFEF7" unicode="&#xfedf;&#xfe84;" horiz-adv-x="1118" arabic-form="isolated" 
d="M1044 1117l-62.9961 -177l-54 23l-13 -15l-7 -12c0 -28 -1.83301 -56.667 -5.5 -86s-10.5 -62.666 -20.5 -99.999l-28 -102c-4 -30 -16 -63.667 -36 -101l47 -119l17 -65c0 -204.667 -29.333 -323.334 -88 -356.001l-35 -7h-166l-97 2c-54.667 0 -98.667 28 -132 84
c-11.333 24.667 -17 55 -17 91v32c0 20.667 1.33301 34.667 4 42c0 14 3 31.333 9 52c2.66699 6.66699 7.66699 21 15 43h15l-2 -26c0 -18.667 1.66699 -32.834 5 -42.501s9.66602 -21.5 18.999 -35.5c15.333 -14.667 37.666 -25.667 66.999 -33
c46 26.667 90.167 61.834 132.5 105.501s82.166 95.167 119.499 154.5l-54 90c-22.667 36 -73.667 99 -153 189c-69.333 76 -132.833 140.333 -190.5 193s-94.167 78 -109.5 76l-14 -49l-6 -54l-6 -5l-5 -4l-43 80l-30 45c-30.667 45.333 -48 81.666 -52 108.999
c0 15.333 7.16699 45.333 21.5 90s25.166 70 32.499 76c85.333 -44.667 160.333 -95.667 225 -153c22.667 -13.333 52.667 -40 90 -80l96 -98c40 -46 89.667 -110 149 -192l34 -45l28 -48l52 -97l24 75l21 74c10.667 40.667 16 92.667 16 156c0 38.667 -3 72.334 -9 101.001
l-72 63c-22.667 18.667 -34 48 -34 88c0 20 10.667 54.667 32 104l37 84l17 37l20 35l17 -5l-17 -34l-11 -44l-4 -38c0 -36 30.333 -74.333 91 -115zM832.004 201c-18.667 70.667 -30.333 108 -35 112l-17 48l-24 50l-26 -44l-28 -37l-24 -30l-32 -36l-74 -72l59 -10l80 -1
l82 3c14.667 0 27.667 5.66699 39 17zM324.005 1490l4.00098 -24.001c0 -49.333 -44 -84 -132 -104l-21 -2l-31 4h-24l-19 -2c-12.667 -7.33301 -20.667 -14.333 -24 -21l-15 15l18 24c14 8 37 15.667 69 23c34 0 60.333 6.66699 79 20l3 17
c-3.33301 6 -6.33301 9.66699 -9 11c-28.667 5.33301 -49.667 22 -63 50c-8 18.667 2.66699 48.167 32 88.5s58.333 60.5 87 60.5l-6 -59c-14.667 -1.33301 -29 -5.66602 -43 -12.999l-18 -26c0 -8.66699 17.333 -18.667 52 -30c33.333 -4 53.666 -14.667 60.999 -32z" />
    <glyph glyph-name="uniFEF8" unicode="&#xfee0;&#xfe84;" horiz-adv-x="1742" arabic-form="final" 
d="M1752 0l-53.999 -0.00195312c-66 0 -124.333 25.833 -175 77.5s-88.667 127.5 -114 227.5l-31 127l-11 168l-21 284c-70.667 -291.333 -147 -497.333 -229 -618c-94 -135.333 -234.333 -230.666 -421 -285.999c-49.333 -13.333 -141.666 -27 -276.999 -41l-235 -11
l-126 5c-34 0 -61.333 3.33301 -82 10l11 22c58 7.33301 140 24 246 50c65.333 14.667 142.333 37 231 67c121.333 40.667 231.666 89.667 330.999 147l2 73c0 58 -8.16699 118.667 -24.5 182s-39.833 119.666 -70.5 168.999c-50.667 86 -88 129 -112 129l-9 -2l-15 -39
l-9 -52l-10 -9l-15 -4l-83 197l-36 91l11 26l8 30l19 38c18 48 32 77 42 87c41.333 -14.667 99.666 -63.667 174.999 -147c87.333 -95.333 147 -187.666 179 -276.999l11 -27l10 -52c2 -12 3.66699 -24.333 5 -37s2 -32.334 2 -59.001c0 -118 -19.333 -219.333 -58 -304
c42.667 23.333 96 60 160 110c26.667 21.333 62.667 60.333 108 117c35.333 46 83.333 143.333 144 292c56.667 143.333 89 248.333 97 315c0 32.667 8 62.334 24 89.001c6 12.667 19 29 39 49c8.66699 -24.667 15.167 -52 19.5 -82s6.5 -64 6.5 -102l9 -289v-58l4 -63
l4 -43c2 -16 5 -27 9 -33c24.667 -113.333 74.334 -204.666 149.001 -273.999c53.333 -50 101.666 -75 144.999 -75h17v-195zM324.001 1490l4.00098 -24.001c0 -49.333 -44 -84 -132 -104l-21 -2l-31 4h-24l-19 -2c-12.667 -7.33301 -20.667 -14.333 -24 -21l-15 15l18 24
c14 8 37 15.667 69 23c34 0 60.333 6.66699 79 20l3 17c-3.33301 6 -6.33301 9.66699 -9 11c-28.667 5.33301 -49.667 22 -63 50c-8 18.667 2.66699 48.167 32 88.5s58.333 60.5 87 60.5l-6 -59c-14.667 -1.33301 -29 -5.66602 -43 -12.999l-18 -26
c0 -8.66699 17.333 -18.667 52 -30c33.333 -4 53.666 -14.667 60.999 -32z" />
    <glyph glyph-name="uniFEF9" unicode="&#xfedf;&#xfe88;" horiz-adv-x="1118" arabic-form="isolated" 
d="M1044 1117l-62.9961 -177l-54 23l-13 -15l-7 -12c0 -28 -1.83301 -56.667 -5.5 -86s-10.5 -62.666 -20.5 -99.999l-28 -102c-4 -30 -16 -63.667 -36 -101l47 -119l17 -65c0 -204.667 -29.333 -323.334 -88 -356.001l-35 -7h-166l-97 2c-54.667 0 -98.667 28 -132 84
c-11.333 24.667 -17 55 -17 91v32c0 20.667 1.33301 34.667 4 42c0 14 3 31.333 9 52c2.66699 6.66699 7.66699 21 15 43h15l-2 -26c0 -18.667 1.66699 -32.834 5 -42.501s9.66602 -21.5 18.999 -35.5c15.333 -14.667 37.666 -25.667 66.999 -33
c46 26.667 90.167 61.834 132.5 105.501s82.166 95.167 119.499 154.5l-54 90c-22.667 36 -73.667 99 -153 189c-69.333 76 -132.833 140.333 -190.5 193s-94.167 78 -109.5 76l-14 -49l-6 -54l-6 -5l-5 -4l-43 80l-30 45c-30.667 45.333 -48 81.666 -52 108.999
c0 15.333 7.16699 45.333 21.5 90s25.166 70 32.499 76c85.333 -44.667 160.333 -95.667 225 -153c22.667 -13.333 52.667 -40 90 -80l96 -98c40 -46 89.667 -110 149 -192l34 -45l28 -48l52 -97l24 75l21 74c10.667 40.667 16 92.667 16 156c0 38.667 -3 72.334 -9 101.001
l-72 63c-22.667 18.667 -34 48 -34 88c0 20 10.667 54.667 32 104l37 84l17 37l20 35l17 -5l-17 -34l-11 -44l-4 -38c0 -36 30.333 -74.333 91 -115zM832.004 201c-18.667 70.667 -30.333 108 -35 112l-17 48l-24 50l-26 -44l-28 -37l-24 -30l-32 -36l-74 -72l59 -10l80 -1
l82 3c14.667 0 27.667 5.66699 39 17zM324.005 -320l4.00098 -24.001c0 -49.333 -44 -84 -132 -104l-21 -2l-31 4h-24l-19 -2c-12.667 -7.33301 -20.667 -14.333 -24 -21l-15 15l18 24c14 8 37 15.667 69 23c34 0 60.333 6.66699 79 20l3 17
c-3.33301 6 -6.33301 9.66699 -9 11c-28.667 5.33301 -49.667 22 -63 50c-8 18.667 2.66699 48.167 32 88.5s58.333 60.5 87 60.5l-6 -59c-14.667 -1.33301 -29 -5.66602 -43 -12.999l-18 -26c0 -8.66699 17.333 -18.667 52 -30c33.333 -4 53.666 -14.667 60.999 -32z" />
    <glyph glyph-name="uniFEFA" unicode="&#xfee0;&#xfe88;" horiz-adv-x="1742" arabic-form="final" 
d="M1752 0l-53.999 -0.00195312c-66 0 -124.333 25.833 -175 77.5s-88.667 127.5 -114 227.5l-31 127l-11 168l-21 284c-70.667 -291.333 -147 -497.333 -229 -618c-94 -135.333 -234.333 -230.666 -421 -285.999c-49.333 -13.333 -141.666 -27 -276.999 -41l-235 -11
l-126 5c-34 0 -61.333 3.33301 -82 10l11 22c58 7.33301 140 24 246 50c65.333 14.667 142.333 37 231 67c121.333 40.667 231.666 89.667 330.999 147l2 73c0 58 -8.16699 118.667 -24.5 182s-39.833 119.666 -70.5 168.999c-50.667 86 -88 129 -112 129l-9 -2l-15 -39
l-9 -52l-10 -9l-15 -4l-83 197l-36 91l11 26l8 30l19 38c18 48 32 77 42 87c41.333 -14.667 99.666 -63.667 174.999 -147c87.333 -95.333 147 -187.666 179 -276.999l11 -27l10 -52c2 -12 3.66699 -24.333 5 -37s2 -32.334 2 -59.001c0 -118 -19.333 -219.333 -58 -304
c42.667 23.333 96 60 160 110c26.667 21.333 62.667 60.333 108 117c35.333 46 83.333 143.333 144 292c56.667 143.333 89 248.333 97 315c0 32.667 8 62.334 24 89.001c6 12.667 19 29 39 49c8.66699 -24.667 15.167 -52 19.5 -82s6.5 -64 6.5 -102l9 -289v-58l4 -63
l4 -43c2 -16 5 -27 9 -33c24.667 -113.333 74.334 -204.666 149.001 -273.999c53.333 -50 101.666 -75 144.999 -75h17v-195zM324.001 -320.002l4.00098 -24.001c0 -49.333 -44 -84 -132 -104l-21 -2l-31 4h-24l-19 -2c-12.667 -7.33301 -20.667 -14.333 -24 -21l-15 15
l18 24c14 8 37 15.667 69 23c34 0 60.333 6.66699 79 20l3 17c-3.33301 6 -6.33301 9.66699 -9 11c-28.667 5.33301 -49.667 22 -63 50c-8 18.667 2.66699 48.167 32 88.5s58.333 60.5 87 60.5l-6 -59c-14.667 -1.33301 -29 -5.66602 -43 -12.999l-18 -26
c0 -8.66699 17.333 -18.667 52 -30c33.333 -4 53.666 -14.667 60.999 -32z" />
    <glyph glyph-name="uniFEFB" unicode="&#xfedf;&#xfe8e;" horiz-adv-x="1118" arabic-form="isolated" 
d="M1044 1117l-62.9961 -177l-54 23l-13 -15l-7 -12c0 -28 -1.83301 -56.667 -5.5 -86s-10.5 -62.666 -20.5 -99.999l-28 -102c-4 -30 -16 -63.667 -36 -101l47 -119l17 -65c0 -204.667 -29.333 -323.334 -88 -356.001l-35 -7h-166l-97 2c-54.667 0 -98.667 28 -132 84
c-11.333 24.667 -17 55 -17 91v32c0 20.667 1.33301 34.667 4 42c0 14 3 31.333 9 52c2.66699 6.66699 7.66699 21 15 43h15l-2 -26c0 -18.667 1.66699 -32.834 5 -42.501s9.66602 -21.5 18.999 -35.5c15.333 -14.667 37.666 -25.667 66.999 -33
c46 26.667 90.167 61.834 132.5 105.501s82.166 95.167 119.499 154.5l-54 90c-22.667 36 -73.667 99 -153 189c-69.333 76 -132.833 140.333 -190.5 193s-94.167 78 -109.5 76l-14 -49l-6 -54l-6 -5l-5 -4l-43 80l-30 45c-30.667 45.333 -48 81.666 -52 108.999
c0 15.333 7.16699 45.333 21.5 90s25.166 70 32.499 76c85.333 -44.667 160.333 -95.667 225 -153c22.667 -13.333 52.667 -40 90 -80l96 -98c40 -46 89.667 -110 149 -192l34 -45l28 -48l52 -97l24 75l21 74c10.667 40.667 16 92.667 16 156c0 38.667 -3 72.334 -9 101.001
l-72 63c-22.667 18.667 -34 48 -34 88c0 20 10.667 54.667 32 104l37 84l17 37l20 35l17 -5l-17 -34l-11 -44l-4 -38c0 -36 30.333 -74.333 91 -115zM832.004 201c-18.667 70.667 -30.333 108 -35 112l-17 48l-24 50l-26 -44l-28 -37l-24 -30l-32 -36l-74 -72l59 -10l80 -1
l82 3c14.667 0 27.667 5.66699 39 17z" />
    <glyph glyph-name="uniFEFC" unicode="&#xfee0;&#xfe8e;" horiz-adv-x="1742" arabic-form="final" 
d="M1752 0l-53.999 -0.00195312c-66 0 -124.333 25.833 -175 77.5s-88.667 127.5 -114 227.5l-31 127l-11 168l-21 284c-70.667 -291.333 -147 -497.333 -229 -618c-94 -135.333 -234.333 -230.666 -421 -285.999c-49.333 -13.333 -141.666 -27 -276.999 -41l-235 -11
l-126 5c-34 0 -61.333 3.33301 -82 10l11 22c58 7.33301 140 24 246 50c65.333 14.667 142.333 37 231 67c121.333 40.667 231.666 89.667 330.999 147l2 73c0 58 -8.16699 118.667 -24.5 182s-39.833 119.666 -70.5 168.999c-50.667 86 -88 129 -112 129l-9 -2l-15 -39
l-9 -52l-10 -9l-15 -4l-83 197l-36 91l11 26l8 30l19 38c18 48 32 77 42 87c41.333 -14.667 99.666 -63.667 174.999 -147c87.333 -95.333 147 -187.666 179 -276.999l11 -27l10 -52c2 -12 3.66699 -24.333 5 -37s2 -32.334 2 -59.001c0 -118 -19.333 -219.333 -58 -304
c42.667 23.333 96 60 160 110c26.667 21.333 62.667 60.333 108 117c35.333 46 83.333 143.333 144 292c56.667 143.333 89 248.333 97 315c0 32.667 8 62.334 24 89.001c6 12.667 19 29 39 49c8.66699 -24.667 15.167 -52 19.5 -82s6.5 -64 6.5 -102l9 -289v-58l4 -63
l4 -43c2 -16 5 -27 9 -33c24.667 -113.333 74.334 -204.666 149.001 -273.999c53.333 -50 101.666 -75 144.999 -75h17v-195z" />
    <glyph glyph-name="afii57410" unicode="&#x622;" horiz-adv-x="692" arabic-form="isolated" 
d="M405 432v-64.999l-6 -43l-5 -45v-16l-6 -12l-2 -7c0 -12.667 -1.16699 -25.167 -3.5 -37.5s-7.5 -31.833 -15.5 -58.5s-16.333 -53 -25 -79s-18.667 -51.333 -30 -76l-21 7l15 43l8 24l5 35l10 90l3 121c0 36 -1.5 68.167 -4.5 96.5s-9.5 71.166 -19.5 128.499l-48 281
c-18.667 100.667 -28 161 -28 181c0 34.667 11.667 72 35 112l21 37l29 43l12 -12l-6 -50l-2 -37l21 -147l41 -268c14.667 -97.333 22 -179.333 22 -246zM14 1201l2.00195 -49c49.333 57.333 113.666 102.666 192.999 135.999l41 4c16.667 0 64.667 -10 144 -30l95 -18l41 3
c53.333 11.333 98.666 33.333 135.999 66c22 19.333 52.333 60 91 122l-2 45l-28 -20l-28 -19l-50 -28l-43 -13.5c-10 -3 -36.667 -12.833 -80 -29.5l-39 -3c-15.333 0 -32.5 1.83301 -51.5 5.5s-44.167 10.5 -75.5 20.5c-16 4.66699 -35.167 9.83398 -57.5 15.501
s-39.833 9.16699 -52.5 10.5l-42 -6c-11.333 -1.33301 -48 -33 -110 -95l-51 -61z" />
    <glyph glyph-name="afii57411" unicode="&#x623;" horiz-adv-x="627" arabic-form="isolated" 
d="M405 432v-64.999l-6 -43l-5 -45v-16l-6 -12l-2 -7c0 -12.667 -1.16699 -25.167 -3.5 -37.5s-7.5 -31.833 -15.5 -58.5s-16.333 -53 -25 -79s-18.667 -51.333 -30 -76l-21 7l15 43l8 24l5 35l10 90l3 121c0 36 -1.5 68.167 -4.5 96.5s-9.5 71.166 -19.5 128.499l-48 281
c-18.667 100.667 -28 161 -28 181c0 34.667 11.667 72 35 112l21 37l29 43l12 -12l-6 -50l-2 -37l21 -147l41 -268c14.667 -97.333 22 -179.333 22 -246zM401 1462l4 -22.999c0 -24.667 -15.667 -48.334 -47 -71.001c-26 -17.333 -54.333 -28.333 -85 -33l-13 -2h-13l-28 2
l-28 2l-13 -2l-24 -22l-17 16l22 25c6 7.33301 28.333 14 67 20c31.333 0 56.333 7.33301 75 22l5 17c-3.33301 6 -6.33301 9.66699 -9 11c-10 0 -25.667 5.66699 -47 17l-18 21v24c0 17.333 11.5 44 34.5 80s51.167 55.667 84.5 59l-6 -55c-16 -2.66699 -29 -9 -39 -19
c-6 -2.66699 -12.667 -12 -20 -28c0 -6 10.333 -13 31 -21c48.667 -10.667 76.667 -24 84 -40z" />
    <glyph glyph-name="afii57412" unicode="&#x624;" horiz-adv-x="988" arabic-form="isolated" 
d="M914 385c0 -212 -54.334 -408.497 -163.001 -589.497s-230.667 -271.5 -366 -271.5c-62 0 -120.333 10.667 -175 32c-20.667 7.33301 -42.167 15.833 -64.5 25.5s-54.833 26.5 -97.5 50.5l28 22l82 -26l49 -7h35c57.333 0 122.333 16.667 195 50
s132.334 73.666 179.001 120.999c57.333 57.333 109.833 129.666 157.5 216.999s71.5 166.333 71.5 237v31l-5 25l-6 26l-17 28l-31 -41l-36 -32c-16 -13.333 -38.333 -20 -67 -20c-44.667 0 -83 16 -115 48c-32.667 36 -49 75.667 -49 119
c0 33.333 6.83301 70.166 20.5 110.499s36.167 87.833 67.5 142.5c12.667 34 32.667 63.333 60 88c7.33301 11.333 17.666 19.333 30.999 24l36 7c42 0 83.333 -42 124 -126c18.667 -36 32.334 -80 41.001 -132l8 -67zM744.999 519.003c-4 22.667 -11.999 36.333 -23.999 41
c-10 14 -26.333 21 -49 21c-30 0 -45 -16.667 -45 -50c0 -18.667 3.5 -33 10.5 -43s19.833 -15.667 38.5 -17c16 0 29.667 3.66699 41 11c13.333 14 22.666 26.333 27.999 37zM486 1093l4.00098 -24.001c0 -49.333 -44 -84 -132 -104l-21 -2l-31 4h-24l-19 -2
c-12.667 -7.33301 -20.667 -14.333 -24 -21l-15 15l18 24c14 8 37 15.667 69 23c34 0 60.333 6.66699 79 20l3 17c-3.33301 6 -6.33301 9.66699 -9 11c-28.667 5.33301 -49.667 22 -63 50c-8 18.667 2.66699 48.167 32 88.5s58.333 60.5 87 60.5l-6 -59
c-14.667 -1.33301 -29 -5.66602 -43 -12.999l-18 -26c0 -8.66699 17.333 -18.667 52 -30c33.333 -4 53.666 -14.667 60.999 -32z" />
    <glyph glyph-name="afii57413" unicode="&#x625;" horiz-adv-x="627" arabic-form="isolated" 
d="M405 432v-64.999l-6 -43l-5 -45v-16l-6 -12l-2 -7c0 -12.667 -1.16699 -25.167 -3.5 -37.5s-7.5 -31.833 -15.5 -58.5s-16.333 -53 -25 -79s-18.667 -51.333 -30 -76l-21 7l15 43l8 24l5 35l10 90l3 121c0 36 -1.5 68.167 -4.5 96.5s-9.5 71.166 -19.5 128.499l-48 281
c-18.667 100.667 -28 161 -28 181c0 34.667 11.667 72 35 112l21 37l29 43l12 -12l-6 -50l-2 -37l21 -147l41 -268c14.667 -97.333 22 -179.333 22 -246zM416 -289.999l4.00098 -24.001c0 -49.333 -44 -84 -132 -104l-21 -2l-31 4h-24l-19 -2
c-12.667 -7.33301 -20.667 -14.333 -24 -21l-15 15l18 24c14 8 37 15.667 69 23c34 0 60.333 6.66699 79 20l3 17c-3.33301 6 -6.33301 9.66699 -9 11c-28.667 5.33301 -49.667 22 -63 50c-8 18.667 2.66699 48.167 32 88.5s58.333 60.5 87 60.5l-6 -59
c-14.667 -1.33301 -29 -5.66602 -43 -12.999l-18 -26c0 -8.66699 17.333 -18.667 52 -30c33.333 -4 53.666 -14.667 60.999 -32z" />
    <glyph glyph-name="afii57414" unicode="&#x626;" horiz-adv-x="3027" arabic-form="isolated" 
d="M2991 413l-0.00292969 -13.001c0 -37.333 -7.83301 -88.833 -23.5 -154.5s-35.167 -118.167 -58.5 -157.5c-40.667 -56 -148.667 -113.667 -324 -173c-83.333 -28.667 -151 -49.334 -203 -62.001c-85.333 -19.333 -178.333 -34.666 -279 -45.999s-203.667 -17 -309 -17
l-149 2l-229 9c-69.333 0 -139.666 5.66699 -210.999 17l-124 22c-184 32.667 -342.333 74.334 -475 125.001c-120.667 44.667 -215 92.334 -283 143.001l-67 50l-75 58c-48 37.333 -89.333 75.333 -124 114l50 14l166 -80l167 -78
c104.667 -48 298.334 -94.333 581.001 -139c53.333 -8 110.833 -15.667 172.5 -23s130.167 -14 205.5 -20c50 0 89 -0.666992 117 -2c144 -6 226 -9 246 -9c132.667 0 247.834 3.66699 345.501 11s193.5 21.666 287.5 42.999c155.333 34.667 273.333 73 354 115
c69.333 37.333 109 69 119 95c0 13.333 -21 29.333 -63 48l-21 6l-41 13l-82 20c-50.667 12.667 -120 34 -208 64c-80.667 34.667 -124.667 67 -132 97l-2 18c0 24.667 5.83301 74.667 17.5 150s22.5 121.666 32.5 138.999c46 110 124.333 198.667 235 266
c92.667 56 180.667 84 264 84c46 0 79.667 -10 101 -30l16 -45l6 -69c0 -53.333 -7 -86.666 -21 -99.999l-37 11l-35 11l-78 6c-97.333 0 -192.333 -38.667 -285 -116c-73.333 -62 -108 -106.667 -104 -134c7.33301 -34.667 56.666 -66.667 148 -96l244 -73
c93.333 -28.667 149.333 -66.667 168 -114zM649.997 1042l4.00098 -24.001c0 -49.333 -44 -84 -132 -104l-21 -2l-31 4h-24l-19 -2c-12.667 -7.33301 -20.667 -14.333 -24 -21l-15 15l18 24c14 8 37 15.667 69 23c34 0 60.333 6.66699 79 20l3 17
c-3.33301 6 -6.33301 9.66699 -9 11c-28.667 5.33301 -49.667 22 -63 50c-8 18.667 2.66699 48.167 32 88.5s58.333 60.5 87 60.5l-6 -59c-14.667 -1.33301 -29 -5.66602 -43 -12.999l-18 -26c0 -8.66699 17.333 -18.667 52 -30c33.333 -4 53.666 -14.667 60.999 -32z" />
    <glyph glyph-name="afii57415" unicode="&#x627;" horiz-adv-x="627" arabic-form="isolated" 
d="M405 432v-64.999l-6 -43l-5 -45v-16l-6 -12l-2 -7c0 -12.667 -1.16699 -25.167 -3.5 -37.5s-7.5 -31.833 -15.5 -58.5s-16.333 -53 -25 -79s-18.667 -51.333 -30 -76l-21 7l15 43l8 24l5 35l10 90l3 121c0 36 -1.5 68.167 -4.5 96.5s-9.5 71.166 -19.5 128.499l-48 281
c-18.667 100.667 -28 161 -28 181c0 34.667 11.667 72 35 112l21 37l29 43l12 -12l-6 -50l-2 -37l21 -147l41 -268c14.667 -97.333 22 -179.333 22 -246z" />
    <glyph glyph-name="afii57416" unicode="&#x628;" horiz-adv-x="2338" arabic-form="isolated" 
d="M2316 467l2 -24l2 -30c0 -34.667 -1.5 -64.334 -4.5 -89.001s-10.167 -53.334 -21.5 -86.001l-23 -69c-4.66699 -8.66699 -32 -20.334 -82 -35.001l-115 -30l-112 -28l-156 -29l-223 -28l-239 -19l-123 -3l-113 -4c-206 0 -385.333 16.667 -538 50
c-178 40.667 -306 98.334 -384 173.001c-30.667 28.667 -56 71 -76 127c-14 56.667 -21 115 -21 175c0 48 9.33301 94.333 28 139c10 30 25.667 63.667 47 101l22 -10l-17 -50l-11 -31l-17 -103l6 -32c14.667 -78 47 -135.667 97 -173
c27.333 -19.333 87.333 -46.666 180 -81.999l142 -33l80 -13l69 -9l140 -12l171 -3l180 -4c126 0 236.667 5.66699 332 17l104 2l227 31l248 41l82 17c28.667 7.33301 46.667 18.333 54 33c-4 34 -13.667 69 -29 105s-34.333 66.333 -57 91l-93 99l21 85
c8.66699 38.667 20.334 68 35 88c26 -17.333 58.833 -57.666 98.5 -120.999s68.834 -138 87.5 -224zM1514 -333l-105 -162l-178 106l98 164z" />
    <glyph glyph-name="afii57417" unicode="&#x629;" horiz-adv-x="724" arabic-form="isolated" 
d="M631 495c0 -92.667 -26.666 -172 -79.999 -238c-57.333 -72 -131 -108 -221 -108c-62.667 0 -114.167 23.333 -154.5 70s-60.5 102 -60.5 166v36l6 28l2 11l2 11l18 76l13 30l36 75l61 128l26 39c5.33301 16 11.666 26.667 18.999 32c17.333 30 39 45 65 45
c53.333 0 109.333 -36.667 168 -110c66.667 -82 100 -179 100 -291zM546.001 464c0 7.33301 -6.33301 19 -19 35c-14.667 24.667 -45.667 52 -93 82c-31.333 20 -62.333 35 -93 45l-39 5c-27.333 0 -54 -16.667 -80 -50c-20 -36 -30 -77.667 -30 -125
c0 -26 13 -48.333 39 -67c37.333 -17.333 73.333 -26 108 -26c56 0 104.5 9.33301 145.5 28s61.5 43 61.5 73zM263.001 1134l4.00098 -24.001c0 -49.333 -44 -84 -132 -104l-21 -2l-31 4h-24l-19 -2c-12.667 -7.33301 -20.667 -14.333 -24 -21l-15 15l18 24
c14 8 37 15.667 69 23c34 0 60.333 6.66699 79 20l3 17c-3.33301 6 -6.33301 9.66699 -9 11c-28.667 5.33301 -49.667 22 -63 50c-8 18.667 2.66699 48.167 32 88.5s58.333 60.5 87 60.5l-6 -59c-14.667 -1.33301 -29 -5.66602 -43 -12.999l-18 -26
c0 -8.66699 17.333 -18.667 52 -30c33.333 -4 53.666 -14.667 60.999 -32z" />
    <glyph glyph-name="afii57418" unicode="&#x62a;" horiz-adv-x="2275" arabic-form="isolated" 
d="M1478 927l-106 -164l-182 108l108 159zM1203 927l-97 -164l-184 108l100 159zM2253 467l-0.00195312 -24.0029l2 -30l-6 -85c-1.33301 -14 -3.83301 -28.667 -7.5 -44s-7.83398 -30.666 -12.5 -45.999l-23 -69c-3.33301 -7.33301 -30.666 -18.333 -82 -33l-227 -60
c-22 -6 -75.333 -15.667 -160 -29l-220 -28l-240 -19l-234 -7c-462 0 -769.333 74.333 -922 223c-64.667 62 -97 162.667 -97 302c0 40.667 9.33301 87 28 139c14.667 46 30.334 79.667 47.001 101l22 -10l-17 -50l-9 -31c-4.66699 -15.333 -8.33398 -32.333 -11.001 -51
s-4 -36 -4 -52l2 -32c0 -24.667 4.66699 -47.167 14 -67.5s23.333 -41.833 42 -64.5c17.333 -27.333 57 -54.833 119 -82.5s142.667 -52.167 242 -73.5l80 -13l73 -9l139 -12l170 -3l182 -4c126.667 0 236.667 5.66699 330 17l104 2l227 31
c90.667 12.667 173.334 26.334 248.001 41.001l82 17c26 4.66699 44 15.667 54 33c-4 36 -14 72 -30 108s-34.667 65.333 -56 88l-91 99l18 85c12.667 42.667 24.667 72 36.001 88c20 -14 53.333 -53.667 100 -119c41.333 -71.333 70.666 -146.666 88 -225.999z" />
    <glyph glyph-name="afii57419" unicode="&#x62b;" horiz-adv-x="2275" arabic-form="isolated" 
d="M1257 1132l-103 -166l-180 112l106 156zM1473 896l-103 -159l-180 103l102 158zM1203 896l-99 -159l-184 103l102 158zM2253 467l-0.00195312 -24.0029l2 -30l-6 -85c-1.33301 -14 -3.83301 -28.667 -7.5 -44s-7.83398 -30.666 -12.5 -45.999l-23 -69
c-3.33301 -7.33301 -30.666 -18.333 -82 -33l-227 -60c-22 -6 -75.333 -15.667 -160 -29l-220 -28l-240 -19l-234 -7c-462 0 -769.333 74.333 -922 223c-64.667 62 -97 162.667 -97 302c0 40.667 9.33301 87 28 139c14.667 46 30.334 79.667 47.001 101l22 -10l-17 -50
l-9 -31c-4.66699 -15.333 -8.33398 -32.333 -11.001 -51s-4 -36 -4 -52l2 -32c0 -24.667 4.66699 -47.167 14 -67.5s23.333 -41.833 42 -64.5c17.333 -27.333 57 -54.833 119 -82.5s142.667 -52.167 242 -73.5l80 -13l73 -9l139 -12l170 -3l182 -4
c126.667 0 236.667 5.66699 330 17l104 2l227 31c90.667 12.667 173.334 26.334 248.001 41.001l82 17c26 4.66699 44 15.667 54 33c-4 36 -14 72 -30 108s-34.667 65.333 -56 88l-91 99l18 85c12.667 42.667 24.667 72 36.001 88c20 -14 53.333 -53.667 100 -119
c41.333 -71.333 70.666 -146.666 88 -225.999z" />
    <glyph glyph-name="afii57420" unicode="&#x62c;" horiz-adv-x="1329" arabic-form="isolated" 
d="M1577 -899l-4.00195 -38.9951l-434 -192l-165 -69c-41.333 -7.33301 -86 -11 -134 -11c-99.333 0 -209.833 17.667 -331.5 53s-210.5 81.666 -266.5 138.999c-40 40 -76 94 -108 162c-46 95.333 -69 197.666 -69 306.999c0 20 0.333008 42.167 1 66.5s5 56 13 95
s25 96.5 51 172.5c84.667 231.333 223.667 398.666 417 501.999l133 72c-47.333 17.333 -96.166 30.333 -146.499 39s-108.5 13 -174.5 13c-53.333 0 -92.333 -8 -117 -24c-36 -17.333 -71.333 -55 -106 -113l-21 9c34 99.333 70 171.333 108 216c56 67.333 127 101 213 101
h41l28 -8l206 -32c14 0 31.333 -3.66699 52 -11l95 -18l34 -6l37 -6l82 -1h315l-92 -174c-95.333 0 -183.333 -6.83301 -264 -20.5s-160.667 -35.834 -240 -66.501c-144 -57.333 -265 -135 -363 -233c-63.333 -62.667 -120 -145.667 -170 -249l-59 -180l-8 -66
c0 -86.667 29.333 -167.334 88 -242.001c50.667 -65.333 118.334 -120.333 203.001 -165l102 -38c14 0 36.333 -4.33301 67 -13l78 -16c104.667 -18.667 218.334 -28 341.001 -28c112 0 207.667 6 287 18l139 19c57.333 10 104.666 22.333 141.999 37zM995.998 -339.995
l-100 -168l-185 112l103 156z" />
    <glyph glyph-name="afii57421" unicode="&#x62d;" horiz-adv-x="1329" arabic-form="isolated" 
d="M1577 -899l-4.00195 -38.9951l-434 -192l-165 -69c-41.333 -7.33301 -86 -11 -134 -11c-99.333 0 -209.833 17.667 -331.5 53s-210.5 81.666 -266.5 138.999c-40 40 -76 94 -108 162c-46 95.333 -69 197.666 -69 306.999c0 20 0.333008 42.167 1 66.5s5 56 13 95
s25 96.5 51 172.5c84.667 231.333 223.667 398.666 417 501.999l133 72c-47.333 17.333 -96.166 30.333 -146.499 39s-108.5 13 -174.5 13c-53.333 0 -92.333 -8 -117 -24c-36 -17.333 -71.333 -55 -106 -113l-21 9c34 99.333 70 171.333 108 216c56 67.333 127 101 213 101
h41l28 -8l206 -32c14 0 31.333 -3.66699 52 -11l95 -18l34 -6l37 -6l82 -1h315l-92 -174c-95.333 0 -183.333 -6.83301 -264 -20.5s-160.667 -35.834 -240 -66.501c-144 -57.333 -265 -135 -363 -233c-63.333 -62.667 -120 -145.667 -170 -249l-59 -180l-8 -66
c0 -86.667 29.333 -167.334 88 -242.001c50.667 -65.333 118.334 -120.333 203.001 -165l102 -38c14 0 36.333 -4.33301 67 -13l78 -16c104.667 -18.667 218.334 -28 341.001 -28c112 0 207.667 6 287 18l139 19c57.333 10 104.666 22.333 141.999 37z" />
    <glyph glyph-name="afii57422" unicode="&#x62e;" horiz-adv-x="1329" arabic-form="isolated" 
d="M894 964l-103 -167l-184 110l104 158zM1577 -899l-4.00195 -38.9951l-434 -192l-165 -69c-41.333 -7.33301 -86 -11 -134 -11c-99.333 0 -209.833 17.667 -331.5 53s-210.5 81.666 -266.5 138.999c-40 40 -76 94 -108 162c-46 95.333 -69 197.666 -69 306.999
c0 20 0.333008 42.167 1 66.5s5 56 13 95s25 96.5 51 172.5c84.667 231.333 223.667 398.666 417 501.999l133 72c-47.333 17.333 -96.166 30.333 -146.499 39s-108.5 13 -174.5 13c-53.333 0 -92.333 -8 -117 -24c-36 -17.333 -71.333 -55 -106 -113l-21 9
c34 99.333 70 171.333 108 216c56 67.333 127 101 213 101h41l28 -8l206 -32c14 0 31.333 -3.66699 52 -11l95 -18l34 -6l37 -6l82 -1h315l-92 -174c-95.333 0 -183.333 -6.83301 -264 -20.5s-160.667 -35.834 -240 -66.501c-144 -57.333 -265 -135 -363 -233
c-63.333 -62.667 -120 -145.667 -170 -249l-59 -180l-8 -66c0 -86.667 29.333 -167.334 88 -242.001c50.667 -65.333 118.334 -120.333 203.001 -165l102 -38c14 0 36.333 -4.33301 67 -13l78 -16c104.667 -18.667 218.334 -28 341.001 -28c112 0 207.667 6 287 18l139 19
c57.333 10 104.666 22.333 141.999 37z" />
    <glyph glyph-name="afii57423" unicode="&#x62f;" horiz-adv-x="1117" arabic-form="isolated" 
d="M1030 426l-2.00098 -22.002v-35l-2 -23c-24.667 -65.333 -75.667 -138.333 -153 -219c-114 -118 -231.333 -184.333 -352 -199l-48 -4c-69.333 0 -130.333 26.667 -183 80c-55.333 62 -95.666 155 -120.999 279c0 10 -1.16699 20.5 -3.5 31.5l-5.5 26.5l-4 123v28l4 54
l6 52l11 44l15 -11l-6 -67l-2 -43l-2 -44l4 -75l17 -72l13 -36c26 -73.333 77 -121 153 -143l39 -6c16 0 28.333 -1.33301 37 -4h24l19 4l20 4l56 11l71 24c28.667 10 51.667 22.667 69 38c38 18 82 51.333 132 100c26 24.667 42 53.334 48 86.001l13 85l-3 15l-116 213
l-87 175l-36 48l-35 52l-6 35v101c0 13.333 2 23.333 6 30c4 -2.66699 7.83301 -5.5 11.5 -8.5s8.5 -9.5 14.5 -19.5l7 -15c0 -7.33301 2.66699 -13.666 8 -18.999l41 -83c32 -57.333 60 -104 84 -140c6 -14 17 -32 33 -54l37 -50l103 -173l35 -82z" />
    <glyph glyph-name="afii57424" unicode="&#x630;" horiz-adv-x="1117" arabic-form="isolated" 
d="M588 1458l-54 -177l-204 54l55 179zM1030 426l-2.00098 -22.002v-35l-2 -23c-24.667 -65.333 -75.667 -138.333 -153 -219c-114 -118 -231.333 -184.333 -352 -199l-48 -4c-69.333 0 -130.333 26.667 -183 80c-55.333 62 -95.666 155 -120.999 279
c0 10 -1.16699 20.5 -3.5 31.5l-5.5 26.5l-4 123v28l4 54l6 52l11 44l15 -11l-6 -67l-2 -43l-2 -44l4 -75l17 -72l13 -36c26 -73.333 77 -121 153 -143l39 -6c16 0 28.333 -1.33301 37 -4h24l19 4l20 4l56 11l71 24c28.667 10 51.667 22.667 69 38c38 18 82 51.333 132 100
c26 24.667 42 53.334 48 86.001l13 85l-3 15l-116 213l-87 175l-36 48l-35 52l-6 35v101c0 13.333 2 23.333 6 30c4 -2.66699 7.83301 -5.5 11.5 -8.5s8.5 -9.5 14.5 -19.5l7 -15c0 -7.33301 2.66699 -13.666 8 -18.999l41 -83c32 -57.333 60 -104 84 -140
c6 -14 17 -32 33 -54l37 -50l103 -173l35 -82z" />
    <glyph glyph-name="afii57425" unicode="&#x631;" horiz-adv-x="1076" arabic-form="isolated" 
d="M1007 298c0 -31.333 -3.33203 -78.668 -9.99902 -142.001s-20.667 -124 -42 -182c-26 -75.333 -63.667 -144 -113 -206c-14 -18.667 -27.333 -35 -40 -49c-20.667 -24.667 -40.334 -43.667 -59.001 -57c-27.333 -31.333 -89.333 -76 -186 -134
c-34.667 -21.333 -66 -39.5 -94 -54.5s-52.667 -26.167 -74 -33.5c-30.667 5.33301 -93.334 31.333 -188.001 78l-92 49.5c-30.667 17 -64.667 37.167 -102 60.5l-88 54l9 17l72 -32l102 -41c62 -18.667 111 -28 147 -28h36c13.333 1.33301 32.666 7 57.999 17
c62 17.333 132.667 49.666 212 96.999c50.667 28.667 88.334 52.334 113.001 71.001c46 34.667 87 71.334 123 110.001c32.667 33.333 62 71.333 88 114l28 69c3.33301 8.66699 6.83301 19 10.5 31s5.5 29 5.5 51l-1 28l-4 23c-1.33301 9.33301 -8.66602 25.333 -21.999 48
l-13 19l-53 80l-102 111l78 240c32.667 -26 58.667 -53 78 -81l54 -77c15.333 -22 31 -53 47 -93l15 -74z" />
    <glyph glyph-name="afii57426" unicode="&#x632;" horiz-adv-x="1029" arabic-form="isolated" 
d="M1007 298c0 -31.333 -3.33203 -78.668 -9.99902 -142.001s-20.667 -124 -42 -182c-26 -75.333 -63.667 -144 -113 -206c-14 -18.667 -27.333 -35 -40 -49c-20.667 -24.667 -40.334 -43.667 -59.001 -57c-27.333 -31.333 -89.333 -76 -186 -134
c-34.667 -21.333 -66 -39.5 -94 -54.5s-52.667 -26.167 -74 -33.5c-30.667 5.33301 -93.334 31.333 -188.001 78l-92 49.5c-30.667 17 -64.667 37.167 -102 60.5l-88 54l9 17l72 -32l102 -41c62 -18.667 111 -28 147 -28h36c13.333 1.33301 32.666 7 57.999 17
c62 17.333 132.667 49.666 212 96.999c50.667 28.667 88.334 52.334 113.001 71.001c46 34.667 87 71.334 123 110.001c32.667 33.333 62 71.333 88 114l28 69c3.33301 8.66699 6.83301 19 10.5 31s5.5 29 5.5 51l-1 28l-4 23c-1.33301 9.33301 -8.66602 25.333 -21.999 48
l-13 19l-53 80l-102 111l78 240c32.667 -26 58.667 -53 78 -81l54 -77c15.333 -22 31 -53 47 -93l15 -74zM642.001 1072l-104 -167l-179 113l99 157z" />
    <glyph glyph-name="afii57427" unicode="&#x633;" horiz-adv-x="1763" arabic-form="isolated" 
d="M1743 287c0 -27.333 -6.3291 -61.1729 -18.9961 -101.506s-29.334 -84.166 -50.001 -131.499c-7.33301 -16 -15.333 -31.667 -24 -47s-19.334 -32.333 -32.001 -51c-22.667 0 -43.5 2.5 -62.5 7.5s-41.167 14.833 -66.5 29.5l-117 87c-20 -20 -75.333 -39.333 -166 -58
l-83 -7l-92 -2c-12 0 -23.667 5 -35 15c0 -65.333 -4.33301 -119.666 -13 -162.999c-7.33301 -47.333 -21 -90.333 -41 -129c-37.333 -63.333 -106.666 -114.333 -207.999 -153c-48.667 -18 -99.334 -32.667 -152.001 -44s-102.667 -17 -150 -17
c-54.667 0 -103.334 4.33301 -146.001 13s-83.334 24.334 -122.001 47.001c-72 40.667 -119.333 116.334 -142 227.001l-2 20v11c0 56 20.667 152.667 62 290l33 112l64 179l22 -10l-76 -234c-28.667 -88 -46 -153.667 -52 -197c0 -112 59.333 -189.667 178 -233l134 -37
l51 -4l33 -3c47.333 0 95.166 5.16699 143.499 15.5s101.833 27.833 160.5 52.5c95.333 42.667 150.333 90 165 142l2 24c0 18.667 -4.66699 45 -14 79s-23.333 74.333 -42 121s-49 111 -91 193c0 26 8 60.667 24 104c12.667 32 25.667 55 39 69
c25.333 -48.667 47.833 -97.167 67.5 -145.5s37.5 -101.166 53.5 -158.499l10 -7l30 -6l67 -4c44.667 0 77.834 1 99.501 3s49.834 8 84.501 18c73.333 18.667 121.666 43.334 144.999 74.001l34 99l42 151l19 -11l-35 -142c-21.333 -84 -32 -136.667 -32 -158
c6 -12.667 28.333 -32.667 67 -60l75 -39l33 -2c14 0 24 7.66699 30 23l7 57c0 27.333 -3.66699 57.333 -11 90l-37 106l52 80l37 52l32 32l15 -108l7 -134z" />
    <glyph glyph-name="afii57428" unicode="&#x634;" horiz-adv-x="1763" arabic-form="isolated" 
d="M1400 1097l-102 -170l-181 112l102 160zM1616 856l-102 -160l-183 106l104 161zM1344 856l-102 -160l-181 106l104 161zM1743 287c0 -27.333 -6.3291 -61.1729 -18.9961 -101.506s-29.334 -84.166 -50.001 -131.499c-7.33301 -16 -15.333 -31.667 -24 -47
s-19.334 -32.333 -32.001 -51c-22.667 0 -43.5 2.5 -62.5 7.5s-41.167 14.833 -66.5 29.5l-117 87c-20 -20 -75.333 -39.333 -166 -58l-83 -7l-92 -2c-12 0 -23.667 5 -35 15c0 -65.333 -4.33301 -119.666 -13 -162.999c-7.33301 -47.333 -21 -90.333 -41 -129
c-37.333 -63.333 -106.666 -114.333 -207.999 -153c-48.667 -18 -99.334 -32.667 -152.001 -44s-102.667 -17 -150 -17c-54.667 0 -103.334 4.33301 -146.001 13s-83.334 24.334 -122.001 47.001c-72 40.667 -119.333 116.334 -142 227.001l-2 20v11
c0 56 20.667 152.667 62 290l33 112l64 179l22 -10l-76 -234c-28.667 -88 -46 -153.667 -52 -197c0 -112 59.333 -189.667 178 -233l134 -37l51 -4l33 -3c47.333 0 95.166 5.16699 143.499 15.5s101.833 27.833 160.5 52.5c95.333 42.667 150.333 90 165 142l2 24
c0 18.667 -4.66699 45 -14 79s-23.333 74.333 -42 121s-49 111 -91 193c0 26 8 60.667 24 104c12.667 32 25.667 55 39 69c25.333 -48.667 47.833 -97.167 67.5 -145.5s37.5 -101.166 53.5 -158.499l10 -7l30 -6l67 -4c44.667 0 77.834 1 99.501 3s49.834 8 84.501 18
c73.333 18.667 121.666 43.334 144.999 74.001l34 99l42 151l19 -11l-35 -142c-21.333 -84 -32 -136.667 -32 -158c6 -12.667 28.333 -32.667 67 -60l75 -39l33 -2c14 0 24 7.66699 30 23l7 57c0 27.333 -3.66699 57.333 -11 90l-37 106l52 80l37 52l32 32l15 -108l7 -134z
" />
    <glyph glyph-name="afii57429" unicode="&#x635;" horiz-adv-x="2213" arabic-form="isolated" 
d="M2189 473c0 -33.333 -17.3291 -83.001 -51.9961 -149.001c-38 -72 -74.333 -126.667 -109 -164c-57.333 -59.333 -163 -112 -317 -158l-17 -2l-22 -3l-47 -2l-368 -2c0 -10 -3.66699 -25.333 -11 -46c-6.66699 -31.333 -16.667 -60 -30 -86l-24 -69l-21 -2l9 69l13 80
l17 58h-61l-17 2c-27.333 0 -49 2.66699 -65 8l-32 15l-37 23l-2 -89l-11 -80c-11.333 -64.667 -25.666 -111.334 -42.999 -140.001c-33.333 -60.667 -102.333 -111.667 -207 -153c-48 -18 -98.333 -32.667 -151 -44s-103.334 -17 -152.001 -17
c-54.667 0 -103.334 4.33301 -146.001 13s-83.334 24.334 -122.001 47.001c-72 40.667 -119.333 116.334 -142 227.001l-2 20v11c0 56 20.667 152.667 62 290l33 112l64 179l22 -10l-76 -234c-28.667 -88 -46 -153.667 -52 -197c0 -112 59.333 -189.667 178 -233l134 -37
l51 -4l33 -3c47.333 0 95.166 5.16699 143.499 15.5s101.833 27.833 160.5 52.5c95.333 42.667 150.333 90 165 142l2 24c0 18.667 -4.66699 45 -14 79s-23.333 74.333 -42 121s-49 111 -91 193c0 26 8 60.667 24 104c12.667 32 25.667 55 39 69l64 -108l28 -64l28 -63
c0 -11.333 36 -23 108 -35c32 -4 61.667 -7.16699 89 -9.5s54 -3.5 80 -3.5h13l91 78l285 214l229 160c33.333 14.667 60.666 22 81.999 22c56 0 109.333 -22.5 160 -67.5s76 -96.167 76 -153.5zM2074 345.999c2.66699 17.333 -8.83203 42.834 -34.499 76.501
s-47.5 57.167 -65.5 70.5l-30 19l-36 13c-22 8.66699 -46.667 13 -74 13c-28.667 0 -55.334 -7.33301 -80.001 -22l-153 -105l-50 -35l-82 -63l-136 -103l37 -1l86 -2l73 2h72l37 7l90 9c82 7.33301 161.333 26.666 238 57.999c68 26 104 47 108 63z" />
    <glyph glyph-name="afii57430" unicode="&#x636;" horiz-adv-x="2213" arabic-form="isolated" 
d="M1629 946l-102 -164l-181 114l101 156zM2189 473c0 -33.333 -17.3291 -83.001 -51.9961 -149.001c-38 -72 -74.333 -126.667 -109 -164c-57.333 -59.333 -163 -112 -317 -158l-17 -2l-22 -3l-47 -2l-368 -2c0 -10 -3.66699 -25.333 -11 -46
c-6.66699 -31.333 -16.667 -60 -30 -86l-24 -69l-21 -2l9 69l13 80l17 58h-61l-17 2c-27.333 0 -49 2.66699 -65 8l-32 15l-37 23l-2 -89l-11 -80c-11.333 -64.667 -25.666 -111.334 -42.999 -140.001c-33.333 -60.667 -102.333 -111.667 -207 -153
c-48 -18 -98.333 -32.667 -151 -44s-103.334 -17 -152.001 -17c-54.667 0 -103.334 4.33301 -146.001 13s-83.334 24.334 -122.001 47.001c-72 40.667 -119.333 116.334 -142 227.001l-2 20v11c0 56 20.667 152.667 62 290l33 112l64 179l22 -10l-76 -234
c-28.667 -88 -46 -153.667 -52 -197c0 -112 59.333 -189.667 178 -233l134 -37l51 -4l33 -3c47.333 0 95.166 5.16699 143.499 15.5s101.833 27.833 160.5 52.5c95.333 42.667 150.333 90 165 142l2 24c0 18.667 -4.66699 45 -14 79s-23.333 74.333 -42 121s-49 111 -91 193
c0 26 8 60.667 24 104c12.667 32 25.667 55 39 69l64 -108l28 -64l28 -63c0 -11.333 36 -23 108 -35c32 -4 61.667 -7.16699 89 -9.5s54 -3.5 80 -3.5h13l91 78l285 214l229 160c33.333 14.667 60.666 22 81.999 22c56 0 109.333 -22.5 160 -67.5s76 -96.167 76 -153.5z
M2074 345.999c2.66699 17.333 -8.83203 42.834 -34.499 76.501s-47.5 57.167 -65.5 70.5l-30 19l-36 13c-22 8.66699 -46.667 13 -74 13c-28.667 0 -55.334 -7.33301 -80.001 -22l-153 -105l-50 -35l-82 -63l-136 -103l37 -1l86 -2l73 2h72l37 7l90 9
c82 7.33301 161.333 26.666 238 57.999c68 26 104 47 108 63z" />
    <glyph glyph-name="afii57431" unicode="&#x637;" horiz-adv-x="1560" arabic-form="isolated" 
d="M1491 505c0 -139.333 -95.8311 -255.499 -287.498 -348.499s-438.167 -139.5 -739.5 -139.5h-118l-24 3c-30 0 -57.333 8.33301 -82 25c-18.667 7.33301 -43.334 24.666 -74.001 51.999l-41 44l-60 69l242 -26h36c135.333 0 227.166 22.333 275.499 67s72.5 136 72.5 274
c0 134 -12.667 268.667 -38 404l-74 423v37c0 10 5 25.333 15 46l20 41l36 54l115 -173c-44.667 -52 -67 -102.333 -67 -151l36 -270l9 -130c3.33301 -33.333 5 -76.666 5 -129.999v-121l-5 -36l-2 -27l-4 -38l-15 -98l70 65.5l107 96.5c37.333 34.667 88.333 73 153 115
c95.333 60.667 180.333 91 255 91c56 0 100.667 -22.333 134 -67s50 -95.334 50 -152.001zM1389 417.001c0 27.333 -26.667 52.332 -80 74.999c-8.66699 2 -25.167 6.5 -49.5 13.5s-46.5 10.5 -66.5 10.5c-196 0 -367.667 -108 -515 -324h16
c145.333 0 301.333 30.333 468 91c151.333 54.667 227 99.334 227 134.001z" />
    <glyph glyph-name="afii57432" unicode="&#x638;" horiz-adv-x="1560" arabic-form="isolated" 
d="M1215 1082l-90 -142l-141 91l93 153zM1507 490c0 -175.333 -137.003 -307.667 -411.003 -397c-196.667 -62 -404 -93 -622 -93h-91h-23c-7.33301 -0 -16 1.33301 -26 4c-27.333 0 -54.666 8 -81.999 24s-51 34 -71 54l-42 45l-58 70l164 -20l74 -8h39
c136.667 0 228.334 22.667 275.001 68s70 137 70 275c0 132.667 -12 268 -36 406l-74 417v35l6 23l11 26l50 97l121 -172l-32 -41l-13 -20l-9 -17c-4 -12.667 -7.16699 -26 -9.5 -40s-4.16602 -25.333 -5.49902 -34l35 -272l12 -129l1 -74l2 -58v-121l-5 -33v-30
c0 -12.667 -2.66699 -27 -8 -43l-5 -41l-6 -50c122.667 126.667 230.667 219.667 324 279c47.333 28.667 92.333 51 135 67s84 24 124 24c54.667 0 100.667 -23 138 -69c32 -46 48 -96.667 48 -152zM1403 401.999c0 28.667 -26 53.666 -78 74.999
c-41.333 14.667 -80 22 -116 22c-101.333 0 -194.333 -26 -279 -78s-163.667 -132.667 -237 -242h13c77.333 0 153.5 6.83301 228.5 20.5s154.167 35.834 237.5 66.501c154 56 231 101.333 231 136z" />
    <glyph glyph-name="afii57433" unicode="&#x639;" horiz-adv-x="1457" arabic-form="isolated" 
d="M1417 -698l-428 -160.002l-69 -9l-86 -4c-114 0 -216.667 12.833 -308 38.5s-173.666 66.167 -246.999 121.5c-141.333 104.667 -212 246.334 -212 425.001c0 74 6.83301 143.5 20.5 208.5s36.167 129.833 67.5 194.5c46.667 102 126.667 215 240 339
c-160 40 -240 104.667 -240 194l1 46c2.66699 15.333 9.66699 34 21 56c14.667 53.333 36.334 103 65.001 149c69.333 124 146.333 186 231 186c24.667 0 53.667 -8.66699 87 -26c31.333 -13.333 70 -41.333 116 -84c-89.333 0 -180 -17.333 -272 -52
c-59.333 -22 -104 -48 -134 -78s-45 -64.667 -45 -104c0 -37.333 33 -72.666 99 -105.999c23.333 -11.333 50.5 -20.666 81.5 -27.999s64.167 -11 99.5 -11c27.333 0 60.666 8 99.999 24c11.333 2.66699 22.666 7.66699 33.999 15l39 22l52 30l61 33l164 80l-125 -180
l-117 -65l-82 -52c-326.667 -212.667 -490 -434.334 -490 -665.001c0 -162.667 88.333 -299.667 265 -411c30 -18.667 69 -38 117 -58c28.667 -11.333 58.5 -21 89.5 -29s65.167 -14.333 102.5 -19l86 -11h70l134 -6l183 4l45 2l50 7l126 13z" />
    <glyph glyph-name="afii57434" unicode="&#x63a;" horiz-adv-x="1457" arabic-form="isolated" 
d="M531 1488l-90 -146l-136 86l84 149zM1417 -698l-428 -160.002l-69 -9l-86 -4c-114 0 -216.667 12.833 -308 38.5s-173.666 66.167 -246.999 121.5c-141.333 104.667 -212 246.334 -212 425.001c0 74 6.83301 143.5 20.5 208.5s36.167 129.833 67.5 194.5
c46.667 102 126.667 215 240 339c-160 40 -240 104.667 -240 194l1 46c2.66699 15.333 9.66699 34 21 56c14.667 53.333 36.334 103 65.001 149c69.333 124 146.333 186 231 186c24.667 0 53.667 -8.66699 87 -26c31.333 -13.333 70 -41.333 116 -84
c-89.333 0 -180 -17.333 -272 -52c-59.333 -22 -104 -48 -134 -78s-45 -64.667 -45 -104c0 -37.333 33 -72.666 99 -105.999c23.333 -11.333 50.5 -20.666 81.5 -27.999s64.167 -11 99.5 -11c27.333 0 60.666 8 99.999 24c11.333 2.66699 22.666 7.66699 33.999 15l39 22
l52 30l61 33l164 80l-125 -180l-117 -65l-82 -52c-326.667 -212.667 -490 -434.334 -490 -665.001c0 -162.667 88.333 -299.667 265 -411c30 -18.667 69 -38 117 -58c28.667 -11.333 58.5 -21 89.5 -29s65.167 -14.333 102.5 -19l86 -11h70l134 -6l183 4l45 2l50 7l126 13z
" />
    <glyph glyph-name="afii57441" unicode="&#x641;" horiz-adv-x="2075" arabic-form="isolated" 
d="M1653 1555l-91 -146l-143 82l87 149zM1960 715c0 -109.333 -36.9971 -195.664 -110.997 -258.997c-40 -32 -128.333 -77.333 -265 -136c-49.333 -18.667 -117.333 -41 -204 -67l-235 -54c-50.667 -12 -102.167 -22.333 -154.5 -31s-102.5 -13 -150.5 -13l-118 -6
c-392 0 -588 115.333 -588 346c0 67.333 10.667 127.666 32 180.999c10 23.333 37.667 76.666 83 159.999l36 -11c-27.333 -43.333 -49 -85.666 -65 -126.999c-11.333 -30 -17 -62.667 -17 -98c0 -96 65.667 -170 197 -222c100.667 -38.667 207 -58 319 -58
c147.333 0 313.166 20.5 497.499 61.5s346.833 93.833 487.5 158.5c72.667 33.333 114 53.333 124 60c58.667 33.333 88 64.666 88 93.999c0 15.333 -3.66699 32.333 -11 51l-19 37l-26 43c-34.667 -52 -61.334 -86.333 -80.001 -103c-36 -33.333 -74.667 -50 -116 -50
c-42 0 -79.5 14.833 -112.5 44.5s-49.5 69.5 -49.5 119.5c0 37.333 4.66699 65.333 14 84l22 54l13 20c3.33301 15.333 12.666 36 27.999 62c56 100 108.667 150 158 150c68 0 125 -68 171 -204c17.333 -54.667 30.333 -104.334 39 -149.001s13 -90.667 13 -138z
M1748 936.002c0 15.333 -10.833 29.167 -32.5 41.5s-42.5 18.5 -62.5 18.5c-16 0 -29.5 -5 -40.5 -15s-16.5 -22.333 -16.5 -37c0 -11.333 7.33301 -26.333 22 -45l24 -16l32 -6c49.333 0 74 19.667 74 59z" />
    <glyph glyph-name="afii57442" unicode="&#x642;" horiz-adv-x="1457" arabic-form="isolated" 
d="M1302 1396l-89 -152l-149 102l-76 -130l-153 106l86 140l150 -97l82 130zM1334 592c0 -151.333 -32.334 -272.332 -97.001 -362.999s-154.334 -163.5 -269.001 -218.5s-235.334 -82.5 -362.001 -82.5c-210 0 -347.333 70 -412 210c-19.333 43.333 -29 92.333 -29 147
c0 124 60 287.333 180 490l26 -17c-74 -134 -111 -249 -111 -345c0 -88 31.667 -158 95 -210c66.667 -50.667 155.334 -76 266.001 -76c106.667 0 220.5 21.333 341.5 64s210.833 102 269.5 178c38 49.333 57 95.666 57 138.999v28l-2 10c0 12 -2.16699 24 -6.5 36
s-10.833 26.667 -19.5 44l-29 50c-31.333 -40 -63.166 -70.167 -95.499 -90.5s-68.166 -30.5 -107.499 -30.5c-44.667 0 -85.667 15 -123 45c-17.333 16 -30.333 33 -39 51s-13 39.333 -13 64c0 52 13.5 109.333 40.5 172s59.833 119 98.5 169l47 37
c17.333 6 33.333 10.333 48 13l23 -2l20 -9c10 -4 21 -13.333 33 -28l38 -41l39 -65c62 -110.667 93 -233.667 93 -369zM1122 817.001c-15.333 22.667 -30.332 39.666 -44.999 50.999c-23.333 14.667 -43.333 23.334 -60 26.001c-10.667 0 -23.834 -5.33301 -39.501 -16
s-23.5 -24.667 -23.5 -42c0 -12.667 6.33301 -25.667 19 -39l48 -15l28 2l30 11l17 9z" />
    <glyph glyph-name="afii57443" unicode="&#x643;" horiz-adv-x="3468" arabic-form="isolated" 
d="M2969 302c-16.667 -50 -38.665 -100.999 -65.998 -152.999c-36.667 -78 -69.334 -127.667 -98.001 -149h-1613l-208 2c-24.667 0 -54.167 1.83301 -88.5 5.5l-86.5 9.5c-155.333 13.333 -279.833 33 -373.5 59s-170.167 67.667 -229.5 125
c-64.667 60.667 -97 162 -97 304c0 42 10 90.333 30 145c8.66699 24.667 24 58 46 100l24 -11c-29.333 -66.667 -44 -128 -44 -184v-15l3 -13c11.333 -104 69.666 -180.333 174.999 -229c58.667 -28.667 142 -51.667 250 -69l147 -22l136 -6l194 -4h100l73 -2h1584
c20 15.333 37.333 44.666 52 87.999l24 67l-39 60l-57 82l-105 124l-46 -39l-84 153c-44.667 78 -67 122 -67 132c0 44.667 13.667 117.334 41 218.001s49.666 159.667 67 177l1044 316c0 -20.667 -9.5 -59.334 -28.5 -116.001s-34.833 -91 -47.5 -103l-934 -287
c-11.333 0 -19 -12 -23 -36l2 -11l285 -415c13.333 -21.333 26.333 -65.5 39 -132.5s19 -123.833 19 -170.5z" />
    <glyph glyph-name="afii57444" unicode="&#x644;" horiz-adv-x="1247" arabic-form="isolated" 
d="M1087 346c0 -13.333 -0.5 -33.002 -1.5 -59.002s-3.5 -57.667 -7.5 -95c-12.667 -43.333 -28.667 -83 -48 -119c-44 -68 -116 -125.667 -216 -173c-51.333 -24.667 -102.166 -43.5 -152.499 -56.5s-99.5 -19.5 -147.5 -19.5c-109.333 0 -203.166 30 -281.499 90
s-117.5 138.333 -117.5 235c0 16 0.666992 31.833 2 47.5s4 30.834 8 45.501l13 71c6 29.333 26.333 81.333 61 156c15.333 33.333 24 52 26 56c15.333 31.333 30.333 59.333 45 84l35 -21l-74 -143c-24 -64.667 -36 -120 -36 -166c0 -85.333 35.667 -152.333 107 -201
c63.333 -42 139.666 -63 228.999 -63l98 5c30 4 65.333 11.667 106 23c67.333 18.667 121 40.334 161 65.001c6 0 25 11 57 33l54 45c20 22.667 30 53 30 91c0 96 -14.333 244.333 -43 445l-41 300l-46 296l-39 272c0 32 3.66699 57.333 11 76c0 12.667 5 25.667 15 39
c7.33301 14 16.666 26 27.999 36l117 -164c-14 -14 -28.333 -35.667 -43 -65l-7 -41l-2 -52c0 -34.667 8 -124.667 24 -270l50 -419l21 -225z" />
    <glyph glyph-name="afii57445" unicode="&#x645;" horiz-adv-x="834" arabic-form="isolated" 
d="M759 559l0.000976562 -34.001c-4 -12.667 -6.66699 -22.667 -8 -30s-2.83301 -14.166 -4.5 -20.499s-5.16699 -14.833 -10.5 -25.5l-15 -38l-89 6l-67 4l-76 -4c-67.333 0 -141 -20.833 -221 -62.5s-120 -93.5 -120 -155.5c0 -29.333 15.333 -109.666 46 -240.999
l88 -384l47 -225c0 -31.333 -14.333 -65 -43 -101c0 21.333 -6 58 -18 110l-51 212l-80 321c-26 102.667 -39 175.667 -39 219v65l5 50c2.66699 27.333 5.16699 46.333 7.5 57s8.5 34 18.5 70c18.667 66.667 39.334 112.667 62.001 138c16 16 58 40.667 126 74l172 49
l-39 40l-41 21l-38 7c-18.667 0 -38.334 -7.33301 -59.001 -22c-20 -8.66699 -41.333 -25.334 -64 -50.001l-40 7c24.667 79.333 50.667 138.333 78 177c42 57.333 96 86 162 86c69.333 0 143.666 -46 222.999 -138c58.667 -68 88 -128.667 88 -182z" />
    <glyph glyph-name="afii57446" unicode="&#x646;" horiz-adv-x="3027" arabic-form="isolated" 
d="M1783 940l-103 -160l-182 112l100 152zM2987 361l-5 -77.999c0 -36 -5.33301 -68.833 -16 -98.5s-26.667 -61.834 -48 -96.501c-8.66699 -12.667 -25.334 -27.667 -50 -45l-102 -59c-109.333 -53.333 -236 -97 -380 -131
c-90.667 -19.333 -186.334 -34.666 -287.001 -45.999s-202.334 -17 -305.001 -17l-149 2l-229 9c-69.333 0 -139.666 5.66699 -210.999 17l-124 22c-184 32.667 -342.333 74.334 -475 125.001c-120.667 44.667 -215 92.334 -283 143.001l-67 50l-75 58
c-48 37.333 -89.333 75.333 -124 114l50 14l166 -80l167 -78c104.667 -48 298.334 -94.333 581.001 -139c53.333 -8 110.833 -15.667 172.5 -23s130.167 -14 205.5 -20c50 0 89 -0.666992 117 -2c144 -6 226 -9 246 -9c244.667 0 462 19.667 652 59
c162.667 33.333 293 75 391 125c79.333 37.333 122.666 69.666 130 96.999v26c0 58 -17.333 127.333 -52 208l-34 73c-4.66699 12.667 -11.667 28.167 -21 46.5s-21.333 40.166 -36 65.499c0 9.33301 1 16.666 3 21.999c0 16 1.33301 27 4 33l19 51
c12 32 25.667 53.667 41 65c12 -21.333 33.667 -71 65 -149l41 -104l9 -41l11 -43l4 -91l-2 -39v-36z" />
    <glyph glyph-name="afii57470" unicode="&#x647;" horiz-adv-x="724" arabic-form="isolated" 
d="M631 495c0 -92.667 -26.666 -172 -79.999 -238c-57.333 -72 -131 -108 -221 -108c-62.667 0 -114.167 23.333 -154.5 70s-60.5 102 -60.5 166v36l6 28l2 11l2 11l18 76l13 30l36 75l61 128l26 39c5.33301 16 11.666 26.667 18.999 32c17.333 30 39 45 65 45
c53.333 0 109.333 -36.667 168 -110c66.667 -82 100 -179 100 -291zM546.001 464c0 7.33301 -6.33301 19 -19 35c-14.667 24.667 -45.667 52 -93 82c-31.333 20 -62.333 35 -93 45l-39 5c-27.333 0 -54 -16.667 -80 -50c-20 -36 -30 -77.667 -30 -125
c0 -26 13 -48.333 39 -67c37.333 -17.333 73.333 -26 108 -26c56 0 104.5 9.33301 145.5 28s61.5 43 61.5 73z" />
    <glyph glyph-name="afii57448" unicode="&#x648;" horiz-adv-x="988" arabic-form="isolated" 
d="M914 385c0 -212 -54.334 -408.497 -163.001 -589.497s-230.667 -271.5 -366 -271.5c-62 0 -120.333 10.667 -175 32c-20.667 7.33301 -42.167 15.833 -64.5 25.5s-54.833 26.5 -97.5 50.5l28 22l82 -26l49 -7h35c57.333 0 122.333 16.667 195 50
s132.334 73.666 179.001 120.999c57.333 57.333 109.833 129.666 157.5 216.999s71.5 166.333 71.5 237v31l-5 25l-6 26l-17 28l-31 -41l-36 -32c-16 -13.333 -38.333 -20 -67 -20c-44.667 0 -83 16 -115 48c-32.667 36 -49 75.667 -49 119
c0 33.333 6.83301 70.166 20.5 110.499s36.167 87.833 67.5 142.5c12.667 34 32.667 63.333 60 88c7.33301 11.333 17.666 19.333 30.999 24l36 7c42 0 83.333 -42 124 -126c18.667 -36 32.334 -80 41.001 -132l8 -67zM744.999 519.003c-4 22.667 -11.999 36.333 -23.999 41
c-10 14 -26.333 21 -49 21c-30 0 -45 -16.667 -45 -50c0 -18.667 3.5 -33 10.5 -43s19.833 -15.667 38.5 -17c16 0 29.667 3.66699 41 11c13.333 14 22.666 26.333 27.999 37z" />
    <glyph glyph-name="afii57449" unicode="&#x649;" horiz-adv-x="3027" arabic-form="isolated" 
d="M2991 413l-0.00292969 -13.001c0 -37.333 -7.83301 -88.833 -23.5 -154.5s-35.167 -118.167 -58.5 -157.5c-40.667 -56 -148.667 -113.667 -324 -173c-83.333 -28.667 -151 -49.334 -203 -62.001c-85.333 -19.333 -178.333 -34.666 -279 -45.999s-203.667 -17 -309 -17
l-149 2l-229 9c-69.333 0 -139.666 5.66699 -210.999 17l-124 22c-184 32.667 -342.333 74.334 -475 125.001c-120.667 44.667 -215 92.334 -283 143.001l-67 50l-75 58c-48 37.333 -89.333 75.333 -124 114l50 14l166 -80l167 -78
c104.667 -48 298.334 -94.333 581.001 -139c53.333 -8 110.833 -15.667 172.5 -23s130.167 -14 205.5 -20c50 0 89 -0.666992 117 -2c144 -6 226 -9 246 -9c132.667 0 247.834 3.66699 345.501 11s193.5 21.666 287.5 42.999c155.333 34.667 273.333 73 354 115
c69.333 37.333 109 69 119 95c0 13.333 -21 29.333 -63 48l-21 6l-41 13l-82 20c-50.667 12.667 -120 34 -208 64c-80.667 34.667 -124.667 67 -132 97l-2 18c0 24.667 5.83301 74.667 17.5 150s22.5 121.666 32.5 138.999c46 110 124.333 198.667 235 266
c92.667 56 180.667 84 264 84c46 0 79.667 -10 101 -30l16 -45l6 -69c0 -53.333 -7 -86.666 -21 -99.999l-37 11l-35 11l-78 6c-97.333 0 -192.333 -38.667 -285 -116c-73.333 -62 -108 -106.667 -104 -134c7.33301 -34.667 56.666 -66.667 148 -96l244 -73
c93.333 -28.667 149.333 -66.667 168 -114z" />
    <glyph glyph-name="afii57450" unicode="&#x64a;" horiz-adv-x="3027" arabic-form="isolated" 
d="M2991 413l-0.00292969 -13.001c0 -37.333 -7.83301 -88.833 -23.5 -154.5s-35.167 -118.167 -58.5 -157.5c-40.667 -56 -148.667 -113.667 -324 -173c-83.333 -28.667 -151 -49.334 -203 -62.001c-85.333 -19.333 -178.333 -34.666 -279 -45.999s-203.667 -17 -309 -17
l-149 2l-229 9c-69.333 0 -139.666 5.66699 -210.999 17l-124 22c-184 32.667 -342.333 74.334 -475 125.001c-120.667 44.667 -215 92.334 -283 143.001l-67 50l-75 58c-48 37.333 -89.333 75.333 -124 114l50 14l166 -80l167 -78
c104.667 -48 298.334 -94.333 581.001 -139c53.333 -8 110.833 -15.667 172.5 -23s130.167 -14 205.5 -20c50 0 89 -0.666992 117 -2c144 -6 226 -9 246 -9c132.667 0 247.834 3.66699 345.501 11s193.5 21.666 287.5 42.999c155.333 34.667 273.333 73 354 115
c69.333 37.333 109 69 119 95c0 13.333 -21 29.333 -63 48l-21 6l-41 13l-82 20c-50.667 12.667 -120 34 -208 64c-80.667 34.667 -124.667 67 -132 97l-2 18c0 24.667 5.83301 74.667 17.5 150s22.5 121.666 32.5 138.999c46 110 124.333 198.667 235 266
c92.667 56 180.667 84 264 84c46 0 79.667 -10 101 -30l16 -45l6 -69c0 -53.333 -7 -86.666 -21 -99.999l-37 11l-35 11l-78 6c-97.333 0 -192.333 -38.667 -285 -116c-73.333 -62 -108 -106.667 -104 -134c7.33301 -34.667 56.666 -66.667 148 -96l244 -73
c93.333 -28.667 149.333 -66.667 168 -114z" />
    <glyph glyph-name="afii57506" unicode="&#x67e;" horiz-adv-x="2338" arabic-form="isolated" 
d="M2316 467l2 -24l2 -30c0 -34.667 -1.5 -64.334 -4.5 -89.001s-10.167 -53.334 -21.5 -86.001l-23 -69c-4.66699 -8.66699 -32 -20.334 -82 -35.001l-115 -30l-112 -28l-156 -29l-223 -28l-239 -19l-123 -3l-113 -4c-206 0 -385.333 16.667 -538 50
c-178 40.667 -306 98.334 -384 173.001c-30.667 28.667 -56 71 -76 127c-14 56.667 -21 115 -21 175c0 48 9.33301 94.333 28 139c10 30 25.667 63.667 47 101l22 -10l-17 -50l-11 -31l-17 -103l6 -32c14.667 -78 47 -135.667 97 -173
c27.333 -19.333 87.333 -46.666 180 -81.999l142 -33l80 -13l69 -9l140 -12l171 -3l180 -4c126 0 236.667 5.66699 332 17l104 2l227 31l248 41l82 17c28.667 7.33301 46.667 18.333 54 33c-4 34 -13.667 69 -29 105s-34.333 66.333 -57 91l-93 99l21 85
c8.66699 38.667 20.334 68 35 88c26 -17.333 58.833 -57.666 98.5 -120.999s68.834 -138 87.5 -224zM1326 -495l100 166l183 -112l-107 -156zM1108 -256l104 158l181 -104l-105 -159zM1378 -256l100 158l185 -104l-105 -159z" />
    <glyph glyph-name="afii57507" unicode="&#x686;" horiz-adv-x="1329" arabic-form="isolated" 
d="M1577 -899l-4.00195 -38.9951l-434 -192l-165 -69c-41.333 -7.33301 -86 -11 -134 -11c-99.333 0 -209.833 17.667 -331.5 53s-210.5 81.666 -266.5 138.999c-40 40 -76 94 -108 162c-46 95.333 -69 197.666 -69 306.999c0 20 0.333008 42.167 1 66.5s5 56 13 95
s25 96.5 51 172.5c84.667 231.333 223.667 398.666 417 501.999l133 72c-47.333 17.333 -96.166 30.333 -146.499 39s-108.5 13 -174.5 13c-53.333 0 -92.333 -8 -117 -24c-36 -17.333 -71.333 -55 -106 -113l-21 9c34 99.333 70 171.333 108 216c56 67.333 127 101 213 101
h41l28 -8l206 -32c14 0 31.333 -3.66699 52 -11l95 -18l34 -6l37 -6l82 -1h315l-92 -174c-95.333 0 -183.333 -6.83301 -264 -20.5s-160.667 -35.834 -240 -66.501c-144 -57.333 -265 -135 -363 -233c-63.333 -62.667 -120 -145.667 -170 -249l-59 -180l-8 -66
c0 -86.667 29.333 -167.334 88 -242.001c50.667 -65.333 118.334 -120.333 203.001 -165l102 -38c14 0 36.333 -4.33301 67 -13l78 -16c104.667 -18.667 218.334 -28 341.001 -28c112 0 207.667 6 287 18l139 19c57.333 10 104.666 22.333 141.999 37zM693.998 -585.995
l101 166l182 -110l-104 -158zM476.998 -345.995l104 158l180 -104l-104 -158zM747.998 -345.995l99 158l184 -104l-104 -158z" />
    <glyph glyph-name="afii57508" unicode="&#x698;" horiz-adv-x="1029" arabic-form="isolated" 
d="M1007 298c0 -31.333 -3.33203 -78.668 -9.99902 -142.001s-20.667 -124 -42 -182c-26 -75.333 -63.667 -144 -113 -206c-14 -18.667 -27.333 -35 -40 -49c-20.667 -24.667 -40.334 -43.667 -59.001 -57c-27.333 -31.333 -89.333 -76 -186 -134
c-34.667 -21.333 -66 -39.5 -94 -54.5s-52.667 -26.167 -74 -33.5c-30.667 5.33301 -93.334 31.333 -188.001 78l-92 49.5c-30.667 17 -64.667 37.167 -102 60.5l-88 54l9 17l72 -32l102 -41c62 -18.667 111 -28 147 -28h36c13.333 1.33301 32.666 7 57.999 17
c62 17.333 132.667 49.666 212 96.999c50.667 28.667 88.334 52.334 113.001 71.001c46 34.667 87 71.334 123 110.001c32.667 33.333 62 71.333 88 114l28 69c3.33301 8.66699 6.83301 19 10.5 31s5.5 29 5.5 51l-1 28l-4 23c-1.33301 9.33301 -8.66602 25.333 -21.999 48
l-13 19l-53 80l-102 111l78 240c32.667 -26 58.667 -53 78 -81l54 -77c15.333 -22 31 -53 47 -93l15 -74zM717.001 1195l-106 -158l-181 106l106 158zM933.001 960.998l-103 -164l-184 110l106 158zM661.001 960.998l-101 -164l-180 110l102 158z" />
    <glyph glyph-name="afii57509" unicode="&#x6af;" horiz-adv-x="2111" arabic-form="isolated" 
d="M1684 301c-16.667 -50.667 -39.002 -102.332 -67.002 -154.999c-37.333 -79.333 -72.666 -131.333 -105.999 -156h-319l-208 2c-25.333 0 -55.333 1.83301 -90 5.5l-87 9.5c-156.667 13.333 -282.667 33.333 -378 60s-173.666 69.334 -234.999 128.001
c-66.667 62.667 -100 166 -100 310c0 42.667 10 91.667 30 147c9.33301 24.667 27 62.334 53 113.001l49 -22c-30.667 -70 -46 -132.667 -46 -188v-14l3 -13c10.667 -101.333 66.667 -175.333 168 -222c57.333 -28 139 -50.333 245 -67l146 -22l135 -6l193 -4h100l73 -2h278
c14.667 11.333 29 38 43 80l23 64l-37 57l-56 82l-94 110l-49 -41l-93 170c-45.333 78.667 -68 123.667 -68 135c0 45.333 13.833 118.666 41.5 219.999s51.5 162.333 71.5 183l1069 323c0 -31.333 -9.66699 -75.833 -29 -133.5s-36.666 -93.834 -51.999 -108.501l-941 -289
c-4.66699 0 -8.33398 -8.66699 -11.001 -26l2 -9l284 -413c14 -22.667 27.333 -67.834 40 -135.501s19 -125.167 19 -172.5zM2456 1827c-18.667 -81.333 -52.667 -132.333 -102 -153l-999 -290c14.667 60 30.667 96.333 48 109c16.667 18.667 53 37.667 109 57z" />
    <glyph glyph-name="uniFB57" unicode="&#x67e;" horiz-adv-x="2334" arabic-form="final" 
d="M2387 0l-62.002 0.00195312c-72 0 -132 20 -180 60c-30 22 -56 55.333 -78 100c-40 -43.333 -82.333 -76.333 -127 -99l-65 -29c-63.333 -24.667 -144.666 -42.667 -243.999 -54l-251 -18l-287 -17l-127 4l-188 7l-117 6l-112 24c-145.333 29.333 -262 88 -350 176
c-63.333 59.333 -95 162.333 -95 309v26l4 39c4 28.667 9.66699 51 17 67c14.667 47.333 28.334 79.666 41.001 96.999l20 -5l-7 -32l-17 -50l-13 -97l6 -36c10.667 -104 69 -180.333 175 -229l98 -33l136 -34l136 -20c18.667 -4 60.334 -6 125.001 -6l359 -7
c95.333 0 216 7.16699 362 21.5s236.333 26.5 271 36.5c16 3.33301 38.667 8.5 68 15.5s60.666 15.5 93.999 25.5c50 18.667 81 42 93 70l39 90l38 82l16 -17l-16 -45c-4 -18.667 -7.16699 -37 -9.5 -55l-5.5 -43c10 -18.667 19.5 -34.834 28.5 -48.501
s19.167 -25.5 30.5 -35.5c37.333 -34 90 -51 158 -51h36v-195zM1326 -563.998l100 168l183 -112l-107 -158zM1108 -322.998l104 158l181 -104l-105 -159zM1378 -322.998l100 158l185 -104l-105 -159z" />
    <glyph glyph-name="uniFB58" unicode="&#x67e;" horiz-adv-x="366" arabic-form="initial" 
d="M257 451c0 -56 -10.3311 -128.663 -30.998 -217.996s-44 -151.333 -70 -186l-93 -34c-17.333 -4 -32.666 -7.16699 -45.999 -9.5s-27 -3.5 -41 -3.5h-52v195h75c113.333 0 175.666 17.667 186.999 53c0 23.333 -1.83301 43.666 -5.5 60.999s-11.167 42.666 -22.5 75.999
c-18.667 56 -36.667 94 -54 114l-78 102c1.33301 8.66699 4.16602 20.5 8.49902 35.5s10.166 29.833 17.499 44.5l21 49l24 33c32 -17.333 65.333 -55 100 -113c20 -34.667 35 -67.834 45 -99.501s15 -64.834 15 -99.501zM63.002 -494.996l101 166l182 -112l-104 -156z
M-153.998 -255.996l106 158l178 -104l-104 -159zM117.002 -255.996l101 158l184 -104l-104 -159z" />
    <glyph glyph-name="uniFB59" unicode="&#x67e;" horiz-adv-x="577" arabic-form="medial" 
d="M650 0h-84.001c-119.333 -0 -205.666 53.333 -258.999 160c-27.333 -38.667 -60 -72 -98 -100c-54.667 -40 -108.667 -60 -162 -60h-54v195h55c56 0 110.333 12.5 163 37.5s86.667 53.5 102 85.5l31 67l45 105l17 -17l-17 -45l-9 -53c-2.66699 -15.333 -4 -30.333 -4 -45
c18.667 -38.667 38 -66.667 58 -84c37.333 -34 90 -51 158 -51h58v-195zM265.999 -495l101 166l182 -112l-104 -156zM47.999 -256l107 158l178 -104l-104 -159zM319.999 -256l101 158l184 -104l-106 -159z" />
    <glyph glyph-name="uniFB7B" unicode="&#x686;" horiz-adv-x="1329" arabic-form="final" 
d="M959 311l-142.002 -27.9961c-17.333 -2.66699 -30 -5.16699 -38 -7.5s-24.333 -8.5 -49 -18.5c-126.667 -37.333 -247.667 -115 -363 -233c-63.333 -62.667 -120 -145.667 -170 -249l-59 -180l-8 -66c0 -86.667 29.333 -167.334 88 -242.001
c50.667 -65.333 118.334 -120.333 203.001 -165l102 -38c14 0 36.333 -4.33301 67 -13l78 -16c104.667 -18.667 218.334 -28 341.001 -28c112 0 207.667 6 287 18l139 19c57.333 10 104.666 22.333 141.999 37l-4 -39l-434 -192l-165 -69c-41.333 -7.33301 -86 -11 -134 -11
c-99.333 0 -209.833 17.667 -331.5 53s-210.5 81.666 -266.5 138.999c-40 40 -76 94 -108 162c-46 95.333 -69 197.666 -69 306.999c0 20 0.333008 42.167 1 66.5s5 56 13 95s25 96.5 51 172.5c84.667 231.333 223.667 398.666 417 501.999l133 72
c-47.333 17.333 -96.166 30.333 -146.499 39s-108.5 13 -174.5 13c-53.333 0 -92.333 -8 -117 -24c-36 -17.333 -71.333 -55 -106 -113l-21 9c34 99.333 70 171.333 108 216c56 67.333 127 101 213 101h41l28 -8l206 -32c14 0 31.333 -3.66699 52 -11l95 -18l34 -6l37 -6
l82 -1h315l-92 -174l-111 -11l-101 -11c0 -30 21.667 -60.333 65 -91c51.333 -24 108 -36 170 -36h76v-195h-99c-59.333 -0 -114.5 12.333 -165.5 37s-86.167 64 -105.5 118c-6.66699 12 -11.667 40.333 -15 85l2 37c0 10 3 21.333 9 34zM693.998 -585.996l101 166l182 -110
l-104 -158zM476.998 -345.996l104 158l180 -104l-104 -158zM747.998 -345.996l99 158l184 -104l-104 -158z" />
    <glyph glyph-name="uniFB7C" unicode="&#x686;" horiz-adv-x="1441" arabic-form="initial" 
d="M1467 421l-95 -181l-121 17l-125 7l-95 -3c-22 0 -39.5 -0.666992 -52.5 -2s-31.5 -5 -55.5 -11c-26 -4 -46 -7.5 -60 -10.5s-29.333 -8.16699 -46 -15.5l-217 -103c-64.667 -30 -133.334 -57.333 -206.001 -82s-149.334 -37 -230.001 -37h-177v195h177
c114 0 240.167 23.333 378.5 70s214.5 85 228.5 115c-41.333 26 -104.166 51.167 -188.499 75.5s-153.166 36.5 -206.499 36.5l-43 -2c-12 0 -25.667 -2.66699 -41 -8c-66.667 -12 -117.667 -32.333 -153 -61s-76.666 -79.667 -123.999 -153l-18 9
c51.333 124.667 111.333 219 180 283c79.333 76 178 114 296 114c74.667 0 146.667 -12.333 216 -37c30 -10 59.667 -21.333 89 -34c38.667 -18.667 69.667 -33 93 -43c73.333 -30.667 143.666 -54 210.999 -70l182 -39zM672 -450l101 166l182 -110l-104 -158zM454 -210
l105 157l180 -105l-104 -156zM724 -210l101 157l184 -105l-104 -156z" />
    <glyph glyph-name="uniFB7D" unicode="&#x686;" horiz-adv-x="1478" arabic-form="medial" 
d="M1469 473l-78.002 -188l-73 5h-154c18.667 -63.333 86.667 -95 204 -95h118v-195h-144c-70.667 0 -133.334 18 -188.001 54c-28 24.667 -52.667 60 -74 106l-8 56l-5 63c-24.667 -2 -49.167 -5.5 -73.5 -10.5s-47.166 -11.5 -68.499 -19.5
c-29.333 -4.66699 -58.333 -14.334 -87 -29.001l-218 -112l-52 -22c-14.667 -5.33301 -33.334 -13.666 -56.001 -24.999l-110 -35l-52 -9l-60 -11l-124 -6h-179v195h179c70.667 0 133.334 4.16699 188.001 12.5s122.334 26.833 203.001 55.5c136 42 211 79 225 111l-177 73
l-67 20c-28.667 6.66699 -85 15 -169 25l-38 -2l-37 -8c-62 -14.667 -112.833 -36.667 -152.5 -66s-81.167 -78.666 -124.5 -147.999l-18 9c49.333 123.333 110 217.666 182 282.999c79.333 76 177.333 114 294 114c80.667 0 161.334 -14.333 242.001 -43l257 -91l106 -32
l193 -26l95 -7zM604.998 -539l99 165l182 -111l-104 -157zM386.998 -301l105 158l180 -104l-104 -158zM656.998 -301l101 158l184 -104l-104 -158z" />
    <glyph glyph-name="uniFB8B" unicode="&#x698;" horiz-adv-x="1163" arabic-form="final" 
d="M1171 0l-103.999 0.000976562c-17.333 0 -43 5.66699 -77 17l-93 43l-29 -6c0 -33.333 -4 -76 -12 -128c-4.66699 -49.333 -19.334 -94.833 -44.001 -136.5s-90.167 -110.334 -196.5 -206.001s-176.166 -143.5 -209.499 -143.5c-73.333 0 -164 42.333 -272 127
c-82 63.333 -147 128.333 -195 195l17 13c102.667 -130 198 -195 286 -195c23.333 0 50 6 80 18c17.333 6.66699 32.5 13.334 45.5 20.001s30.833 17 53.5 31c68 36.667 153.667 106.667 257 210c94 94 143 154 147 180c0 22.667 -14.333 56.667 -43 102l-104 172
c-10 16 -18.333 34.667 -25 56l17 85c10 53.333 20.667 87 32 101l54 -82l39 -63l45 -80c23.333 -28.667 64.166 -58.334 122.499 -89.001s105.5 -46 141.5 -46h67v-195zM672.001 1061l-106 -160l-181 106l107 158zM886.001 825.001l-102 -164l-184 112l107 156z
M616.001 825.001l-100 -164l-183 112l103 156z" />
    <glyph glyph-name="uniFB8F" unicode="&#x6a9;" horiz-adv-x="1716" arabic-form="final" 
d="M1377 277l-10.999 -48.001l-15 -37c-27.333 -70.667 -78.333 -127.334 -153 -170.001c-26 -14.667 -57.667 -22 -95 -22h-428c-198.667 0 -326.5 5.83301 -383.5 17.5s-117.5 47.334 -181.5 107.001s-96 160.834 -96 303.501c0 37.333 10 85.333 30 144
c16 43.333 32.667 77.333 50 102l20 -13l-27 -80c-12.667 -48.667 -19 -83.334 -19 -104.001l4 -26c18.667 -106 77 -182 175 -228l59 -16l45 -6l26 -2h28l283 -4h408l33 2c10 0 23.667 3.33301 41 10l43 20c13.333 5.33301 26.333 12.333 39 21
c23.333 16 47.666 43.333 72.999 82c7.33301 10.667 11 21 11 31l-28 65l-97 144l-130 199l-88 140c0 18 2.5 43.5 7.5 76.5s13.167 71.833 24.5 116.5c22 98 43 155.667 63 173l1041 224l-13 -49l-24 -63c-7.33301 -20 -14.166 -36.5 -20.499 -49.5
s-15.833 -28.833 -28.5 -47.5l-919 -206c-14 -4 -23 -12.333 -27 -25c0 -8.66699 2.66699 -16 8 -22c7.33301 -17.333 50 -83 128 -197l257 -362l60 -74c24.667 -33.333 60.667 -76.666 108 -129.999c59.333 -52.667 114.666 -79 165.999 -79h156v-195h-136
c-57.333 0 -100 5.66699 -128 17c-56 8.66699 -102 32.667 -138 72l-91 108c-24 25.333 -60 74.333 -108 147z" />
    <glyph glyph-name="uniFB90" unicode="&#x6a9;" horiz-adv-x="1007" arabic-form="initial" 
d="M402 115c-30 -42 -74 -73.667 -132 -95c-38.667 -13.333 -81 -20 -127 -20h-146v195h141h50c24.667 4 48.834 7.33301 72.501 10s50.5 14.334 80.5 35.001l26 23l35 39c11.333 16 19.333 32 24 48l-39 60l-57 82l-105 124l-46 -39l-84 153c-44.667 78 -67 122 -67 132
c0 44.667 13.667 117.334 41 218.001s49.666 159.667 66.999 177l1044 316c0 -20.667 -9.5 -59.334 -28.5 -116.001s-34.833 -91 -47.5 -103l-935 -287c-10.667 0 -18 -12 -22 -36l2 -11l285 -415c32 -48.667 48 -114.334 48 -197.001c0 -47.333 -7.66699 -99.5 -23 -156.5
s-34.333 -102.5 -57 -136.5z" />
    <glyph glyph-name="uniFB91" unicode="&#x6a9;" horiz-adv-x="958" arabic-form="medial" 
d="M93 1037c5.33301 -17.333 48.334 -83.001 129.001 -197.001l255 -362l59 -74c26 -37.333 62.667 -80.666 110 -129.999c59.333 -52.667 114.666 -79 165.999 -79h154v-195h-134c-58 0 -101.333 5.66699 -130 17c-57.333 8.66699 -102.666 32.667 -135.999 72l-93 108
c-23.333 28.667 -58.666 77.667 -105.999 147l7 -70c0 -31.333 -3.66699 -61.333 -11 -90l-11 -33l-11 -23l-11 -18c-21.333 -40 -59.333 -71 -114 -93c-28.667 -11.333 -68.334 -17 -119.001 -17h-104v195h106c73.333 0 122.333 5 147 15c50.667 21.333 76 57.333 76 108
c0 28.667 -9.33301 64.667 -28 108l-95 144l-132 199c-14.667 26 -28.334 49 -41.001 69l-46 71c0 18 2.5 43.5 7.5 76.5s12.833 71.833 23.5 116.5c22.667 98 44.334 155.667 65.001 173l1041 224l-13 -49l-24 -63c-12.667 -32 -29.334 -64.333 -50.001 -97l-920 -206
c-14 -4 -22.667 -12.333 -26 -25c0 -8.66699 3 -16 9 -22z" />
    <glyph glyph-name="uniFB93" unicode="&#x6af;" horiz-adv-x="1716" arabic-form="final" 
d="M1377 277l-10.999 -48.001l-15 -37c-27.333 -70.667 -78.333 -127.334 -153 -170.001c-26 -14.667 -57.667 -22 -95 -22h-428c-198.667 0 -326.5 5.83301 -383.5 17.5s-117.5 47.334 -181.5 107.001s-96 160.834 -96 303.501c0 37.333 10 85.333 30 144
c16 43.333 32.667 77.333 50 102l20 -13l-27 -80c-12.667 -48.667 -19 -83.334 -19 -104.001l4 -26c18.667 -106 77 -182 175 -228l59 -16l45 -6l26 -2h28l283 -4h408l33 2c10 0 23.667 3.33301 41 10l43 20c13.333 5.33301 26.333 12.333 39 21
c23.333 16 47.666 43.333 72.999 82c7.33301 10.667 11 21 11 31l-28 65l-97 144l-130 199l-88 140c0 18 2.5 43.5 7.5 76.5s13.167 71.833 24.5 116.5c22 98 43 155.667 63 173l1041 224l-13 -49l-24 -63c-7.33301 -20 -14.166 -36.5 -20.499 -49.5
s-15.833 -28.833 -28.5 -47.5l-919 -206c-14 -4 -23 -12.333 -27 -25c0 -8.66699 2.66699 -16 8 -22c7.33301 -17.333 50 -83 128 -197l257 -362l60 -74c24.667 -33.333 60.667 -76.666 108 -129.999c59.333 -52.667 114.666 -79 165.999 -79h156v-195h-136
c-57.333 0 -100 5.66699 -128 17c-56 8.66699 -102 32.667 -138 72l-91 108c-24 25.333 -60 74.333 -108 147zM2171 1695c-22.667 -70.667 -54.999 -113.666 -96.999 -128.999l-959 -199c11.333 51.333 26.333 80.666 45 87.999c13.333 17.333 48.666 33.333 105.999 48z
" />
    <glyph glyph-name="uniFB94" unicode="&#x6af;" horiz-adv-x="1007" arabic-form="initial" 
d="M402 115c-30 -42 -74 -73.667 -132 -95c-38.667 -13.333 -81 -20 -127 -20h-146v195h141h50c24.667 4 48.834 7.33301 72.501 10s50.5 14.334 80.5 35.001l26 23l35 39c11.333 16 19.333 32 24 48l-39 60l-57 82l-105 124l-46 -39l-84 153c-44.667 78 -67 122 -67 132
c0 44.667 13.667 117.334 41 218.001s49.666 159.667 66.999 177l1044 316c0 -20.667 -9.5 -59.334 -28.5 -116.001s-34.833 -91 -47.5 -103l-935 -287c-10.667 0 -18 -12 -22 -36l2 -11l285 -415c32 -48.667 48 -114.334 48 -197.001c0 -47.333 -7.66699 -99.5 -23 -156.5
s-34.333 -102.5 -57 -136.5zM1256 1807c-18.667 -81.333 -52.667 -132.333 -102 -153l-999 -290c14.667 60 30.667 96.333 48 109c16.667 18.667 53 37.667 109 57z" />
    <glyph glyph-name="uniFB95" unicode="&#x6af;" horiz-adv-x="958" arabic-form="medial" 
d="M93 1037c5.33301 -17.333 48.334 -83.001 129.001 -197.001l255 -362l59 -74c26 -37.333 62.667 -80.666 110 -129.999c59.333 -52.667 114.666 -79 165.999 -79h154v-195h-134c-58 0 -101.333 5.66699 -130 17c-57.333 8.66699 -102.666 32.667 -135.999 72l-93 108
c-23.333 28.667 -58.666 77.667 -105.999 147l7 -70c0 -31.333 -3.66699 -61.333 -11 -90l-11 -33l-11 -23l-11 -18c-21.333 -40 -59.333 -71 -114 -93c-28.667 -11.333 -68.334 -17 -119.001 -17h-104v195h106c73.333 0 122.333 5 147 15c50.667 21.333 76 57.333 76 108
c0 28.667 -9.33301 64.667 -28 108l-95 144l-132 199c-14.667 26 -28.334 49 -41.001 69l-46 71c0 18 2.5 43.5 7.5 76.5s12.833 71.833 23.5 116.5c22.667 98 44.334 155.667 65.001 173l1041 224l-13 -49l-24 -63c-12.667 -32 -29.334 -64.333 -50.001 -97l-920 -206
c-14 -4 -22.667 -12.333 -26 -25c0 -8.66699 3 -16 9 -22zM1141 1695c-22.667 -70.667 -54.999 -113.666 -96.999 -128.999l-959 -199c11.333 51.333 26.333 80.666 45 87.999c13.333 17.333 48.666 33.333 105.999 48z" />
    <glyph glyph-name="uniFBA5" unicode="&#x6c0;" horiz-adv-x="999" arabic-form="final" 
d="M1010 0h-69.001c-52 -0 -99 19.333 -141 58c-58.667 52 -101 137.667 -127 257l-19 113l-83 -104c-40 -50.667 -73.667 -86.667 -101 -108l-61 -11l-97 -4h-49h-33c-38.667 0 -69.667 3 -93 9c-46 10 -77.667 23 -95 39l9 36l36 52c14.667 23.333 46 63 94 119l45 34
l86 42l111 38l222 69v203l56 122l17 -9c-8 -48 -12 -112.667 -12 -194c0 -192 22.667 -332 68 -420c14.667 -30 41.334 -62.333 80.001 -97c39.333 -32.667 76.333 -49 111 -49h45v-195zM653.999 454l0.000976562 14.999l-2 26c0 16 -1 26.667 -3 32v84l-50 -47l-54 -46
c-18.667 -15.333 -94.667 -39.666 -228 -72.999c-48 -11.333 -74 -24.333 -78 -39c5.33301 -14.667 31.333 -22 78 -22l71 -8l78 -2h52l19 2c11.333 0 25.666 4.33301 42.999 13c26 14 50.667 35.667 74 65zM263 1134l4.00098 -24.001c0 -49.333 -44 -84 -132 -104l-21 -2
l-31 4h-24l-19 -2c-12.667 -7.33301 -20.667 -14.333 -24 -21l-15 15l18 24c14 8 37 15.667 69 23c34 0 60.333 6.66699 79 20l3 17c-3.33301 6 -6.33301 9.66699 -9 11c-28.667 5.33301 -49.667 22 -63 50c-8 18.667 2.66699 48.167 32 88.5s58.333 60.5 87 60.5l-6 -59
c-14.667 -1.33301 -29 -5.66602 -43 -12.999l-18 -26c0 -8.66699 17.333 -18.667 52 -30c33.333 -4 53.666 -14.667 60.999 -32z" />
    <glyph glyph-name="uniFBFD" unicode="&#x6cc;" horiz-adv-x="2941" arabic-form="final" 
d="M2953 0l-33.998 -0.00488281c-154.667 0 -263 -10.333 -325 -31c-42.667 -12.667 -61.334 -29 -56.001 -49l141 -57l114 -49c75.333 -33.333 125 -73.666 149 -120.999l2 -13c0 -13.333 -7.83301 -56 -23.5 -128s-34.167 -123 -55.5 -153
c-10.667 -23.333 -62 -58.666 -154 -105.999c-100.667 -54.667 -225 -98.667 -373 -132c-192 -43.333 -388.667 -65 -590 -65l-149 3l-229 8c-78 0 -148.667 6 -212 18l-123 23c-182.667 29.333 -341 70.333 -475 123c-58 23.333 -108.667 46.333 -152 69
c-34 13.333 -76 37 -126 71s-123.667 91.333 -221 172l-48 54l48 13l334 -154c140 -63.333 356.333 -113.666 649 -150.999c248.667 -30.667 474 -46 676 -46c113.333 0 222.666 4.33301 327.999 13s200.833 21.334 286.5 38.001s156.5 34 212.5 52s108 40 156 66
c70.667 37.333 110 70.333 118 99c0 16 -23 37.667 -69 65c-36 20 -67 35 -93 45l-179 63c-27.333 12 -49 24.833 -65 38.5s-24 27.5 -24 41.5c0 12.667 1.83301 27.334 5.5 44.001s12.167 43 25.5 79c27.333 70 45.333 111.333 54 124c15.333 21.333 50.666 46 106 74
c76 36 155.667 54 239 54h132v-195z" />
    <glyph glyph-name="uniFBFE" unicode="&#x6cc;" horiz-adv-x="413" arabic-form="initial" 
d="M477 -232l-103 -162l-188 110l108 158zM207 -232l-103 -162l-184 110l106 158zM324 451c0 -57.333 -11.668 -131.333 -35.001 -222c-12.667 -48.667 -24 -85.334 -34 -110.001l-33 -72l-43 -19c-47.333 -18.667 -92.666 -28 -135.999 -28h-91v195h109
c110.667 0 173.334 17.667 188.001 53c-4.66699 49.333 -14.167 97 -28.5 143s-31.5 82 -51.5 108l-80 102l32 88l9 17l11 24l25 33c29.333 -16 61.666 -53.667 96.999 -113c18 -34.667 32.667 -69.167 44 -103.5s17 -66.166 17 -95.499z" />
    <glyph glyph-name="uniFBFF" unicode="&#x6cc;" horiz-adv-x="642" arabic-form="medial" 
d="M650 0h-84.001c-119.333 -0 -205.666 53.333 -258.999 160c-27.333 -38.667 -60 -72 -98 -100c-54.667 -40 -108.667 -60 -162 -60h-54v195h55c56 0 110.333 12.5 163 37.5s86.667 53.5 102 85.5l31 67l45 105l17 -17l-17 -45l-9 -53c-2.66699 -15.333 -4 -30.333 -4 -45
c18.667 -38.667 38 -66.667 58 -84c37.333 -34 90 -51 158 -51h58v-195zM619.999 -322l-102 -156l-183 104l101 155zM349.999 -322l-102 -156l-183 104l106 155z" />
    <glyph glyph-name="uniFE82" unicode="&#x622;" horiz-adv-x="619" arabic-form="final" 
d="M669 0l-59 0.000976562c-40 0 -81.667 8.66699 -125 26c-57.333 21.333 -101.333 49.333 -132 84l-39 54c-21.333 44.667 -32 116.667 -32 216v52v22c0 51.333 -2 93.666 -6 126.999l-20 154l-52 246l-6 36l-7 22l65 132c2.66699 -6 4.66699 -11.667 6 -17
c8.66699 -23.333 14 -41.333 16 -54l11 -63l8 -60l32 -227c0 -120 6.66699 -229.667 20 -329c0 -28.667 13 -63 39 -103c21.333 -26 48 -49.333 80 -70l34 -21l43 -18c28 -9.33301 50.667 -14 68 -14h56v-195zM42 1201l2 -49.001c29.333 34 66 64.667 110 92
c10.667 10.667 39 25.334 85 44.001l43 4c13.333 0 60.333 -10 141 -30l92 -18l43 3c50.667 11.333 95.667 33.333 135 66l45 46l47 76l-2 45c-44.667 -30.667 -80 -53 -106 -67l-121 -43l-41 -3c-31.333 0 -62 4.33301 -92 13c-76.667 24.667 -123.667 37.667 -141 39
c-31.333 0 -58 -8.66699 -80 -26l-32 -34l-43 -45c-12 -10.667 -27.333 -29.667 -46 -57c-14.667 -16 -27.667 -34.667 -39 -56z" />
    <glyph glyph-name="uniFE84" unicode="&#x623;" horiz-adv-x="597" arabic-form="final" 
d="M425 1439l4.00098 -24.001c0 -49.333 -44 -84 -132 -104l-21 -2l-31 4h-24l-19 -2c-12.667 -7.33301 -20.667 -14.333 -24 -21l-15 15l18 24c14 8 37 15.667 69 23c34 0 60.333 6.66699 79 20l3 17c-3.33301 6 -6.33301 9.66699 -9 11c-28.667 5.33301 -49.667 22 -63 50
c-8 18.667 2.66699 48.167 32 88.5s58.333 60.5 87 60.5l-6 -59c-14.667 -1.33301 -29 -5.66602 -43 -12.999l-18 -26c0 -8.66699 17.333 -18.667 52 -30c33.333 -4 53.666 -14.667 60.999 -32zM669.001 -0.000976562l-59 0.000976562c-40 0 -81.667 8.66699 -125 26
c-57.333 21.333 -101.333 49.333 -132 84l-39 54c-21.333 44.667 -32 116.667 -32 216v52v22c0 51.333 -2 93.666 -6 126.999l-20 154l-52 246l-6 36l-7 22l65 132c2.66699 -6 4.66699 -11.667 6 -17c8.66699 -23.333 14 -41.333 16 -54l11 -63l8 -60l32 -227
c0 -120 6.66699 -229.667 20 -329c0 -28.667 13 -63 39 -103c21.333 -26 48 -49.333 80 -70l34 -21l43 -18c28 -9.33301 50.667 -14 68 -14h56v-195z" />
    <glyph glyph-name="uniFE86" unicode="&#x624;" horiz-adv-x="1145" arabic-form="final" 
d="M1171 -1l-172.997 -0.00195312c-41.333 -119.333 -120.333 -235.666 -237 -348.999c-16 -16 -37 -32.667 -63 -50c-11.333 -8.66699 -26.5 -19.5 -45.5 -32.5s-40.5 -26.167 -64.5 -39.5c-68 -41.333 -123.667 -70.666 -167 -87.999
c-28.667 4 -101.334 33.333 -218.001 88l-63 28l-47 24l-137 74l-119 64l7 14c79.333 -36 158 -66.333 236 -91l61 -17l107 -24l44 -2l41 2c28.667 0 94.667 28.667 198 86l111 63c34 20 60.333 37.333 79 52c89.333 67.333 148.666 134.333 177.999 201l-69 2l-48 13
c-34.667 7.33301 -75 24 -121 50c-53.333 31.333 -80 85.333 -80 162c0 33.333 3.66699 66.5 11 99.5s19.666 68.167 36.999 105.5c34.667 73.333 75 131 121 173c24 21.333 56.333 32 97 32c28.667 0 52.334 -7.66699 71.001 -23c37.333 -33.333 69.666 -83 96.999 -149
l29 -188l4 -22l2 -19v-29l-6 -14h127v-196zM942.003 198.998l2.00195 18.999v11l-6 54c-8.66699 34.667 -30 71.334 -64 110.001s-69 58 -105 58c-28.667 -6.66699 -52.834 -20.834 -72.501 -42.501s-29.5 -47.834 -29.5 -78.501
c3.33301 -37.333 41.666 -69.666 114.999 -96.999c48.667 -17.333 102 -28.666 160 -33.999zM486.005 1093l4.00098 -24.001c0 -49.333 -44 -84 -132 -104l-21 -2l-31 4h-24l-19 -2c-12.667 -7.33301 -20.667 -14.333 -24 -21l-15 15l18 24c14 8 37 15.667 69 23
c34 0 60.333 6.66699 79 20l3 17c-3.33301 6 -6.33301 9.66699 -9 11c-28.667 5.33301 -49.667 22 -63 50c-8 18.667 2.66699 48.167 32 88.5s58.333 60.5 87 60.5l-6 -59c-14.667 -1.33301 -29 -5.66602 -43 -12.999l-18 -26c0 -8.66699 17.333 -18.667 52 -30
c33.333 -4 53.666 -14.667 60.999 -32z" />
    <glyph glyph-name="uniFE88" unicode="&#x625;" horiz-adv-x="636" arabic-form="final" 
d="M669 0l-59 0.000976562c-40 0 -81.667 8.66699 -125 26c-57.333 21.333 -101.333 49.333 -132 84l-39 54c-21.333 44.667 -32 116.667 -32 216v52v22c0 51.333 -2 93.666 -6 126.999l-20 154l-52 246l-6 36l-7 22l65 132c2.66699 -6 4.66699 -11.667 6 -17
c8.66699 -23.333 14 -41.333 16 -54l11 -63l8 -60l32 -227c0 -120 6.66699 -229.667 20 -329c0 -28.667 13 -63 39 -103c21.333 -26 48 -49.333 80 -70l34 -21l43 -18c28 -9.33301 50.667 -14 68 -14h56v-195zM416 -289.999l4.00098 -24.001c0 -49.333 -44 -84 -132 -104
l-21 -2l-31 4h-24l-19 -2c-12.667 -7.33301 -20.667 -14.333 -24 -21l-15 15l18 24c14 8 37 15.667 69 23c34 0 60.333 6.66699 79 20l3 17c-3.33301 6 -6.33301 9.66699 -9 11c-28.667 5.33301 -49.667 22 -63 50c-8 18.667 2.66699 48.167 32 88.5s58.333 60.5 87 60.5
l-6 -59c-14.667 -1.33301 -29 -5.66602 -43 -12.999l-18 -26c0 -8.66699 17.333 -18.667 52 -30c33.333 -4 53.666 -14.667 60.999 -32z" />
    <glyph glyph-name="uniFE8A" unicode="&#x626;" horiz-adv-x="2941" arabic-form="final" 
d="M2953 0l-33.998 -0.00488281c-154.667 0 -263 -10.333 -325 -31c-42.667 -12.667 -61.334 -29 -56.001 -49l141 -57l114 -49c75.333 -33.333 125 -73.666 149 -120.999l2 -13c0 -13.333 -7.83301 -56 -23.5 -128s-34.167 -123 -55.5 -153
c-10.667 -23.333 -62 -58.666 -154 -105.999c-100.667 -54.667 -225 -98.667 -373 -132c-192 -43.333 -388.667 -65 -590 -65l-149 3l-229 8c-78 0 -148.667 6 -212 18l-123 23c-182.667 29.333 -341 70.333 -475 123c-58 23.333 -108.667 46.333 -152 69
c-34 13.333 -76 37 -126 71s-123.667 91.333 -221 172l-48 54l48 13l334 -154c140 -63.333 356.333 -113.666 649 -150.999c248.667 -30.667 474 -46 676 -46c113.333 0 222.666 4.33301 327.999 13s200.833 21.334 286.5 38.001s156.5 34 212.5 52s108 40 156 66
c70.667 37.333 110 70.333 118 99c0 16 -23 37.667 -69 65c-36 20 -67 35 -93 45l-179 63c-27.333 12 -49 24.833 -65 38.5s-24 27.5 -24 41.5c0 12.667 1.83301 27.334 5.5 44.001s12.167 43 25.5 79c27.333 70 45.333 111.333 54 124c15.333 21.333 50.666 46 106 74
c76 36 155.667 54 239 54h132v-195zM701.002 624.995l4.00098 -24.001c0 -49.333 -44 -84 -132 -104l-21 -2l-31 4h-24l-19 -2c-12.667 -7.33301 -20.667 -14.333 -24 -21l-15 15l18 24c14 8 37 15.667 69 23c34 0 60.333 6.66699 79 20l3 17
c-3.33301 6 -6.33301 9.66699 -9 11c-28.667 5.33301 -49.667 22 -63 50c-8 18.667 2.66699 48.167 32 88.5s58.333 60.5 87 60.5l-6 -59c-14.667 -1.33301 -29 -5.66602 -43 -12.999l-18 -26c0 -8.66699 17.333 -18.667 52 -30c33.333 -4 53.666 -14.667 60.999 -32z" />
    <glyph glyph-name="uniFE8B" unicode="&#x626;" horiz-adv-x="519" arabic-form="initial" 
d="M356 372c0 -101.333 -18.668 -185 -56.001 -251c-46 -79.333 -116.667 -119 -212 -119h-95v167h95c42 0 83.333 7.66699 124 23c53.333 18.667 80 46 80 82v18c-1.33301 4 -2.16602 7.16699 -2.49902 9.5s-3.83301 7.83301 -10.5 16.5l-57 95l-17 34l-4 26l2 24
c0 10 5.66699 20 17 30l72 115c8.66699 -20.667 17.667 -43.5 27 -68.5s16.5 -47.667 21.5 -68s8.83301 -40.5 11.5 -60.5s4 -44.333 4 -73zM477.999 920c-9.33301 -48.667 -24.6689 -78.668 -46.002 -90.001l-378 -109c8.66699 34.667 25.334 61.334 50.001 80.001
c15.333 10.667 44.666 24.334 87.999 41.001c-60 29.333 -90 65.333 -90 108c0 19.333 8.33301 39.666 25 60.999c27.333 40 65 78.333 113 115c42 31.333 78.667 47 110 47c20 0 37.167 -6.83301 51.5 -20.5s21.5 -32.167 21.5 -55.5c0 -22.667 -13.667 -53.667 -41 -93
c-48.667 29.333 -86 44 -112 44c-17.333 0 -47.666 -14.667 -90.999 -44l48 -43l52 -34c32.667 -14.667 64.334 -24 95.001 -28l43 4z" />
    <glyph glyph-name="uniFE8C" unicode="&#x626;" horiz-adv-x="519" arabic-form="medial" 
d="M616 179h-191.999c-16 0 -38.167 16.333 -66.5 49s-44.5 68.334 -48.5 107.001c-18.667 -40.667 -48.167 -76.834 -88.5 -108.501s-81.5 -47.5 -123.5 -47.5h-97v165h97c29.333 0 64.666 12.667 105.999 38c49.333 28 102 80 158 156l15 -6
c7.33301 -64 15.333 -102.333 24 -115c17.333 -48.667 50.333 -73 99 -73h117v-165zM544.001 847c-11.333 -47.333 -27.667 -76.335 -49 -87.002l-378 -108c11.333 36 28.333 62.667 51 80l89 41c-34.667 14.667 -59 30 -73 46
c-10.667 18.667 -17.334 39.334 -20.001 62.001c0 14.667 7.33301 34.334 22 59.001c46 56 87.333 97.333 124 124s70.334 40 101.001 40c20 0 37.667 -7.33301 53 -22c9.33301 -11.333 16.666 -29.333 21.999 -54c0 -24 -13.667 -55.667 -41 -95
c-44.667 29.333 -82 44 -112 44c-20.667 0 -51 -14.667 -91 -44c33.333 -32.667 66.333 -57.667 99 -75c18.667 -8.66699 35.334 -15.5 50.001 -20.5s29 -7.5 43 -7.5h20l23 4l39 6z" />
    <glyph glyph-name="uniFE8E" unicode="&#x627;" horiz-adv-x="636" arabic-form="final" 
d="M669 0l-59 0.000976562c-40 0 -81.667 8.66699 -125 26c-57.333 21.333 -101.333 49.333 -132 84l-39 54c-21.333 44.667 -32 116.667 -32 216v52v22c0 51.333 -2 93.666 -6 126.999l-20 154l-52 246l-6 36l-7 22l65 132c2.66699 -6 4.66699 -11.667 6 -17
c8.66699 -23.333 14 -41.333 16 -54l11 -63l8 -60l32 -227c0 -120 6.66699 -229.667 20 -329c0 -28.667 13 -63 39 -103c21.333 -26 48 -49.333 80 -70l34 -21l43 -18c28 -9.33301 50.667 -14 68 -14h56v-195z" />
    <glyph glyph-name="uniFE90" unicode="&#x628;" horiz-adv-x="2334" arabic-form="final" 
d="M2387 0l-62.002 0.00195312c-72 0 -132 20 -180 60c-30 22 -56 55.333 -78 100c-40 -43.333 -82.333 -76.333 -127 -99l-65 -29c-63.333 -24.667 -144.666 -42.667 -243.999 -54l-251 -18l-287 -17l-127 4l-188 7l-117 6l-112 24c-145.333 29.333 -262 88 -350 176
c-63.333 59.333 -95 162.333 -95 309v26l4 39c4 28.667 9.66699 51 17 67c14.667 47.333 28.334 79.666 41.001 96.999l20 -5l-7 -32l-17 -50l-13 -97l6 -36c10.667 -104 69 -180.333 175 -229l98 -33l136 -34l136 -20c18.667 -4 60.334 -6 125.001 -6l359 -7
c95.333 0 216 7.16699 362 21.5s236.333 26.5 271 36.5c16 3.33301 38.667 8.5 68 15.5s60.666 15.5 93.999 25.5c50 18.667 81 42 93 70l39 90l38 82l16 -17l-16 -45c-4 -18.667 -7.16699 -37 -9.5 -55l-5.5 -43c10 -18.667 19.5 -34.834 28.5 -48.501
s19.167 -25.5 30.5 -35.5c37.333 -34 90 -51 158 -51h36v-195zM1460 -349.998l-106 -163l-179 108l106 163z" />
    <glyph glyph-name="uniFE91" unicode="&#x628;" horiz-adv-x="409" arabic-form="initial" 
d="M300 451c0 -56 -10.3311 -128.663 -30.998 -217.996s-44 -151.333 -70 -186l-93 -34c-17.333 -4 -32.666 -7.16699 -45.999 -9.5s-27 -3.5 -41 -3.5h-52v195h75c113.333 0 175.666 17.667 186.999 53c0 23.333 -1.83301 43.666 -5.5 60.999s-11.167 42.666 -22.5 75.999
c-18.667 56 -36.667 94 -54 114l-78 102c1.33301 8.66699 4.16602 20.5 8.49902 35.5s10.166 29.833 17.499 44.5l21 49l24 33c32 -17.333 65.333 -55 100 -113c20 -34.667 35 -67.834 45 -99.501s15 -64.834 15 -99.501zM291.002 -354.996l-99 -160l-184 108l102 158z" />
    <glyph glyph-name="uniFE92" unicode="&#x628;" horiz-adv-x="621" arabic-form="medial" 
d="M650 0h-84.001c-119.333 -0 -205.666 53.333 -258.999 160c-27.333 -38.667 -60 -72 -98 -100c-54.667 -40 -108.667 -60 -162 -60h-54v195h55c56 0 110.333 12.5 163 37.5s86.667 53.5 102 85.5l31 67l45 105l17 -17l-17 -45l-9 -53c-2.66699 -15.333 -4 -30.333 -4 -45
c18.667 -38.667 38 -66.667 58 -84c37.333 -34 90 -51 158 -51h58v-195zM468.999 -273l-102 -162l-185 106l105 158z" />
    <glyph glyph-name="uniFE96" unicode="&#x62a;" horiz-adv-x="2377" arabic-form="final" 
d="M1501 927l-105 -164l-182 108l104 159zM1225 927l-99 -164l-182 108l100 159zM2387 0l-62.002 0.00195312c-72 0 -132 20 -180 60c-30 22 -56 55.333 -78 100c-40 -43.333 -82.333 -76.333 -127 -99l-65 -29c-63.333 -24.667 -144.666 -42.667 -243.999 -54l-251 -18
l-287 -17l-127 4l-188 7l-117 6l-112 24c-145.333 29.333 -262 88 -350 176c-63.333 59.333 -95 162.333 -95 309v26l4 39c4 28.667 9.66699 51 17 67c14.667 47.333 28.334 79.666 41.001 96.999l20 -5l-7 -32l-17 -50l-13 -97l6 -36c10.667 -104 69 -180.333 175 -229
l98 -33l136 -34l136 -20c18.667 -4 60.334 -6 125.001 -6l359 -7c95.333 0 216 7.16699 362 21.5s236.333 26.5 271 36.5c16 3.33301 38.667 8.5 68 15.5s60.666 15.5 93.999 25.5c50 18.667 81 42 93 70l39 90l38 82l16 -17l-16 -45c-4 -18.667 -7.16699 -37 -9.5 -55
l-5.5 -43c10 -18.667 19.5 -34.834 28.5 -48.501s19.167 -25.5 30.5 -35.5c37.333 -34 90 -51 158 -51h36v-195z" />
    <glyph glyph-name="uniFE97" unicode="&#x62a;" horiz-adv-x="433" arabic-form="initial" 
d="M482 1005l-102 -163l-185 111l107 157zM210 1005l-100 -163l-182 111l104 157zM363 451c0 -62.667 -11.001 -136.668 -33.001 -222.001c-11.333 -48.667 -23.333 -86.667 -36 -114l-33 -68l100 -21l-31 6c-20 0 -39.333 -0.333008 -58 -1s-41 -3.66699 -67 -9
c-41.333 -14.667 -82.333 -22 -123 -22h-95v195h115h64c26 4 51 7.33301 75 10s40.333 17 49 43c-10.667 112.667 -37.667 196.334 -81 251.001l-79 102l32 88l9 15c7.33301 22 15.333 37.333 24 46l4 4l8 9c30.667 -20.667 62.334 -58.334 95.001 -113.001
c40.667 -69.333 61 -135.666 61 -198.999z" />
    <glyph glyph-name="uniFE98" unicode="&#x62a;" horiz-adv-x="577" arabic-form="medial" 
d="M620 830l-102 -158l-183 108l101 156zM350 830l-102 -158l-183 108l106 156zM650 0h-84.001c-119.333 -0 -205.666 53.333 -258.999 160c-27.333 -38.667 -60 -72 -98 -100c-54.667 -40 -108.667 -60 -162 -60h-54v195h55c56 0 110.333 12.5 163 37.5
s86.667 53.5 102 85.5l31 67l45 105l17 -17l-17 -45l-9 -53c-2.66699 -15.333 -4 -30.333 -4 -45c18.667 -38.667 38 -66.667 58 -84c37.333 -34 90 -51 158 -51h58v-195z" />
    <glyph glyph-name="uniFE9A" unicode="&#x62b;" horiz-adv-x="2334" arabic-form="final" 
d="M1257 1132l-103 -166l-180 112l106 156zM1473 896l-103 -159l-180 103l102 158zM1203 896l-99 -159l-184 103l102 158zM2387 0l-62.002 0.00195312c-72 0 -132 20 -180 60c-30 22 -56 55.333 -78 100c-40 -43.333 -82.333 -76.333 -127 -99l-65 -29
c-63.333 -24.667 -144.666 -42.667 -243.999 -54l-251 -18l-287 -17l-127 4l-188 7l-117 6l-112 24c-145.333 29.333 -262 88 -350 176c-63.333 59.333 -95 162.333 -95 309v26l4 39c4 28.667 9.66699 51 17 67c14.667 47.333 28.334 79.666 41.001 96.999l20 -5l-7 -32
l-17 -50l-13 -97l6 -36c10.667 -104 69 -180.333 175 -229l98 -33l136 -34l136 -20c18.667 -4 60.334 -6 125.001 -6l359 -7c95.333 0 216 7.16699 362 21.5s236.333 26.5 271 36.5c16 3.33301 38.667 8.5 68 15.5s60.666 15.5 93.999 25.5c50 18.667 81 42 93 70l39 90
l38 82l16 -17l-16 -45c-4 -18.667 -7.16699 -37 -9.5 -55l-5.5 -43c10 -18.667 19.5 -34.834 28.5 -48.501s19.167 -25.5 30.5 -35.5c37.333 -34 90 -51 158 -51h36v-195z" />
    <glyph glyph-name="uniFE9B" unicode="&#x62b;" horiz-adv-x="456" arabic-form="initial" 
d="M266 1242l-106 -160l-180 106l106 158zM482 1005l-102 -163l-185 111l107 157zM210 1005l-100 -163l-182 111l104 157zM363 451c0 -62.667 -11.001 -136.668 -33.001 -222.001c-11.333 -48.667 -23.333 -86.667 -36 -114l-33 -68l100 -21l-31 6
c-20 0 -39.333 -0.333008 -58 -1s-41 -3.66699 -67 -9c-41.333 -14.667 -82.333 -22 -123 -22h-95v195h115h64c26 4 51 7.33301 75 10s40.333 17 49 43c-10.667 112.667 -37.667 196.334 -81 251.001l-79 102l32 88l9 15c7.33301 22 15.333 37.333 24 46l4 4l8 9
c30.667 -20.667 62.334 -58.334 95.001 -113.001c40.667 -69.333 61 -135.666 61 -198.999z" />
    <glyph glyph-name="uniFE9C" unicode="&#x62b;" horiz-adv-x="599" arabic-form="medial" 
d="M402 1020l-100 -164l-183 108l103 162zM616 784l-100 -164l-183 110l103 162zM344 784l-102 -164l-181 110l103 162zM650 0h-84.001c-119.333 -0 -205.666 53.333 -258.999 160c-27.333 -38.667 -60 -72 -98 -100c-54.667 -40 -108.667 -60 -162 -60h-54v195h55
c56 0 110.333 12.5 163 37.5s86.667 53.5 102 85.5l31 67l45 105l17 -17l-17 -45l-9 -53c-2.66699 -15.333 -4 -30.333 -4 -45c18.667 -38.667 38 -66.667 58 -84c37.333 -34 90 -51 158 -51h58v-195z" />
    <glyph glyph-name="uniFE9E" unicode="&#x62c;" horiz-adv-x="1329" arabic-form="final" 
d="M959 311l-142.002 -27.9961c-17.333 -2.66699 -30 -5.16699 -38 -7.5s-24.333 -8.5 -49 -18.5c-126.667 -37.333 -247.667 -115 -363 -233c-63.333 -62.667 -120 -145.667 -170 -249l-59 -180l-8 -66c0 -86.667 29.333 -167.334 88 -242.001
c50.667 -65.333 118.334 -120.333 203.001 -165l102 -38c14 0 36.333 -4.33301 67 -13l78 -16c104.667 -18.667 218.334 -28 341.001 -28c112 0 207.667 6 287 18l139 19c57.333 10 104.666 22.333 141.999 37l-4 -39l-434 -192l-165 -69c-41.333 -7.33301 -86 -11 -134 -11
c-99.333 0 -209.833 17.667 -331.5 53s-210.5 81.666 -266.5 138.999c-40 40 -76 94 -108 162c-46 95.333 -69 197.666 -69 306.999c0 20 0.333008 42.167 1 66.5s5 56 13 95s25 96.5 51 172.5c84.667 231.333 223.667 398.666 417 501.999l133 72
c-47.333 17.333 -96.166 30.333 -146.499 39s-108.5 13 -174.5 13c-53.333 0 -92.333 -8 -117 -24c-36 -17.333 -71.333 -55 -106 -113l-21 9c34 99.333 70 171.333 108 216c56 67.333 127 101 213 101h41l28 -8l206 -32c14 0 31.333 -3.66699 52 -11l95 -18l34 -6l37 -6
l82 -1h315l-92 -174l-111 -11l-101 -11c0 -30 21.667 -60.333 65 -91c51.333 -24 108 -36 170 -36h76v-195h-99c-59.333 -0 -114.5 12.333 -165.5 37s-86.167 64 -105.5 118c-6.66699 12 -11.667 40.333 -15 85l2 37c0 10 3 21.333 9 34zM995.998 -339.996l-100 -168
l-185 112l103 156z" />
    <glyph glyph-name="uniFE9F" unicode="&#x62c;" horiz-adv-x="1441" arabic-form="initial" 
d="M1467 421l-95 -181l-121 17l-125 7l-95 -3c-22 0 -39.5 -0.666992 -52.5 -2s-31.5 -5 -55.5 -11c-26 -4 -46 -7.5 -60 -10.5s-29.333 -8.16699 -46 -15.5l-217 -103c-64.667 -30 -133.334 -57.333 -206.001 -82s-149.334 -37 -230.001 -37h-177v195h177
c114 0 240.167 23.333 378.5 70s214.5 85 228.5 115c-41.333 26 -104.166 51.167 -188.499 75.5s-153.166 36.5 -206.499 36.5l-43 -2c-12 0 -25.667 -2.66699 -41 -8c-66.667 -12 -117.667 -32.333 -153 -61s-76.666 -79.667 -123.999 -153l-18 9
c51.333 124.667 111.333 219 180 283c79.333 76 178 114 296 114c74.667 0 146.667 -12.333 216 -37c30 -10 59.667 -21.333 89 -34c38.667 -18.667 69.667 -33 93 -43c73.333 -30.667 143.666 -54 210.999 -70l182 -39zM918 -229l-104 -165l-183 110l106 158z" />
    <glyph glyph-name="uniFEA0" unicode="&#x62c;" horiz-adv-x="1478" arabic-form="medial" 
d="M1469 473l-78.002 -188l-73 5h-154c18.667 -63.333 86.667 -95 204 -95h118v-195h-144c-70.667 0 -133.334 18 -188.001 54c-28 24.667 -52.667 60 -74 106l-8 56l-5 63c-24.667 -2 -49.167 -5.5 -73.5 -10.5s-47.166 -11.5 -68.499 -19.5
c-29.333 -4.66699 -58.333 -14.334 -87 -29.001l-218 -112l-52 -22c-14.667 -5.33301 -33.334 -13.666 -56.001 -24.999l-110 -35l-52 -9l-60 -11l-124 -6h-179v195h179c70.667 0 133.334 4.16699 188.001 12.5s122.334 26.833 203.001 55.5c136 42 211 79 225 111l-177 73
l-67 20c-28.667 6.66699 -85 15 -169 25l-38 -2l-37 -8c-62 -14.667 -112.833 -36.667 -152.5 -66s-81.167 -78.666 -124.5 -147.999l-18 9c49.333 123.333 110 217.666 182 282.999c79.333 76 177.333 114 294 114c80.667 0 161.334 -14.333 242.001 -43l257 -91l106 -32
l193 -26l95 -7zM919.998 -229l-103 -165l-184 110l106 158z" />
    <glyph glyph-name="uniFEA2" unicode="&#x62d;" horiz-adv-x="1329" arabic-form="final" 
d="M959 311l-142.002 -27.9961c-17.333 -2.66699 -30 -5.16699 -38 -7.5s-24.333 -8.5 -49 -18.5c-126.667 -37.333 -247.667 -115 -363 -233c-63.333 -62.667 -120 -145.667 -170 -249l-59 -180l-8 -66c0 -86.667 29.333 -167.334 88 -242.001
c50.667 -65.333 118.334 -120.333 203.001 -165l102 -38c14 0 36.333 -4.33301 67 -13l78 -16c104.667 -18.667 218.334 -28 341.001 -28c112 0 207.667 6 287 18l139 19c57.333 10 104.666 22.333 141.999 37l-4 -39l-434 -192l-165 -69c-41.333 -7.33301 -86 -11 -134 -11
c-99.333 0 -209.833 17.667 -331.5 53s-210.5 81.666 -266.5 138.999c-40 40 -76 94 -108 162c-46 95.333 -69 197.666 -69 306.999c0 20 0.333008 42.167 1 66.5s5 56 13 95s25 96.5 51 172.5c84.667 231.333 223.667 398.666 417 501.999l133 72
c-47.333 17.333 -96.166 30.333 -146.499 39s-108.5 13 -174.5 13c-53.333 0 -92.333 -8 -117 -24c-36 -17.333 -71.333 -55 -106 -113l-21 9c34 99.333 70 171.333 108 216c56 67.333 127 101 213 101h41l28 -8l206 -32c14 0 31.333 -3.66699 52 -11l95 -18l34 -6l37 -6
l82 -1h315l-92 -174l-111 -11l-101 -11c0 -30 21.667 -60.333 65 -91c51.333 -24 108 -36 170 -36h76v-195h-99c-59.333 -0 -114.5 12.333 -165.5 37s-86.167 64 -105.5 118c-6.66699 12 -11.667 40.333 -15 85l2 37c0 10 3 21.333 9 34z" />
    <glyph glyph-name="uniFEA3" unicode="&#x62d;" horiz-adv-x="1528" arabic-form="initial" 
d="M1467 421l-95 -181l-121 17l-125 7l-95 -3c-22 0 -39.5 -0.666992 -52.5 -2s-31.5 -5 -55.5 -11c-26 -4 -46 -7.5 -60 -10.5s-29.333 -8.16699 -46 -15.5l-217 -103c-64.667 -30 -133.334 -57.333 -206.001 -82s-149.334 -37 -230.001 -37h-177v195h177
c114 0 240.167 23.333 378.5 70s214.5 85 228.5 115c-41.333 26 -104.166 51.167 -188.499 75.5s-153.166 36.5 -206.499 36.5l-43 -2c-12 0 -25.667 -2.66699 -41 -8c-66.667 -12 -117.667 -32.333 -153 -61s-76.666 -79.667 -123.999 -153l-18 9
c51.333 124.667 111.333 219 180 283c79.333 76 178 114 296 114c74.667 0 146.667 -12.333 216 -37c30 -10 59.667 -21.333 89 -34c38.667 -18.667 69.667 -33 93 -43c73.333 -30.667 143.666 -54 210.999 -70l182 -39z" />
    <glyph glyph-name="uniFEA4" unicode="&#x62d;" horiz-adv-x="1478" arabic-form="medial" 
d="M1469 473l-78.002 -188l-73 5h-154c18.667 -63.333 86.667 -95 204 -95h118v-195h-144c-70.667 0 -133.334 18 -188.001 54c-28 24.667 -52.667 60 -74 106l-8 56l-5 63c-24.667 -2 -49.167 -5.5 -73.5 -10.5s-47.166 -11.5 -68.499 -19.5
c-29.333 -4.66699 -58.333 -14.334 -87 -29.001l-218 -112l-52 -22c-14.667 -5.33301 -33.334 -13.666 -56.001 -24.999l-110 -35l-52 -9l-60 -11l-124 -6h-179v195h179c70.667 0 133.334 4.16699 188.001 12.5s122.334 26.833 203.001 55.5c136 42 211 79 225 111l-177 73
l-67 20c-28.667 6.66699 -85 15 -169 25l-38 -2l-37 -8c-62 -14.667 -112.833 -36.667 -152.5 -66s-81.167 -78.666 -124.5 -147.999l-18 9c49.333 123.333 110 217.666 182 282.999c79.333 76 177.333 114 294 114c80.667 0 161.334 -14.333 242.001 -43l257 -91l106 -32
l193 -26l95 -7z" />
    </font>
</defs>
</svg>
