<?xml version="1.0" standalone="no"?>
<!DOCTYPE svg PUBLIC "-//W3C//DTD SVG 1.1//EN" "http://www.w3.org/Graphics/SVG/1.1/DTD/svg11.dtd" >
<svg>
<metadata>
Created by FontForge 20090914 at Wed Oct 19 00:53:46 2011
 By www-data
(c) by Abolfazl Seilsepour - +98 912 591 3420  -  seilsepor@yahoo.com
</metadata>
<defs>
<font id="FarBank" horiz-adv-x="1635" >
  <font-face 
    font-family="Far.Bank"
    font-weight="400"
    font-stretch="normal"
    units-per-em="2048"
    panose-1="0 0 4 0 0 0 0 0 0 0"
    ascent="1638"
    descent="-410"
    bbox="-183 -610 1632 1228"
    underline-thickness="60"
    underline-position="-970"
    unicode-range="U+0020-U+FEFC"
  />
<missing-glyph horiz-adv-x="1024" 
d="M128 0v1215h768v-1215h-768zM256 128h512v959h-512v-959z" />
    <glyph glyph-name="uE818" unicode="&#x651;&#x64b;" horiz-adv-x="0" 
 />
    <glyph glyph-name="uFC5E" unicode="&#x651;&#x64c;" horiz-adv-x="0" arabic-form="isolated" 
 />
    <glyph glyph-name="uFC5F" unicode="&#x651;&#x64d;" horiz-adv-x="0" arabic-form="isolated" 
 />
    <glyph glyph-name="uFC60" unicode="&#x651;&#x64e;" horiz-adv-x="0" arabic-form="isolated" 
 />
    <glyph glyph-name="uFC61" unicode="&#x651;&#x64f;" horiz-adv-x="0" arabic-form="isolated" 
 />
    <glyph glyph-name="uFC62" unicode="&#x651;&#x650;" horiz-adv-x="0" arabic-form="isolated" 
 />
    <glyph glyph-name="uFDF2" unicode="&#xfedf;&#xfee0;&#xfeea;" horiz-adv-x="1626" arabic-form="isolated" 
d="M824 1016h184l8 -8v-184l-8 -8h-184l-8 8v184zM1436 1016h184l8 -8v-184l-8 -8h-184l-8 8v184zM824 812h184l8 -8v-184l-8 -8h-184l-8 8v184zM1436 812h184l8 -8v-184l-8 -8h-184l-8 8v184zM212 608h184l8 -8v-184l-8 -8h-184l-8 8v184zM416 608h184l8 -8v-184l-8 -8
h-184l-8 8v184zM824 608h184l8 -8v-184l-8 -8h-184l-8 8v184zM1436 608h184l8 -8v-184l-8 -8h-184l-8 8v184zM8 404h184l8 -8v-184l-8 -8h-184l-8 8v184zM416 404h184l8 -8v-184l-8 -8h-184l-8 8v184zM824 404h184l8 -8v-184l-8 -8h-184l-8 8v184zM1436 404h184l8 -8v-184
l-8 -8h-184l-8 8v184zM8 200h184l8 -8v-184l-8 -8h-184l-8 8v184zM212 200h184l8 -8v-184l-8 -8h-184l-8 8v184zM416 200h184l8 -8v-184l-8 -8h-184l-8 8v184zM620 200h184l8 -8v-184l-8 -8h-184l-8 8v184zM824 200h184l8 -8v-184l-8 -8h-184l-8 8v184zM1028 200h184l8 -8
v-184l-8 -8h-184l-8 8v184zM1232 200h184l8 -8v-184l-8 -8h-184l-8 8v184zM1436 200h184l8 -8v-184l-8 -8h-184l-8 8v184z" />
    <glyph glyph-name="uFEF5" unicode="&#xfedf;&#xfe82;" arabic-form="isolated" 
d="M418 1016h184l8 -8v-184l-8 -8h-184l-8 8v184zM1438 1016h184l8 -8v-184l-8 -8h-184l-8 8v184zM622 812h184l8 -8v-184l-8 -8h-184l-8 8v184zM1438 812h184l8 -8v-184l-8 -8h-184l-8 8v184zM826 608h184l8 -8v-184l-8 -8h-184l-8 8v184zM1438 608h184l8 -8v-184l-8 -8
h-184l-8 8v184zM826 404h184l8 -8v-184l-8 -8h-184l-8 8v184zM1438 404h184l8 -8v-184l-8 -8h-184l-8 8v184zM418 200h184l8 -8v-184l-8 -8h-184l-8 8v184zM622 200h184l8 -8v-184l-8 -8h-184l-8 8v184zM826 200h184l8 -8v-184l-8 -8h-184l-8 8v184zM1030 200h184l8 -8v-184
l-8 -8h-184l-8 8v184zM1234 200h184l8 -8v-184l-8 -8h-184l-8 8v184zM1438 200h184l8 -8v-184l-8 -8h-184l-8 8v184z" />
    <glyph glyph-name="uFEF6" unicode="&#xfee0;&#xfe82;" arabic-form="final" 
d="M418 1016h184l8 -8v-184l-8 -8h-184l-8 8v184zM1438 1016h184l8 -8v-184l-8 -8h-184l-8 8v184zM622 812h184l8 -8v-184l-8 -8h-184l-8 8v184zM1438 812h184l8 -8v-184l-8 -8h-184l-8 8v184zM826 608h184l8 -8v-184l-8 -8h-184l-8 8v184zM1438 608h184l8 -8v-184l-8 -8
h-184l-8 8v184zM826 404h184l8 -8v-184l-8 -8h-184l-8 8v184zM1438 404h184l8 -8v-184l-8 -8h-184l-8 8v184zM418 200h184l8 -8v-184l-8 -8h-184l-8 8v184zM622 200h184l8 -8v-184l-8 -8h-184l-8 8v184zM826 200h184l8 -8v-184l-8 -8h-184l-8 8v184zM1030 200h184l8 -8v-184
l-8 -8h-184l-8 8v184zM1234 200h184l8 -8v-184l-8 -8h-184l-8 8v184zM1438 200h184l8 -8v-184l-8 -8h-184l-8 8v184z" />
    <glyph glyph-name="uFEF7" unicode="&#xfedf;&#xfe84;" arabic-form="isolated" 
d="M418 1016h184l8 -8v-184l-8 -8h-184l-8 8v184zM1438 1016h184l8 -8v-184l-8 -8h-184l-8 8v184zM622 812h184l8 -8v-184l-8 -8h-184l-8 8v184zM1438 812h184l8 -8v-184l-8 -8h-184l-8 8v184zM826 608h184l8 -8v-184l-8 -8h-184l-8 8v184zM1438 608h184l8 -8v-184l-8 -8
h-184l-8 8v184zM826 404h184l8 -8v-184l-8 -8h-184l-8 8v184zM1438 404h184l8 -8v-184l-8 -8h-184l-8 8v184zM418 200h184l8 -8v-184l-8 -8h-184l-8 8v184zM622 200h184l8 -8v-184l-8 -8h-184l-8 8v184zM826 200h184l8 -8v-184l-8 -8h-184l-8 8v184zM1030 200h184l8 -8v-184
l-8 -8h-184l-8 8v184zM1234 200h184l8 -8v-184l-8 -8h-184l-8 8v184zM1438 200h184l8 -8v-184l-8 -8h-184l-8 8v184z" />
    <glyph glyph-name="uFEF8" unicode="&#xfee0;&#xfe84;" arabic-form="final" 
d="M418 1016h184l8 -8v-184l-8 -8h-184l-8 8v184zM1438 1016h184l8 -8v-184l-8 -8h-184l-8 8v184zM622 812h184l8 -8v-184l-8 -8h-184l-8 8v184zM1438 812h184l8 -8v-184l-8 -8h-184l-8 8v184zM826 608h184l8 -8v-184l-8 -8h-184l-8 8v184zM1438 608h184l8 -8v-184l-8 -8
h-184l-8 8v184zM826 404h184l8 -8v-184l-8 -8h-184l-8 8v184zM1438 404h184l8 -8v-184l-8 -8h-184l-8 8v184zM418 200h184l8 -8v-184l-8 -8h-184l-8 8v184zM622 200h184l8 -8v-184l-8 -8h-184l-8 8v184zM826 200h184l8 -8v-184l-8 -8h-184l-8 8v184zM1030 200h184l8 -8v-184
l-8 -8h-184l-8 8v184zM1234 200h184l8 -8v-184l-8 -8h-184l-8 8v184zM1438 200h184l8 -8v-184l-8 -8h-184l-8 8v184z" />
    <glyph glyph-name="uFEF9" unicode="&#xfedf;&#xfe88;" arabic-form="isolated" 
d="M418 1016h184l8 -8v-184l-8 -8h-184l-8 8v184zM1438 1016h184l8 -8v-184l-8 -8h-184l-8 8v184zM622 812h184l8 -8v-184l-8 -8h-184l-8 8v184zM1438 812h184l8 -8v-184l-8 -8h-184l-8 8v184zM826 608h184l8 -8v-184l-8 -8h-184l-8 8v184zM1438 608h184l8 -8v-184l-8 -8
h-184l-8 8v184zM826 404h184l8 -8v-184l-8 -8h-184l-8 8v184zM1438 404h184l8 -8v-184l-8 -8h-184l-8 8v184zM418 200h184l8 -8v-184l-8 -8h-184l-8 8v184zM622 200h184l8 -8v-184l-8 -8h-184l-8 8v184zM826 200h184l8 -8v-184l-8 -8h-184l-8 8v184zM1030 200h184l8 -8v-184
l-8 -8h-184l-8 8v184zM1234 200h184l8 -8v-184l-8 -8h-184l-8 8v184zM1438 200h184l8 -8v-184l-8 -8h-184l-8 8v184z" />
    <glyph glyph-name="uFEFA" unicode="&#xfee0;&#xfe88;" arabic-form="final" 
d="M418 1016h184l8 -8v-184l-8 -8h-184l-8 8v184zM1438 1016h184l8 -8v-184l-8 -8h-184l-8 8v184zM622 812h184l8 -8v-184l-8 -8h-184l-8 8v184zM1438 812h184l8 -8v-184l-8 -8h-184l-8 8v184zM826 608h184l8 -8v-184l-8 -8h-184l-8 8v184zM1438 608h184l8 -8v-184l-8 -8
h-184l-8 8v184zM826 404h184l8 -8v-184l-8 -8h-184l-8 8v184zM1438 404h184l8 -8v-184l-8 -8h-184l-8 8v184zM418 200h184l8 -8v-184l-8 -8h-184l-8 8v184zM622 200h184l8 -8v-184l-8 -8h-184l-8 8v184zM826 200h184l8 -8v-184l-8 -8h-184l-8 8v184zM1030 200h184l8 -8v-184
l-8 -8h-184l-8 8v184zM1234 200h184l8 -8v-184l-8 -8h-184l-8 8v184zM1438 200h184l8 -8v-184l-8 -8h-184l-8 8v184z" />
    <glyph glyph-name="uFEFB" unicode="&#xfedf;&#xfe8e;" arabic-form="isolated" 
d="M418 1016h184l8 -8v-184l-8 -8h-184l-8 8v184zM1438 1016h184l8 -8v-184l-8 -8h-184l-8 8v184zM622 812h184l8 -8v-184l-8 -8h-184l-8 8v184zM1438 812h184l8 -8v-184l-8 -8h-184l-8 8v184zM826 608h184l8 -8v-184l-8 -8h-184l-8 8v184zM1438 608h184l8 -8v-184l-8 -8
h-184l-8 8v184zM826 404h184l8 -8v-184l-8 -8h-184l-8 8v184zM1438 404h184l8 -8v-184l-8 -8h-184l-8 8v184zM418 200h184l8 -8v-184l-8 -8h-184l-8 8v184zM622 200h184l8 -8v-184l-8 -8h-184l-8 8v184zM826 200h184l8 -8v-184l-8 -8h-184l-8 8v184zM1030 200h184l8 -8v-184
l-8 -8h-184l-8 8v184zM1234 200h184l8 -8v-184l-8 -8h-184l-8 8v184zM1438 200h184l8 -8v-184l-8 -8h-184l-8 8v184z" />
    <glyph glyph-name="uFEFC" unicode="&#xfee0;&#xfe8e;" arabic-form="final" 
d="M418 1016h184l8 -8v-184l-8 -8h-184l-8 8v184zM1438 1016h184l8 -8v-184l-8 -8h-184l-8 8v184zM622 812h184l8 -8v-184l-8 -8h-184l-8 8v184zM1438 812h184l8 -8v-184l-8 -8h-184l-8 8v184zM826 608h184l8 -8v-184l-8 -8h-184l-8 8v184zM1438 608h184l8 -8v-184l-8 -8
h-184l-8 8v184zM826 404h184l8 -8v-184l-8 -8h-184l-8 8v184zM1438 404h184l8 -8v-184l-8 -8h-184l-8 8v184zM418 200h184l8 -8v-184l-8 -8h-184l-8 8v184zM622 200h184l8 -8v-184l-8 -8h-184l-8 8v184zM826 200h184l8 -8v-184l-8 -8h-184l-8 8v184zM1030 200h184l8 -8v-184
l-8 -8h-184l-8 8v184zM1234 200h184l8 -8v-184l-8 -8h-184l-8 8v184zM1438 200h184l8 -8v-184l-8 -8h-184l-8 8v184z" />
    <glyph glyph-name="u0652_u064E.liga" unicode="&#x652;&#x64e;" horiz-adv-x="1630" 
 />
    <glyph glyph-name="u0652_u064B.liga" unicode="&#x652;&#x64b;" horiz-adv-x="1" 
 />
    <glyph glyph-name="u0652_u064D.liga" unicode="&#x652;&#x64d;" horiz-adv-x="1" 
 />
    <glyph glyph-name="u0622" unicode="&#x622;" horiz-adv-x="1622" arabic-form="isolated" 
d="M508 1016h184l8 -8v-184l-8 -8h-184l-8 8v184zM508 812h184l8 -8v-184l-8 -8h-184l-8 8v184zM508 608h184l8 -8v-184l-8 -8h-184l-8 8v184zM508 404h184l8 -8v-184l-8 -8h-184l-8 8v184zM508 200h184l8 -8v-184l-8 -8h-184l-8 8v184z" />
    <glyph glyph-name="u0623" unicode="&#x623;" horiz-adv-x="1622" arabic-form="isolated" 
d="M508 1016h184l8 -8v-184l-8 -8h-184l-8 8v184zM508 812h184l8 -8v-184l-8 -8h-184l-8 8v184zM508 608h184l8 -8v-184l-8 -8h-184l-8 8v184zM508 404h184l8 -8v-184l-8 -8h-184l-8 8v184zM508 200h184l8 -8v-184l-8 -8h-184l-8 8v184z" />
    <glyph glyph-name="u0624" unicode="&#x624;" horiz-adv-x="1630" arabic-form="isolated" 
d="M1230 610h184l8 -8v-184l-8 -8h-184l-8 8v184zM1026 406h184l8 -8v-184l-8 -8h-184l-8 8v184zM1434 406h184l8 -8v-184l-8 -8h-184l-8 8v184zM1230 202h184l8 -8v-184l-8 -8h-184l-8 8v184zM1434 202h184l8 -8v-184l-8 -8h-184l-8 8v184zM1230 -2h184l8 -8v-184l-8 -8
h-184l-8 8v184zM618 -206h184l8 -8v-184l-8 -8h-184l-8 8v184zM1026 -206h184l8 -8v-184l-8 -8h-184l-8 8v184zM822 -410h184l8 -8v-184l-8 -8h-184l-8 8v184z" />
    <glyph glyph-name="u0625" unicode="&#x625;" horiz-adv-x="1622" arabic-form="isolated" 
d="M508 1016h184l8 -8v-184l-8 -8h-184l-8 8v184zM508 812h184l8 -8v-184l-8 -8h-184l-8 8v184zM508 608h184l8 -8v-184l-8 -8h-184l-8 8v184zM508 404h184l8 -8v-184l-8 -8h-184l-8 8v184zM508 200h184l8 -8v-184l-8 -8h-184l-8 8v184z" />
    <glyph glyph-name="u0626" unicode="&#x626;" horiz-adv-x="1626" arabic-form="isolated" 
d="M8 202h184l8 -8v-184l-8 -8h-184l-8 8v184zM1028 202h184l8 -8v-184l-8 -8h-184l-8 8v184zM1232 202h184l8 -8v-184l-8 -8h-184l-8 8v184zM1436 202h184l8 -8v-184l-8 -8h-184l-8 8v184zM8 -2h184l8 -8v-184l-8 -8h-184l-8 8v184zM824 -2h184l8 -8v-184l-8 -8h-184l-8 8
v184zM8 -206h184l8 -8v-184l-8 -8h-184l-8 8v184zM1028 -206h184l8 -8v-184l-8 -8h-184l-8 8v184zM212 -410h184l8 -8v-184l-8 -8h-184l-8 8v184zM416 -410h184l8 -8v-184l-8 -8h-184l-8 8v184zM620 -410h184l8 -8v-184l-8 -8h-184l-8 8v184zM824 -410h184l8 -8v-184l-8 -8
h-184l-8 8v184zM1028 -410h184l8 -8v-184l-8 -8h-184l-8 8v184z" />
    <glyph glyph-name="u0627" unicode="&#x627;" horiz-adv-x="1622" arabic-form="isolated" 
d="M508 1016h184l8 -8v-184l-8 -8h-184l-8 8v184zM508 812h184l8 -8v-184l-8 -8h-184l-8 8v184zM508 608h184l8 -8v-184l-8 -8h-184l-8 8v184zM508 404h184l8 -8v-184l-8 -8h-184l-8 8v184zM508 200h184l8 -8v-184l-8 -8h-184l-8 8v184z" />
    <glyph glyph-name="u0628" unicode="&#x628;" arabic-form="isolated" 
d="M8 607h184l8 -8v-184l-8 -8h-184l-8 8v184zM1436 607h184l8 -8v-184l-8 -8h-184l-8 8v184zM8 403h184l8 -8v-184l-8 -8h-184l-8 8v184zM1436 403h184l8 -8v-184l-8 -8h-184l-8 8v184zM212 199h184l8 -8v-184l-8 -8h-184l-8 8v184zM416 199h184l8 -8v-184l-8 -8h-184l-8 8
v184zM620 199h184l8 -8v-184l-8 -8h-184l-8 8v184zM824 199h184l8 -8v-184l-8 -8h-184l-8 8v184zM1028 199h184l8 -8v-184l-8 -8h-184l-8 8v184zM1232 199h184l8 -8v-184l-8 -8h-184l-8 8v184zM1436 199h184l8 -8v-184l-8 -8h-184l-8 8v184zM824 -209h184l8 -8v-184l-8 -8
h-184l-8 8v184z" />
    <glyph glyph-name="u0629" unicode="&#x629;" arabic-form="isolated" 
d="M1236 812h184l8 -8v-184l-8 -8h-184l-8 8v184zM1032 608h184l8 -8v-184l-8 -8h-184l-8 8v184zM1440 608h184l8 -8v-184l-8 -8h-184l-8 8v184zM828 404h184l8 -8v-184l-8 -8h-184l-8 8v184zM1440 404h184l8 -8v-184l-8 -8h-184l-8 8v184zM828 200h184l8 -8v-184l-8 -8
h-184l-8 8v184zM1032 200h184l8 -8v-184l-8 -8h-184l-8 8v184zM1236 200h184l8 -8v-184l-8 -8h-184l-8 8v184zM1440 200h184l8 -8v-184l-8 -8h-184l-8 8v184z" />
    <glyph glyph-name="u062A" unicode="&#x62a;" arabic-form="isolated" 
d="M620 812h184l8 -8v-184l-8 -8h-184l-8 8v184zM1028 812h184l8 -8v-184l-8 -8h-184l-8 8v184zM8 608h184l8 -8v-184l-8 -8h-184l-8 8v184zM1436 608h184l8 -8v-184l-8 -8h-184l-8 8v184zM8 404h184l8 -8v-184l-8 -8h-184l-8 8v184zM1436 404h184l8 -8v-184l-8 -8h-184
l-8 8v184zM212 200h184l8 -8v-184l-8 -8h-184l-8 8v184zM416 200h184l8 -8v-184l-8 -8h-184l-8 8v184zM620 200h184l8 -8v-184l-8 -8h-184l-8 8v184zM824 200h184l8 -8v-184l-8 -8h-184l-8 8v184zM1028 200h184l8 -8v-184l-8 -8h-184l-8 8v184zM1232 200h184l8 -8v-184
l-8 -8h-184l-8 8v184zM1436 200h184l8 -8v-184l-8 -8h-184l-8 8v184z" />
    <glyph glyph-name="u062B" unicode="&#x62b;" arabic-form="isolated" 
d="M824 1016h184l8 -8v-184l-8 -8h-184l-8 8v184zM620 812h184l8 -8v-184l-8 -8h-184l-8 8v184zM1028 812h184l8 -8v-184l-8 -8h-184l-8 8v184zM8 608h184l8 -8v-184l-8 -8h-184l-8 8v184zM1436 608h184l8 -8v-184l-8 -8h-184l-8 8v184zM8 404h184l8 -8v-184l-8 -8h-184
l-8 8v184zM1436 404h184l8 -8v-184l-8 -8h-184l-8 8v184zM212 200h184l8 -8v-184l-8 -8h-184l-8 8v184zM416 200h184l8 -8v-184l-8 -8h-184l-8 8v184zM620 200h184l8 -8v-184l-8 -8h-184l-8 8v184zM824 200h184l8 -8v-184l-8 -8h-184l-8 8v184zM1028 200h184l8 -8v-184
l-8 -8h-184l-8 8v184zM1232 200h184l8 -8v-184l-8 -8h-184l-8 8v184zM1436 200h184l8 -8v-184l-8 -8h-184l-8 8v184z" />
    <glyph glyph-name="u062C" unicode="&#x62c;" horiz-adv-x="1630" arabic-form="isolated" 
d="M824 814h184l8 -8v-184l-8 -8h-184l-8 8v184zM620 610h184l8 -8v-184l-8 -8h-184l-8 8v184zM1028 610h184l8 -8v-184l-8 -8h-184l-8 8v184zM1232 406h184l8 -8v-184l-8 -8h-184l-8 8v184zM212 202h184l8 -8v-184l-8 -8h-184l-8 8v184zM416 202h184l8 -8v-184l-8 -8h-184
l-8 8v184zM620 202h184l8 -8v-184l-8 -8h-184l-8 8v184zM824 202h184l8 -8v-184l-8 -8h-184l-8 8v184zM1028 202h184l8 -8v-184l-8 -8h-184l-8 8v184zM1232 202h184l8 -8v-184l-8 -8h-184l-8 8v184zM1436 202h184l8 -8v-184l-8 -8h-184l-8 8v184zM8 -2h184l8 -8v-184l-8 -8
h-184l-8 8v184zM8 -206h184l8 -8v-184l-8 -8h-184l-8 8v184zM1028 -206h184l8 -8v-184l-8 -8h-184l-8 8v184zM212 -410h184l8 -8v-184l-8 -8h-184l-8 8v184zM416 -410h184l8 -8v-184l-8 -8h-184l-8 8v184zM620 -410h184l8 -8v-184l-8 -8h-184l-8 8v184z" />
    <glyph glyph-name="u062D" unicode="&#x62d;" horiz-adv-x="1630" arabic-form="isolated" 
d="M824 814h184l8 -8v-184l-8 -8h-184l-8 8v184zM620 610h184l8 -8v-184l-8 -8h-184l-8 8v184zM1028 610h184l8 -8v-184l-8 -8h-184l-8 8v184zM1232 406h184l8 -8v-184l-8 -8h-184l-8 8v184zM212 202h184l8 -8v-184l-8 -8h-184l-8 8v184zM416 202h184l8 -8v-184l-8 -8h-184
l-8 8v184zM620 202h184l8 -8v-184l-8 -8h-184l-8 8v184zM824 202h184l8 -8v-184l-8 -8h-184l-8 8v184zM1028 202h184l8 -8v-184l-8 -8h-184l-8 8v184zM1232 202h184l8 -8v-184l-8 -8h-184l-8 8v184zM1436 202h184l8 -8v-184l-8 -8h-184l-8 8v184zM8 -2h184l8 -8v-184l-8 -8
h-184l-8 8v184zM8 -206h184l8 -8v-184l-8 -8h-184l-8 8v184zM212 -410h184l8 -8v-184l-8 -8h-184l-8 8v184zM416 -410h184l8 -8v-184l-8 -8h-184l-8 8v184zM620 -410h184l8 -8v-184l-8 -8h-184l-8 8v184z" />
    <glyph glyph-name="u062E" unicode="&#x62e;" horiz-adv-x="1630" arabic-form="isolated" 
d="M416 1018h184l8 -8v-184l-8 -8h-184l-8 8v184zM824 814h184l8 -8v-184l-8 -8h-184l-8 8v184zM620 610h184l8 -8v-184l-8 -8h-184l-8 8v184zM1028 610h184l8 -8v-184l-8 -8h-184l-8 8v184zM1232 406h184l8 -8v-184l-8 -8h-184l-8 8v184zM212 202h184l8 -8v-184l-8 -8h-184
l-8 8v184zM416 202h184l8 -8v-184l-8 -8h-184l-8 8v184zM620 202h184l8 -8v-184l-8 -8h-184l-8 8v184zM824 202h184l8 -8v-184l-8 -8h-184l-8 8v184zM1028 202h184l8 -8v-184l-8 -8h-184l-8 8v184zM1232 202h184l8 -8v-184l-8 -8h-184l-8 8v184zM1436 202h184l8 -8v-184
l-8 -8h-184l-8 8v184zM8 -2h184l8 -8v-184l-8 -8h-184l-8 8v184zM8 -206h184l8 -8v-184l-8 -8h-184l-8 8v184zM212 -410h184l8 -8v-184l-8 -8h-184l-8 8v184zM416 -410h184l8 -8v-184l-8 -8h-184l-8 8v184zM620 -410h184l8 -8v-184l-8 -8h-184l-8 8v184z" />
    <glyph glyph-name="u062F" unicode="&#x62f;" horiz-adv-x="1626" arabic-form="isolated" 
d="M1026 812h184l8 -8v-184l-8 -8h-184l-8 8v184zM1230 608h184l8 -8v-184l-8 -8h-184l-8 8v184zM1434 404h184l8 -8v-184l-8 -8h-184l-8 8v184zM618 200h184l8 -8v-184l-8 -8h-184l-8 8v184zM822 200h184l8 -8v-184l-8 -8h-184l-8 8v184zM1026 200h184l8 -8v-184l-8 -8
h-184l-8 8v184zM1230 200h184l8 -8v-184l-8 -8h-184l-8 8v184zM1434 200h184l8 -8v-184l-8 -8h-184l-8 8v184z" />
    <glyph glyph-name="u0630" unicode="&#x630;" horiz-adv-x="1626" arabic-form="isolated" 
d="M618 1016h184l8 -8v-184l-8 -8h-184l-8 8v184zM1026 812h184l8 -8v-184l-8 -8h-184l-8 8v184zM1230 608h184l8 -8v-184l-8 -8h-184l-8 8v184zM1434 404h184l8 -8v-184l-8 -8h-184l-8 8v184zM618 200h184l8 -8v-184l-8 -8h-184l-8 8v184zM822 200h184l8 -8v-184l-8 -8
h-184l-8 8v184zM1026 200h184l8 -8v-184l-8 -8h-184l-8 8v184zM1230 200h184l8 -8v-184l-8 -8h-184l-8 8v184zM1434 200h184l8 -8v-184l-8 -8h-184l-8 8v184z" />
    <glyph glyph-name="u0631" unicode="&#x631;" horiz-adv-x="1622" arabic-form="isolated" 
d="M1430 406h184l8 -8v-184l-8 -8h-184l-8 8v184zM1430 202h184l8 -8v-184l-8 -8h-184l-8 8v184zM1430 -2h184l8 -8v-184l-8 -8h-184l-8 8v184zM1226 -206h184l8 -8v-184l-8 -8h-184l-8 8v184zM818 -410h184l8 -8v-184l-8 -8h-184l-8 8v184zM1022 -410h184l8 -8v-184l-8 -8
h-184l-8 8v184z" />
    <glyph glyph-name="u0632" unicode="&#x632;" horiz-adv-x="1622" arabic-form="isolated" 
d="M1430 814h184l8 -8v-184l-8 -8h-184l-8 8v184zM1430 406h184l8 -8v-184l-8 -8h-184l-8 8v184zM1430 202h184l8 -8v-184l-8 -8h-184l-8 8v184zM1430 -2h184l8 -8v-184l-8 -8h-184l-8 8v184zM1226 -206h184l8 -8v-184l-8 -8h-184l-8 8v184zM818 -410h184l8 -8v-184l-8 -8
h-184l-8 8v184zM1022 -410h184l8 -8v-184l-8 -8h-184l-8 8v184z" />
    <glyph glyph-name="u0633" unicode="&#x633;" horiz-adv-x="1626" arabic-form="isolated" 
d="M620 406h184l8 -8v-184l-8 -8h-184l-8 8v184zM1028 406h184l8 -8v-184l-8 -8h-184l-8 8v184zM1436 406h184l8 -8v-184l-8 -8h-184l-8 8v184zM8 202h184l8 -8v-184l-8 -8h-184l-8 8v184zM620 202h184l8 -8v-184l-8 -8h-184l-8 8v184zM824 202h184l8 -8v-184l-8 -8h-184
l-8 8v184zM1028 202h184l8 -8v-184l-8 -8h-184l-8 8v184zM1232 202h184l8 -8v-184l-8 -8h-184l-8 8v184zM1436 202h184l8 -8v-184l-8 -8h-184l-8 8v184zM8 -2h184l8 -8v-184l-8 -8h-184l-8 8v184zM620 -2h184l8 -8v-184l-8 -8h-184l-8 8v184zM8 -206h184l8 -8v-184l-8 -8
h-184l-8 8v184zM620 -206h184l8 -8v-184l-8 -8h-184l-8 8v184zM8 -410h184l8 -8v-184l-8 -8h-184l-8 8v184zM212 -410h184l8 -8v-184l-8 -8h-184l-8 8v184zM416 -410h184l8 -8v-184l-8 -8h-184l-8 8v184zM620 -410h184l8 -8v-184l-8 -8h-184l-8 8v184z" />
    <glyph glyph-name="u0634" unicode="&#x634;" horiz-adv-x="1626" arabic-form="isolated" 
d="M1028 1018h184l8 -8v-184l-8 -8h-184l-8 8v184zM824 814h184l8 -8v-184l-8 -8h-184l-8 8v184zM1232 814h184l8 -8v-184l-8 -8h-184l-8 8v184zM620 406h184l8 -8v-184l-8 -8h-184l-8 8v184zM1028 406h184l8 -8v-184l-8 -8h-184l-8 8v184zM1436 406h184l8 -8v-184l-8 -8
h-184l-8 8v184zM8 202h184l8 -8v-184l-8 -8h-184l-8 8v184zM620 202h184l8 -8v-184l-8 -8h-184l-8 8v184zM824 202h184l8 -8v-184l-8 -8h-184l-8 8v184zM1028 202h184l8 -8v-184l-8 -8h-184l-8 8v184zM1232 202h184l8 -8v-184l-8 -8h-184l-8 8v184zM1436 202h184l8 -8v-184
l-8 -8h-184l-8 8v184zM8 -2h184l8 -8v-184l-8 -8h-184l-8 8v184zM620 -2h184l8 -8v-184l-8 -8h-184l-8 8v184zM8 -206h184l8 -8v-184l-8 -8h-184l-8 8v184zM620 -206h184l8 -8v-184l-8 -8h-184l-8 8v184zM8 -410h184l8 -8v-184l-8 -8h-184l-8 8v184zM212 -410h184l8 -8v-184
l-8 -8h-184l-8 8v184zM416 -410h184l8 -8v-184l-8 -8h-184l-8 8v184zM620 -410h184l8 -8v-184l-8 -8h-184l-8 8v184z" />
    <glyph glyph-name="u0635" unicode="&#x635;" arabic-form="isolated" 
d="M1028 610h184l8 -8v-184l-8 -8h-184l-8 8v184zM1232 610h184l8 -8v-184l-8 -8h-184l-8 8v184zM1436 610h184l8 -8v-184l-8 -8h-184l-8 8v184zM824 406h184l8 -8v-184l-8 -8h-184l-8 8v184zM1436 406h184l8 -8v-184l-8 -8h-184l-8 8v184zM8 202h184l8 -8v-184l-8 -8h-184
l-8 8v184zM620 202h184l8 -8v-184l-8 -8h-184l-8 8v184zM824 202h184l8 -8v-184l-8 -8h-184l-8 8v184zM1028 202h184l8 -8v-184l-8 -8h-184l-8 8v184zM1232 202h184l8 -8v-184l-8 -8h-184l-8 8v184zM1436 202h184l8 -8v-184l-8 -8h-184l-8 8v184zM8 -2h184l8 -8v-184l-8 -8
h-184l-8 8v184zM620 -2h184l8 -8v-184l-8 -8h-184l-8 8v184zM8 -206h184l8 -8v-184l-8 -8h-184l-8 8v184zM620 -206h184l8 -8v-184l-8 -8h-184l-8 8v184zM8 -410h184l8 -8v-184l-8 -8h-184l-8 8v184zM212 -410h184l8 -8v-184l-8 -8h-184l-8 8v184zM416 -410h184l8 -8v-184
l-8 -8h-184l-8 8v184zM620 -410h184l8 -8v-184l-8 -8h-184l-8 8v184z" />
    <glyph glyph-name="u0636" unicode="&#x636;" arabic-form="isolated" 
d="M1232 1018h184l8 -8v-184l-8 -8h-184l-8 8v184zM1028 610h184l8 -8v-184l-8 -8h-184l-8 8v184zM1232 610h184l8 -8v-184l-8 -8h-184l-8 8v184zM1436 610h184l8 -8v-184l-8 -8h-184l-8 8v184zM824 406h184l8 -8v-184l-8 -8h-184l-8 8v184zM1436 406h184l8 -8v-184l-8 -8
h-184l-8 8v184zM8 202h184l8 -8v-184l-8 -8h-184l-8 8v184zM620 202h184l8 -8v-184l-8 -8h-184l-8 8v184zM824 202h184l8 -8v-184l-8 -8h-184l-8 8v184zM1028 202h184l8 -8v-184l-8 -8h-184l-8 8v184zM1232 202h184l8 -8v-184l-8 -8h-184l-8 8v184zM1436 202h184l8 -8v-184
l-8 -8h-184l-8 8v184zM8 -2h184l8 -8v-184l-8 -8h-184l-8 8v184zM620 -2h184l8 -8v-184l-8 -8h-184l-8 8v184zM8 -206h184l8 -8v-184l-8 -8h-184l-8 8v184zM620 -206h184l8 -8v-184l-8 -8h-184l-8 8v184zM8 -410h184l8 -8v-184l-8 -8h-184l-8 8v184zM212 -410h184l8 -8v-184
l-8 -8h-184l-8 8v184zM416 -410h184l8 -8v-184l-8 -8h-184l-8 8v184zM620 -410h184l8 -8v-184l-8 -8h-184l-8 8v184z" />
    <glyph glyph-name="u0637" unicode="&#x637;" arabic-form="isolated" 
d="M620 1016h184l8 -8v-184l-8 -8h-184l-8 8v184zM620 812h184l8 -8v-184l-8 -8h-184l-8 8v184zM620 608h184l8 -8v-184l-8 -8h-184l-8 8v184zM1028 608h184l8 -8v-184l-8 -8h-184l-8 8v184zM1232 608h184l8 -8v-184l-8 -8h-184l-8 8v184zM1436 608h184l8 -8v-184l-8 -8
h-184l-8 8v184zM620 404h184l8 -8v-184l-8 -8h-184l-8 8v184zM824 404h184l8 -8v-184l-8 -8h-184l-8 8v184zM1436 404h184l8 -8v-184l-8 -8h-184l-8 8v184zM8 200h184l8 -8v-184l-8 -8h-184l-8 8v184zM212 200h184l8 -8v-184l-8 -8h-184l-8 8v184zM416 200h184l8 -8v-184
l-8 -8h-184l-8 8v184zM620 200h184l8 -8v-184l-8 -8h-184l-8 8v184zM824 200h184l8 -8v-184l-8 -8h-184l-8 8v184zM1028 200h184l8 -8v-184l-8 -8h-184l-8 8v184zM1232 200h184l8 -8v-184l-8 -8h-184l-8 8v184zM1436 200h184l8 -8v-184l-8 -8h-184l-8 8v184z" />
    <glyph glyph-name="u0638" unicode="&#x638;" arabic-form="isolated" 
d="M620 1016h184l8 -8v-184l-8 -8h-184l-8 8v184zM1232 1016h184l8 -8v-184l-8 -8h-184l-8 8v184zM620 812h184l8 -8v-184l-8 -8h-184l-8 8v184zM620 608h184l8 -8v-184l-8 -8h-184l-8 8v184zM1028 608h184l8 -8v-184l-8 -8h-184l-8 8v184zM1232 608h184l8 -8v-184l-8 -8
h-184l-8 8v184zM1436 608h184l8 -8v-184l-8 -8h-184l-8 8v184zM620 404h184l8 -8v-184l-8 -8h-184l-8 8v184zM824 404h184l8 -8v-184l-8 -8h-184l-8 8v184zM1436 404h184l8 -8v-184l-8 -8h-184l-8 8v184zM8 200h184l8 -8v-184l-8 -8h-184l-8 8v184zM212 200h184l8 -8v-184
l-8 -8h-184l-8 8v184zM416 200h184l8 -8v-184l-8 -8h-184l-8 8v184zM620 200h184l8 -8v-184l-8 -8h-184l-8 8v184zM824 200h184l8 -8v-184l-8 -8h-184l-8 8v184zM1028 200h184l8 -8v-184l-8 -8h-184l-8 8v184zM1232 200h184l8 -8v-184l-8 -8h-184l-8 8v184zM1436 200h184
l8 -8v-184l-8 -8h-184l-8 8v184z" />
    <glyph glyph-name="u0639" unicode="&#x639;" horiz-adv-x="1630" arabic-form="isolated" 
d="M824 610h184l8 -8v-184l-8 -8h-184l-8 8v184zM1028 610h184l8 -8v-184l-8 -8h-184l-8 8v184zM1232 610h184l8 -8v-184l-8 -8h-184l-8 8v184zM620 406h184l8 -8v-184l-8 -8h-184l-8 8v184zM416 202h184l8 -8v-184l-8 -8h-184l-8 8v184zM620 202h184l8 -8v-184l-8 -8h-184
l-8 8v184zM824 202h184l8 -8v-184l-8 -8h-184l-8 8v184zM1028 202h184l8 -8v-184l-8 -8h-184l-8 8v184zM1232 202h184l8 -8v-184l-8 -8h-184l-8 8v184zM212 -2h184l8 -8v-184l-8 -8h-184l-8 8v184zM8 -206h184l8 -8v-184l-8 -8h-184l-8 8v184zM212 -410h184l8 -8v-184l-8 -8
h-184l-8 8v184zM416 -410h184l8 -8v-184l-8 -8h-184l-8 8v184zM620 -410h184l8 -8v-184l-8 -8h-184l-8 8v184zM824 -410h184l8 -8v-184l-8 -8h-184l-8 8v184zM1028 -410h184l8 -8v-184l-8 -8h-184l-8 8v184zM1232 -410h184l8 -8v-184l-8 -8h-184l-8 8v184z" />
    <glyph glyph-name="u063A" unicode="&#x63a;" horiz-adv-x="1630" arabic-form="isolated" 
d="M1028 1018h184l8 -8v-184l-8 -8h-184l-8 8v184zM824 610h184l8 -8v-184l-8 -8h-184l-8 8v184zM1028 610h184l8 -8v-184l-8 -8h-184l-8 8v184zM1232 610h184l8 -8v-184l-8 -8h-184l-8 8v184zM620 406h184l8 -8v-184l-8 -8h-184l-8 8v184zM416 202h184l8 -8v-184l-8 -8
h-184l-8 8v184zM620 202h184l8 -8v-184l-8 -8h-184l-8 8v184zM824 202h184l8 -8v-184l-8 -8h-184l-8 8v184zM1028 202h184l8 -8v-184l-8 -8h-184l-8 8v184zM1232 202h184l8 -8v-184l-8 -8h-184l-8 8v184zM212 -2h184l8 -8v-184l-8 -8h-184l-8 8v184zM8 -206h184l8 -8v-184
l-8 -8h-184l-8 8v184zM212 -410h184l8 -8v-184l-8 -8h-184l-8 8v184zM416 -410h184l8 -8v-184l-8 -8h-184l-8 8v184zM620 -410h184l8 -8v-184l-8 -8h-184l-8 8v184zM824 -410h184l8 -8v-184l-8 -8h-184l-8 8v184zM1028 -410h184l8 -8v-184l-8 -8h-184l-8 8v184zM1232 -410
h184l8 -8v-184l-8 -8h-184l-8 8v184z" />
    <glyph glyph-name="u0641" unicode="&#x641;" arabic-form="isolated" 
d="M1232 1016h184l8 -8v-184l-8 -8h-184l-8 8v184zM1232 608h184l8 -8v-184l-8 -8h-184l-8 8v184zM8 404h184l8 -8v-184l-8 -8h-184l-8 8v184zM1028 404h184l8 -8v-184l-8 -8h-184l-8 8v184zM1436 404h184l8 -8v-184l-8 -8h-184l-8 8v184zM212 200h184l8 -8v-184l-8 -8h-184
l-8 8v184zM416 200h184l8 -8v-184l-8 -8h-184l-8 8v184zM620 200h184l8 -8v-184l-8 -8h-184l-8 8v184zM824 200h184l8 -8v-184l-8 -8h-184l-8 8v184zM1028 200h184l8 -8v-184l-8 -8h-184l-8 8v184zM1232 200h184l8 -8v-184l-8 -8h-184l-8 8v184zM1436 200h184l8 -8v-184
l-8 -8h-184l-8 8v184z" />
    <glyph glyph-name="u0642" unicode="&#x642;" horiz-adv-x="956" arabic-form="isolated" 
d="M806 662h16.002c42 -26 71.333 -58 88 -96c-12.667 -56 -35.334 -84 -68.001 -84c-24 0 -46.667 14.667 -68 44c-4.66699 0 -11.334 18.667 -20.001 56c0 31.333 17.333 58 52 80zM618.002 654c64 -20 96 -54.667 96 -104c0 -24 -21.333 -45.333 -64 -64h-16
c-25.333 0 -49.333 20 -72 60l-4 16c8 58.667 22.667 88 44 88zM774.002 398l7.99902 -0.000976562c12 0 33.333 -10.667 64 -32c20.667 -1.33301 46 -32 76 -92l40 -120l-4 -4l8 -44c0 -87.333 -8 -175.333 -24 -264c-35.333 -53.333 -64.666 -80 -87.999 -80
c-21.333 -37.333 -44 -56 -68 -56l-124 -60h-36l-108 -20c-121.333 24 -193.333 41.333 -216 52c-42.667 26 -64 43.333 -64 52c-29.333 23.333 -54.666 66 -75.999 128l-8 96l4 4v4l-4 16c0 47.333 14.667 99.333 44 156c0 27.333 13.333 46 40 56h24
c16 0 25.333 -25.333 28 -76c-10.667 -28 -16 -61.333 -16 -100v-68c16.667 -48 34 -72 52 -72c50 -33.333 104.667 -54.666 164 -63.999h16l160 16l12 -4c5.33301 13.333 25.333 24 60 32l92 56l40 48v4c0 45.333 -18.667 68 -56 68h-4c-19.333 -10.667 -38 -16 -56 -16
l-28 16h-36c-30.667 14 -49.334 32.667 -56.001 56c-13.333 17.333 -20 32 -20 44c0 64 13.333 121.333 40 172c0 24 26.667 53.333 80 88c22 0 35.333 2.66699 40 8zM730.001 181.999l48 -12.001l4 4h40l4 20v16c-23.333 24 -42 38.667 -56 44
c-26.667 -11.333 -40 -24.666 -40 -39.999l-4 -32h4z" />
    <glyph glyph-name="u0643" unicode="&#x643;" horiz-adv-x="1630" arabic-form="isolated" 
d="M1436 1016h184l8 -8v-184l-8 -8h-184l-8 8v184zM1232 812h184l8 -8v-184l-8 -8h-184l-8 8v184zM1028 608h184l8 -8v-184l-8 -8h-184l-8 8v184zM8 404h184l8 -8v-184l-8 -8h-184l-8 8v184zM1232 404h184l8 -8v-184l-8 -8h-184l-8 8v184zM8 200h184l8 -8v-184l-8 -8h-184
l-8 8v184zM212 200h184l8 -8v-184l-8 -8h-184l-8 8v184zM416 200h184l8 -8v-184l-8 -8h-184l-8 8v184zM620 200h184l8 -8v-184l-8 -8h-184l-8 8v184zM824 200h184l8 -8v-184l-8 -8h-184l-8 8v184zM1028 200h184l8 -8v-184l-8 -8h-184l-8 8v184zM1232 200h184l8 -8v-184
l-8 -8h-184l-8 8v184zM1436 200h184l8 -8v-184l-8 -8h-184l-8 8v184z" />
    <glyph glyph-name="u0644" unicode="&#x644;" arabic-form="isolated" 
d="M1438 1018h184l8 -8v-184l-8 -8h-184l-8 8v184zM1438 814h184l8 -8v-184l-8 -8h-184l-8 8v184zM1438 610h184l8 -8v-184l-8 -8h-184l-8 8v184zM1438 406h184l8 -8v-184l-8 -8h-184l-8 8v184zM418 202h184l8 -8v-184l-8 -8h-184l-8 8v184zM1438 202h184l8 -8v-184l-8 -8
h-184l-8 8v184zM418 -2h184l8 -8v-184l-8 -8h-184l-8 8v184zM1438 -2h184l8 -8v-184l-8 -8h-184l-8 8v184zM418 -206h184l8 -8v-184l-8 -8h-184l-8 8v184zM1438 -206h184l8 -8v-184l-8 -8h-184l-8 8v184zM622 -410h184l8 -8v-184l-8 -8h-184l-8 8v184zM826 -410h184l8 -8
v-184l-8 -8h-184l-8 8v184zM1030 -410h184l8 -8v-184l-8 -8h-184l-8 8v184zM1234 -410h184l8 -8v-184l-8 -8h-184l-8 8v184z" />
    <glyph glyph-name="u0645" unicode="&#x645;" horiz-adv-x="1630" arabic-form="isolated" 
d="M1230 610h184l8 -8v-184l-8 -8h-184l-8 8v184zM1026 406h184l8 -8v-184l-8 -8h-184l-8 8v184zM1230 406h184l8 -8v-184l-8 -8h-184l-8 8v184zM1434 406h184l8 -8v-184l-8 -8h-184l-8 8v184zM822 202h184l8 -8v-184l-8 -8h-184l-8 8v184zM1026 202h184l8 -8v-184l-8 -8
h-184l-8 8v184zM1230 202h184l8 -8v-184l-8 -8h-184l-8 8v184zM618 -2h184l8 -8v-184l-8 -8h-184l-8 8v184zM618 -206h184l8 -8v-184l-8 -8h-184l-8 8v184zM618 -410h184l8 -8v-184l-8 -8h-184l-8 8v184z" />
    <glyph glyph-name="u0646" unicode="&#x646;" horiz-adv-x="1626" arabic-form="isolated" 
d="M816 610h184l8 -8v-184l-8 -8h-184l-8 8v184zM408 202h184l8 -8v-184l-8 -8h-184l-8 8v184zM1428 202h184l8 -8v-184l-8 -8h-184l-8 8v184zM408 -2h184l8 -8v-184l-8 -8h-184l-8 8v184zM1428 -2h184l8 -8v-184l-8 -8h-184l-8 8v184zM408 -206h184l8 -8v-184l-8 -8h-184
l-8 8v184zM1428 -206h184l8 -8v-184l-8 -8h-184l-8 8v184zM612 -410h184l8 -8v-184l-8 -8h-184l-8 8v184zM816 -410h184l8 -8v-184l-8 -8h-184l-8 8v184zM1020 -410h184l8 -8v-184l-8 -8h-184l-8 8v184zM1224 -410h184l8 -8v-184l-8 -8h-184l-8 8v184z" />
    <glyph glyph-name="u0647" unicode="&#x647;" arabic-form="isolated" 
d="M1236 812h184l8 -8v-184l-8 -8h-184l-8 8v184zM1032 608h184l8 -8v-184l-8 -8h-184l-8 8v184zM1440 608h184l8 -8v-184l-8 -8h-184l-8 8v184zM828 404h184l8 -8v-184l-8 -8h-184l-8 8v184zM1440 404h184l8 -8v-184l-8 -8h-184l-8 8v184zM828 200h184l8 -8v-184l-8 -8
h-184l-8 8v184zM1032 200h184l8 -8v-184l-8 -8h-184l-8 8v184zM1236 200h184l8 -8v-184l-8 -8h-184l-8 8v184zM1440 200h184l8 -8v-184l-8 -8h-184l-8 8v184z" />
    <glyph glyph-name="u0648" unicode="&#x648;" horiz-adv-x="1630" arabic-form="isolated" 
d="M1230 610h184l8 -8v-184l-8 -8h-184l-8 8v184zM1026 406h184l8 -8v-184l-8 -8h-184l-8 8v184zM1434 406h184l8 -8v-184l-8 -8h-184l-8 8v184zM1230 202h184l8 -8v-184l-8 -8h-184l-8 8v184zM1434 202h184l8 -8v-184l-8 -8h-184l-8 8v184zM1230 -2h184l8 -8v-184l-8 -8
h-184l-8 8v184zM618 -206h184l8 -8v-184l-8 -8h-184l-8 8v184zM1026 -206h184l8 -8v-184l-8 -8h-184l-8 8v184zM822 -410h184l8 -8v-184l-8 -8h-184l-8 8v184z" />
    <glyph glyph-name="u0649" unicode="&#x649;" horiz-adv-x="1626" arabic-form="isolated" 
d="M8 202h184l8 -8v-184l-8 -8h-184l-8 8v184zM1028 202h184l8 -8v-184l-8 -8h-184l-8 8v184zM1232 202h184l8 -8v-184l-8 -8h-184l-8 8v184zM1436 202h184l8 -8v-184l-8 -8h-184l-8 8v184zM8 -2h184l8 -8v-184l-8 -8h-184l-8 8v184zM824 -2h184l8 -8v-184l-8 -8h-184l-8 8
v184zM8 -206h184l8 -8v-184l-8 -8h-184l-8 8v184zM1028 -206h184l8 -8v-184l-8 -8h-184l-8 8v184zM212 -410h184l8 -8v-184l-8 -8h-184l-8 8v184zM416 -410h184l8 -8v-184l-8 -8h-184l-8 8v184zM620 -410h184l8 -8v-184l-8 -8h-184l-8 8v184zM824 -410h184l8 -8v-184l-8 -8
h-184l-8 8v184zM1028 -410h184l8 -8v-184l-8 -8h-184l-8 8v184z" />
    <glyph glyph-name="u064A" unicode="&#x64a;" horiz-adv-x="1626" arabic-form="isolated" 
d="M8 202h184l8 -8v-184l-8 -8h-184l-8 8v184zM1028 202h184l8 -8v-184l-8 -8h-184l-8 8v184zM1232 202h184l8 -8v-184l-8 -8h-184l-8 8v184zM1436 202h184l8 -8v-184l-8 -8h-184l-8 8v184zM8 -2h184l8 -8v-184l-8 -8h-184l-8 8v184zM824 -2h184l8 -8v-184l-8 -8h-184l-8 8
v184zM8 -206h184l8 -8v-184l-8 -8h-184l-8 8v184zM1028 -206h184l8 -8v-184l-8 -8h-184l-8 8v184zM212 -410h184l8 -8v-184l-8 -8h-184l-8 8v184zM416 -410h184l8 -8v-184l-8 -8h-184l-8 8v184zM620 -410h184l8 -8v-184l-8 -8h-184l-8 8v184zM824 -410h184l8 -8v-184l-8 -8
h-184l-8 8v184zM1028 -410h184l8 -8v-184l-8 -8h-184l-8 8v184z" />
    <glyph glyph-name="u067E" unicode="&#x67e;" arabic-form="isolated" 
d="M8 610h184l8 -8v-184l-8 -8h-184l-8 8v184zM1436 610h184l8 -8v-184l-8 -8h-184l-8 8v184zM8 406h184l8 -8v-184l-8 -8h-184l-8 8v184zM1436 406h184l8 -8v-184l-8 -8h-184l-8 8v184zM212 202h184l8 -8v-184l-8 -8h-184l-8 8v184zM416 202h184l8 -8v-184l-8 -8h-184l-8 8
v184zM620 202h184l8 -8v-184l-8 -8h-184l-8 8v184zM824 202h184l8 -8v-184l-8 -8h-184l-8 8v184zM1028 202h184l8 -8v-184l-8 -8h-184l-8 8v184zM1232 202h184l8 -8v-184l-8 -8h-184l-8 8v184zM1436 202h184l8 -8v-184l-8 -8h-184l-8 8v184zM620 -206h184l8 -8v-184l-8 -8
h-184l-8 8v184zM1028 -206h184l8 -8v-184l-8 -8h-184l-8 8v184zM824 -410h184l8 -8v-184l-8 -8h-184l-8 8v184z" />
    <glyph glyph-name="u0686" unicode="&#x686;" horiz-adv-x="1630" arabic-form="isolated" 
d="M824 814h184l8 -8v-184l-8 -8h-184l-8 8v184zM620 610h184l8 -8v-184l-8 -8h-184l-8 8v184zM1028 610h184l8 -8v-184l-8 -8h-184l-8 8v184zM1232 406h184l8 -8v-184l-8 -8h-184l-8 8v184zM212 202h184l8 -8v-184l-8 -8h-184l-8 8v184zM416 202h184l8 -8v-184l-8 -8h-184
l-8 8v184zM620 202h184l8 -8v-184l-8 -8h-184l-8 8v184zM824 202h184l8 -8v-184l-8 -8h-184l-8 8v184zM1028 202h184l8 -8v-184l-8 -8h-184l-8 8v184zM1232 202h184l8 -8v-184l-8 -8h-184l-8 8v184zM1436 202h184l8 -8v-184l-8 -8h-184l-8 8v184zM8 -2h184l8 -8v-184l-8 -8
h-184l-8 8v184zM8 -206h184l8 -8v-184l-8 -8h-184l-8 8v184zM1028 -206h184l8 -8v-184l-8 -8h-184l-8 8v184zM1436 -206h184l8 -8v-184l-8 -8h-184l-8 8v184zM212 -410h184l8 -8v-184l-8 -8h-184l-8 8v184zM416 -410h184l8 -8v-184l-8 -8h-184l-8 8v184zM620 -410h184l8 -8
v-184l-8 -8h-184l-8 8v184zM1232 -410h184l8 -8v-184l-8 -8h-184l-8 8v184z" />
    <glyph glyph-name="u0698" unicode="&#x698;" horiz-adv-x="1622" arabic-form="isolated" 
d="M1226 1018h184l8 -8v-184l-8 -8h-184l-8 8v184zM1022 814h184l8 -8v-184l-8 -8h-184l-8 8v184zM1430 814h184l8 -8v-184l-8 -8h-184l-8 8v184zM1430 406h184l8 -8v-184l-8 -8h-184l-8 8v184zM1430 202h184l8 -8v-184l-8 -8h-184l-8 8v184zM1430 -2h184l8 -8v-184l-8 -8
h-184l-8 8v184zM1226 -206h184l8 -8v-184l-8 -8h-184l-8 8v184zM818 -410h184l8 -8v-184l-8 -8h-184l-8 8v184zM1022 -410h184l8 -8v-184l-8 -8h-184l-8 8v184z" />
    <glyph glyph-name="u06AF" unicode="&#x6af;" horiz-adv-x="1630" arabic-form="isolated" 
d="M824 1016h184l8 -8v-184l-8 -8h-184l-8 8v184zM1436 1016h184l8 -8v-184l-8 -8h-184l-8 8v184zM620 812h184l8 -8v-184l-8 -8h-184l-8 8v184zM1232 812h184l8 -8v-184l-8 -8h-184l-8 8v184zM1028 608h184l8 -8v-184l-8 -8h-184l-8 8v184zM8 404h184l8 -8v-184l-8 -8h-184
l-8 8v184zM1232 404h184l8 -8v-184l-8 -8h-184l-8 8v184zM8 200h184l8 -8v-184l-8 -8h-184l-8 8v184zM212 200h184l8 -8v-184l-8 -8h-184l-8 8v184zM416 200h184l8 -8v-184l-8 -8h-184l-8 8v184zM620 200h184l8 -8v-184l-8 -8h-184l-8 8v184zM824 200h184l8 -8v-184l-8 -8
h-184l-8 8v184zM1028 200h184l8 -8v-184l-8 -8h-184l-8 8v184zM1232 200h184l8 -8v-184l-8 -8h-184l-8 8v184zM1436 200h184l8 -8v-184l-8 -8h-184l-8 8v184z" />
    <glyph glyph-name="uFB57" unicode="&#x67e;" arabic-form="final" 
d="M8 610h184l8 -8v-184l-8 -8h-184l-8 8v184zM1436 610h184l8 -8v-184l-8 -8h-184l-8 8v184zM8 406h184l8 -8v-184l-8 -8h-184l-8 8v184zM1436 406h184l8 -8v-184l-8 -8h-184l-8 8v184zM212 202h184l8 -8v-184l-8 -8h-184l-8 8v184zM416 202h184l8 -8v-184l-8 -8h-184l-8 8
v184zM620 202h184l8 -8v-184l-8 -8h-184l-8 8v184zM824 202h184l8 -8v-184l-8 -8h-184l-8 8v184zM1028 202h184l8 -8v-184l-8 -8h-184l-8 8v184zM1232 202h184l8 -8v-184l-8 -8h-184l-8 8v184zM1436 202h184l8 -8v-184l-8 -8h-184l-8 8v184zM620 -206h184l8 -8v-184l-8 -8
h-184l-8 8v184zM1028 -206h184l8 -8v-184l-8 -8h-184l-8 8v184zM824 -410h184l8 -8v-184l-8 -8h-184l-8 8v184z" />
    <glyph glyph-name="uFB58" unicode="&#x67e;" horiz-adv-x="1622" arabic-form="initial" 
d="M1436 610h184l8 -8v-184l-8 -8h-184l-8 8v184zM1436 406h184l8 -8v-184l-8 -8h-184l-8 8v184zM8 202h184l8 -8v-184l-8 -8h-184l-8 8v184zM212 202h184l8 -8v-184l-8 -8h-184l-8 8v184zM416 202h184l8 -8v-184l-8 -8h-184l-8 8v184zM620 202h184l8 -8v-184l-8 -8h-184
l-8 8v184zM824 202h184l8 -8v-184l-8 -8h-184l-8 8v184zM1028 202h184l8 -8v-184l-8 -8h-184l-8 8v184zM1232 202h184l8 -8v-184l-8 -8h-184l-8 8v184zM1436 202h184l8 -8v-184l-8 -8h-184l-8 8v184zM620 -206h184l8 -8v-184l-8 -8h-184l-8 8v184zM1028 -206h184l8 -8v-184
l-8 -8h-184l-8 8v184zM824 -410h184l8 -8v-184l-8 -8h-184l-8 8v184z" />
    <glyph glyph-name="uFB59" unicode="&#x67e;" horiz-adv-x="1622" arabic-form="medial" 
d="M1436 610h184l8 -8v-184l-8 -8h-184l-8 8v184zM1436 406h184l8 -8v-184l-8 -8h-184l-8 8v184zM8 202h184l8 -8v-184l-8 -8h-184l-8 8v184zM212 202h184l8 -8v-184l-8 -8h-184l-8 8v184zM416 202h184l8 -8v-184l-8 -8h-184l-8 8v184zM620 202h184l8 -8v-184l-8 -8h-184
l-8 8v184zM824 202h184l8 -8v-184l-8 -8h-184l-8 8v184zM1028 202h184l8 -8v-184l-8 -8h-184l-8 8v184zM1232 202h184l8 -8v-184l-8 -8h-184l-8 8v184zM1436 202h184l8 -8v-184l-8 -8h-184l-8 8v184zM620 -206h184l8 -8v-184l-8 -8h-184l-8 8v184zM1028 -206h184l8 -8v-184
l-8 -8h-184l-8 8v184zM824 -410h184l8 -8v-184l-8 -8h-184l-8 8v184z" />
    <glyph glyph-name="uFB7B" unicode="&#x686;" horiz-adv-x="1630" arabic-form="final" 
d="M824 814h184l8 -8v-184l-8 -8h-184l-8 8v184zM620 610h184l8 -8v-184l-8 -8h-184l-8 8v184zM1028 610h184l8 -8v-184l-8 -8h-184l-8 8v184zM1232 406h184l8 -8v-184l-8 -8h-184l-8 8v184zM212 202h184l8 -8v-184l-8 -8h-184l-8 8v184zM416 202h184l8 -8v-184l-8 -8h-184
l-8 8v184zM620 202h184l8 -8v-184l-8 -8h-184l-8 8v184zM824 202h184l8 -8v-184l-8 -8h-184l-8 8v184zM1028 202h184l8 -8v-184l-8 -8h-184l-8 8v184zM1232 202h184l8 -8v-184l-8 -8h-184l-8 8v184zM1436 202h184l8 -8v-184l-8 -8h-184l-8 8v184zM8 -2h184l8 -8v-184l-8 -8
h-184l-8 8v184zM8 -206h184l8 -8v-184l-8 -8h-184l-8 8v184zM1028 -206h184l8 -8v-184l-8 -8h-184l-8 8v184zM1436 -206h184l8 -8v-184l-8 -8h-184l-8 8v184zM212 -410h184l8 -8v-184l-8 -8h-184l-8 8v184zM416 -410h184l8 -8v-184l-8 -8h-184l-8 8v184zM620 -410h184l8 -8
v-184l-8 -8h-184l-8 8v184zM1232 -410h184l8 -8v-184l-8 -8h-184l-8 8v184z" />
    <glyph glyph-name="uFB7C" unicode="&#x686;" horiz-adv-x="1626" arabic-form="initial" 
d="M824 814h184l8 -8v-184l-8 -8h-184l-8 8v184zM620 610h184l8 -8v-184l-8 -8h-184l-8 8v184zM1028 610h184l8 -8v-184l-8 -8h-184l-8 8v184zM1232 406h184l8 -8v-184l-8 -8h-184l-8 8v184zM8 202h184l8 -8v-184l-8 -8h-184l-8 8v184zM212 202h184l8 -8v-184l-8 -8h-184
l-8 8v184zM416 202h184l8 -8v-184l-8 -8h-184l-8 8v184zM620 202h184l8 -8v-184l-8 -8h-184l-8 8v184zM824 202h184l8 -8v-184l-8 -8h-184l-8 8v184zM1028 202h184l8 -8v-184l-8 -8h-184l-8 8v184zM1232 202h184l8 -8v-184l-8 -8h-184l-8 8v184zM1436 202h184l8 -8v-184
l-8 -8h-184l-8 8v184zM620 -206h184l8 -8v-184l-8 -8h-184l-8 8v184zM1028 -206h184l8 -8v-184l-8 -8h-184l-8 8v184zM824 -410h184l8 -8v-184l-8 -8h-184l-8 8v184z" />
    <glyph glyph-name="uFB7D" unicode="&#x686;" horiz-adv-x="1626" arabic-form="medial" 
d="M824 814h184l8 -8v-184l-8 -8h-184l-8 8v184zM620 610h184l8 -8v-184l-8 -8h-184l-8 8v184zM1028 610h184l8 -8v-184l-8 -8h-184l-8 8v184zM1232 406h184l8 -8v-184l-8 -8h-184l-8 8v184zM8 202h184l8 -8v-184l-8 -8h-184l-8 8v184zM212 202h184l8 -8v-184l-8 -8h-184
l-8 8v184zM416 202h184l8 -8v-184l-8 -8h-184l-8 8v184zM620 202h184l8 -8v-184l-8 -8h-184l-8 8v184zM824 202h184l8 -8v-184l-8 -8h-184l-8 8v184zM1028 202h184l8 -8v-184l-8 -8h-184l-8 8v184zM1232 202h184l8 -8v-184l-8 -8h-184l-8 8v184zM1436 202h184l8 -8v-184
l-8 -8h-184l-8 8v184zM620 -206h184l8 -8v-184l-8 -8h-184l-8 8v184zM1028 -206h184l8 -8v-184l-8 -8h-184l-8 8v184zM824 -410h184l8 -8v-184l-8 -8h-184l-8 8v184z" />
    <glyph glyph-name="uFB8B" unicode="&#x698;" horiz-adv-x="1622" arabic-form="final" 
d="M1226 1018h184l8 -8v-184l-8 -8h-184l-8 8v184zM1022 814h184l8 -8v-184l-8 -8h-184l-8 8v184zM1430 814h184l8 -8v-184l-8 -8h-184l-8 8v184zM1430 406h184l8 -8v-184l-8 -8h-184l-8 8v184zM1430 202h184l8 -8v-184l-8 -8h-184l-8 8v184zM1430 -2h184l8 -8v-184l-8 -8
h-184l-8 8v184zM1226 -206h184l8 -8v-184l-8 -8h-184l-8 8v184zM818 -410h184l8 -8v-184l-8 -8h-184l-8 8v184zM1022 -410h184l8 -8v-184l-8 -8h-184l-8 8v184z" />
    <glyph glyph-name="uFEDA" unicode="&#x6a9;" horiz-adv-x="1630" arabic-form="final" 
d="M1436 1016h184l8 -8v-184l-8 -8h-184l-8 8v184zM1232 812h184l8 -8v-184l-8 -8h-184l-8 8v184zM1028 608h184l8 -8v-184l-8 -8h-184l-8 8v184zM8 404h184l8 -8v-184l-8 -8h-184l-8 8v184zM1232 404h184l8 -8v-184l-8 -8h-184l-8 8v184zM8 200h184l8 -8v-184l-8 -8h-184
l-8 8v184zM212 200h184l8 -8v-184l-8 -8h-184l-8 8v184zM416 200h184l8 -8v-184l-8 -8h-184l-8 8v184zM620 200h184l8 -8v-184l-8 -8h-184l-8 8v184zM824 200h184l8 -8v-184l-8 -8h-184l-8 8v184zM1028 200h184l8 -8v-184l-8 -8h-184l-8 8v184zM1232 200h184l8 -8v-184
l-8 -8h-184l-8 8v184zM1436 200h184l8 -8v-184l-8 -8h-184l-8 8v184z" />
    <glyph glyph-name="uFEDB" unicode="&#x6a9;" horiz-adv-x="1630" arabic-form="initial" 
d="M1436 1016h184l8 -8v-184l-8 -8h-184l-8 8v184zM1232 812h184l8 -8v-184l-8 -8h-184l-8 8v184zM1028 608h184l8 -8v-184l-8 -8h-184l-8 8v184zM1232 404h184l8 -8v-184l-8 -8h-184l-8 8v184zM8 200h184l8 -8v-184l-8 -8h-184l-8 8v184zM212 200h184l8 -8v-184l-8 -8h-184
l-8 8v184zM416 200h184l8 -8v-184l-8 -8h-184l-8 8v184zM620 200h184l8 -8v-184l-8 -8h-184l-8 8v184zM824 200h184l8 -8v-184l-8 -8h-184l-8 8v184zM1028 200h184l8 -8v-184l-8 -8h-184l-8 8v184zM1232 200h184l8 -8v-184l-8 -8h-184l-8 8v184zM1436 200h184l8 -8v-184
l-8 -8h-184l-8 8v184z" />
    <glyph glyph-name="uFEDC" unicode="&#x6a9;" horiz-adv-x="1630" arabic-form="medial" 
d="M1436 1016h184l8 -8v-184l-8 -8h-184l-8 8v184zM1232 812h184l8 -8v-184l-8 -8h-184l-8 8v184zM1028 608h184l8 -8v-184l-8 -8h-184l-8 8v184zM1232 404h184l8 -8v-184l-8 -8h-184l-8 8v184zM8 200h184l8 -8v-184l-8 -8h-184l-8 8v184zM212 200h184l8 -8v-184l-8 -8h-184
l-8 8v184zM416 200h184l8 -8v-184l-8 -8h-184l-8 8v184zM620 200h184l8 -8v-184l-8 -8h-184l-8 8v184zM824 200h184l8 -8v-184l-8 -8h-184l-8 8v184zM1028 200h184l8 -8v-184l-8 -8h-184l-8 8v184zM1232 200h184l8 -8v-184l-8 -8h-184l-8 8v184zM1436 200h184l8 -8v-184
l-8 -8h-184l-8 8v184z" />
    <glyph glyph-name="uFB93" unicode="&#x6af;" horiz-adv-x="1630" arabic-form="final" 
d="M824 1016h184l8 -8v-184l-8 -8h-184l-8 8v184zM1436 1016h184l8 -8v-184l-8 -8h-184l-8 8v184zM620 812h184l8 -8v-184l-8 -8h-184l-8 8v184zM1232 812h184l8 -8v-184l-8 -8h-184l-8 8v184zM1028 608h184l8 -8v-184l-8 -8h-184l-8 8v184zM8 404h184l8 -8v-184l-8 -8h-184
l-8 8v184zM1232 404h184l8 -8v-184l-8 -8h-184l-8 8v184zM8 200h184l8 -8v-184l-8 -8h-184l-8 8v184zM212 200h184l8 -8v-184l-8 -8h-184l-8 8v184zM416 200h184l8 -8v-184l-8 -8h-184l-8 8v184zM620 200h184l8 -8v-184l-8 -8h-184l-8 8v184zM824 200h184l8 -8v-184l-8 -8
h-184l-8 8v184zM1028 200h184l8 -8v-184l-8 -8h-184l-8 8v184zM1232 200h184l8 -8v-184l-8 -8h-184l-8 8v184zM1436 200h184l8 -8v-184l-8 -8h-184l-8 8v184z" />
    <glyph glyph-name="uFB94" unicode="&#x6af;" horiz-adv-x="1630" arabic-form="initial" 
d="M824 1016h184l8 -8v-184l-8 -8h-184l-8 8v184zM1436 1016h184l8 -8v-184l-8 -8h-184l-8 8v184zM620 812h184l8 -8v-184l-8 -8h-184l-8 8v184zM1232 812h184l8 -8v-184l-8 -8h-184l-8 8v184zM1028 608h184l8 -8v-184l-8 -8h-184l-8 8v184zM1232 404h184l8 -8v-184l-8 -8
h-184l-8 8v184zM8 200h184l8 -8v-184l-8 -8h-184l-8 8v184zM212 200h184l8 -8v-184l-8 -8h-184l-8 8v184zM416 200h184l8 -8v-184l-8 -8h-184l-8 8v184zM620 200h184l8 -8v-184l-8 -8h-184l-8 8v184zM824 200h184l8 -8v-184l-8 -8h-184l-8 8v184zM1028 200h184l8 -8v-184
l-8 -8h-184l-8 8v184zM1232 200h184l8 -8v-184l-8 -8h-184l-8 8v184zM1436 200h184l8 -8v-184l-8 -8h-184l-8 8v184z" />
    <glyph glyph-name="uFB95" unicode="&#x6af;" horiz-adv-x="1630" arabic-form="medial" 
d="M824 1016h184l8 -8v-184l-8 -8h-184l-8 8v184zM1436 1016h184l8 -8v-184l-8 -8h-184l-8 8v184zM620 812h184l8 -8v-184l-8 -8h-184l-8 8v184zM1232 812h184l8 -8v-184l-8 -8h-184l-8 8v184zM1028 608h184l8 -8v-184l-8 -8h-184l-8 8v184zM1232 404h184l8 -8v-184l-8 -8
h-184l-8 8v184zM8 200h184l8 -8v-184l-8 -8h-184l-8 8v184zM212 200h184l8 -8v-184l-8 -8h-184l-8 8v184zM416 200h184l8 -8v-184l-8 -8h-184l-8 8v184zM620 200h184l8 -8v-184l-8 -8h-184l-8 8v184zM824 200h184l8 -8v-184l-8 -8h-184l-8 8v184zM1028 200h184l8 -8v-184
l-8 -8h-184l-8 8v184zM1232 200h184l8 -8v-184l-8 -8h-184l-8 8v184zM1436 200h184l8 -8v-184l-8 -8h-184l-8 8v184z" />
    <glyph glyph-name="uFE94" unicode="&#x6c0;" arabic-form="final" 
d="M1236 812h184l8 -8v-184l-8 -8h-184l-8 8v184zM1032 608h184l8 -8v-184l-8 -8h-184l-8 8v184zM1440 608h184l8 -8v-184l-8 -8h-184l-8 8v184zM828 404h184l8 -8v-184l-8 -8h-184l-8 8v184zM1440 404h184l8 -8v-184l-8 -8h-184l-8 8v184zM828 200h184l8 -8v-184l-8 -8
h-184l-8 8v184zM1032 200h184l8 -8v-184l-8 -8h-184l-8 8v184zM1236 200h184l8 -8v-184l-8 -8h-184l-8 8v184zM1440 200h184l8 -8v-184l-8 -8h-184l-8 8v184z" />
    <glyph glyph-name="uFEF2" unicode="&#x6cc;" horiz-adv-x="1626" arabic-form="final" 
d="M8 202h184l8 -8v-184l-8 -8h-184l-8 8v184zM1028 202h184l8 -8v-184l-8 -8h-184l-8 8v184zM1232 202h184l8 -8v-184l-8 -8h-184l-8 8v184zM1436 202h184l8 -8v-184l-8 -8h-184l-8 8v184zM8 -2h184l8 -8v-184l-8 -8h-184l-8 8v184zM824 -2h184l8 -8v-184l-8 -8h-184l-8 8
v184zM8 -206h184l8 -8v-184l-8 -8h-184l-8 8v184zM1028 -206h184l8 -8v-184l-8 -8h-184l-8 8v184zM212 -410h184l8 -8v-184l-8 -8h-184l-8 8v184zM416 -410h184l8 -8v-184l-8 -8h-184l-8 8v184zM620 -410h184l8 -8v-184l-8 -8h-184l-8 8v184zM824 -410h184l8 -8v-184l-8 -8
h-184l-8 8v184zM1028 -410h184l8 -8v-184l-8 -8h-184l-8 8v184z" />
    <glyph glyph-name="uFEF3" unicode="&#x6cc;" horiz-adv-x="1626" arabic-form="initial" 
d="M1436 606h184l8 -8v-184l-8 -8h-184l-8 8v184zM1436 402h184l8 -8v-184l-8 -8h-184l-8 8v184zM8 198h184l8 -8v-184l-8 -8h-184l-8 8v184zM212 198h184l8 -8v-184l-8 -8h-184l-8 8v184zM416 198h184l8 -8v-184l-8 -8h-184l-8 8v184zM620 198h184l8 -8v-184l-8 -8h-184
l-8 8v184zM824 198h184l8 -8v-184l-8 -8h-184l-8 8v184zM1028 198h184l8 -8v-184l-8 -8h-184l-8 8v184zM1232 198h184l8 -8v-184l-8 -8h-184l-8 8v184zM1436 198h184l8 -8v-184l-8 -8h-184l-8 8v184zM620 -210h184l8 -8v-184l-8 -8h-184l-8 8v184zM1028 -210h184l8 -8v-184
l-8 -8h-184l-8 8v184z" />
    <glyph glyph-name="uFEF4" unicode="&#x6cc;" horiz-adv-x="1626" arabic-form="medial" 
d="M1436 606h184l8 -8v-184l-8 -8h-184l-8 8v184zM1436 402h184l8 -8v-184l-8 -8h-184l-8 8v184zM8 198h184l8 -8v-184l-8 -8h-184l-8 8v184zM212 198h184l8 -8v-184l-8 -8h-184l-8 8v184zM416 198h184l8 -8v-184l-8 -8h-184l-8 8v184zM620 198h184l8 -8v-184l-8 -8h-184
l-8 8v184zM824 198h184l8 -8v-184l-8 -8h-184l-8 8v184zM1028 198h184l8 -8v-184l-8 -8h-184l-8 8v184zM1232 198h184l8 -8v-184l-8 -8h-184l-8 8v184zM1436 198h184l8 -8v-184l-8 -8h-184l-8 8v184zM620 -210h184l8 -8v-184l-8 -8h-184l-8 8v184zM1028 -210h184l8 -8v-184
l-8 -8h-184l-8 8v184z" />
    <glyph glyph-name="Hcircumflex" unicode="&#x622;" horiz-adv-x="1617" arabic-form="final" 
d="M808 1016h184l8 -8v-184l-8 -8h-184l-8 8v184zM808 812h184l8 -8v-184l-8 -8h-184l-8 8v184zM808 608h184l8 -8v-184l-8 -8h-184l-8 8v184zM808 404h184l8 -8v-184l-8 -8h-184l-8 8v184zM808 200h184l8 -8v-184l-8 -8h-184l-8 8v184zM1012 200h184l8 -8v-184l-8 -8h-184
l-8 8v184zM1216 200h184l8 -8v-184l-8 -8h-184l-8 8v184zM1420 200h184l8 -8v-184l-8 -8h-184l-8 8v184z" />
    <glyph glyph-name="uFE84" unicode="&#x623;" horiz-adv-x="1617" arabic-form="final" 
d="M808 1016h184l8 -8v-184l-8 -8h-184l-8 8v184zM808 812h184l8 -8v-184l-8 -8h-184l-8 8v184zM808 608h184l8 -8v-184l-8 -8h-184l-8 8v184zM808 404h184l8 -8v-184l-8 -8h-184l-8 8v184zM808 200h184l8 -8v-184l-8 -8h-184l-8 8v184zM1012 200h184l8 -8v-184l-8 -8h-184
l-8 8v184zM1216 200h184l8 -8v-184l-8 -8h-184l-8 8v184zM1420 200h184l8 -8v-184l-8 -8h-184l-8 8v184z" />
    <glyph glyph-name="uFE86" unicode="&#x624;" horiz-adv-x="1630" arabic-form="final" 
d="M1230 610h184l8 -8v-184l-8 -8h-184l-8 8v184zM1026 406h184l8 -8v-184l-8 -8h-184l-8 8v184zM1434 406h184l8 -8v-184l-8 -8h-184l-8 8v184zM1230 202h184l8 -8v-184l-8 -8h-184l-8 8v184zM1434 202h184l8 -8v-184l-8 -8h-184l-8 8v184zM1230 -2h184l8 -8v-184l-8 -8
h-184l-8 8v184zM618 -206h184l8 -8v-184l-8 -8h-184l-8 8v184zM1026 -206h184l8 -8v-184l-8 -8h-184l-8 8v184zM822 -410h184l8 -8v-184l-8 -8h-184l-8 8v184z" />
    <glyph glyph-name="uFE88" unicode="&#x625;" horiz-adv-x="1617" arabic-form="final" 
d="M808 1016h184l8 -8v-184l-8 -8h-184l-8 8v184zM808 812h184l8 -8v-184l-8 -8h-184l-8 8v184zM808 608h184l8 -8v-184l-8 -8h-184l-8 8v184zM808 404h184l8 -8v-184l-8 -8h-184l-8 8v184zM808 200h184l8 -8v-184l-8 -8h-184l-8 8v184zM1012 200h184l8 -8v-184l-8 -8h-184
l-8 8v184zM1216 200h184l8 -8v-184l-8 -8h-184l-8 8v184zM1420 200h184l8 -8v-184l-8 -8h-184l-8 8v184z" />
    <glyph glyph-name="uFE8A" unicode="&#x626;" horiz-adv-x="1626" arabic-form="final" 
d="M8 202h184l8 -8v-184l-8 -8h-184l-8 8v184zM1028 202h184l8 -8v-184l-8 -8h-184l-8 8v184zM1232 202h184l8 -8v-184l-8 -8h-184l-8 8v184zM1436 202h184l8 -8v-184l-8 -8h-184l-8 8v184zM8 -2h184l8 -8v-184l-8 -8h-184l-8 8v184zM824 -2h184l8 -8v-184l-8 -8h-184l-8 8
v184zM8 -206h184l8 -8v-184l-8 -8h-184l-8 8v184zM1028 -206h184l8 -8v-184l-8 -8h-184l-8 8v184zM212 -410h184l8 -8v-184l-8 -8h-184l-8 8v184zM416 -410h184l8 -8v-184l-8 -8h-184l-8 8v184zM620 -410h184l8 -8v-184l-8 -8h-184l-8 8v184zM824 -410h184l8 -8v-184l-8 -8
h-184l-8 8v184zM1028 -410h184l8 -8v-184l-8 -8h-184l-8 8v184z" />
    <glyph glyph-name="uFE8B" unicode="&#x626;" horiz-adv-x="1626" arabic-form="initial" 
d="M824 1016h184l8 -8v-184l-8 -8h-184l-8 8v184zM1028 1016h184l8 -8v-184l-8 -8h-184l-8 8v184zM620 812h184l8 -8v-184l-8 -8h-184l-8 8v184zM416 608h184l8 -8v-184l-8 -8h-184l-8 8v184zM620 608h184l8 -8v-184l-8 -8h-184l-8 8v184zM824 608h184l8 -8v-184l-8 -8h-184
l-8 8v184zM1028 608h184l8 -8v-184l-8 -8h-184l-8 8v184zM1436 608h184l8 -8v-184l-8 -8h-184l-8 8v184zM1436 404h184l8 -8v-184l-8 -8h-184l-8 8v184zM8 200h184l8 -8v-184l-8 -8h-184l-8 8v184zM212 200h184l8 -8v-184l-8 -8h-184l-8 8v184zM416 200h184l8 -8v-184l-8 -8
h-184l-8 8v184zM620 200h184l8 -8v-184l-8 -8h-184l-8 8v184zM824 200h184l8 -8v-184l-8 -8h-184l-8 8v184zM1028 200h184l8 -8v-184l-8 -8h-184l-8 8v184zM1232 200h184l8 -8v-184l-8 -8h-184l-8 8v184zM1436 200h184l8 -8v-184l-8 -8h-184l-8 8v184z" />
    <glyph glyph-name="uFE8C" unicode="&#x626;" horiz-adv-x="1626" arabic-form="medial" 
d="M824 1016h184l8 -8v-184l-8 -8h-184l-8 8v184zM1028 1016h184l8 -8v-184l-8 -8h-184l-8 8v184zM620 812h184l8 -8v-184l-8 -8h-184l-8 8v184zM416 608h184l8 -8v-184l-8 -8h-184l-8 8v184zM620 608h184l8 -8v-184l-8 -8h-184l-8 8v184zM824 608h184l8 -8v-184l-8 -8h-184
l-8 8v184zM1028 608h184l8 -8v-184l-8 -8h-184l-8 8v184zM1436 608h184l8 -8v-184l-8 -8h-184l-8 8v184zM1436 404h184l8 -8v-184l-8 -8h-184l-8 8v184zM8 200h184l8 -8v-184l-8 -8h-184l-8 8v184zM212 200h184l8 -8v-184l-8 -8h-184l-8 8v184zM416 200h184l8 -8v-184l-8 -8
h-184l-8 8v184zM620 200h184l8 -8v-184l-8 -8h-184l-8 8v184zM824 200h184l8 -8v-184l-8 -8h-184l-8 8v184zM1028 200h184l8 -8v-184l-8 -8h-184l-8 8v184zM1232 200h184l8 -8v-184l-8 -8h-184l-8 8v184zM1436 200h184l8 -8v-184l-8 -8h-184l-8 8v184z" />
    <glyph glyph-name="uFE8E" unicode="&#x627;" horiz-adv-x="1617" arabic-form="final" 
d="M808 1016h184l8 -8v-184l-8 -8h-184l-8 8v184zM808 812h184l8 -8v-184l-8 -8h-184l-8 8v184zM808 608h184l8 -8v-184l-8 -8h-184l-8 8v184zM808 404h184l8 -8v-184l-8 -8h-184l-8 8v184zM808 200h184l8 -8v-184l-8 -8h-184l-8 8v184zM1012 200h184l8 -8v-184l-8 -8h-184
l-8 8v184zM1216 200h184l8 -8v-184l-8 -8h-184l-8 8v184zM1420 200h184l8 -8v-184l-8 -8h-184l-8 8v184z" />
    <glyph glyph-name="uFE90" unicode="&#x628;" arabic-form="final" 
d="M8 607h184l8 -8v-184l-8 -8h-184l-8 8v184zM1436 607h184l8 -8v-184l-8 -8h-184l-8 8v184zM8 403h184l8 -8v-184l-8 -8h-184l-8 8v184zM1436 403h184l8 -8v-184l-8 -8h-184l-8 8v184zM212 199h184l8 -8v-184l-8 -8h-184l-8 8v184zM416 199h184l8 -8v-184l-8 -8h-184l-8 8
v184zM620 199h184l8 -8v-184l-8 -8h-184l-8 8v184zM824 199h184l8 -8v-184l-8 -8h-184l-8 8v184zM1028 199h184l8 -8v-184l-8 -8h-184l-8 8v184zM1232 199h184l8 -8v-184l-8 -8h-184l-8 8v184zM1436 199h184l8 -8v-184l-8 -8h-184l-8 8v184zM824 -209h184l8 -8v-184l-8 -8
h-184l-8 8v184z" />
    <glyph glyph-name="uFE91" unicode="&#x628;" horiz-adv-x="1622" arabic-form="initial" 
d="M1436 606h184l8 -8v-184l-8 -8h-184l-8 8v184zM1436 402h184l8 -8v-184l-8 -8h-184l-8 8v184zM8 198h184l8 -8v-184l-8 -8h-184l-8 8v184zM212 198h184l8 -8v-184l-8 -8h-184l-8 8v184zM416 198h184l8 -8v-184l-8 -8h-184l-8 8v184zM620 198h184l8 -8v-184l-8 -8h-184
l-8 8v184zM824 198h184l8 -8v-184l-8 -8h-184l-8 8v184zM1028 198h184l8 -8v-184l-8 -8h-184l-8 8v184zM1232 198h184l8 -8v-184l-8 -8h-184l-8 8v184zM1436 198h184l8 -8v-184l-8 -8h-184l-8 8v184zM824 -210h184l8 -8v-184l-8 -8h-184l-8 8v184z" />
    <glyph glyph-name="uFE92" unicode="&#x628;" horiz-adv-x="1622" arabic-form="medial" 
d="M1436 606h184l8 -8v-184l-8 -8h-184l-8 8v184zM1436 402h184l8 -8v-184l-8 -8h-184l-8 8v184zM8 198h184l8 -8v-184l-8 -8h-184l-8 8v184zM212 198h184l8 -8v-184l-8 -8h-184l-8 8v184zM416 198h184l8 -8v-184l-8 -8h-184l-8 8v184zM620 198h184l8 -8v-184l-8 -8h-184
l-8 8v184zM824 198h184l8 -8v-184l-8 -8h-184l-8 8v184zM1028 198h184l8 -8v-184l-8 -8h-184l-8 8v184zM1232 198h184l8 -8v-184l-8 -8h-184l-8 8v184zM1436 198h184l8 -8v-184l-8 -8h-184l-8 8v184zM824 -210h184l8 -8v-184l-8 -8h-184l-8 8v184z" />
    <glyph glyph-name="uFE96" unicode="&#x62a;" arabic-form="final" 
d="M620 812h184l8 -8v-184l-8 -8h-184l-8 8v184zM1028 812h184l8 -8v-184l-8 -8h-184l-8 8v184zM8 608h184l8 -8v-184l-8 -8h-184l-8 8v184zM1436 608h184l8 -8v-184l-8 -8h-184l-8 8v184zM8 404h184l8 -8v-184l-8 -8h-184l-8 8v184zM1436 404h184l8 -8v-184l-8 -8h-184
l-8 8v184zM212 200h184l8 -8v-184l-8 -8h-184l-8 8v184zM416 200h184l8 -8v-184l-8 -8h-184l-8 8v184zM620 200h184l8 -8v-184l-8 -8h-184l-8 8v184zM824 200h184l8 -8v-184l-8 -8h-184l-8 8v184zM1028 200h184l8 -8v-184l-8 -8h-184l-8 8v184zM1232 200h184l8 -8v-184
l-8 -8h-184l-8 8v184zM1436 200h184l8 -8v-184l-8 -8h-184l-8 8v184z" />
    <glyph glyph-name="uFE97" unicode="&#x62a;" horiz-adv-x="1622" arabic-form="initial" 
d="M620 812h184l8 -8v-184l-8 -8h-184l-8 8v184zM1028 812h184l8 -8v-184l-8 -8h-184l-8 8v184zM1436 608h184l8 -8v-184l-8 -8h-184l-8 8v184zM1436 404h184l8 -8v-184l-8 -8h-184l-8 8v184zM8 200h184l8 -8v-184l-8 -8h-184l-8 8v184zM212 200h184l8 -8v-184l-8 -8h-184
l-8 8v184zM416 200h184l8 -8v-184l-8 -8h-184l-8 8v184zM620 200h184l8 -8v-184l-8 -8h-184l-8 8v184zM824 200h184l8 -8v-184l-8 -8h-184l-8 8v184zM1028 200h184l8 -8v-184l-8 -8h-184l-8 8v184zM1232 200h184l8 -8v-184l-8 -8h-184l-8 8v184zM1436 200h184l8 -8v-184
l-8 -8h-184l-8 8v184z" />
    <glyph glyph-name="uFE98" unicode="&#x62a;" horiz-adv-x="1622" arabic-form="medial" 
d="M620 812h184l8 -8v-184l-8 -8h-184l-8 8v184zM1028 812h184l8 -8v-184l-8 -8h-184l-8 8v184zM1436 608h184l8 -8v-184l-8 -8h-184l-8 8v184zM1436 404h184l8 -8v-184l-8 -8h-184l-8 8v184zM8 200h184l8 -8v-184l-8 -8h-184l-8 8v184zM212 200h184l8 -8v-184l-8 -8h-184
l-8 8v184zM416 200h184l8 -8v-184l-8 -8h-184l-8 8v184zM620 200h184l8 -8v-184l-8 -8h-184l-8 8v184zM824 200h184l8 -8v-184l-8 -8h-184l-8 8v184zM1028 200h184l8 -8v-184l-8 -8h-184l-8 8v184zM1232 200h184l8 -8v-184l-8 -8h-184l-8 8v184zM1436 200h184l8 -8v-184
l-8 -8h-184l-8 8v184z" />
    <glyph glyph-name="uFE9A" unicode="&#x62b;" arabic-form="final" 
d="M824 1016h184l8 -8v-184l-8 -8h-184l-8 8v184zM620 812h184l8 -8v-184l-8 -8h-184l-8 8v184zM1028 812h184l8 -8v-184l-8 -8h-184l-8 8v184zM8 608h184l8 -8v-184l-8 -8h-184l-8 8v184zM1436 608h184l8 -8v-184l-8 -8h-184l-8 8v184zM8 404h184l8 -8v-184l-8 -8h-184
l-8 8v184zM1436 404h184l8 -8v-184l-8 -8h-184l-8 8v184zM212 200h184l8 -8v-184l-8 -8h-184l-8 8v184zM416 200h184l8 -8v-184l-8 -8h-184l-8 8v184zM620 200h184l8 -8v-184l-8 -8h-184l-8 8v184zM824 200h184l8 -8v-184l-8 -8h-184l-8 8v184zM1028 200h184l8 -8v-184
l-8 -8h-184l-8 8v184zM1232 200h184l8 -8v-184l-8 -8h-184l-8 8v184zM1436 200h184l8 -8v-184l-8 -8h-184l-8 8v184z" />
    <glyph glyph-name="uFE9B" unicode="&#x62b;" horiz-adv-x="1622" arabic-form="initial" 
d="M824 1016h184l8 -8v-184l-8 -8h-184l-8 8v184zM620 812h184l8 -8v-184l-8 -8h-184l-8 8v184zM1028 812h184l8 -8v-184l-8 -8h-184l-8 8v184zM1436 608h184l8 -8v-184l-8 -8h-184l-8 8v184zM1436 404h184l8 -8v-184l-8 -8h-184l-8 8v184zM8 200h184l8 -8v-184l-8 -8h-184
l-8 8v184zM212 200h184l8 -8v-184l-8 -8h-184l-8 8v184zM416 200h184l8 -8v-184l-8 -8h-184l-8 8v184zM620 200h184l8 -8v-184l-8 -8h-184l-8 8v184zM824 200h184l8 -8v-184l-8 -8h-184l-8 8v184zM1028 200h184l8 -8v-184l-8 -8h-184l-8 8v184zM1232 200h184l8 -8v-184
l-8 -8h-184l-8 8v184zM1436 200h184l8 -8v-184l-8 -8h-184l-8 8v184z" />
    <glyph glyph-name="uFE9C" unicode="&#x62b;" horiz-adv-x="1622" arabic-form="medial" 
d="M824 1016h184l8 -8v-184l-8 -8h-184l-8 8v184zM620 812h184l8 -8v-184l-8 -8h-184l-8 8v184zM1028 812h184l8 -8v-184l-8 -8h-184l-8 8v184zM1436 608h184l8 -8v-184l-8 -8h-184l-8 8v184zM1436 404h184l8 -8v-184l-8 -8h-184l-8 8v184zM8 200h184l8 -8v-184l-8 -8h-184
l-8 8v184zM212 200h184l8 -8v-184l-8 -8h-184l-8 8v184zM416 200h184l8 -8v-184l-8 -8h-184l-8 8v184zM620 200h184l8 -8v-184l-8 -8h-184l-8 8v184zM824 200h184l8 -8v-184l-8 -8h-184l-8 8v184zM1028 200h184l8 -8v-184l-8 -8h-184l-8 8v184zM1232 200h184l8 -8v-184
l-8 -8h-184l-8 8v184zM1436 200h184l8 -8v-184l-8 -8h-184l-8 8v184z" />
    <glyph glyph-name="uFE9E" unicode="&#x62c;" horiz-adv-x="1630" arabic-form="final" 
d="M824 814h184l8 -8v-184l-8 -8h-184l-8 8v184zM620 610h184l8 -8v-184l-8 -8h-184l-8 8v184zM1028 610h184l8 -8v-184l-8 -8h-184l-8 8v184zM1232 406h184l8 -8v-184l-8 -8h-184l-8 8v184zM212 202h184l8 -8v-184l-8 -8h-184l-8 8v184zM416 202h184l8 -8v-184l-8 -8h-184
l-8 8v184zM620 202h184l8 -8v-184l-8 -8h-184l-8 8v184zM824 202h184l8 -8v-184l-8 -8h-184l-8 8v184zM1028 202h184l8 -8v-184l-8 -8h-184l-8 8v184zM1232 202h184l8 -8v-184l-8 -8h-184l-8 8v184zM1436 202h184l8 -8v-184l-8 -8h-184l-8 8v184zM8 -2h184l8 -8v-184l-8 -8
h-184l-8 8v184zM8 -206h184l8 -8v-184l-8 -8h-184l-8 8v184zM1028 -206h184l8 -8v-184l-8 -8h-184l-8 8v184zM212 -410h184l8 -8v-184l-8 -8h-184l-8 8v184zM416 -410h184l8 -8v-184l-8 -8h-184l-8 8v184zM620 -410h184l8 -8v-184l-8 -8h-184l-8 8v184z" />
    <glyph glyph-name="uFE9F" unicode="&#x62c;" horiz-adv-x="1626" arabic-form="initial" 
d="M824 810h184l8 -8v-184l-8 -8h-184l-8 8v184zM620 606h184l8 -8v-184l-8 -8h-184l-8 8v184zM1028 606h184l8 -8v-184l-8 -8h-184l-8 8v184zM1232 402h184l8 -8v-184l-8 -8h-184l-8 8v184zM8 198h184l8 -8v-184l-8 -8h-184l-8 8v184zM212 198h184l8 -8v-184l-8 -8h-184
l-8 8v184zM416 198h184l8 -8v-184l-8 -8h-184l-8 8v184zM620 198h184l8 -8v-184l-8 -8h-184l-8 8v184zM824 198h184l8 -8v-184l-8 -8h-184l-8 8v184zM1028 198h184l8 -8v-184l-8 -8h-184l-8 8v184zM1232 198h184l8 -8v-184l-8 -8h-184l-8 8v184zM1436 198h184l8 -8v-184
l-8 -8h-184l-8 8v184zM1028 -210h184l8 -8v-184l-8 -8h-184l-8 8v184z" />
    <glyph glyph-name="uFEA0" unicode="&#x62c;" horiz-adv-x="1626" arabic-form="medial" 
d="M824 810h184l8 -8v-184l-8 -8h-184l-8 8v184zM620 606h184l8 -8v-184l-8 -8h-184l-8 8v184zM1028 606h184l8 -8v-184l-8 -8h-184l-8 8v184zM1232 402h184l8 -8v-184l-8 -8h-184l-8 8v184zM8 198h184l8 -8v-184l-8 -8h-184l-8 8v184zM212 198h184l8 -8v-184l-8 -8h-184
l-8 8v184zM416 198h184l8 -8v-184l-8 -8h-184l-8 8v184zM620 198h184l8 -8v-184l-8 -8h-184l-8 8v184zM824 198h184l8 -8v-184l-8 -8h-184l-8 8v184zM1028 198h184l8 -8v-184l-8 -8h-184l-8 8v184zM1232 198h184l8 -8v-184l-8 -8h-184l-8 8v184zM1436 198h184l8 -8v-184
l-8 -8h-184l-8 8v184zM1028 -210h184l8 -8v-184l-8 -8h-184l-8 8v184z" />
    <glyph glyph-name="uFEA2" unicode="&#x62d;" horiz-adv-x="1630" arabic-form="final" 
d="M824 814h184l8 -8v-184l-8 -8h-184l-8 8v184zM620 610h184l8 -8v-184l-8 -8h-184l-8 8v184zM1028 610h184l8 -8v-184l-8 -8h-184l-8 8v184zM1232 406h184l8 -8v-184l-8 -8h-184l-8 8v184zM212 202h184l8 -8v-184l-8 -8h-184l-8 8v184zM416 202h184l8 -8v-184l-8 -8h-184
l-8 8v184zM620 202h184l8 -8v-184l-8 -8h-184l-8 8v184zM824 202h184l8 -8v-184l-8 -8h-184l-8 8v184zM1028 202h184l8 -8v-184l-8 -8h-184l-8 8v184zM1232 202h184l8 -8v-184l-8 -8h-184l-8 8v184zM1436 202h184l8 -8v-184l-8 -8h-184l-8 8v184zM8 -2h184l8 -8v-184l-8 -8
h-184l-8 8v184zM8 -206h184l8 -8v-184l-8 -8h-184l-8 8v184zM212 -410h184l8 -8v-184l-8 -8h-184l-8 8v184zM416 -410h184l8 -8v-184l-8 -8h-184l-8 8v184zM620 -410h184l8 -8v-184l-8 -8h-184l-8 8v184z" />
    <glyph glyph-name="uFEA3" unicode="&#x62d;" horiz-adv-x="1626" arabic-form="initial" 
d="M824 810h184l8 -8v-184l-8 -8h-184l-8 8v184zM620 606h184l8 -8v-184l-8 -8h-184l-8 8v184zM1028 606h184l8 -8v-184l-8 -8h-184l-8 8v184zM1232 402h184l8 -8v-184l-8 -8h-184l-8 8v184zM8 198h184l8 -8v-184l-8 -8h-184l-8 8v184zM212 198h184l8 -8v-184l-8 -8h-184
l-8 8v184zM416 198h184l8 -8v-184l-8 -8h-184l-8 8v184zM620 198h184l8 -8v-184l-8 -8h-184l-8 8v184zM824 198h184l8 -8v-184l-8 -8h-184l-8 8v184zM1028 198h184l8 -8v-184l-8 -8h-184l-8 8v184zM1232 198h184l8 -8v-184l-8 -8h-184l-8 8v184zM1436 198h184l8 -8v-184
l-8 -8h-184l-8 8v184z" />
    <glyph glyph-name="uFEA4" unicode="&#x62d;" horiz-adv-x="1626" arabic-form="medial" 
d="M824 810h184l8 -8v-184l-8 -8h-184l-8 8v184zM620 606h184l8 -8v-184l-8 -8h-184l-8 8v184zM1028 606h184l8 -8v-184l-8 -8h-184l-8 8v184zM1232 402h184l8 -8v-184l-8 -8h-184l-8 8v184zM8 198h184l8 -8v-184l-8 -8h-184l-8 8v184zM212 198h184l8 -8v-184l-8 -8h-184
l-8 8v184zM416 198h184l8 -8v-184l-8 -8h-184l-8 8v184zM620 198h184l8 -8v-184l-8 -8h-184l-8 8v184zM824 198h184l8 -8v-184l-8 -8h-184l-8 8v184zM1028 198h184l8 -8v-184l-8 -8h-184l-8 8v184zM1232 198h184l8 -8v-184l-8 -8h-184l-8 8v184zM1436 198h184l8 -8v-184
l-8 -8h-184l-8 8v184z" />
    <glyph glyph-name="uFEA6" unicode="&#x62e;" horiz-adv-x="1630" arabic-form="final" 
d="M416 1018h184l8 -8v-184l-8 -8h-184l-8 8v184zM824 814h184l8 -8v-184l-8 -8h-184l-8 8v184zM620 610h184l8 -8v-184l-8 -8h-184l-8 8v184zM1028 610h184l8 -8v-184l-8 -8h-184l-8 8v184zM1232 406h184l8 -8v-184l-8 -8h-184l-8 8v184zM212 202h184l8 -8v-184l-8 -8h-184
l-8 8v184zM416 202h184l8 -8v-184l-8 -8h-184l-8 8v184zM620 202h184l8 -8v-184l-8 -8h-184l-8 8v184zM824 202h184l8 -8v-184l-8 -8h-184l-8 8v184zM1028 202h184l8 -8v-184l-8 -8h-184l-8 8v184zM1232 202h184l8 -8v-184l-8 -8h-184l-8 8v184zM1436 202h184l8 -8v-184
l-8 -8h-184l-8 8v184zM8 -2h184l8 -8v-184l-8 -8h-184l-8 8v184zM8 -206h184l8 -8v-184l-8 -8h-184l-8 8v184zM212 -410h184l8 -8v-184l-8 -8h-184l-8 8v184zM416 -410h184l8 -8v-184l-8 -8h-184l-8 8v184zM620 -410h184l8 -8v-184l-8 -8h-184l-8 8v184z" />
    <glyph glyph-name="uFEA7" unicode="&#x62e;" horiz-adv-x="1626" arabic-form="initial" 
d="M416 1016h184l8 -8v-184l-8 -8h-184l-8 8v184zM824 812h184l8 -8v-184l-8 -8h-184l-8 8v184zM620 608h184l8 -8v-184l-8 -8h-184l-8 8v184zM1028 608h184l8 -8v-184l-8 -8h-184l-8 8v184zM1232 404h184l8 -8v-184l-8 -8h-184l-8 8v184zM8 200h184l8 -8v-184l-8 -8h-184
l-8 8v184zM212 200h184l8 -8v-184l-8 -8h-184l-8 8v184zM416 200h184l8 -8v-184l-8 -8h-184l-8 8v184zM620 200h184l8 -8v-184l-8 -8h-184l-8 8v184zM824 200h184l8 -8v-184l-8 -8h-184l-8 8v184zM1028 200h184l8 -8v-184l-8 -8h-184l-8 8v184zM1232 200h184l8 -8v-184
l-8 -8h-184l-8 8v184zM1436 200h184l8 -8v-184l-8 -8h-184l-8 8v184z" />
    <glyph glyph-name="uFEA8" unicode="&#x62e;" horiz-adv-x="1626" arabic-form="medial" 
d="M416 1016h184l8 -8v-184l-8 -8h-184l-8 8v184zM824 812h184l8 -8v-184l-8 -8h-184l-8 8v184zM620 608h184l8 -8v-184l-8 -8h-184l-8 8v184zM1028 608h184l8 -8v-184l-8 -8h-184l-8 8v184zM1232 404h184l8 -8v-184l-8 -8h-184l-8 8v184zM8 200h184l8 -8v-184l-8 -8h-184
l-8 8v184zM212 200h184l8 -8v-184l-8 -8h-184l-8 8v184zM416 200h184l8 -8v-184l-8 -8h-184l-8 8v184zM620 200h184l8 -8v-184l-8 -8h-184l-8 8v184zM824 200h184l8 -8v-184l-8 -8h-184l-8 8v184zM1028 200h184l8 -8v-184l-8 -8h-184l-8 8v184zM1232 200h184l8 -8v-184
l-8 -8h-184l-8 8v184zM1436 200h184l8 -8v-184l-8 -8h-184l-8 8v184z" />
    <glyph glyph-name="uFEAA" unicode="&#x62f;" horiz-adv-x="1626" arabic-form="final" 
d="M1026 812h184l8 -8v-184l-8 -8h-184l-8 8v184zM1230 608h184l8 -8v-184l-8 -8h-184l-8 8v184zM1434 404h184l8 -8v-184l-8 -8h-184l-8 8v184zM618 200h184l8 -8v-184l-8 -8h-184l-8 8v184zM822 200h184l8 -8v-184l-8 -8h-184l-8 8v184zM1026 200h184l8 -8v-184l-8 -8
h-184l-8 8v184zM1230 200h184l8 -8v-184l-8 -8h-184l-8 8v184zM1434 200h184l8 -8v-184l-8 -8h-184l-8 8v184z" />
    <glyph glyph-name="uFEAC" unicode="&#x630;" horiz-adv-x="1626" arabic-form="final" 
d="M618 1016h184l8 -8v-184l-8 -8h-184l-8 8v184zM1026 812h184l8 -8v-184l-8 -8h-184l-8 8v184zM1230 608h184l8 -8v-184l-8 -8h-184l-8 8v184zM1434 404h184l8 -8v-184l-8 -8h-184l-8 8v184zM618 200h184l8 -8v-184l-8 -8h-184l-8 8v184zM822 200h184l8 -8v-184l-8 -8
h-184l-8 8v184zM1026 200h184l8 -8v-184l-8 -8h-184l-8 8v184zM1230 200h184l8 -8v-184l-8 -8h-184l-8 8v184zM1434 200h184l8 -8v-184l-8 -8h-184l-8 8v184z" />
    <glyph glyph-name="uFEAE" unicode="&#x631;" horiz-adv-x="1622" arabic-form="final" 
d="M1430 406h184l8 -8v-184l-8 -8h-184l-8 8v184zM1430 202h184l8 -8v-184l-8 -8h-184l-8 8v184zM1430 -2h184l8 -8v-184l-8 -8h-184l-8 8v184zM1226 -206h184l8 -8v-184l-8 -8h-184l-8 8v184zM818 -410h184l8 -8v-184l-8 -8h-184l-8 8v184zM1022 -410h184l8 -8v-184l-8 -8
h-184l-8 8v184z" />
    <glyph glyph-name="uFEB0" unicode="&#x632;" horiz-adv-x="1622" arabic-form="final" 
d="M1430 814h184l8 -8v-184l-8 -8h-184l-8 8v184zM1430 406h184l8 -8v-184l-8 -8h-184l-8 8v184zM1430 202h184l8 -8v-184l-8 -8h-184l-8 8v184zM1430 -2h184l8 -8v-184l-8 -8h-184l-8 8v184zM1226 -206h184l8 -8v-184l-8 -8h-184l-8 8v184zM818 -410h184l8 -8v-184l-8 -8
h-184l-8 8v184zM1022 -410h184l8 -8v-184l-8 -8h-184l-8 8v184z" />
    <glyph glyph-name="uFEB2" unicode="&#x633;" horiz-adv-x="1626" arabic-form="final" 
d="M620 406h184l8 -8v-184l-8 -8h-184l-8 8v184zM1028 406h184l8 -8v-184l-8 -8h-184l-8 8v184zM1436 406h184l8 -8v-184l-8 -8h-184l-8 8v184zM8 202h184l8 -8v-184l-8 -8h-184l-8 8v184zM620 202h184l8 -8v-184l-8 -8h-184l-8 8v184zM824 202h184l8 -8v-184l-8 -8h-184
l-8 8v184zM1028 202h184l8 -8v-184l-8 -8h-184l-8 8v184zM1232 202h184l8 -8v-184l-8 -8h-184l-8 8v184zM1436 202h184l8 -8v-184l-8 -8h-184l-8 8v184zM8 -2h184l8 -8v-184l-8 -8h-184l-8 8v184zM620 -2h184l8 -8v-184l-8 -8h-184l-8 8v184zM8 -206h184l8 -8v-184l-8 -8
h-184l-8 8v184zM620 -206h184l8 -8v-184l-8 -8h-184l-8 8v184zM8 -410h184l8 -8v-184l-8 -8h-184l-8 8v184zM212 -410h184l8 -8v-184l-8 -8h-184l-8 8v184zM416 -410h184l8 -8v-184l-8 -8h-184l-8 8v184zM620 -410h184l8 -8v-184l-8 -8h-184l-8 8v184z" />
    <glyph glyph-name="uFEB3" unicode="&#x633;" horiz-adv-x="1630" arabic-form="initial" 
d="M620 404h184l8 -8v-184l-8 -8h-184l-8 8v184zM1028 404h184l8 -8v-184l-8 -8h-184l-8 8v184zM1436 404h184l8 -8v-184l-8 -8h-184l-8 8v184zM8 200h184l8 -8v-184l-8 -8h-184l-8 8v184zM212 200h184l8 -8v-184l-8 -8h-184l-8 8v184zM416 200h184l8 -8v-184l-8 -8h-184
l-8 8v184zM620 200h184l8 -8v-184l-8 -8h-184l-8 8v184zM824 200h184l8 -8v-184l-8 -8h-184l-8 8v184zM1028 200h184l8 -8v-184l-8 -8h-184l-8 8v184zM1232 200h184l8 -8v-184l-8 -8h-184l-8 8v184zM1436 200h184l8 -8v-184l-8 -8h-184l-8 8v184z" />
    <glyph glyph-name="uFEB4" unicode="&#x633;" horiz-adv-x="1630" arabic-form="medial" 
d="M620 404h184l8 -8v-184l-8 -8h-184l-8 8v184zM1028 404h184l8 -8v-184l-8 -8h-184l-8 8v184zM1436 404h184l8 -8v-184l-8 -8h-184l-8 8v184zM8 200h184l8 -8v-184l-8 -8h-184l-8 8v184zM212 200h184l8 -8v-184l-8 -8h-184l-8 8v184zM416 200h184l8 -8v-184l-8 -8h-184
l-8 8v184zM620 200h184l8 -8v-184l-8 -8h-184l-8 8v184zM824 200h184l8 -8v-184l-8 -8h-184l-8 8v184zM1028 200h184l8 -8v-184l-8 -8h-184l-8 8v184zM1232 200h184l8 -8v-184l-8 -8h-184l-8 8v184zM1436 200h184l8 -8v-184l-8 -8h-184l-8 8v184z" />
    <glyph glyph-name="uFEB6" unicode="&#x634;" horiz-adv-x="1626" arabic-form="final" 
d="M1028 1018h184l8 -8v-184l-8 -8h-184l-8 8v184zM824 814h184l8 -8v-184l-8 -8h-184l-8 8v184zM1232 814h184l8 -8v-184l-8 -8h-184l-8 8v184zM620 406h184l8 -8v-184l-8 -8h-184l-8 8v184zM1028 406h184l8 -8v-184l-8 -8h-184l-8 8v184zM1436 406h184l8 -8v-184l-8 -8
h-184l-8 8v184zM8 202h184l8 -8v-184l-8 -8h-184l-8 8v184zM620 202h184l8 -8v-184l-8 -8h-184l-8 8v184zM824 202h184l8 -8v-184l-8 -8h-184l-8 8v184zM1028 202h184l8 -8v-184l-8 -8h-184l-8 8v184zM1232 202h184l8 -8v-184l-8 -8h-184l-8 8v184zM1436 202h184l8 -8v-184
l-8 -8h-184l-8 8v184zM8 -2h184l8 -8v-184l-8 -8h-184l-8 8v184zM620 -2h184l8 -8v-184l-8 -8h-184l-8 8v184zM8 -206h184l8 -8v-184l-8 -8h-184l-8 8v184zM620 -206h184l8 -8v-184l-8 -8h-184l-8 8v184zM8 -410h184l8 -8v-184l-8 -8h-184l-8 8v184zM212 -410h184l8 -8v-184
l-8 -8h-184l-8 8v184zM416 -410h184l8 -8v-184l-8 -8h-184l-8 8v184zM620 -410h184l8 -8v-184l-8 -8h-184l-8 8v184z" />
    <glyph glyph-name="uFEB7" unicode="&#x634;" horiz-adv-x="1630" arabic-form="initial" 
d="M1028 1016h184l8 -8v-184l-8 -8h-184l-8 8v184zM824 812h184l8 -8v-184l-8 -8h-184l-8 8v184zM1232 812h184l8 -8v-184l-8 -8h-184l-8 8v184zM620 404h184l8 -8v-184l-8 -8h-184l-8 8v184zM1028 404h184l8 -8v-184l-8 -8h-184l-8 8v184zM1436 404h184l8 -8v-184l-8 -8
h-184l-8 8v184zM8 200h184l8 -8v-184l-8 -8h-184l-8 8v184zM212 200h184l8 -8v-184l-8 -8h-184l-8 8v184zM416 200h184l8 -8v-184l-8 -8h-184l-8 8v184zM620 200h184l8 -8v-184l-8 -8h-184l-8 8v184zM824 200h184l8 -8v-184l-8 -8h-184l-8 8v184zM1028 200h184l8 -8v-184
l-8 -8h-184l-8 8v184zM1232 200h184l8 -8v-184l-8 -8h-184l-8 8v184zM1436 200h184l8 -8v-184l-8 -8h-184l-8 8v184z" />
    <glyph glyph-name="uFEB8" unicode="&#x634;" horiz-adv-x="1630" arabic-form="medial" 
d="M1028 1016h184l8 -8v-184l-8 -8h-184l-8 8v184zM824 812h184l8 -8v-184l-8 -8h-184l-8 8v184zM1232 812h184l8 -8v-184l-8 -8h-184l-8 8v184zM620 404h184l8 -8v-184l-8 -8h-184l-8 8v184zM1028 404h184l8 -8v-184l-8 -8h-184l-8 8v184zM1436 404h184l8 -8v-184l-8 -8
h-184l-8 8v184zM8 200h184l8 -8v-184l-8 -8h-184l-8 8v184zM212 200h184l8 -8v-184l-8 -8h-184l-8 8v184zM416 200h184l8 -8v-184l-8 -8h-184l-8 8v184zM620 200h184l8 -8v-184l-8 -8h-184l-8 8v184zM824 200h184l8 -8v-184l-8 -8h-184l-8 8v184zM1028 200h184l8 -8v-184
l-8 -8h-184l-8 8v184zM1232 200h184l8 -8v-184l-8 -8h-184l-8 8v184zM1436 200h184l8 -8v-184l-8 -8h-184l-8 8v184z" />
    <glyph glyph-name="uFEBA" unicode="&#x635;" arabic-form="final" 
d="M1028 610h184l8 -8v-184l-8 -8h-184l-8 8v184zM1232 610h184l8 -8v-184l-8 -8h-184l-8 8v184zM1436 610h184l8 -8v-184l-8 -8h-184l-8 8v184zM824 406h184l8 -8v-184l-8 -8h-184l-8 8v184zM1436 406h184l8 -8v-184l-8 -8h-184l-8 8v184zM8 202h184l8 -8v-184l-8 -8h-184
l-8 8v184zM620 202h184l8 -8v-184l-8 -8h-184l-8 8v184zM824 202h184l8 -8v-184l-8 -8h-184l-8 8v184zM1028 202h184l8 -8v-184l-8 -8h-184l-8 8v184zM1232 202h184l8 -8v-184l-8 -8h-184l-8 8v184zM1436 202h184l8 -8v-184l-8 -8h-184l-8 8v184zM8 -2h184l8 -8v-184l-8 -8
h-184l-8 8v184zM620 -2h184l8 -8v-184l-8 -8h-184l-8 8v184zM8 -206h184l8 -8v-184l-8 -8h-184l-8 8v184zM620 -206h184l8 -8v-184l-8 -8h-184l-8 8v184zM8 -410h184l8 -8v-184l-8 -8h-184l-8 8v184zM212 -410h184l8 -8v-184l-8 -8h-184l-8 8v184zM416 -410h184l8 -8v-184
l-8 -8h-184l-8 8v184zM620 -410h184l8 -8v-184l-8 -8h-184l-8 8v184z" />
    <glyph glyph-name="uFEBB" unicode="&#x635;" horiz-adv-x="1626" arabic-form="initial" 
d="M1028 608h184l8 -8v-184l-8 -8h-184l-8 8v184zM1232 608h184l8 -8v-184l-8 -8h-184l-8 8v184zM1436 608h184l8 -8v-184l-8 -8h-184l-8 8v184zM416 404h184l8 -8v-184l-8 -8h-184l-8 8v184zM824 404h184l8 -8v-184l-8 -8h-184l-8 8v184zM1436 404h184l8 -8v-184l-8 -8
h-184l-8 8v184zM8 200h184l8 -8v-184l-8 -8h-184l-8 8v184zM212 200h184l8 -8v-184l-8 -8h-184l-8 8v184zM416 200h184l8 -8v-184l-8 -8h-184l-8 8v184zM620 200h184l8 -8v-184l-8 -8h-184l-8 8v184zM824 200h184l8 -8v-184l-8 -8h-184l-8 8v184zM1028 200h184l8 -8v-184
l-8 -8h-184l-8 8v184zM1232 200h184l8 -8v-184l-8 -8h-184l-8 8v184zM1436 200h184l8 -8v-184l-8 -8h-184l-8 8v184z" />
    <glyph glyph-name="uFEBC" unicode="&#x635;" horiz-adv-x="1626" arabic-form="medial" 
d="M1028 608h184l8 -8v-184l-8 -8h-184l-8 8v184zM1232 608h184l8 -8v-184l-8 -8h-184l-8 8v184zM1436 608h184l8 -8v-184l-8 -8h-184l-8 8v184zM416 404h184l8 -8v-184l-8 -8h-184l-8 8v184zM824 404h184l8 -8v-184l-8 -8h-184l-8 8v184zM1436 404h184l8 -8v-184l-8 -8
h-184l-8 8v184zM8 200h184l8 -8v-184l-8 -8h-184l-8 8v184zM212 200h184l8 -8v-184l-8 -8h-184l-8 8v184zM416 200h184l8 -8v-184l-8 -8h-184l-8 8v184zM620 200h184l8 -8v-184l-8 -8h-184l-8 8v184zM824 200h184l8 -8v-184l-8 -8h-184l-8 8v184zM1028 200h184l8 -8v-184
l-8 -8h-184l-8 8v184zM1232 200h184l8 -8v-184l-8 -8h-184l-8 8v184zM1436 200h184l8 -8v-184l-8 -8h-184l-8 8v184z" />
    <glyph glyph-name="uFEBE" unicode="&#x636;" arabic-form="final" 
d="M1232 1018h184l8 -8v-184l-8 -8h-184l-8 8v184zM1028 610h184l8 -8v-184l-8 -8h-184l-8 8v184zM1232 610h184l8 -8v-184l-8 -8h-184l-8 8v184zM1436 610h184l8 -8v-184l-8 -8h-184l-8 8v184zM824 406h184l8 -8v-184l-8 -8h-184l-8 8v184zM1436 406h184l8 -8v-184l-8 -8
h-184l-8 8v184zM8 202h184l8 -8v-184l-8 -8h-184l-8 8v184zM620 202h184l8 -8v-184l-8 -8h-184l-8 8v184zM824 202h184l8 -8v-184l-8 -8h-184l-8 8v184zM1028 202h184l8 -8v-184l-8 -8h-184l-8 8v184zM1232 202h184l8 -8v-184l-8 -8h-184l-8 8v184zM1436 202h184l8 -8v-184
l-8 -8h-184l-8 8v184zM8 -2h184l8 -8v-184l-8 -8h-184l-8 8v184zM620 -2h184l8 -8v-184l-8 -8h-184l-8 8v184zM8 -206h184l8 -8v-184l-8 -8h-184l-8 8v184zM620 -206h184l8 -8v-184l-8 -8h-184l-8 8v184zM8 -410h184l8 -8v-184l-8 -8h-184l-8 8v184zM212 -410h184l8 -8v-184
l-8 -8h-184l-8 8v184zM416 -410h184l8 -8v-184l-8 -8h-184l-8 8v184zM620 -410h184l8 -8v-184l-8 -8h-184l-8 8v184z" />
    <glyph glyph-name="uFEBF" unicode="&#x636;" horiz-adv-x="1626" arabic-form="initial" 
d="M1232 1016h184l8 -8v-184l-8 -8h-184l-8 8v184zM1028 608h184l8 -8v-184l-8 -8h-184l-8 8v184zM1232 608h184l8 -8v-184l-8 -8h-184l-8 8v184zM1436 608h184l8 -8v-184l-8 -8h-184l-8 8v184zM416 404h184l8 -8v-184l-8 -8h-184l-8 8v184zM824 404h184l8 -8v-184l-8 -8
h-184l-8 8v184zM1436 404h184l8 -8v-184l-8 -8h-184l-8 8v184zM8 200h184l8 -8v-184l-8 -8h-184l-8 8v184zM212 200h184l8 -8v-184l-8 -8h-184l-8 8v184zM416 200h184l8 -8v-184l-8 -8h-184l-8 8v184zM620 200h184l8 -8v-184l-8 -8h-184l-8 8v184zM824 200h184l8 -8v-184
l-8 -8h-184l-8 8v184zM1028 200h184l8 -8v-184l-8 -8h-184l-8 8v184zM1232 200h184l8 -8v-184l-8 -8h-184l-8 8v184zM1436 200h184l8 -8v-184l-8 -8h-184l-8 8v184z" />
    <glyph glyph-name="uFEC0" unicode="&#x636;" horiz-adv-x="1626" arabic-form="medial" 
d="M1232 1016h184l8 -8v-184l-8 -8h-184l-8 8v184zM1028 608h184l8 -8v-184l-8 -8h-184l-8 8v184zM1232 608h184l8 -8v-184l-8 -8h-184l-8 8v184zM1436 608h184l8 -8v-184l-8 -8h-184l-8 8v184zM416 404h184l8 -8v-184l-8 -8h-184l-8 8v184zM824 404h184l8 -8v-184l-8 -8
h-184l-8 8v184zM1436 404h184l8 -8v-184l-8 -8h-184l-8 8v184zM8 200h184l8 -8v-184l-8 -8h-184l-8 8v184zM212 200h184l8 -8v-184l-8 -8h-184l-8 8v184zM416 200h184l8 -8v-184l-8 -8h-184l-8 8v184zM620 200h184l8 -8v-184l-8 -8h-184l-8 8v184zM824 200h184l8 -8v-184
l-8 -8h-184l-8 8v184zM1028 200h184l8 -8v-184l-8 -8h-184l-8 8v184zM1232 200h184l8 -8v-184l-8 -8h-184l-8 8v184zM1436 200h184l8 -8v-184l-8 -8h-184l-8 8v184z" />
    <glyph glyph-name="uFEC2" unicode="&#x637;" arabic-form="final" 
d="M620 1016h184l8 -8v-184l-8 -8h-184l-8 8v184zM620 812h184l8 -8v-184l-8 -8h-184l-8 8v184zM620 608h184l8 -8v-184l-8 -8h-184l-8 8v184zM1028 608h184l8 -8v-184l-8 -8h-184l-8 8v184zM1232 608h184l8 -8v-184l-8 -8h-184l-8 8v184zM1436 608h184l8 -8v-184l-8 -8
h-184l-8 8v184zM620 404h184l8 -8v-184l-8 -8h-184l-8 8v184zM824 404h184l8 -8v-184l-8 -8h-184l-8 8v184zM1436 404h184l8 -8v-184l-8 -8h-184l-8 8v184zM8 200h184l8 -8v-184l-8 -8h-184l-8 8v184zM212 200h184l8 -8v-184l-8 -8h-184l-8 8v184zM416 200h184l8 -8v-184
l-8 -8h-184l-8 8v184zM620 200h184l8 -8v-184l-8 -8h-184l-8 8v184zM824 200h184l8 -8v-184l-8 -8h-184l-8 8v184zM1028 200h184l8 -8v-184l-8 -8h-184l-8 8v184zM1232 200h184l8 -8v-184l-8 -8h-184l-8 8v184zM1436 200h184l8 -8v-184l-8 -8h-184l-8 8v184z" />
    <glyph glyph-name="uFEC3" unicode="&#x637;" arabic-form="initial" 
d="M620 1016h184l8 -8v-184l-8 -8h-184l-8 8v184zM620 812h184l8 -8v-184l-8 -8h-184l-8 8v184zM620 608h184l8 -8v-184l-8 -8h-184l-8 8v184zM1028 608h184l8 -8v-184l-8 -8h-184l-8 8v184zM1232 608h184l8 -8v-184l-8 -8h-184l-8 8v184zM1436 608h184l8 -8v-184l-8 -8
h-184l-8 8v184zM620 404h184l8 -8v-184l-8 -8h-184l-8 8v184zM824 404h184l8 -8v-184l-8 -8h-184l-8 8v184zM1436 404h184l8 -8v-184l-8 -8h-184l-8 8v184zM8 200h184l8 -8v-184l-8 -8h-184l-8 8v184zM212 200h184l8 -8v-184l-8 -8h-184l-8 8v184zM416 200h184l8 -8v-184
l-8 -8h-184l-8 8v184zM620 200h184l8 -8v-184l-8 -8h-184l-8 8v184zM824 200h184l8 -8v-184l-8 -8h-184l-8 8v184zM1028 200h184l8 -8v-184l-8 -8h-184l-8 8v184zM1232 200h184l8 -8v-184l-8 -8h-184l-8 8v184zM1436 200h184l8 -8v-184l-8 -8h-184l-8 8v184z" />
    <glyph glyph-name="uFEC4" unicode="&#x637;" arabic-form="medial" 
d="M620 1016h184l8 -8v-184l-8 -8h-184l-8 8v184zM620 812h184l8 -8v-184l-8 -8h-184l-8 8v184zM620 608h184l8 -8v-184l-8 -8h-184l-8 8v184zM1028 608h184l8 -8v-184l-8 -8h-184l-8 8v184zM1232 608h184l8 -8v-184l-8 -8h-184l-8 8v184zM1436 608h184l8 -8v-184l-8 -8
h-184l-8 8v184zM620 404h184l8 -8v-184l-8 -8h-184l-8 8v184zM824 404h184l8 -8v-184l-8 -8h-184l-8 8v184zM1436 404h184l8 -8v-184l-8 -8h-184l-8 8v184zM8 200h184l8 -8v-184l-8 -8h-184l-8 8v184zM212 200h184l8 -8v-184l-8 -8h-184l-8 8v184zM416 200h184l8 -8v-184
l-8 -8h-184l-8 8v184zM620 200h184l8 -8v-184l-8 -8h-184l-8 8v184zM824 200h184l8 -8v-184l-8 -8h-184l-8 8v184zM1028 200h184l8 -8v-184l-8 -8h-184l-8 8v184zM1232 200h184l8 -8v-184l-8 -8h-184l-8 8v184zM1436 200h184l8 -8v-184l-8 -8h-184l-8 8v184z" />
    <glyph glyph-name="uFEC6" unicode="&#x638;" arabic-form="final" 
d="M620 1016h184l8 -8v-184l-8 -8h-184l-8 8v184zM1232 1016h184l8 -8v-184l-8 -8h-184l-8 8v184zM620 812h184l8 -8v-184l-8 -8h-184l-8 8v184zM620 608h184l8 -8v-184l-8 -8h-184l-8 8v184zM1028 608h184l8 -8v-184l-8 -8h-184l-8 8v184zM1232 608h184l8 -8v-184l-8 -8
h-184l-8 8v184zM1436 608h184l8 -8v-184l-8 -8h-184l-8 8v184zM620 404h184l8 -8v-184l-8 -8h-184l-8 8v184zM824 404h184l8 -8v-184l-8 -8h-184l-8 8v184zM1436 404h184l8 -8v-184l-8 -8h-184l-8 8v184zM8 200h184l8 -8v-184l-8 -8h-184l-8 8v184zM212 200h184l8 -8v-184
l-8 -8h-184l-8 8v184zM416 200h184l8 -8v-184l-8 -8h-184l-8 8v184zM620 200h184l8 -8v-184l-8 -8h-184l-8 8v184zM824 200h184l8 -8v-184l-8 -8h-184l-8 8v184zM1028 200h184l8 -8v-184l-8 -8h-184l-8 8v184zM1232 200h184l8 -8v-184l-8 -8h-184l-8 8v184zM1436 200h184
l8 -8v-184l-8 -8h-184l-8 8v184z" />
    <glyph glyph-name="uFEC7" unicode="&#x638;" arabic-form="initial" 
d="M620 1016h184l8 -8v-184l-8 -8h-184l-8 8v184zM1232 1016h184l8 -8v-184l-8 -8h-184l-8 8v184zM620 812h184l8 -8v-184l-8 -8h-184l-8 8v184zM620 608h184l8 -8v-184l-8 -8h-184l-8 8v184zM1028 608h184l8 -8v-184l-8 -8h-184l-8 8v184zM1232 608h184l8 -8v-184l-8 -8
h-184l-8 8v184zM1436 608h184l8 -8v-184l-8 -8h-184l-8 8v184zM620 404h184l8 -8v-184l-8 -8h-184l-8 8v184zM824 404h184l8 -8v-184l-8 -8h-184l-8 8v184zM1436 404h184l8 -8v-184l-8 -8h-184l-8 8v184zM8 200h184l8 -8v-184l-8 -8h-184l-8 8v184zM212 200h184l8 -8v-184
l-8 -8h-184l-8 8v184zM416 200h184l8 -8v-184l-8 -8h-184l-8 8v184zM620 200h184l8 -8v-184l-8 -8h-184l-8 8v184zM824 200h184l8 -8v-184l-8 -8h-184l-8 8v184zM1028 200h184l8 -8v-184l-8 -8h-184l-8 8v184zM1232 200h184l8 -8v-184l-8 -8h-184l-8 8v184zM1436 200h184
l8 -8v-184l-8 -8h-184l-8 8v184z" />
    <glyph glyph-name="uFEC8" unicode="&#x638;" arabic-form="medial" 
d="M620 1016h184l8 -8v-184l-8 -8h-184l-8 8v184zM1232 1016h184l8 -8v-184l-8 -8h-184l-8 8v184zM620 812h184l8 -8v-184l-8 -8h-184l-8 8v184zM620 608h184l8 -8v-184l-8 -8h-184l-8 8v184zM1028 608h184l8 -8v-184l-8 -8h-184l-8 8v184zM1232 608h184l8 -8v-184l-8 -8
h-184l-8 8v184zM1436 608h184l8 -8v-184l-8 -8h-184l-8 8v184zM620 404h184l8 -8v-184l-8 -8h-184l-8 8v184zM824 404h184l8 -8v-184l-8 -8h-184l-8 8v184zM1436 404h184l8 -8v-184l-8 -8h-184l-8 8v184zM8 200h184l8 -8v-184l-8 -8h-184l-8 8v184zM212 200h184l8 -8v-184
l-8 -8h-184l-8 8v184zM416 200h184l8 -8v-184l-8 -8h-184l-8 8v184zM620 200h184l8 -8v-184l-8 -8h-184l-8 8v184zM824 200h184l8 -8v-184l-8 -8h-184l-8 8v184zM1028 200h184l8 -8v-184l-8 -8h-184l-8 8v184zM1232 200h184l8 -8v-184l-8 -8h-184l-8 8v184zM1436 200h184
l8 -8v-184l-8 -8h-184l-8 8v184z" />
    <glyph glyph-name="uFECA" unicode="&#x639;" horiz-adv-x="1626" arabic-form="final" 
d="M620 610h184l8 -8v-184l-8 -8h-184l-8 8v184zM824 610h184l8 -8v-184l-8 -8h-184l-8 8v184zM1028 610h184l8 -8v-184l-8 -8h-184l-8 8v184zM824 406h184l8 -8v-184l-8 -8h-184l-8 8v184zM416 202h184l8 -8v-184l-8 -8h-184l-8 8v184zM620 202h184l8 -8v-184l-8 -8h-184
l-8 8v184zM824 202h184l8 -8v-184l-8 -8h-184l-8 8v184zM1028 202h184l8 -8v-184l-8 -8h-184l-8 8v184zM1232 202h184l8 -8v-184l-8 -8h-184l-8 8v184zM1436 202h184l8 -8v-184l-8 -8h-184l-8 8v184zM212 -2h184l8 -8v-184l-8 -8h-184l-8 8v184zM8 -206h184l8 -8v-184l-8 -8
h-184l-8 8v184zM212 -410h184l8 -8v-184l-8 -8h-184l-8 8v184zM416 -410h184l8 -8v-184l-8 -8h-184l-8 8v184zM620 -410h184l8 -8v-184l-8 -8h-184l-8 8v184zM824 -410h184l8 -8v-184l-8 -8h-184l-8 8v184zM1028 -410h184l8 -8v-184l-8 -8h-184l-8 8v184z" />
    <glyph glyph-name="uFECB" unicode="&#x639;" horiz-adv-x="1630" arabic-form="initial" 
d="M1028 608h184l8 -8v-184l-8 -8h-184l-8 8v184zM1232 608h184l8 -8v-184l-8 -8h-184l-8 8v184zM1436 608h184l8 -8v-184l-8 -8h-184l-8 8v184zM824 404h184l8 -8v-184l-8 -8h-184l-8 8v184zM8 200h184l8 -8v-184l-8 -8h-184l-8 8v184zM212 200h184l8 -8v-184l-8 -8h-184
l-8 8v184zM416 200h184l8 -8v-184l-8 -8h-184l-8 8v184zM620 200h184l8 -8v-184l-8 -8h-184l-8 8v184zM824 200h184l8 -8v-184l-8 -8h-184l-8 8v184zM1028 200h184l8 -8v-184l-8 -8h-184l-8 8v184zM1232 200h184l8 -8v-184l-8 -8h-184l-8 8v184zM1436 200h184l8 -8v-184
l-8 -8h-184l-8 8v184z" />
    <glyph glyph-name="uFECC" unicode="&#x639;" horiz-adv-x="1630" arabic-form="medial" 
d="M620 608h184l8 -8v-184l-8 -8h-184l-8 8v184zM824 608h184l8 -8v-184l-8 -8h-184l-8 8v184zM1028 608h184l8 -8v-184l-8 -8h-184l-8 8v184zM824 404h184l8 -8v-184l-8 -8h-184l-8 8v184zM8 200h184l8 -8v-184l-8 -8h-184l-8 8v184zM212 200h184l8 -8v-184l-8 -8h-184
l-8 8v184zM416 200h184l8 -8v-184l-8 -8h-184l-8 8v184zM620 200h184l8 -8v-184l-8 -8h-184l-8 8v184zM824 200h184l8 -8v-184l-8 -8h-184l-8 8v184zM1028 200h184l8 -8v-184l-8 -8h-184l-8 8v184zM1232 200h184l8 -8v-184l-8 -8h-184l-8 8v184zM1436 200h184l8 -8v-184
l-8 -8h-184l-8 8v184z" />
    <glyph glyph-name="uFECE" unicode="&#x63a;" horiz-adv-x="1626" arabic-form="final" 
d="M824 1018h184l8 -8v-184l-8 -8h-184l-8 8v184zM620 610h184l8 -8v-184l-8 -8h-184l-8 8v184zM824 610h184l8 -8v-184l-8 -8h-184l-8 8v184zM1028 610h184l8 -8v-184l-8 -8h-184l-8 8v184zM824 406h184l8 -8v-184l-8 -8h-184l-8 8v184zM416 202h184l8 -8v-184l-8 -8h-184
l-8 8v184zM620 202h184l8 -8v-184l-8 -8h-184l-8 8v184zM824 202h184l8 -8v-184l-8 -8h-184l-8 8v184zM1028 202h184l8 -8v-184l-8 -8h-184l-8 8v184zM1232 202h184l8 -8v-184l-8 -8h-184l-8 8v184zM1436 202h184l8 -8v-184l-8 -8h-184l-8 8v184zM212 -2h184l8 -8v-184
l-8 -8h-184l-8 8v184zM8 -206h184l8 -8v-184l-8 -8h-184l-8 8v184zM212 -410h184l8 -8v-184l-8 -8h-184l-8 8v184zM416 -410h184l8 -8v-184l-8 -8h-184l-8 8v184zM620 -410h184l8 -8v-184l-8 -8h-184l-8 8v184zM824 -410h184l8 -8v-184l-8 -8h-184l-8 8v184zM1028 -410h184
l8 -8v-184l-8 -8h-184l-8 8v184z" />
    <glyph glyph-name="uFECF" unicode="&#x63a;" horiz-adv-x="1630" arabic-form="initial" 
d="M1232 1016h184l8 -8v-184l-8 -8h-184l-8 8v184zM1028 608h184l8 -8v-184l-8 -8h-184l-8 8v184zM1232 608h184l8 -8v-184l-8 -8h-184l-8 8v184zM1436 608h184l8 -8v-184l-8 -8h-184l-8 8v184zM824 404h184l8 -8v-184l-8 -8h-184l-8 8v184zM8 200h184l8 -8v-184l-8 -8h-184
l-8 8v184zM212 200h184l8 -8v-184l-8 -8h-184l-8 8v184zM416 200h184l8 -8v-184l-8 -8h-184l-8 8v184zM620 200h184l8 -8v-184l-8 -8h-184l-8 8v184zM824 200h184l8 -8v-184l-8 -8h-184l-8 8v184zM1028 200h184l8 -8v-184l-8 -8h-184l-8 8v184zM1232 200h184l8 -8v-184
l-8 -8h-184l-8 8v184zM1436 200h184l8 -8v-184l-8 -8h-184l-8 8v184z" />
    <glyph glyph-name="uFED0" unicode="&#x63a;" horiz-adv-x="1630" arabic-form="medial" 
d="M824 1016h184l8 -8v-184l-8 -8h-184l-8 8v184zM620 608h184l8 -8v-184l-8 -8h-184l-8 8v184zM824 608h184l8 -8v-184l-8 -8h-184l-8 8v184zM1028 608h184l8 -8v-184l-8 -8h-184l-8 8v184zM824 404h184l8 -8v-184l-8 -8h-184l-8 8v184zM8 200h184l8 -8v-184l-8 -8h-184
l-8 8v184zM212 200h184l8 -8v-184l-8 -8h-184l-8 8v184zM416 200h184l8 -8v-184l-8 -8h-184l-8 8v184zM620 200h184l8 -8v-184l-8 -8h-184l-8 8v184zM824 200h184l8 -8v-184l-8 -8h-184l-8 8v184zM1028 200h184l8 -8v-184l-8 -8h-184l-8 8v184zM1232 200h184l8 -8v-184
l-8 -8h-184l-8 8v184zM1436 200h184l8 -8v-184l-8 -8h-184l-8 8v184z" />
    <glyph glyph-name="uFED2" unicode="&#x641;" arabic-form="final" 
d="M1232 1016h184l8 -8v-184l-8 -8h-184l-8 8v184zM1232 608h184l8 -8v-184l-8 -8h-184l-8 8v184zM8 404h184l8 -8v-184l-8 -8h-184l-8 8v184zM1028 404h184l8 -8v-184l-8 -8h-184l-8 8v184zM1436 404h184l8 -8v-184l-8 -8h-184l-8 8v184zM212 200h184l8 -8v-184l-8 -8h-184
l-8 8v184zM416 200h184l8 -8v-184l-8 -8h-184l-8 8v184zM620 200h184l8 -8v-184l-8 -8h-184l-8 8v184zM824 200h184l8 -8v-184l-8 -8h-184l-8 8v184zM1028 200h184l8 -8v-184l-8 -8h-184l-8 8v184zM1232 200h184l8 -8v-184l-8 -8h-184l-8 8v184zM1436 200h184l8 -8v-184
l-8 -8h-184l-8 8v184z" />
    <glyph glyph-name="uFED3" unicode="&#x641;" horiz-adv-x="1626" arabic-form="initial" 
d="M1232 1016h184l8 -8v-184l-8 -8h-184l-8 8v184zM1232 608h184l8 -8v-184l-8 -8h-184l-8 8v184zM1028 404h184l8 -8v-184l-8 -8h-184l-8 8v184zM1436 404h184l8 -8v-184l-8 -8h-184l-8 8v184zM8 200h184l8 -8v-184l-8 -8h-184l-8 8v184zM212 200h184l8 -8v-184l-8 -8h-184
l-8 8v184zM416 200h184l8 -8v-184l-8 -8h-184l-8 8v184zM620 200h184l8 -8v-184l-8 -8h-184l-8 8v184zM824 200h184l8 -8v-184l-8 -8h-184l-8 8v184zM1028 200h184l8 -8v-184l-8 -8h-184l-8 8v184zM1232 200h184l8 -8v-184l-8 -8h-184l-8 8v184zM1436 200h184l8 -8v-184
l-8 -8h-184l-8 8v184z" />
    <glyph glyph-name="uFED4" unicode="&#x641;" horiz-adv-x="1626" arabic-form="medial" 
d="M1232 1016h184l8 -8v-184l-8 -8h-184l-8 8v184zM1232 608h184l8 -8v-184l-8 -8h-184l-8 8v184zM1028 404h184l8 -8v-184l-8 -8h-184l-8 8v184zM1436 404h184l8 -8v-184l-8 -8h-184l-8 8v184zM8 200h184l8 -8v-184l-8 -8h-184l-8 8v184zM212 200h184l8 -8v-184l-8 -8h-184
l-8 8v184zM416 200h184l8 -8v-184l-8 -8h-184l-8 8v184zM620 200h184l8 -8v-184l-8 -8h-184l-8 8v184zM824 200h184l8 -8v-184l-8 -8h-184l-8 8v184zM1028 200h184l8 -8v-184l-8 -8h-184l-8 8v184zM1232 200h184l8 -8v-184l-8 -8h-184l-8 8v184zM1436 200h184l8 -8v-184
l-8 -8h-184l-8 8v184z" />
    <glyph glyph-name="uFED6" unicode="&#x642;" horiz-adv-x="1622" arabic-form="final" 
d="M1024 1018h184l8 -8v-184l-8 -8h-184l-8 8v184zM1432 1018h184l8 -8v-184l-8 -8h-184l-8 8v184zM1228 610h184l8 -8v-184l-8 -8h-184l-8 8v184zM1024 406h184l8 -8v-184l-8 -8h-184l-8 8v184zM1432 406h184l8 -8v-184l-8 -8h-184l-8 8v184zM208 202h184l8 -8v-184l-8 -8
h-184l-8 8v184zM1024 202h184l8 -8v-184l-8 -8h-184l-8 8v184zM1228 202h184l8 -8v-184l-8 -8h-184l-8 8v184zM1432 202h184l8 -8v-184l-8 -8h-184l-8 8v184zM208 -2h184l8 -8v-184l-8 -8h-184l-8 8v184zM1432 -2h184l8 -8v-184l-8 -8h-184l-8 8v184zM208 -206h184l8 -8
v-184l-8 -8h-184l-8 8v184zM1432 -206h184l8 -8v-184l-8 -8h-184l-8 8v184zM412 -410h184l8 -8v-184l-8 -8h-184l-8 8v184zM616 -410h184l8 -8v-184l-8 -8h-184l-8 8v184zM820 -410h184l8 -8v-184l-8 -8h-184l-8 8v184zM1024 -410h184l8 -8v-184l-8 -8h-184l-8 8v184z
M1228 -410h184l8 -8v-184l-8 -8h-184l-8 8v184z" />
    <glyph glyph-name="uFED7" unicode="&#x642;" arabic-form="initial" 
d="M1028 1016h184l8 -8v-184l-8 -8h-184l-8 8v184zM1436 1016h184l8 -8v-184l-8 -8h-184l-8 8v184zM1232 608h184l8 -8v-184l-8 -8h-184l-8 8v184zM1028 404h184l8 -8v-184l-8 -8h-184l-8 8v184zM1436 404h184l8 -8v-184l-8 -8h-184l-8 8v184zM8 200h184l8 -8v-184l-8 -8
h-184l-8 8v184zM212 200h184l8 -8v-184l-8 -8h-184l-8 8v184zM416 200h184l8 -8v-184l-8 -8h-184l-8 8v184zM620 200h184l8 -8v-184l-8 -8h-184l-8 8v184zM824 200h184l8 -8v-184l-8 -8h-184l-8 8v184zM1028 200h184l8 -8v-184l-8 -8h-184l-8 8v184zM1232 200h184l8 -8v-184
l-8 -8h-184l-8 8v184zM1436 200h184l8 -8v-184l-8 -8h-184l-8 8v184z" />
    <glyph glyph-name="uFED8" unicode="&#x642;" arabic-form="medial" 
d="M1028 1016h184l8 -8v-184l-8 -8h-184l-8 8v184zM1436 1016h184l8 -8v-184l-8 -8h-184l-8 8v184zM1232 608h184l8 -8v-184l-8 -8h-184l-8 8v184zM1028 404h184l8 -8v-184l-8 -8h-184l-8 8v184zM1436 404h184l8 -8v-184l-8 -8h-184l-8 8v184zM8 200h184l8 -8v-184l-8 -8
h-184l-8 8v184zM212 200h184l8 -8v-184l-8 -8h-184l-8 8v184zM416 200h184l8 -8v-184l-8 -8h-184l-8 8v184zM620 200h184l8 -8v-184l-8 -8h-184l-8 8v184zM824 200h184l8 -8v-184l-8 -8h-184l-8 8v184zM1028 200h184l8 -8v-184l-8 -8h-184l-8 8v184zM1232 200h184l8 -8v-184
l-8 -8h-184l-8 8v184zM1436 200h184l8 -8v-184l-8 -8h-184l-8 8v184z" />
    <glyph glyph-name="uFEDE" unicode="&#x644;" arabic-form="final" 
d="M1438 1018h184l8 -8v-184l-8 -8h-184l-8 8v184zM1438 814h184l8 -8v-184l-8 -8h-184l-8 8v184zM1438 610h184l8 -8v-184l-8 -8h-184l-8 8v184zM1438 406h184l8 -8v-184l-8 -8h-184l-8 8v184zM418 202h184l8 -8v-184l-8 -8h-184l-8 8v184zM1438 202h184l8 -8v-184l-8 -8
h-184l-8 8v184zM418 -2h184l8 -8v-184l-8 -8h-184l-8 8v184zM1438 -2h184l8 -8v-184l-8 -8h-184l-8 8v184zM418 -206h184l8 -8v-184l-8 -8h-184l-8 8v184zM1438 -206h184l8 -8v-184l-8 -8h-184l-8 8v184zM622 -410h184l8 -8v-184l-8 -8h-184l-8 8v184zM826 -410h184l8 -8
v-184l-8 -8h-184l-8 8v184zM1030 -410h184l8 -8v-184l-8 -8h-184l-8 8v184zM1234 -410h184l8 -8v-184l-8 -8h-184l-8 8v184z" />
    <glyph glyph-name="uFEDF" unicode="&#x644;" horiz-adv-x="1630" arabic-form="initial" 
d="M1436 1016h184l8 -8v-184l-8 -8h-184l-8 8v184zM1436 812h184l8 -8v-184l-8 -8h-184l-8 8v184zM1436 608h184l8 -8v-184l-8 -8h-184l-8 8v184zM1436 404h184l8 -8v-184l-8 -8h-184l-8 8v184zM8 200h184l8 -8v-184l-8 -8h-184l-8 8v184zM212 200h184l8 -8v-184l-8 -8h-184
l-8 8v184zM416 200h184l8 -8v-184l-8 -8h-184l-8 8v184zM620 200h184l8 -8v-184l-8 -8h-184l-8 8v184zM824 200h184l8 -8v-184l-8 -8h-184l-8 8v184zM1028 200h184l8 -8v-184l-8 -8h-184l-8 8v184zM1232 200h184l8 -8v-184l-8 -8h-184l-8 8v184zM1436 200h184l8 -8v-184
l-8 -8h-184l-8 8v184z" />
    <glyph glyph-name="uFEE0" unicode="&#x644;" horiz-adv-x="1630" arabic-form="medial" 
d="M1436 1016h184l8 -8v-184l-8 -8h-184l-8 8v184zM1436 812h184l8 -8v-184l-8 -8h-184l-8 8v184zM1436 608h184l8 -8v-184l-8 -8h-184l-8 8v184zM1436 404h184l8 -8v-184l-8 -8h-184l-8 8v184zM8 200h184l8 -8v-184l-8 -8h-184l-8 8v184zM212 200h184l8 -8v-184l-8 -8h-184
l-8 8v184zM416 200h184l8 -8v-184l-8 -8h-184l-8 8v184zM620 200h184l8 -8v-184l-8 -8h-184l-8 8v184zM824 200h184l8 -8v-184l-8 -8h-184l-8 8v184zM1028 200h184l8 -8v-184l-8 -8h-184l-8 8v184zM1232 200h184l8 -8v-184l-8 -8h-184l-8 8v184zM1436 200h184l8 -8v-184
l-8 -8h-184l-8 8v184z" />
    <glyph glyph-name="uFEE2" unicode="&#x645;" horiz-adv-x="1630" arabic-form="final" 
d="M1230 610h184l8 -8v-184l-8 -8h-184l-8 8v184zM1026 406h184l8 -8v-184l-8 -8h-184l-8 8v184zM1230 406h184l8 -8v-184l-8 -8h-184l-8 8v184zM1434 406h184l8 -8v-184l-8 -8h-184l-8 8v184zM822 202h184l8 -8v-184l-8 -8h-184l-8 8v184zM1026 202h184l8 -8v-184l-8 -8
h-184l-8 8v184zM1230 202h184l8 -8v-184l-8 -8h-184l-8 8v184zM618 -2h184l8 -8v-184l-8 -8h-184l-8 8v184zM618 -206h184l8 -8v-184l-8 -8h-184l-8 8v184zM618 -410h184l8 -8v-184l-8 -8h-184l-8 8v184z" />
    <glyph glyph-name="uFEE3" unicode="&#x645;" horiz-adv-x="1630" arabic-form="initial" 
d="M1232 398h184l8 -8v-184l-8 -8h-184l-8 8v184zM1436 398h184l8 -8v-184l-8 -8h-184l-8 8v184zM8 194h184l8 -8v-184l-8 -8h-184l-8 8v184zM212 194h184l8 -8v-184l-8 -8h-184l-8 8v184zM416 194h184l8 -8v-184l-8 -8h-184l-8 8v184zM620 194h184l8 -8v-184l-8 -8h-184
l-8 8v184zM824 194h184l8 -8v-184l-8 -8h-184l-8 8v184zM1028 194h184l8 -8v-184l-8 -8h-184l-8 8v184zM1436 194h184l8 -8v-184l-8 -8h-184l-8 8v184zM1028 -10h184l8 -8v-184l-8 -8h-184l-8 8v184zM1232 -10h184l8 -8v-184l-8 -8h-184l-8 8v184zM1436 -10h184l8 -8v-184
l-8 -8h-184l-8 8v184z" />
    <glyph glyph-name="uFEE4" unicode="&#x645;" horiz-adv-x="1630" arabic-form="medial" 
d="M1232 398h184l8 -8v-184l-8 -8h-184l-8 8v184zM1436 398h184l8 -8v-184l-8 -8h-184l-8 8v184zM8 194h184l8 -8v-184l-8 -8h-184l-8 8v184zM212 194h184l8 -8v-184l-8 -8h-184l-8 8v184zM416 194h184l8 -8v-184l-8 -8h-184l-8 8v184zM620 194h184l8 -8v-184l-8 -8h-184
l-8 8v184zM824 194h184l8 -8v-184l-8 -8h-184l-8 8v184zM1028 194h184l8 -8v-184l-8 -8h-184l-8 8v184zM1436 194h184l8 -8v-184l-8 -8h-184l-8 8v184zM1028 -10h184l8 -8v-184l-8 -8h-184l-8 8v184zM1232 -10h184l8 -8v-184l-8 -8h-184l-8 8v184zM1436 -10h184l8 -8v-184
l-8 -8h-184l-8 8v184z" />
    <glyph glyph-name="uFEE6" unicode="&#x646;" horiz-adv-x="1626" arabic-form="final" 
d="M816 610h184l8 -8v-184l-8 -8h-184l-8 8v184zM408 202h184l8 -8v-184l-8 -8h-184l-8 8v184zM1428 202h184l8 -8v-184l-8 -8h-184l-8 8v184zM408 -2h184l8 -8v-184l-8 -8h-184l-8 8v184zM1428 -2h184l8 -8v-184l-8 -8h-184l-8 8v184zM408 -206h184l8 -8v-184l-8 -8h-184
l-8 8v184zM1428 -206h184l8 -8v-184l-8 -8h-184l-8 8v184zM612 -410h184l8 -8v-184l-8 -8h-184l-8 8v184zM816 -410h184l8 -8v-184l-8 -8h-184l-8 8v184zM1020 -410h184l8 -8v-184l-8 -8h-184l-8 8v184zM1224 -410h184l8 -8v-184l-8 -8h-184l-8 8v184z" />
    <glyph glyph-name="uFEE7" unicode="&#x646;" horiz-adv-x="1626" arabic-form="initial" 
d="M824 812h184l8 -8v-184l-8 -8h-184l-8 8v184zM1436 608h184l8 -8v-184l-8 -8h-184l-8 8v184zM1436 404h184l8 -8v-184l-8 -8h-184l-8 8v184zM8 200h184l8 -8v-184l-8 -8h-184l-8 8v184zM212 200h184l8 -8v-184l-8 -8h-184l-8 8v184zM416 200h184l8 -8v-184l-8 -8h-184
l-8 8v184zM620 200h184l8 -8v-184l-8 -8h-184l-8 8v184zM824 200h184l8 -8v-184l-8 -8h-184l-8 8v184zM1028 200h184l8 -8v-184l-8 -8h-184l-8 8v184zM1232 200h184l8 -8v-184l-8 -8h-184l-8 8v184zM1436 200h184l8 -8v-184l-8 -8h-184l-8 8v184z" />
    <glyph glyph-name="uFEE8" unicode="&#x646;" horiz-adv-x="1626" arabic-form="medial" 
d="M824 812h184l8 -8v-184l-8 -8h-184l-8 8v184zM1436 608h184l8 -8v-184l-8 -8h-184l-8 8v184zM1436 404h184l8 -8v-184l-8 -8h-184l-8 8v184zM8 200h184l8 -8v-184l-8 -8h-184l-8 8v184zM212 200h184l8 -8v-184l-8 -8h-184l-8 8v184zM416 200h184l8 -8v-184l-8 -8h-184
l-8 8v184zM620 200h184l8 -8v-184l-8 -8h-184l-8 8v184zM824 200h184l8 -8v-184l-8 -8h-184l-8 8v184zM1028 200h184l8 -8v-184l-8 -8h-184l-8 8v184zM1232 200h184l8 -8v-184l-8 -8h-184l-8 8v184zM1436 200h184l8 -8v-184l-8 -8h-184l-8 8v184z" />
    <glyph glyph-name="uFEEA" unicode="&#x647;" arabic-form="final" 
d="M1236 812h184l8 -8v-184l-8 -8h-184l-8 8v184zM1032 608h184l8 -8v-184l-8 -8h-184l-8 8v184zM1440 608h184l8 -8v-184l-8 -8h-184l-8 8v184zM828 404h184l8 -8v-184l-8 -8h-184l-8 8v184zM1440 404h184l8 -8v-184l-8 -8h-184l-8 8v184zM828 200h184l8 -8v-184l-8 -8
h-184l-8 8v184zM1032 200h184l8 -8v-184l-8 -8h-184l-8 8v184zM1236 200h184l8 -8v-184l-8 -8h-184l-8 8v184zM1440 200h184l8 -8v-184l-8 -8h-184l-8 8v184z" />
    <glyph glyph-name="uFEEB" unicode="&#x647;" horiz-adv-x="1630" arabic-form="initial" 
d="M824 1016h184l8 -8v-184l-8 -8h-184l-8 8v184zM620 812h184l8 -8v-184l-8 -8h-184l-8 8v184zM1028 812h184l8 -8v-184l-8 -8h-184l-8 8v184zM416 608h184l8 -8v-184l-8 -8h-184l-8 8v184zM1028 608h184l8 -8v-184l-8 -8h-184l-8 8v184zM1232 608h184l8 -8v-184l-8 -8
h-184l-8 8v184zM620 404h184l8 -8v-184l-8 -8h-184l-8 8v184zM824 404h184l8 -8v-184l-8 -8h-184l-8 8v184zM1436 404h184l8 -8v-184l-8 -8h-184l-8 8v184zM8 200h184l8 -8v-184l-8 -8h-184l-8 8v184zM212 200h184l8 -8v-184l-8 -8h-184l-8 8v184zM416 200h184l8 -8v-184
l-8 -8h-184l-8 8v184zM620 200h184l8 -8v-184l-8 -8h-184l-8 8v184zM1028 200h184l8 -8v-184l-8 -8h-184l-8 8v184zM1232 200h184l8 -8v-184l-8 -8h-184l-8 8v184zM1436 200h184l8 -8v-184l-8 -8h-184l-8 8v184z" />
    <glyph glyph-name="uFEEC" unicode="&#x647;" horiz-adv-x="1630" arabic-form="medial" 
d="M620 606h184l8 -8v-184l-8 -8h-184l-8 8v184zM416 402h184l8 -8v-184l-8 -8h-184l-8 8v184zM824 402h184l8 -8v-184l-8 -8h-184l-8 8v184zM8 198h184l8 -8v-184l-8 -8h-184l-8 8v184zM212 198h184l8 -8v-184l-8 -8h-184l-8 8v184zM416 198h184l8 -8v-184l-8 -8h-184l-8 8
v184zM620 198h184l8 -8v-184l-8 -8h-184l-8 8v184zM824 198h184l8 -8v-184l-8 -8h-184l-8 8v184zM1028 198h184l8 -8v-184l-8 -8h-184l-8 8v184zM1232 198h184l8 -8v-184l-8 -8h-184l-8 8v184zM1436 198h184l8 -8v-184l-8 -8h-184l-8 8v184zM620 -6h184l8 -8v-184l-8 -8
h-184l-8 8v184zM1028 -6h184l8 -8v-184l-8 -8h-184l-8 8v184zM824 -210h184l8 -8v-184l-8 -8h-184l-8 8v184z" />
    <glyph glyph-name="uFEEE" unicode="&#x648;" horiz-adv-x="1630" arabic-form="final" 
d="M1230 610h184l8 -8v-184l-8 -8h-184l-8 8v184zM1026 406h184l8 -8v-184l-8 -8h-184l-8 8v184zM1434 406h184l8 -8v-184l-8 -8h-184l-8 8v184zM1230 202h184l8 -8v-184l-8 -8h-184l-8 8v184zM1434 202h184l8 -8v-184l-8 -8h-184l-8 8v184zM1230 -2h184l8 -8v-184l-8 -8
h-184l-8 8v184zM618 -206h184l8 -8v-184l-8 -8h-184l-8 8v184zM1026 -206h184l8 -8v-184l-8 -8h-184l-8 8v184zM822 -410h184l8 -8v-184l-8 -8h-184l-8 8v184z" />
    <glyph glyph-name="uFEF0" unicode="&#x649;" horiz-adv-x="1626" arabic-form="final" 
d="M8 202h184l8 -8v-184l-8 -8h-184l-8 8v184zM1028 202h184l8 -8v-184l-8 -8h-184l-8 8v184zM1232 202h184l8 -8v-184l-8 -8h-184l-8 8v184zM1436 202h184l8 -8v-184l-8 -8h-184l-8 8v184zM8 -2h184l8 -8v-184l-8 -8h-184l-8 8v184zM824 -2h184l8 -8v-184l-8 -8h-184l-8 8
v184zM8 -206h184l8 -8v-184l-8 -8h-184l-8 8v184zM1028 -206h184l8 -8v-184l-8 -8h-184l-8 8v184zM212 -410h184l8 -8v-184l-8 -8h-184l-8 8v184zM416 -410h184l8 -8v-184l-8 -8h-184l-8 8v184zM620 -410h184l8 -8v-184l-8 -8h-184l-8 8v184zM824 -410h184l8 -8v-184l-8 -8
h-184l-8 8v184zM1028 -410h184l8 -8v-184l-8 -8h-184l-8 8v184z" />
    <glyph glyph-name=".notdef" horiz-adv-x="1024" 
d="M128 0v1215h768v-1215h-768zM256 128h512v959h-512v-959z" />
    <glyph glyph-name="space" unicode=" " horiz-adv-x="400" 
 />
    <glyph glyph-name="exclam" unicode="!" horiz-adv-x="1639" 
d="M708 1016h184l8 -8v-184l-8 -8h-184l-8 8v184zM708 812h184l8 -8v-184l-8 -8h-184l-8 8v184zM708 608h184l8 -8v-184l-8 -8h-184l-8 8v184zM708 200h184l8 -8v-184l-8 -8h-184l-8 8v184z" />
    <glyph glyph-name="percent" unicode="%" horiz-adv-x="1639" 
d="M512 1016h184l8 -8v-184l-8 -8h-184l-8 8v184zM1124 1016h184l8 -8v-184l-8 -8h-184l-8 8v184zM920 812h184l8 -8v-184l-8 -8h-184l-8 8v184zM716 608h184l8 -8v-184l-8 -8h-184l-8 8v184zM512 404h184l8 -8v-184l-8 -8h-184l-8 8v184zM308 200h184l8 -8v-184l-8 -8h-184
l-8 8v184zM920 200h184l8 -8v-184l-8 -8h-184l-8 8v184z" />
    <glyph glyph-name="parenleft" unicode="(" horiz-adv-x="1639" 
d="M812 1220h184l8 -8v-184l-8 -8h-184l-8 8v184zM608 1016h184l8 -8v-184l-8 -8h-184l-8 8v184zM608 812h184l8 -8v-184l-8 -8h-184l-8 8v184zM608 608h184l8 -8v-184l-8 -8h-184l-8 8v184zM608 404h184l8 -8v-184l-8 -8h-184l-8 8v184zM812 200h184l8 -8v-184l-8 -8h-184
l-8 8v184z" />
    <glyph glyph-name="parenright" unicode=")" horiz-adv-x="1639" 
d="M800 1212v-184l-8 -8h-184l-8 8v184l8 8h184zM1004 1008v-184l-8 -8h-184l-8 8v184l8 8h184zM1004 804v-184l-8 -8h-184l-8 8v184l8 8h184zM1004 600v-184l-8 -8h-184l-8 8v184l8 8h184zM1004 396v-184l-8 -8h-184l-8 8v184l8 8h184zM800 192v-184l-8 -8h-184l-8 8v184
l8 8h184z" />
    <glyph glyph-name="asterisk" unicode="*" horiz-adv-x="1639" 
d="M716 820h184l8 -8v-184l-8 -8h-184l-8 8v184zM308 616h184l8 -8v-184l-8 -8h-184l-8 8v184zM716 616h184l8 -8v-184l-8 -8h-184l-8 8v184zM1124 616h184l8 -8v-184l-8 -8h-184l-8 8v184zM512 412h184l8 -8v-184l-8 -8h-184l-8 8v184zM716 412h184l8 -8v-184l-8 -8h-184
l-8 8v184zM920 412h184l8 -8v-184l-8 -8h-184l-8 8v184zM512 208h184l8 -8v-184l-8 -8h-184l-8 8v184zM716 208h184l8 -8v-184l-8 -8h-184l-8 8v184zM920 208h184l8 -8v-184l-8 -8h-184l-8 8v184zM308 4h184l8 -8v-184l-8 -8h-184l-8 8v184zM716 4h184l8 -8v-184l-8 -8h-184
l-8 8v184zM1124 4h184l8 -8v-184l-8 -8h-184l-8 8v184zM716 -200h184l8 -8v-184l-8 -8h-184l-8 8v184z" />
    <glyph glyph-name="plus" unicode="+" horiz-adv-x="1639" 
d="M716 606h184l8 -8v-184l-8 -8h-184l-8 8v184zM716 402h184l8 -8v-184l-8 -8h-184l-8 8v184zM308 198h184l8 -8v-184l-8 -8h-184l-8 8v184zM512 198h184l8 -8v-184l-8 -8h-184l-8 8v184zM716 198h184l8 -8v-184l-8 -8h-184l-8 8v184zM920 198h184l8 -8v-184l-8 -8h-184
l-8 8v184zM1124 198h184l8 -8v-184l-8 -8h-184l-8 8v184zM716 -6h184l8 -8v-184l-8 -8h-184l-8 8v184zM716 -210h184l8 -8v-184l-8 -8h-184l-8 8v184z" />
    <glyph glyph-name="comma" unicode="," horiz-adv-x="512" 
 />
    <glyph glyph-name="hyphen" unicode="-" 
d="M312 200h184l8 -8v-184l-8 -8h-184l-8 8v184zM516 200h184l8 -8v-184l-8 -8h-184l-8 8v184zM720 200h184l8 -8v-184l-8 -8h-184l-8 8v184zM924 200h184l8 -8v-184l-8 -8h-184l-8 8v184zM1128 200h184l8 -8v-184l-8 -8h-184l-8 8v184z" />
    <glyph glyph-name="period" unicode="." horiz-adv-x="1639" 
d="M916 200h184l8 -8v-184l-8 -8h-184l-8 8v184z" />
    <glyph glyph-name="slash" unicode="/" horiz-adv-x="1639" 
d="M1124 1016h184l8 -8v-184l-8 -8h-184l-8 8v184zM920 812h184l8 -8v-184l-8 -8h-184l-8 8v184zM716 608h184l8 -8v-184l-8 -8h-184l-8 8v184zM512 404h184l8 -8v-184l-8 -8h-184l-8 8v184zM308 200h184l8 -8v-184l-8 -8h-184l-8 8v184z" />
    <glyph glyph-name="zero" unicode="0" horiz-adv-x="1639" 
d="M508 608h184l8 -8v-184l-8 -8h-184l-8 8v184zM712 608h184l8 -8v-184l-8 -8h-184l-8 8v184zM916 608h184l8 -8v-184l-8 -8h-184l-8 8v184zM508 404h184l8 -8v-184l-8 -8h-184l-8 8v184zM916 404h184l8 -8v-184l-8 -8h-184l-8 8v184zM508 200h184l8 -8v-184l-8 -8h-184
l-8 8v184zM712 200h184l8 -8v-184l-8 -8h-184l-8 8v184zM916 200h184l8 -8v-184l-8 -8h-184l-8 8v184z" />
    <glyph glyph-name="zero" unicode="&#x6f0;" horiz-adv-x="1639" 
d="M508 608h184l8 -8v-184l-8 -8h-184l-8 8v184zM712 608h184l8 -8v-184l-8 -8h-184l-8 8v184zM916 608h184l8 -8v-184l-8 -8h-184l-8 8v184zM508 404h184l8 -8v-184l-8 -8h-184l-8 8v184zM916 404h184l8 -8v-184l-8 -8h-184l-8 8v184zM508 200h184l8 -8v-184l-8 -8h-184
l-8 8v184zM712 200h184l8 -8v-184l-8 -8h-184l-8 8v184zM916 200h184l8 -8v-184l-8 -8h-184l-8 8v184z" />
    <glyph glyph-name="zero" unicode="&#x660;" horiz-adv-x="1639" 
d="M508 608h184l8 -8v-184l-8 -8h-184l-8 8v184zM712 608h184l8 -8v-184l-8 -8h-184l-8 8v184zM916 608h184l8 -8v-184l-8 -8h-184l-8 8v184zM508 404h184l8 -8v-184l-8 -8h-184l-8 8v184zM916 404h184l8 -8v-184l-8 -8h-184l-8 8v184zM508 200h184l8 -8v-184l-8 -8h-184
l-8 8v184zM712 200h184l8 -8v-184l-8 -8h-184l-8 8v184zM916 200h184l8 -8v-184l-8 -8h-184l-8 8v184z" />
    <glyph glyph-name="one" unicode="1" horiz-adv-x="1639" 
d="M708 1016h184l8 -8v-184l-8 -8h-184l-8 8v184zM708 812h184l8 -8v-184l-8 -8h-184l-8 8v184zM708 608h184l8 -8v-184l-8 -8h-184l-8 8v184zM708 404h184l8 -8v-184l-8 -8h-184l-8 8v184zM708 200h184l8 -8v-184l-8 -8h-184l-8 8v184z" />
    <glyph glyph-name="one" unicode="&#x6f1;" horiz-adv-x="1639" 
d="M708 1016h184l8 -8v-184l-8 -8h-184l-8 8v184zM708 812h184l8 -8v-184l-8 -8h-184l-8 8v184zM708 608h184l8 -8v-184l-8 -8h-184l-8 8v184zM708 404h184l8 -8v-184l-8 -8h-184l-8 8v184zM708 200h184l8 -8v-184l-8 -8h-184l-8 8v184z" />
    </font>
</defs>
</svg>
